  0
SECTION
  2
HEADER
  9
$ACADVER
  1
AC1015
  9
$ACADMAINTVER
 70
     6
  9
$DWGCODEPAGE
  3
ANSI_1252
  9
$INSBASE
 10
0.0
 20
0.0
 30
0.0
  9
$EXTMIN
 10
-7302.658574262405
 20
-6238.357351552781
 30
-952.3291750307757
  9
$EXTMAX
 10
47.84925633932397
 20
4157.530920558736
 30
1845.659582246934
  9
$LIMMIN
 10
0.0
 20
0.0
  9
$LIMMAX
 10
420.0
 20
297.0
  9
$ORTHOMODE
 70
     0
  9
$REGENMODE
 70
     1
  9
$FILLMODE
 70
     1
  9
$QTEXTMODE
 70
     0
  9
$MIRRTEXT
 70
     0
  9
$LTSCALE
 40
1.0
  9
$ATTMODE
 70
     1
  9
$TEXTSIZE
 40
2.5
  9
$TRACEWID
 40
1.0
  9
$TEXTSTYLE
  7
Standard
  9
$CLAYER
  8
0
  9
$CELTYPE
  6
ByLayer
  9
$CECOLOR
 62
   256
  9
$CELTSCALE
 40
1.0
  9
$DISPSILH
 70
     0
  9
$DIMSCALE
 40
1.0
  9
$DIMASZ
 40
2.5
  9
$DIMEXO
 40
0.625
  9
$DIMDLI
 40
3.75
  9
$DIMRND
 40
0.0
  9
$DIMDLE
 40
0.0
  9
$DIMEXE
 40
1.25
  9
$DIMTP
 40
0.0
  9
$DIMTM
 40
0.0
  9
$DIMTXT
 40
2.5
  9
$DIMCEN
 40
2.5
  9
$DIMTSZ
 40
0.0
  9
$DIMTOL
 70
     0
  9
$DIMLIM
 70
     0
  9
$DIMTIH
 70
     0
  9
$DIMTOH
 70
     0
  9
$DIMSE1
 70
     0
  9
$DIMSE2
 70
     0
  9
$DIMTAD
 70
     1
  9
$DIMZIN
 70
     8
  9
$DIMBLK
  1

  9
$DIMASO
 70
     1
  9
$DIMSHO
 70
     1
  9
$DIMPOST
  1

  9
$DIMAPOST
  1

  9
$DIMALT
 70
     0
  9
$DIMALTD
 70
     3
  9
$DIMALTF
 40
0.03937007874016
  9
$DIMLFAC
 40
1.0
  9
$DIMTOFL
 70
     1
  9
$DIMTVP
 40
0.0
  9
$DIMTIX
 70
     0
  9
$DIMSOXD
 70
     0
  9
$DIMSAH
 70
     0
  9
$DIMBLK1
  1

  9
$DIMBLK2
  1

  9
$DIMSTYLE
  2
ISO-25
  9
$DIMCLRD
 70
     0
  9
$DIMCLRE
 70
     0
  9
$DIMCLRT
 70
     0
  9
$DIMTFAC
 40
1.0
  9
$DIMGAP
 40
0.625
  9
$DIMJUST
 70
     0
  9
$DIMSD1
 70
     0
  9
$DIMSD2
 70
     0
  9
$DIMTOLJ
 70
     0
  9
$DIMTZIN
 70
     8
  9
$DIMALTZ
 70
     0
  9
$DIMALTTZ
 70
     0
  9
$DIMUPT
 70
     0
  9
$DIMDEC
 70
     2
  9
$DIMTDEC
 70
     2
  9
$DIMALTU
 70
     2
  9
$DIMALTTD
 70
     3
  9
$DIMTXSTY
  7
Standard
  9
$DIMAUNIT
 70
     0
  9
$DIMADEC
 70
     0
  9
$DIMALTRND
 40
0.0
  9
$DIMAZIN
 70
     0
  9
$DIMDSEP
 70
    44
  9
$DIMATFIT
 70
     3
  9
$DIMFRAC
 70
     0
  9
$DIMLDRBLK
  1

  9
$DIMLUNIT
 70
     2
  9
$DIMLWD
 70
    -2
  9
$DIMLWE
 70
    -2
  9
$DIMTMOVE
 70
     0
  9
$LUNITS
 70
     2
  9
$LUPREC
 70
     4
  9
$SKETCHINC
 40
1.0
  9
$FILLETRAD
 40
0.0
  9
$AUNITS
 70
     0
  9
$AUPREC
 70
     0
  9
$MENU
  1
.
  9
$ELEVATION
 40
0.0
  9
$PELEVATION
 40
0.0
  9
$THICKNESS
 40
0.0
  9
$LIMCHECK
 70
     0
  9
$CHAMFERA
 40
0.0
  9
$CHAMFERB
 40
0.0
  9
$CHAMFERC
 40
0.0
  9
$CHAMFERD
 40
0.0
  9
$SKPOLY
 70
     0
  9
$TDCREATE
 40
2453566.727893692
  9
$TDUCREATE
 40
2453566.686227025
  9
$TDUPDATE
 40
2460396.619865914
  9
$TDUUPDATE
 40
2460396.578199248
  9
$TDINDWG
 40
0.1137312731
  9
$TDUSRTIMER
 40
0.1137310995
  9
$USRTIMER
 70
     1
  9
$ANGBASE
 50
0.0
  9
$ANGDIR
 70
     0
  9
$PDMODE
 70
     0
  9
$PDSIZE
 40
0.0
  9
$PLINEWID
 40
0.0
  9
$SPLFRAME
 70
     0
  9
$SPLINETYPE
 70
     6
  9
$SPLINESEGS
 70
     8
  9
$HANDSEED
  5
E91
  9
$SURFTAB1
 70
     6
  9
$SURFTAB2
 70
     6
  9
$SURFTYPE
 70
     6
  9
$SURFU
 70
     6
  9
$SURFV
 70
     6
  9
$UCSBASE
  2

  9
$UCSNAME
  2

  9
$UCSORG
 10
0.0
 20
0.0
 30
0.0
  9
$UCSXDIR
 10
1.0
 20
0.0
 30
0.0
  9
$UCSYDIR
 10
0.0
 20
1.0
 30
0.0
  9
$UCSORTHOREF
  2

  9
$UCSORTHOVIEW
 70
     0
  9
$UCSORGTOP
 10
0.0
 20
0.0
 30
0.0
  9
$UCSORGBOTTOM
 10
0.0
 20
0.0
 30
0.0
  9
$UCSORGLEFT
 10
0.0
 20
0.0
 30
0.0
  9
$UCSORGRIGHT
 10
0.0
 20
0.0
 30
0.0
  9
$UCSORGFRONT
 10
0.0
 20
0.0
 30
0.0
  9
$UCSORGBACK
 10
0.0
 20
0.0
 30
0.0
  9
$PUCSBASE
  2

  9
$PUCSNAME
  2

  9
$PUCSORG
 10
0.0
 20
0.0
 30
0.0
  9
$PUCSXDIR
 10
1.0
 20
0.0
 30
0.0
  9
$PUCSYDIR
 10
0.0
 20
1.0
 30
0.0
  9
$PUCSORTHOREF
  2

  9
$PUCSORTHOVIEW
 70
     0
  9
$PUCSORGTOP
 10
0.0
 20
0.0
 30
0.0
  9
$PUCSORGBOTTOM
 10
0.0
 20
0.0
 30
0.0
  9
$PUCSORGLEFT
 10
0.0
 20
0.0
 30
0.0
  9
$PUCSORGRIGHT
 10
0.0
 20
0.0
 30
0.0
  9
$PUCSORGFRONT
 10
0.0
 20
0.0
 30
0.0
  9
$PUCSORGBACK
 10
0.0
 20
0.0
 30
0.0
  9
$USERI1
 70
     0
  9
$USERI2
 70
     0
  9
$USERI3
 70
     0
  9
$USERI4
 70
     0
  9
$USERI5
 70
     0
  9
$USERR1
 40
0.0
  9
$USERR2
 40
0.0
  9
$USERR3
 40
0.0
  9
$USERR4
 40
0.0
  9
$USERR5
 40
0.0
  9
$WORLDVIEW
 70
     1
  9
$SHADEDGE
 70
     3
  9
$SHADEDIF
 70
    70
  9
$TILEMODE
 70
     1
  9
$MAXACTVP
 70
    64
  9
$PINSBASE
 10
0.0
 20
0.0
 30
0.0
  9
$PLIMCHECK
 70
     0
  9
$PEXTMIN
 10
26.66999878883362
 20
20.31999878883363
 30
0.0
  9
$PEXTMAX
 10
240.0299890995026
 20
182.8799890995026
 30
0.0
  9
$PLIMMIN
 10
-6.350006103515625
 20
-6.349999904632568
  9
$PLIMMAX
 10
273.0499877929688
 20
209.5499939918518
  9
$UNITMODE
 70
     0
  9
$VISRETAIN
 70
     1
  9
$PLINEGEN
 70
     0
  9
$PSLTSCALE
 70
     1
  9
$TREEDEPTH
 70
  3020
  9
$CMLSTYLE
  2
Standard
  9
$CMLJUST
 70
     0
  9
$CMLSCALE
 40
20.0
  9
$PROXYGRAPHICS
 70
     1
  9
$MEASUREMENT
 70
     1
  9
$CELWEIGHT
370
    -1
  9
$ENDCAPS
280
     0
  9
$JOINSTYLE
280
     0
  9
$LWDISPLAY
290
     0
  9
$INSUNITS
 70
     4
  9
$HYPERLINKBASE
  1

  9
$STYLESHEET
  1

  9
$XEDIT
290
     1
  9
$CEPSNTYPE
380
     0
  9
$PSTYLEMODE
290
     1
  9
$FINGERPRINTGUID
  2
{FDEAD578-A652-11D2-9A35-0060089B3A3F}
  9
$VERSIONGUID
  2
{1CAB7627-B23F-4E0F-AB7E-3D00660FCAFF}
  9
$EXTNAMES
290
     1
  9
$PSVPSCALE
 40
0.0
  9
$OLESTARTUP
290
     0
  0
ENDSEC
  0
SECTION
  2
CLASSES
  0
CLASS
  1
ACDBDICTIONARYWDFLT
  2
AcDbDictionaryWithDefault
  3
ObjectDBX Classes
 90
        0
280
     0
281
     0
  0
CLASS
  1
DICTIONARYVAR
  2
AcDbDictionaryVar
  3
ObjectDBX Classes
 90
        0
280
     0
281
     0
  0
CLASS
  1
DIMASSOC
  2
AcDbDimAssoc
  3
"AcDbDimAssoc|Product Desc:     AcDim ARX App For Dimension|Company:          Autodesk, Inc.|WEB Address:      www.autodesk.com"
 90
        0
280
     0
281
     0
  0
CLASS
  1
SORTENTSTABLE
  2
AcDbSortentsTable
  3
ObjectDBX Classes
 90
        0
280
     0
281
     0
  0
CLASS
  1
MATERIAL
  2
AcDbMaterial
  3
ObjectDBX Classes
 90
     1153
280
     0
281
     0
  0
CLASS
  1
VISUALSTYLE
  2
AcDbVisualStyle
  3
ObjectDBX Classes
 90
     4095
280
     0
281
     0
  0
CLASS
  1
TABLESTYLE
  2
AcDbTableStyle
  3
ObjectDBX Classes
 90
     4095
280
     0
281
     0
  0
CLASS
  1
SCALE
  2
AcDbScale
  3
ObjectDBX Classes
 90
     1153
280
     0
281
     0
  0
CLASS
  1
MLEADERSTYLE
  2
AcDbMLeaderStyle
  3
ACDB_MLEADERSTYLE_CLASS
 90
     4095
280
     0
281
     0
  0
CLASS
  1
ACDBPLACEHOLDER
  2
AcDbPlaceHolder
  3
ObjectDBX Classes
 90
        0
280
     0
281
     0
  0
CLASS
  1
LAYOUT
  2
AcDbLayout
  3
ObjectDBX Classes
 90
        0
280
     0
281
     0
  0
ENDSEC
  0
SECTION
  2
TABLES
  0
TABLE
  2
VPORT
  5
8
102
{ACAD_XDICTIONARY
360
E51
102
}
330
0
100
AcDbSymbolTable
 70
     1
  0
VPORT
  5
997
330
8
100
AcDbSymbolTableRecord
100
AcDbViewportTableRecord
  2
*Active
 70
     0
 10
0.0
 20
0.0
 11
1.0
 21
1.0
 12
-3253.950792918195
 22
-1665.040407767283
 13
0.0
 23
0.0
 14
10.0
 24
10.0
 15
10.0
 25
10.0
 16
0.0
 26
0.0
 36
1.0
 17
0.0
 27
0.0
 37
0.0
 40
12574.077383379
 41
1.769403824521935
 42
50.0
 43
0.0
 44
0.0
 50
0.0
 51
0.0
 71
     0
 72
  1000
 73
     1
 74
     3
 75
     0
 76
     0
 77
     0
 78
     0
281
     0
 65
     1
110
0.0
120
0.0
130
0.0
111
1.0
121
0.0
131
0.0
112
0.0
122
1.0
132
0.0
 79
     0
146
0.0
  0
ENDTAB
  0
TABLE
  2
LTYPE
  5
5
330
0
100
AcDbSymbolTable
 70
     2
  0
LTYPE
  5
14
330
5
100
AcDbSymbolTableRecord
100
AcDbLinetypeTableRecord
  2
ByBlock
 70
     0
  3

 72
    65
 73
     0
 40
0.0
  0
LTYPE
  5
15
330
5
100
AcDbSymbolTableRecord
100
AcDbLinetypeTableRecord
  2
ByLayer
 70
     0
  3

 72
    65
 73
     0
 40
0.0
  0
LTYPE
  5
16
330
5
100
AcDbSymbolTableRecord
100
AcDbLinetypeTableRecord
  2
Continuous
 70
     0
  3
Solid line
 72
    65
 73
     0
 40
0.0
  0
LTYPE
  5
A4B
330
5
100
AcDbSymbolTableRecord
100
AcDbLinetypeTableRecord
  2
DASHDOT2
 70
     0
  3
_._._._._._._._._._._._._._._._._._._._._._._._
 72
    65
 73
     4
 40
0.5
 49
0.25
 74
     4
 75
     0
340
0
 46
0.0
 50
0.0
 44
0.0
 45
0.0
 49
-0.125
 74
     4
 75
     0
340
0
 46
0.0
 50
0.0
 44
0.0
 45
0.0
 49
0.0
 74
     4
 75
     0
340
0
 46
0.0
 50
0.0
 44
0.0
 45
0.0
 49
-0.125
 74
     4
 75
     0
340
0
 46
0.0
 50
0.0
 44
0.0
 45
0.0
  0
ENDTAB
  0
TABLE
  2
LAYER
  5
2
330
0
100
AcDbSymbolTable
 70
     7
  0
LAYER
  5
10
330
2
100
AcDbSymbolTableRecord
100
AcDbLayerTableRecord
  2
0
 70
     0
 62
     7
  6
Continuous
370
    -3
390
F
  0
LAYER
  5
192
330
2
100
AcDbSymbolTableRecord
100
AcDbLayerTableRecord
  2
D
 70
     0
 62
     7
  6
Continuous
370
    -3
390
F
  0
LAYER
  5
194
330
2
100
AcDbSymbolTableRecord
100
AcDbLayerTableRecord
  2
Cotas
 70
     0
 62
     7
  6
Continuous
370
    -3
390
F
  0
LAYER
  5
56F
330
2
100
AcDbSymbolTableRecord
100
AcDbLayerTableRecord
  2
Defpoints
 70
     0
 62
     7
  6
Continuous
290
     0
370
    -3
390
F
  0
LAYER
  5
A4C
330
2
100
AcDbSymbolTableRecord
100
AcDbLayerTableRecord
  2
_ICFUBA_ACERO
 70
     0
 62
     7
  6
Continuous
370
    -3
390
F
  0
LAYER
  5
A4D
330
2
100
AcDbSymbolTableRecord
100
AcDbLayerTableRecord
  2
DV2_Predeterminado
 70
     0
 62
     7
  6
Continuous
370
    -3
390
F
  0
LAYER
  5
A4E
330
2
100
AcDbSymbolTableRecord
100
AcDbLayerTableRecord
  2
C
 70
     0
 62
     7
  6
Continuous
370
    -3
390
F
  0
ENDTAB
  0
TABLE
  2
STYLE
  5
3
330
0
100
AcDbSymbolTable
 70
    11
  0
STYLE
  5
11
330
3
100
AcDbSymbolTableRecord
100
AcDbTextStyleTableRecord
  2
Standard
 70
     0
 40
0.0
 41
1.0
 50
0.0
 71
     0
 42
2.5
  3
txt
  4

  0
STYLE
  5
195
330
3
100
AcDbSymbolTableRecord
100
AcDbTextStyleTableRecord
  2
SIMPLEX
 70
     0
 40
2.0
 41
1.0
 50
15.0
 71
     0
 42
2.0
  3
SIMPLEX.SHX
  4

  0
STYLE
  5
196
330
3
100
AcDbSymbolTableRecord
100
AcDbTextStyleTableRecord
  2
STYLE2
 70
     0
 40
90.0
 41
1.0
 50
0.0
 71
     0
 42
90.0
  3
ARIALN.TTF
  4

1001
ACAD
1000
Arial Narrow
1071
       34
  0
STYLE
  5
66E
330
3
100
AcDbSymbolTableRecord
100
AcDbTextStyleTableRecord
  2
TIPO LIGHT
 70
     0
 40
0.0
 41
1.0
 50
0.0
 71
     0
 42
0.2573368435078011
  3
ex0541.TTF
  4

1001
ACAD
1000
VirtueLight
1071
        2
  0
STYLE
  5
66F
330
3
100
AcDbSymbolTableRecord
100
AcDbTextStyleTableRecord
  2
TIPO NEGRETA
 70
     0
 40
0.0
 41
1.0
 50
0.0
 71
     0
 42
0.5569940380491971
  3
ex0543.TTF
  4

1001
ACAD
1000
Virtue
1071
        2
  0
STYLE
  5
848
330
3
100
AcDbSymbolTableRecord
100
AcDbTextStyleTableRecord
  2
WMF-Virtue0
 70
     0
 40
0.0
 41
1.0
 50
0.0
 71
     0
 42
2.5
  3
ex0543.TTF
  4

1001
ACAD
1000
Virtue
1071
        0
  0
STYLE
  5
849
330
3
100
AcDbSymbolTableRecord
100
AcDbTextStyleTableRecord
  2
WMF-VirtueLight0
 70
     0
 40
0.0
 41
1.0
 50
0.0
 71
     0
 42
2.5
  3
ex0541.TTF
  4

1001
ACAD
1000
VirtueLight
1071
        0
  0
STYLE
  5
84A
330
3
100
AcDbSymbolTableRecord
100
AcDbTextStyleTableRecord
  2
WMF-Arial Narrow0
 70
     0
 40
0.0
 41
1.0
 50
0.0
 71
     0
 42
2.5
  3
ARIALN.TTF
  4

1001
ACAD
1000
Arial Narrow
1071
        0
  0
STYLE
  5
A4F
330
3
100
AcDbSymbolTableRecord
100
AcDbTextStyleTableRecord
  2
arial_ttf
 70
     0
 40
0.0
 41
1.0
 50
0.0
 71
     0
 42
2.5
  3
ARIAL.TTF
  4

1001
ACAD
1000
Arial
1071
        2
  0
STYLE
  5
E42
330
3
100
AcDbSymbolTableRecord
100
AcDbTextStyleTableRecord
  2
MtXpl_Arial
 70
     0
 40
0.2
 41
1.0
 50
0.0
 71
     0
 42
2.5
  3
arial.ttf
  4

1001
ACAD
1000
Arial
1071
        2
  0
STYLE
  5
E43
330
3
100
AcDbSymbolTableRecord
100
AcDbTextStyleTableRecord
  2
MtXpl_Arial1
 70
     0
 40
0.2
 41
1.0
 50
0.0
 71
     0
 42
2.5
  3

  4

1001
ACAD
1000
Arial
1071
        2
  0
ENDTAB
  0
TABLE
  2
VIEW
  5
6
330
0
100
AcDbSymbolTable
 70
     0
  0
ENDTAB
  0
TABLE
  2
UCS
  5
7
330
0
100
AcDbSymbolTable
 70
     0
  0
ENDTAB
  0
TABLE
  2
APPID
  5
9
330
0
100
AcDbSymbolTable
 70
     2
  0
APPID
  5
12
330
9
100
AcDbSymbolTableRecord
100
AcDbRegAppTableRecord
  2
ACAD
 70
     0
  0
APPID
  5
E8E
330
9
100
AcDbSymbolTableRecord
100
AcDbRegAppTableRecord
  2
ACAD_MLEADERVER
 70
     0
  0
ENDTAB
  0
TABLE
  2
DIMSTYLE
  5
A
330
0
100
AcDbSymbolTable
 70
     2
100
AcDbDimStyleTable
  0
DIMSTYLE
105
27
102
{ACAD_REACTORS
330
B8D
330
B83
330
B82
102
}
330
A
100
AcDbSymbolTableRecord
100
AcDbDimStyleTableRecord
  2
ISO-25
 70
     0
 41
2.5
 42
0.625
 43
3.75
 44
1.25
 73
     0
 74
     0
 77
     1
 78
     8
140
2.5
141
2.5
143
0.03937007874016
147
0.625
171
     3
172
     1
178
     0
271
     2
272
     2
274
     3
278
    44
283
     0
284
     8
340
11
  0
DIMSTYLE
105
197
102
{ACAD_REACTORS
330
B8C
330
B8E
330
AF3
330
AF4
330
AF6
330
AF5
102
}
330
A
100
AcDbSymbolTableRecord
100
AcDbDimStyleTableRecord
  2
STANDARD
 70
     0
 40
0.0
 41
3.6
 42
0.0
 43
4.0
 44
0.4
 73
     0
 74
     0
 77
     1
 78
     8
140
2.0
141
0.0
147
0.8
178
     0
271
     2
272
     2
340
195
  0
ENDTAB
  0
TABLE
  2
BLOCK_RECORD
  5
1
330
0
100
AcDbSymbolTable
 70
    11
  0
BLOCK_RECORD
  5
1F
330
1
100
AcDbSymbolTableRecord
100
AcDbBlockTableRecord
  2
*Model_Space
340
22
  0
BLOCK_RECORD
  5
7A6
330
1
100
AcDbSymbolTableRecord
100
AcDbBlockTableRecord
  2
*Paper_Space
340
7A7
  0
BLOCK_RECORD
  5
A2
330
1
100
AcDbSymbolTableRecord
100
AcDbBlockTableRecord
  2
Perno anclaje IA01+Cotas
340
0
102
{BLKREFS
331
4D2
102
}
  0
BLOCK_RECORD
  5
640
102
{ACAD_XDICTIONARY
360
815
102
}
330
1
100
AcDbSymbolTableRecord
100
AcDbBlockTableRecord
  2
Prova
340
0
102
{BLKREFS
331
79D
102
}
  0
BLOCK_RECORD
  5
B90
330
1
100
AcDbSymbolTableRecord
100
AcDbBlockTableRecord
  2
*D15
340
0
  0
BLOCK_RECORD
  5
B9D
330
1
100
AcDbSymbolTableRecord
100
AcDbBlockTableRecord
  2
*D16
340
0
  0
BLOCK_RECORD
  5
BAA
330
1
100
AcDbSymbolTableRecord
100
AcDbBlockTableRecord
  2
*D17
340
0
  0
BLOCK_RECORD
  5
BB7
330
1
100
AcDbSymbolTableRecord
100
AcDbBlockTableRecord
  2
*D18
340
0
  0
BLOCK_RECORD
  5
BDE
330
1
100
AcDbSymbolTableRecord
100
AcDbBlockTableRecord
  2
*D21
340
0
  0
BLOCK_RECORD
  5
BEB
330
1
100
AcDbSymbolTableRecord
100
AcDbBlockTableRecord
  2
*D22
340
0
  0
BLOCK_RECORD
  5
BF8
330
1
100
AcDbSymbolTableRecord
100
AcDbBlockTableRecord
  2
*D23
340
0
  0
BLOCK_RECORD
  5
C05
330
1
100
AcDbSymbolTableRecord
100
AcDbBlockTableRecord
  2
*D24
340
0
  0
BLOCK_RECORD
  5
C12
330
1
100
AcDbSymbolTableRecord
100
AcDbBlockTableRecord
  2
*D25
340
0
  0
ENDTAB
  0
ENDSEC
  0
SECTION
  2
BLOCKS
  0
BLOCK
  5
20
330
1F
100
AcDbEntity
  8
0
100
AcDbBlockBegin
  2
*Model_Space
 70
     0
 10
0.0
 20
0.0
 30
0.0
  3
*Model_Space
  1

  0
ENDBLK
  5
21
330
1F
100
AcDbEntity
  8
0
100
AcDbBlockEnd
  0
BLOCK
  5
7A8
330
7A6
100
AcDbEntity
 67
     1
  8
0
100
AcDbBlockBegin
  2
*Paper_Space
 70
     0
 10
0.0
 20
0.0
 30
0.0
  3
*Paper_Space
  1

  0
ENDBLK
  5
7A9
330
7A6
100
AcDbEntity
 67
     1
  8
0
100
AcDbBlockEnd
  0
BLOCK
  5
A3
330
A2
100
AcDbEntity
  8
0
 48
0.5
100
AcDbBlockBegin
  2
Perno anclaje IA01+Cotas
 70
     0
 10
0.0
 20
0.0
 30
0.0
  3
Perno anclaje IA01+Cotas
  1

  0
SOLID
  5
A4
330
A2
100
AcDbEntity
  8
Cotas
 48
0.5
100
AcDbTrace
 10
201.9772998373701
 20
364.1033397196534
 30
0.0
 11
232.1856331707031
 21
364.1033397196534
 31
0.0
 12
217.0814665040366
 22
273.4783397196534
 32
0.0
 13
217.0814665040366
 23
273.4783397196534
 33
0.0
  0
LWPOLYLINE
  5
A5
330
A2
100
AcDbEntity
  8
D
100
AcDbPolyline
 90
        4
 70
     1
 43
0.0
 10
0.0
 20
1261.925992210516
 10
935.424644732615
 20
1261.925992210516
 10
935.424644732615
 20
0.0
 10
0.0
 20
0.0
  0
ARC
  5
A6
330
A2
100
AcDbEntity
  8
D
 48
0.5
100
AcDbCircle
 39
67.05480092913572
 10
577.8446184908462
 20
321.6625013652119
 30
-7.162055128013733
 40
48.95839221556606
100
AcDbArc
 50
174.3688378913684
 51
322.903316698366
  0
LINE
  5
A7
330
A2
100
AcDbEntity
  8
Cotas
 48
0.5
100
AcDbLine
 10
605.0327340531303
 20
273.4783397196534
 30
0.0
 11
207.0814665040366
 21
273.4783397196534
 31
0.0
  0
MTEXT
  5
A8
330
A2
100
AcDbEntity
  8
D
 48
0.5
100
AcDbMText
 10
4.27587847227187
 20
1390.410427067269
 30
-26.36534533655413
 40
69.0
 41
2234.0
 71
     1
 72
     5
  1
{\fVirtueLight|b0|i0|c0|p2;\H0.6957x;PERNOS DE ANCLAJE  IA01}
  7
STYLE2
 73
     1
 44
1.0
  0
LINE
  5
A9
330
A2
100
AcDbEntity
  8
D
 48
0.5
100
AcDbLine
 39
67.05480092913572
 10
600.6661267065319
 20
304.4048068752945
 30
-7.162055128013733
 11
615.3256639160672
 21
323.7905219869544
 31
-7.162055128013733
  0
LINE
  5
AA
330
A2
100
AcDbEntity
  8
D
 48
0.5
100
AcDbLine
 39
67.05480092913572
 10
616.8947547710195
 20
292.1326685713557
 30
-7.162055128013733
 11
631.5542919805548
 21
311.5183836830129
 31
-7.162055128013733
  0
LINE
  5
AB
330
A2
100
AcDbEntity
  8
D
 48
0.5
100
AcDbLine
 39
67.05480092913572
 10
631.5542919805548
 20
311.5183836830129
 30
-7.162055128013733
 11
615.3256639160672
 21
323.7905219869544
 31
-7.162055128013733
  0
LINE
  5
AC
330
A2
100
AcDbEntity
  8
D
 48
0.5
100
AcDbLine
 39
67.05480092913572
 10
529.1047085102146
 20
771.6554364569711
 30
-7.162055128013733
 11
529.1047085102146
 21
749.8750566439471
 31
-7.162055128013733
  0
LINE
  5
AD
330
A2
100
AcDbEntity
  8
D
 48
0.5
100
AcDbLine
 39
67.05480092913572
 10
549.4510533270732
 20
771.6554364569711
 30
-7.162055128013733
 11
549.4510533270732
 21
749.8750566439471
 31
-7.162055128013733
  0
LINE
  5
AE
330
A2
100
AcDbEntity
  8
D
 48
0.5
100
AcDbLine
 39
67.05480092913572
 10
530.3763550612684
 20
774.9492583678525
 30
-7.162055128013733
 11
530.3763550612684
 21
749.8750566439471
 31
-7.162055128013733
  0
LINE
  5
AF
330
A2
100
AcDbEntity
  8
D
 48
0.5
100
AcDbLine
 39
67.05480092913572
 10
548.1794067760202
 20
774.9492583678525
 30
-7.162055128013733
 11
548.1794067760202
 21
749.8750566439471
 31
-7.162055128013733
  0
LINE
  5
B0
330
A2
100
AcDbEntity
  8
D
 48
0.5
100
AcDbLine
 39
67.05480092913572
 10
530.3763550612684
 20
774.9492583678525
 30
-7.162055128013733
 11
548.1794067760202
 21
774.9492583678516
 31
-7.162055128013733
  0
LINE
  5
B1
330
A2
100
AcDbEntity
  8
D
 48
0.5
100
AcDbLine
 39
67.05480092913572
 10
530.3763550612684
 20
750.2740941578336
 30
-7.162055128013733
 11
530.3763550612684
 21
747.9862240090215
 31
-7.162055128013733
  0
LINE
  5
B2
330
A2
100
AcDbEntity
  8
D
 48
0.5
100
AcDbLine
 39
67.05480092913572
 10
529.1047085102146
 20
750.2740941578336
 30
-7.162055128013733
 11
529.1047085102146
 21
747.9862240090215
 31
-7.162055128013733
  0
LINE
  5
B3
330
A2
100
AcDbEntity
  8
D
 48
0.5
100
AcDbLine
 39
67.05480092913572
 10
548.1794067760202
 20
750.2740941578336
 30
-7.162055128013733
 11
548.1794067760202
 21
747.9862240090215
 31
-7.162055128013733
  0
LINE
  5
B4
330
A2
100
AcDbEntity
  8
D
 48
0.5
100
AcDbLine
 39
67.05480092913572
 10
549.4510533270732
 20
750.2740941578336
 30
-7.162055128013733
 11
549.4510533270732
 21
747.9862240090215
 31
-7.162055128013733
  0
LINE
  5
B5
330
A2
100
AcDbEntity
  8
D
 48
0.5
100
AcDbLine
 39
67.05480092913572
 10
522.746475754946
 20
747.9862240090215
 30
-7.162055128013733
 11
555.8092860823417
 21
747.9862240090215
 31
-7.162055128013733
  0
ARC
  5
B6
330
A2
100
AcDbEntity
  8
D
 48
0.5
100
AcDbCircle
 39
67.05480092913572
 10
529.7405317857429
 20
765.3124082671279
 30
-7.162055128013733
 40
36.40088252391131
100
AcDbArc
 50
255.4729382462448
 51
285.1892867371857
  0
ARC
  5
B7
330
A2
100
AcDbEntity
  8
D
 48
0.5
100
AcDbCircle
 39
67.05480092913572
 10
529.7405317857429
 20
711.5853414851103
 30
-7.162055128013733
 40
36.40088252391131
100
AcDbArc
 50
74.81071326281436
 51
104.5270617537552
  0
LINE
  5
B8
330
A2
100
AcDbEntity
  8
D
 48
0.5
100
AcDbLine
 39
67.05480092913572
 10
539.2778809186439
 20
730.1831722942702
 30
-7.162055128013733
 11
539.2778809186448
 21
746.7145774579681
 31
-7.162055128013733
  0
ARC
  5
B9
330
A2
100
AcDbEntity
  8
D
 48
0.5
100
AcDbCircle
 39
67.05480092913572
 10
522.746475754946
 20
745.4429309069142
 30
-7.162055128013733
 40
2.543293102107328
100
AcDbArc
 50
90.0
 51
180.0
  0
LINE
  5
BA
330
A2
100
AcDbEntity
  8
D
 48
0.5
100
AcDbLine
 39
67.05480092913572
 10
520.2031826528391
 20
731.4548188453241
 30
-7.162055128013733
 11
520.2031826528391
 21
745.4429309069142
 31
-7.162055128013733
  0
ARC
  5
BB
330
A2
100
AcDbEntity
  8
D
 48
0.5
100
AcDbCircle
 39
67.05480092913572
 10
522.746475754946
 20
731.4548188453241
 30
-7.162055128013733
 40
2.543293102107328
100
AcDbArc
 50
180.0
 51
270.0
  0
LINE
  5
BC
330
A2
100
AcDbEntity
  8
D
 48
0.5
100
AcDbLine
 39
67.05480092913572
 10
522.746475754946
 20
728.9115257432168
 30
-7.162055128013733
 11
555.8092860823417
 21
728.9115257432168
 31
-7.162055128013733
  0
ARC
  5
BD
330
A2
100
AcDbEntity
  8
D
 48
0.5
100
AcDbCircle
 39
67.05480092913572
 10
555.8092860823417
 20
731.4548188453241
 30
-7.162055128013733
 40
2.543293102107328
100
AcDbArc
 50
270.0
 51
0.0
  0
LINE
  5
BE
330
A2
100
AcDbEntity
  8
D
 48
0.5
100
AcDbLine
 39
67.05480092913572
 10
558.3525791844495
 20
731.4548188453241
 30
-7.162055128013733
 11
558.3525791844495
 21
745.4429309069142
 31
-7.162055128013733
  0
ARC
  5
BF
330
A2
100
AcDbEntity
  8
D
 48
0.5
100
AcDbCircle
 39
67.05480092913572
 10
555.8092860823417
 20
745.4429309069142
 30
-7.162055128013733
 40
2.543293102107328
100
AcDbArc
 50
0.0
 51
90.0
  0
LINE
  5
C0
330
A2
100
AcDbEntity
  8
D
 48
0.5
100
AcDbLine
 39
67.05480092913572
 10
530.3763550612684
 20
728.9115257432168
 30
-7.162055128013733
 11
530.3763550612684
 21
724.1482897356477
 31
-7.162055128013733
  0
LINE
  5
C1
330
A2
100
AcDbEntity
  8
D
 48
0.5
100
AcDbLine
 39
67.05480092913572
 10
529.1047085102146
 20
728.9115257432168
 30
-7.162055128013733
 11
529.1047085102146
 21
724.1482897356477
 31
-7.162055128013733
  0
LINE
  5
C2
330
A2
100
AcDbEntity
  8
D
 48
0.5
100
AcDbLine
 39
67.05480092913572
 10
548.1794067760202
 20
728.9115257432168
 30
-7.162055128013733
 11
548.1794067760202
 21
724.1482897356477
 31
-7.162055128013733
  0
LINE
  5
C3
330
A2
100
AcDbEntity
  8
D
 48
0.5
100
AcDbLine
 39
67.05480092913572
 10
549.4510533270732
 20
728.9115257432168
 30
-7.162055128013733
 11
549.4510533270732
 21
724.1482897356477
 31
-7.162055128013733
  0
ARC
  5
C4
330
A2
100
AcDbEntity
  8
D
 48
0.5
100
AcDbCircle
 39
67.05480092913572
 10
548.8152300515467
 20
711.5853414851103
 30
-7.162055128013733
 40
36.40088252391131
100
AcDbArc
 50
75.47293824624475
 51
105.1892867371856
  0
ARC
  5
C5
330
A2
100
AcDbEntity
  8
D
 48
0.5
100
AcDbCircle
 39
67.05480092913572
 10
548.8152300515467
 20
765.3124082671279
 30
-7.162055128013733
 40
36.40088252391131
100
AcDbArc
 50
254.8107132628143
 51
284.5270617537552
  0
LINE
  5
C6
330
A2
100
AcDbEntity
  8
D
 48
0.5
100
AcDbLine
 39
67.05480092913572
 10
564.710811939718
 20
720.3333500824865
 30
-7.162055128013733
 11
564.710811939718
 21
724.1482897356477
 31
-7.162055128013733
  0
LINE
  5
C7
330
A2
100
AcDbEntity
  8
D
 48
0.5
100
AcDbLine
 39
67.05480092913572
 10
513.8449498975715
 20
720.3333500824865
 30
-7.162055128013733
 11
513.8449498975715
 21
724.1482897356477
 31
-7.162055128013733
  0
LINE
  5
C8
330
A2
100
AcDbEntity
  8
D
 48
0.5
100
AcDbLine
 39
67.05480092913572
 10
513.8449498975715
 20
724.1482897356477
 30
-7.162055128013733
 11
564.710811939718
 21
724.1482897356477
 31
-7.162055128013733
  0
LINE
  5
C9
330
A2
100
AcDbEntity
  8
D
 48
0.5
100
AcDbLine
 39
67.05480092913572
 10
513.8449498975715
 20
720.3333500824865
 30
-7.162055128013733
 11
564.710811939718
 21
720.3333500824865
 31
-7.162055128013733
  0
LINE
  5
CA
330
A2
100
AcDbEntity
  8
D
 48
0.5
100
AcDbLine
 39
67.05480092913572
 10
522.746475754946
 20
717.3015210285066
 30
-7.162055128013733
 11
555.8092860823417
 21
717.3015210285066
 31
-7.162055128013733
  0
ARC
  5
CB
330
A2
100
AcDbEntity
  8
D
 48
0.5
100
AcDbCircle
 39
67.05480092913572
 10
539.2778809186439
 20
680.9006385045955
 30
-7.162055128013733
 40
36.40088252391131
100
AcDbArc
 50
74.81071326281436
 51
105.1892867371856
  0
ARC
  5
CC
330
A2
100
AcDbEntity
  8
D
 48
0.5
100
AcDbCircle
 39
67.05480092913572
 10
522.746475754946
 20
714.7582279263993
 30
-7.162055128013733
 40
2.543293102107328
100
AcDbArc
 50
90.0
 51
180.0
  0
ARC
  5
CD
330
A2
100
AcDbEntity
  8
D
 48
0.5
100
AcDbCircle
 39
67.05480092913572
 10
555.8092860823417
 20
714.7582279263993
 30
-7.162055128013733
 40
2.543293102107328
100
AcDbArc
 50
0.0
 51
90.0
  0
ARC
  5
CE
330
A2
100
AcDbEntity
  8
D
 48
0.5
100
AcDbCircle
 39
67.05480092913572
 10
520.2031826528391
 20
680.9006385045955
 30
-7.162055128013733
 40
36.40088252391131
100
AcDbArc
 50
74.81071326281436
 51
86.82872517780262
  0
ARC
  5
CF
330
A2
100
AcDbEntity
  8
D
 48
0.5
100
AcDbCircle
 39
67.05480092913572
 10
558.3525791844495
 20
680.9006385045955
 30
-7.162055128013733
 40
36.40088252391131
100
AcDbArc
 50
93.17127482219738
 51
105.1892867371856
  0
LINE
  5
D0
330
A2
100
AcDbEntity
  8
D
 48
0.5
100
AcDbLine
 39
67.05480092913572
 10
530.3763550612684
 20
720.3333500824865
 30
-7.162055128013733
 11
530.3763550612684
 21
717.3015210285066
 31
-7.162055128013733
  0
LINE
  5
D1
330
A2
100
AcDbEntity
  8
D
 48
0.5
100
AcDbLine
 39
67.05480092913572
 10
529.1047085102146
 20
720.3333500824865
 30
-7.162055128013733
 11
529.1047085102146
 21
717.3015210285066
 31
-7.162055128013733
  0
LINE
  5
D2
330
A2
100
AcDbEntity
  8
D
 48
0.5
100
AcDbLine
 39
67.05480092913572
 10
549.4510533270732
 20
720.3333500824865
 30
-7.162055128013733
 11
549.4510533270732
 21
717.3015210285066
 31
-7.162055128013733
  0
LINE
  5
D3
330
A2
100
AcDbEntity
  8
D
 48
0.5
100
AcDbLine
 39
67.05480092913572
 10
548.1794067760202
 20
720.3333500824865
 30
-7.162055128013733
 11
548.1794067760202
 21
717.3015210285066
 31
-7.162055128013733
  0
LINE
  5
D4
330
A2
100
AcDbEntity
  8
D
 48
0.5
100
AcDbLine
 39
67.05480092913572
 10
529.1047085102146
 20
771.6554364569711
 30
-7.162055128013733
 11
549.4510533270732
 21
771.6554364569711
 31
-7.162055128013733
  0
LINE
  5
D5
330
A2
100
AcDbEntity
  8
D
 48
0.5
100
AcDbLine
 39
67.05480092913572
 10
529.1047085102146
 20
771.6554364569711
 30
-7.162055128013733
 11
530.3763550612684
 21
774.9492583678525
 31
-7.162055128013733
  0
LINE
  5
D6
330
A2
100
AcDbEntity
  8
D
 48
0.5
100
AcDbLine
 39
67.05480092913572
 10
548.1794067760202
 20
774.9492583678525
 30
-7.162055128013733
 11
549.4510533270732
 21
771.6554364569711
 31
-7.162055128013733
  0
LINE
  5
D7
330
A2
100
AcDbEntity
  8
D
 48
0.5
100
AcDbLine
 39
67.05480092913572
 10
549.4510533270732
 20
657.0851666337485
 30
-7.162055128013733
 11
529.1047085102146
 21
657.0851666337485
 31
-7.162055128013733
  0
ARC
  5
D8
330
A2
100
AcDbEntity
  8
D
 48
0.5
100
AcDbCircle
 39
67.05480092913572
 10
539.2778809186439
 20
734.6277052866126
 30
-7.162055128013733
 40
36.40088252391131
100
AcDbArc
 50
254.8107132628143
 51
285.1892867371857
  0
ARC
  5
D9
330
A2
100
AcDbEntity
  8
D
 48
0.5
100
AcDbCircle
 39
67.05480092913572
 10
522.746475754946
 20
700.7701158648088
 30
-7.162055128013733
 40
2.543293102107328
100
AcDbArc
 50
180.0
 51
270.0
  0
LINE
  5
DA
330
A2
100
AcDbEntity
  8
D
 48
0.5
100
AcDbLine
 39
67.05480092913572
 10
522.746475754946
 20
698.2268227627014
 30
-7.162055128013733
 11
555.8092860823417
 21
698.2268227627014
 31
-7.162055128013733
  0
ARC
  5
DB
330
A2
100
AcDbEntity
  8
D
 48
0.5
100
AcDbCircle
 39
67.05480092913572
 10
555.8092860823417
 20
700.7701158648088
 30
-7.162055128013733
 40
2.543293102107328
100
AcDbArc
 50
270.0
 51
0.0
  0
ARC
  5
DC
330
A2
100
AcDbEntity
  8
D
 48
0.5
100
AcDbCircle
 39
67.05480092913572
 10
520.2031826528391
 20
734.6277052866126
 30
-7.162055128013733
 40
36.40088252391131
100
AcDbArc
 50
273.1712748221973
 51
285.1892867371857
  0
ARC
  5
DD
330
A2
100
AcDbEntity
  8
D
 48
0.5
100
AcDbCircle
 39
67.05480092913572
 10
558.3525791844495
 20
734.6277052866126
 30
-7.162055128013733
 40
36.40088252391131
100
AcDbArc
 50
254.8107132628143
 51
266.8287251778027
  0
LINE
  5
DE
330
A2
100
AcDbEntity
  8
D
 48
0.5
100
AcDbLine
 39
67.05480092913572
 10
530.3763550612684
 20
698.2268227627014
 30
-7.162055128013733
 11
530.3763550612684
 21
657.0851666337485
 31
-7.162055128013733
  0
LINE
  5
DF
330
A2
100
AcDbEntity
  8
D
 48
0.5
100
AcDbLine
 39
67.05480092913572
 10
548.1794067760202
 20
698.2268227627014
 30
-7.162055128013733
 11
548.1794067760202
 21
657.0851666337485
 31
-7.162055128013733
  0
LINE
  5
E0
330
A2
100
AcDbEntity
  8
D
 48
0.5
100
AcDbLine
 39
67.05480092913572
 10
529.740531785742
 20
716.0298744774527
 30
-7.162055128013733
 11
529.740531785742
 21
699.4984693137553
 31
-7.162055128013733
  0
LINE
  5
E1
330
A2
100
AcDbEntity
  8
D
 48
0.5
100
AcDbLine
 39
67.05480092913572
 10
529.740531785742
 20
699.4984693137553
 30
-7.162055128013733
 11
529.740531785742
 21
716.0298744774527
 31
-7.162055128013733
  0
LINE
  5
E2
330
A2
100
AcDbEntity
  8
D
 48
0.5
100
AcDbLine
 39
67.05480092913572
 10
548.8152300515467
 20
699.4984693137553
 30
-7.162055128013733
 11
548.8152300515467
 21
716.0298744774527
 31
-7.162055128013733
  0
LINE
  5
E3
330
A2
100
AcDbEntity
  8
D
 48
0.5
100
AcDbLine
 39
67.05480092913572
 10
520.2031826528391
 20
700.7701158648088
 30
-7.162055128013733
 11
520.2031826528391
 21
714.7582279263993
 31
-7.162055128013733
  0
LINE
  5
E4
330
A2
100
AcDbEntity
  8
D
 48
0.5
100
AcDbLine
 39
67.05480092913572
 10
558.3525791844495
 20
700.7701158648088
 30
-7.162055128013733
 11
558.3525791844495
 21
714.7582279263993
 31
-7.162055128013733
  0
LINE
  5
E5
330
A2
100
AcDbEntity
  8
D
 48
0.5
100
AcDbLine
 39
67.05480092913572
 10
529.1047085102146
 20
698.2268227627014
 30
-7.162055128013733
 11
529.1224906996868
 21
326.4665030133237
 31
-7.162055128013733
  0
LINE
  5
E6
330
A2
100
AcDbEntity
  8
D
 48
0.5
100
AcDbLine
 39
67.05480092913572
 10
549.4510533270732
 20
698.2268227627014
 30
-7.162055128013733
 11
549.3706477038049
 21
324.470034795926
 31
-7.162055128013733
  0
ARC
  5
E7
330
A2
100
AcDbEntity
  8
D
 48
0.5
100
AcDbCircle
 39
67.05480092913572
 10
577.8446184908462
 20
321.6625013652119
 30
-7.162055128013733
 40
28.61204739870744
100
AcDbArc
 50
174.3688378913684
 51
322.903316698366
  0
LINE
  5
E8
330
A2
100
AcDbEntity
  8
Cotas
 48
0.5
100
AcDbLine
 10
530.3763550612684
 20
774.9492583678525
 30
0.0
 11
207.0814665040366
 21
774.9492583678525
 31
0.0
  0
LINE
  5
E9
330
A2
100
AcDbEntity
  8
Cotas
 48
0.5
100
AcDbLine
 10
438.4797085102146
 20
945.713333845375
 30
0.0
 11
347.8547085102146
 21
945.713333845375
 31
0.0
  0
SOLID
  5
EA
330
A2
100
AcDbEntity
  8
Cotas
 48
0.5
100
AcDbTrace
 10
201.9772998373701
 20
684.3242583678525
 30
0.0
 11
232.1856331707031
 21
684.3242583678525
 31
0.0
 12
217.0814665040366
 22
774.9492583678525
 32
0.0
 13
217.0814665040366
 23
774.9492583678525
 33
0.0
  0
MTEXT
  5
EB
330
A2
100
AcDbEntity
  8
Cotas
 48
0.5
100
AcDbMText
 10
161.9795735981702
 20
514.385651390221
 30
0.0
 40
68.75
 41
0.0
 71
     5
 72
     1
  1
{\fVirtueLight|b0|i0|c0|p2;\H0.6982x;500}
  7
STYLE2
 11
6.123031769111886E-17
 21
1.0
 31
0.0
 73
     1
 44
1.0
  0
LINE
  5
EC
330
A2
100
AcDbEntity
  8
Cotas
 48
0.5
100
AcDbLine
 10
217.0814665040366
 20
684.3242583678525
 30
0.0
 11
217.0814665040361
 21
364.1033397196534
 31
0.0
  0
LINE
  5
ED
330
A2
100
AcDbEntity
  8
Cotas
 48
0.5
100
AcDbLine
 10
514.5251553042126
 20
945.713333845375
 30
0.0
 11
788.9342617162174
 21
945.713333845375
 31
0.0
  0
SOLID
  5
EE
330
A2
100
AcDbEntity
  8
Cotas
 48
0.5
100
AcDbTrace
 10
640.0760533270741
 20
960.8175005120415
 30
-7.162055128012526
 11
640.0760533270741
 21
930.6091671787085
 31
-7.162055128012526
 12
549.4510533270741
 22
945.713333845375
 32
-7.162055128012526
 13
549.4510533270741
 23
945.713333845375
 33
-7.162055128012526
  0
MTEXT
  5
EF
330
A2
100
AcDbEntity
  8
Cotas
 48
0.5
100
AcDbMText
 10
556.7246063910052
 20
1010.552029836705
 30
0.0
 40
68.75
 41
0.0
 71
     5
 72
     1
  1
{\fVirtueLight|b0|i0|c0|p2;\H0.6982x;M18}
  7
STYLE2
 73
     1
 44
1.0
  0
LINE
  5
F0
330
A2
100
AcDbEntity
  8
Cotas
 48
0.5
100
AcDbLine
 10
549.4510533270741
 20
771.6554364569711
 30
-7.162055128012526
 11
549.4510533270741
 21
955.713333845375
 31
-7.162055128012526
  0
LINE
  5
F1
330
A2
100
AcDbEntity
  8
Cotas
 48
0.5
100
AcDbLine
 10
529.1047085102146
 20
771.6554364569711
 30
0.0
 11
529.1047085102146
 21
955.713333845375
 31
0.0
  0
SOLID
  5
F2
330
A2
100
AcDbEntity
  8
Cotas
 48
0.5
100
AcDbTrace
 10
438.4797085102146
 20
960.8175005120415
 30
0.0
 11
438.4797085102146
 21
930.6091671787085
 31
0.0
 12
529.1047085102146
 22
945.713333845375
 32
0.0
 13
529.1047085102146
 23
945.713333845375
 33
0.0
  0
ENDBLK
  5
F3
330
A2
100
AcDbEntity
  8
0
 48
0.5
100
AcDbBlockEnd
  0
BLOCK
  5
641
330
640
100
AcDbEntity
  8
0
 48
0.5
100
AcDbBlockBegin
  2
Prova
 70
     2
 10
0.0
 20
0.0
 30
0.0
  3
Prova
  1

  0
LINE
  5
642
330
640
100
AcDbEntity
  8
D
 62
     7
100
AcDbLine
 10
95.60647012031178
 20
269.325991814177
 30
0.0
 11
61.18109151803361
 21
269.325991814177
 31
0.0
  0
LINE
  5
643
330
640
100
AcDbEntity
  8
D
 62
     7
100
AcDbLine
 10
95.60647012031178
 20
255.05702357192
 30
0.0
 11
61.18109151803361
 21
255.05702357192
 31
0.0
  0
LINE
  5
644
330
640
100
AcDbEntity
  8
D
 62
     7
100
AcDbLine
 10
61.18109151803361
 20
269.325991814177
 30
0.0
 11
61.18109151803361
 21
255.05702357192
 31
0.0
  0
LINE
  5
645
330
640
100
AcDbEntity
  8
D
 62
     7
100
AcDbLine
 10
95.60647012031227
 20
269.3259918141765
 30
0.0
 11
95.60647012031227
 21
255.05702357192
 31
0.0
  0
LINE
  5
646
330
640
100
AcDbEntity
  8
D
 62
     7
100
AcDbLine
 10
143.1786225265164
 20
262.1915076930481
 30
0.0
 11
163.2086929100742
 21
262.1915076930479
 31
0.0
  0
LINE
  5
647
330
640
100
AcDbEntity
  8
D
 62
     7
100
AcDbLine
 10
141.1786225265156
 20
269.3259918141771
 30
0.0
 11
141.1786225265156
 21
255.0570235719206
 31
0.0
  0
MTEXT
  5
648
330
640
100
AcDbEntity
  8
D
 62
     7
 48
0.5
100
AcDbMText
 10
144.1481506660493
 20
259.7266332599015
 30
0.0
 40
2.140345236338522
 41
35.48692401849267
 71
     1
 72
     5
  1
{\fVirtue|b0|i0|c0|p2;ESCALA:}
  7
STYLE2
 73
     1
 44
1.0
  0
MTEXT
  5
649
330
640
100
AcDbEntity
  8
D
 62
     7
 48
0.5
100
AcDbMText
 10
144.2717387867014
 20
266.9351607204921
 30
0.0
 40
2.140345236338522
 41
35.48692401849267
 71
     1
 72
     5
  1
{\fVirtue|b0|i0|c0|p2;COTAS: }
  7
STYLE2
 73
     1
 44
1.0
  0
LINE
  5
64A
330
640
100
AcDbEntity
  8
D
 62
     7
100
AcDbLine
 10
141.1786225265147
 20
255.0570235719201
 30
0.0
 11
97.6064701203118
 21
255.0570235719201
 31
0.0
  0
LINE
  5
64B
330
640
100
AcDbEntity
  8
D
 62
     7
100
AcDbLine
 10
141.1786225265147
 20
269.3259918141771
 30
0.0
 11
97.6064701203118
 21
269.3259918141771
 31
0.0
  0
LINE
  5
64C
330
640
100
AcDbEntity
  8
D
 62
     7
100
AcDbLine
 10
143.1786225265164
 20
269.3259918141762
 30
0.0
 11
143.1786225265164
 21
255.0570235719197
 31
0.0
  0
TEXT
  5
64D
330
640
100
AcDbEntity
  8
D
 62
     7
100
AcDbText
 10
22.30454824694203
 20
21.30932025748496
 30
28.52498986959501
 40
1.694439978767995
  1
F.D.B. Comprometida en su línea de mejora continua de sus productos, se reserva el derecho de modificar las medidas, materiales y/o acabados sin previo aviso.
  7
TIPO LIGHT
100
AcDbText
  0
LINE
  5
64E
330
640
100
AcDbEntity
  8
D
 62
     7
100
AcDbLine
 10
185.4924726505469
 20
255.0570235719201
 30
0.0
 11
185.4924726505469
 21
269.3259918141771
 31
0.0
  0
LINE
  5
64F
330
640
100
AcDbEntity
  8
D
 62
     7
100
AcDbLine
 10
165.2086929100737
 20
269.3259918141762
 30
0.0
 11
165.2086929100737
 21
255.0570235719197
 31
0.0
  0
LINE
  5
650
330
640
100
AcDbEntity
  8
D
 62
     7
100
AcDbLine
 10
163.2086929100742
 20
269.3259918141762
 30
0.0
 11
163.2086929100742
 21
255.0570235719197
 31
0.0
  0
MTEXT
  5
651
330
640
100
AcDbEntity
  8
D
 62
     7
 48
0.5
100
AcDbMText
 10
166.0127084642687
 20
258.3634315954118
 30
0.0
 40
2.140345236338522
 41
15.7578637334951
 71
     1
 72
     5
  1
{\fVirtue|b0|i0|c0|p2;REFERENCIA}
  7
STYLE2
 73
     1
 44
1.0
  0
LINE
  5
652
330
640
100
AcDbEntity
  8
D
 62
     7
100
AcDbLine
 10
185.4924726505469
 20
269.3259918141771
 30
0.0
 11
165.2086929100737
 21
269.3259918141771
 31
0.0
  0
LINE
  5
653
330
640
100
AcDbEntity
  8
D
 62
     7
100
AcDbLine
 10
185.4924726505469
 20
255.0570235719201
 30
0.0
 11
165.2086929100737
 21
255.0570235719201
 31
0.0
  0
MTEXT
  5
654
330
640
100
AcDbEntity
  8
D
 62
     7
 48
0.5
100
AcDbMText
 10
98.46573471722651
 20
266.9199788776755
 30
0.0
 40
2.0
 41
35.48692401849267
 71
     1
 72
     5
  1
{\fVirtue|b0|i0|c0|p2;AUTOR:}
  7
STYLE2
 73
     1
 44
1.0
  0
LINE
  5
655
330
640
100
AcDbEntity
  8
D
 62
     7
100
AcDbLine
 10
97.6064701203118
 20
269.3259918141766
 30
0.0
 11
97.6064701203118
 21
255.0570235719201
 31
0.0
  0
MTEXT
  5
656
330
640
100
AcDbEntity
  8
D
 62
     7
 48
0.5
100
AcDbMText
 10
41.90526500561236
 20
256.5401143365237
 30
0.0
 40
1.961983133310311
 41
39.57319979886898
 71
     5
 72
     5
  1
{\fArial|b0|i0|c0|p34;FUNDICIÓ DÚCTIL BENITO}\P{\fVirtueLight|b0|i0|c0|p2;Tel. 93 852 10 00}
  7
STYLE2
 73
     1
 44
1.0
  0
LINE
  5
657
330
640
100
AcDbEntity
  8
D
 62
     7
100
AcDbLine
 10
97.6064701203118
 20
262.1915076930486
 30
0.0
 11
141.1786225265147
 21
262.1915076930484
 31
0.0
  0
LINE
  5
658
330
640
100
AcDbEntity
  8
D
 62
     7
100
AcDbLine
 10
163.2086929100742
 20
269.3259918141771
 30
0.0
 11
143.1786225265164
 21
269.3259918141771
 31
0.0
  0
LINE
  5
659
330
640
100
AcDbEntity
  8
D
 62
     7
100
AcDbLine
 10
163.2086929100742
 20
255.0570235719197
 30
0.0
 11
143.1786225265164
 21
255.0570235719201
 31
0.0
  0
LINE
  5
65A
330
640
100
AcDbEntity
  8
D
 62
     7
100
AcDbLine
 10
187.4924726505475
 20
251.4088529957648
 30
0.0
 11
22.50752734945263
 21
251.4088529957647
 31
0.0
  0
MTEXT
  5
65B
330
640
100
AcDbEntity
  8
D
 62
     7
 48
0.5
100
AcDbMText
 10
98.42393457988602
 20
259.7746105860165
 30
0.0
 40
2.140345236338522
 41
35.48692401849267
 71
     1
 72
     5
  1
{\fVirtue|b0|i0|c0|p2;PRODUCTOR:}
  7
STYLE2
 73
     1
 44
1.0
  0
LWPOLYLINE
  5
65C
330
640
100
AcDbEntity
  8
D
 62
     7
100
AcDbPolyline
 90
        4
 70
     1
 43
0.0
 10
22.50752734945223
 20
26.07810015039263
 10
187.4924726505469
 20
26.07810015039257
 10
187.4924726505469
 20
271.3259918141771
 10
22.50752734945263
 20
271.3259918141771
  0
LINE
  5
65D
330
640
100
AcDbEntity
  8
D
 48
0.5
100
AcDbLine
 39
52.73069067310824
 10
0.0000000000000568
 20
0.0000000000000284
 30
0.0
 11
-0.0000000000003979
 21
296.9999999999998
 31
0.0
  0
LINE
  5
65E
330
640
100
AcDbEntity
  8
D
 48
0.5
100
AcDbLine
 39
52.73069067310824
 10
209.9999999999996
 20
-0.0000000000000568
 30
0.0
 11
0.0000000000000568
 21
0.0000000000000284
 31
0.0
  0
LINE
  5
65F
330
640
100
AcDbEntity
  8
D
 48
0.5
100
AcDbLine
 39
52.73069067310824
 10
209.9999999999986
 20
296.9999999999999
 30
0.0
 11
209.9999999999996
 21
-0.0000000000000568
 31
0.0
  0
ATTDEF
  5
665
330
640
100
AcDbEntity
  8
D
 62
     7
 48
0.5
100
AcDbText
 10
110.7879455206443
 20
264.7113222443079
 30
0.0
 40
1.5
  1

  7
TIPO LIGHT
100
AcDbAttributeDefinition
  3
AUTOR DE LA PIEZA
  2
AUTOR
 70
     4
  0
ATTDEF
  5
666
330
640
100
AcDbEntity
  8
D
 62
     7
 48
0.5
100
AcDbText
 10
165.756629136677
 20
261.8159772827228
 30
0.0
 40
4.599380925954604
  1

  7
TIPO NEGRETA
100
AcDbAttributeDefinition
  3
REFERENCIA
  2
REF
 70
     4
  0
ATTDEF
  5
667
330
640
100
AcDbEntity
  8
D
 62
     7
 48
0.5
100
AcDbText
 10
156.5282731642796
 20
257.4754097618463
 30
0.0
 40
2.124960212717041
  1

  7
TIPO LIGHT
100
AcDbAttributeDefinition
  3
ESCALA
  2
ESC
 70
     4
  0
ATTDEF
  5
668
330
640
100
AcDbEntity
  8
D
 62
     7
 48
0.5
100
AcDbText
 10
118.5979985177896
 20
257.5454405367443
 30
0.0
 40
1.5
  1

  7
TIPO LIGHT
100
AcDbAttributeDefinition
  3
PRODUCTOR
  2
PRODUCTOR
 70
     4
  0
ATTDEF
  5
669
330
640
100
AcDbEntity
  8
D
 62
     7
 48
0.5
100
AcDbText
 10
155.6900758614356
 20
264.7611527230863
 30
0.0
 40
1.562405075328466
  1

  7
TIPO LIGHT
100
AcDbAttributeDefinition
  3
UNIDADES
  2
COTAS
 70
     4
  0
ATTDEF
  5
66A
330
640
100
AcDbEntity
  8
D
 62
     7
 48
0.5
100
AcDbText
 10
61.68088602806986
 20
262.7431192187915
 30
0.0
 40
3.0
  1

  7
TIPO NEGRETA
100
AcDbAttributeDefinition
  3
MODELO
  2
NOMBRE_PIEZA
 70
     4
  0
ATTDEF
  5
66B
330
640
100
AcDbEntity
  8
D
 62
     7
 48
0.5
100
AcDbText
 10
61.68088602806986
 20
255.9909159323616
 30
0.0
 40
2.5
  1

  7
TIPO NEGRETA
100
AcDbAttributeDefinition
  3
VISTA
  2
Planta
 70
     4
  0
LINE
  5
66C
330
640
100
AcDbEntity
  8
D
 48
0.5
100
AcDbLine
 39
52.73069067310824
 10
-0.0000000000003979
 20
296.9999999999998
 30
0.0
 11
209.9999999999986
 21
296.9999999999999
 31
0.0
  0
TEXT
  5
8D6
330
640
100
AcDbEntity
  8
0
 62
     7
370
     0
100
AcDbText
 10
49.02250237127569
 20
265.8689966559176
 30
0.0
 40
0.9934299486791691
  1
m
  7
WMF-Arial Narrow0
100
AcDbText
  0
TEXT
  5
8D7
330
640
100
AcDbEntity
  8
0
 62
     7
370
     0
100
AcDbText
 10
48.33035855457302
 20
265.8689966559176
 30
0.0
 40
0.9934299486791691
  1
o
  7
WMF-Arial Narrow0
100
AcDbText
  0
TEXT
  5
8D8
330
640
100
AcDbEntity
  8
0
 62
     7
370
     0
100
AcDbText
 10
47.69928625110867
 20
265.8689966559176
 30
0.0
 40
0.9934299486791691
  1
c
  7
WMF-Arial Narrow0
100
AcDbText
  0
TEXT
  5
8D9
330
640
100
AcDbEntity
  8
0
 62
     7
370
     0
100
AcDbText
 10
47.19035697412102
 20
265.8689966559176
 30
0.0
 40
1.091144369860727
  1
.
  7
WMF-VirtueLight0
100
AcDbText
  0
TEXT
  5
8DA
330
640
100
AcDbEntity
  8
0
 62
     7
370
     0
100
AcDbText
 10
44.68642493134396
 20
265.7875679715996
 30
0.0
 40
2.32886037149379
  1
O
  7
WMF-Virtue0
100
AcDbText
  0
TEXT
  5
8DB
330
640
100
AcDbEntity
  8
0
 62
     7
370
     0
100
AcDbText
 10
42.16213571748725
 20
265.7875679715996
 30
0.0
 40
2.32886037149379
  1
T
  7
WMF-Virtue0
100
AcDbText
  0
TEXT
  5
8DC
330
640
100
AcDbEntity
  8
0
 62
     7
370
     0
100
AcDbText
 10
40.51320486004821
 20
265.7875679715996
 30
0.0
 40
2.32886037149379
  1
I
  7
WMF-Virtue0
100
AcDbText
  0
TEXT
  5
8DD
330
640
100
AcDbEntity
  8
0
 62
     7
370
     0
100
AcDbText
 10
37.47998636920383
 20
265.7875679715996
 30
0.0
 40
2.32886037149379
  1
N
  7
WMF-Virtue0
100
AcDbText
  0
TEXT
  5
8DE
330
640
100
AcDbEntity
  8
0
 62
     7
370
     0
100
AcDbText
 10
34.95569715534711
 20
265.7875679715996
 30
0.0
 40
2.32886037149379
  1
E
  7
WMF-Virtue0
100
AcDbText
  0
TEXT
  5
8DF
330
640
100
AcDbEntity
  8
0
 62
     7
370
     0
100
AcDbText
 10
32.24819340177473
 20
265.7875679715996
 30
0.0
 40
2.32886037149379
  1
B
  7
WMF-Virtue0
100
AcDbText
  0
POLYLINE
  5
8E0
330
640
100
AcDbEntity
  8
0
 62
     7
370
     0
100
AcDb2dPolyline
 66
     1
 10
0.0
 20
0.0
 30
0.0
  0
VERTEX
  5
8E1
330
8E0
100
AcDbEntity
  8
0
 62
     7
370
     0
100
AcDbVertex
100
AcDb2dVertex
 10
32.28890774393406
 20
262.6729207964376
 30
0.0
  0
VERTEX
  5
8E2
330
8E0
100
AcDbEntity
  8
0
 62
     7
370
     0
100
AcDbVertex
100
AcDb2dVertex
 10
32.28890774393406
 20
263.6093506660939
 30
0.0
  0
VERTEX
  5
8E3
330
8E0
100
AcDbEntity
  8
0
 62
     7
370
     0
100
AcDbVertex
100
AcDb2dVertex
 10
34.95569715534711
 20
264.2607801406379
 30
0.0
  0
VERTEX
  5
8E4
330
8E0
100
AcDbEntity
  8
0
 62
     7
370
     0
100
AcDbVertex
100
AcDb2dVertex
 10
34.67069676023442
 20
263.7314936925709
 30
0.0
  0
VERTEX
  5
8E5
330
8E0
100
AcDbEntity
  8
0
 62
     7
370
     0
100
AcDbVertex
100
AcDb2dVertex
 10
37.07284294761448
 20
264.2607801406379
 30
0.0
  0
VERTEX
  5
8E6
330
8E0
100
AcDbEntity
  8
0
 62
     7
370
     0
100
AcDbVertex
100
AcDb2dVertex
 10
36.78784255250113
 20
263.7314936925709
 30
0.0
  0
VERTEX
  5
8E7
330
8E0
100
AcDbEntity
  8
0
 62
     7
370
     0
100
AcDbVertex
100
AcDb2dVertex
 10
39.21034591096085
 20
264.2607801406379
 30
0.0
  0
VERTEX
  5
8E8
330
8E0
100
AcDbEntity
  8
0
 62
     7
370
     0
100
AcDbVertex
100
AcDb2dVertex
 10
38.94570268692718
 20
263.7314936925709
 30
0.0
  0
VERTEX
  5
8E9
330
8E0
100
AcDbEntity
  8
0
 62
     7
370
     0
100
AcDbVertex
100
AcDb2dVertex
 10
41.38856321646657
 20
264.2607801406379
 30
0.0
  0
VERTEX
  5
8EA
330
8E0
100
AcDbEntity
  8
0
 62
     7
370
     0
100
AcDbVertex
100
AcDb2dVertex
 10
41.10356282135322
 20
263.7314936925709
 30
0.0
  0
VERTEX
  5
8EB
330
8E0
100
AcDbEntity
  8
0
 62
     7
370
     0
100
AcDbVertex
100
AcDb2dVertex
 10
43.52606617981294
 20
264.2607801406379
 30
0.0
  0
VERTEX
  5
8EC
330
8E0
100
AcDbEntity
  8
0
 62
     7
370
     0
100
AcDbVertex
100
AcDb2dVertex
 10
43.26142295577927
 20
263.7314936925709
 30
0.0
  0
VERTEX
  5
8ED
330
8E0
100
AcDbEntity
  8
0
 62
     7
370
     0
100
AcDbVertex
100
AcDb2dVertex
 10
45.70428348531863
 20
264.2607801406379
 30
0.0
  0
VERTEX
  5
8EE
330
8E0
100
AcDbEntity
  8
0
 62
     7
370
     0
100
AcDbVertex
100
AcDb2dVertex
 10
45.41928309020531
 20
263.7314936925709
 30
0.0
  0
VERTEX
  5
8EF
330
8E0
100
AcDbEntity
  8
0
 62
     7
370
     0
100
AcDbVertex
100
AcDb2dVertex
 10
47.86214361974467
 20
264.2607801406379
 30
0.0
  0
VERTEX
  5
8F0
330
8E0
100
AcDbEntity
  8
0
 62
     7
370
     0
100
AcDbVertex
100
AcDb2dVertex
 10
47.59750039571102
 20
263.7314936925709
 30
0.0
  0
VERTEX
  5
8F1
330
8E0
100
AcDbEntity
  8
0
 62
     7
370
     0
100
AcDbVertex
100
AcDb2dVertex
 10
50.02000375417072
 20
264.2607801406379
 30
0.0
  0
VERTEX
  5
8F2
330
8E0
100
AcDbEntity
  8
0
 62
     7
370
     0
100
AcDbVertex
100
AcDb2dVertex
 10
49.22607408207037
 20
262.6729207964376
 30
0.0
  0
VERTEX
  5
8F3
330
8E0
100
AcDbEntity
  8
0
 62
     7
370
     0
100
AcDbVertex
100
AcDb2dVertex
 10
40.75749091300221
 20
262.6729207964376
 30
0.0
  0
VERTEX
  5
8F4
330
8E0
100
AcDbEntity
  8
0
 62
     7
370
     0
100
AcDbVertex
100
AcDb2dVertex
 10
32.28890774393406
 20
262.6729207964376
 30
0.0
  0
VERTEX
  5
8F5
330
8E0
100
AcDbEntity
  8
0
 62
     7
370
     0
100
AcDbVertex
100
AcDb2dVertex
 10
32.28890774393406
 20
262.6729207964376
 30
0.0
  0
SEQEND
  5
8F6
330
8E0
100
AcDbEntity
  8
0
 62
     7
370
     0
  0
POLYLINE
  5
8F7
330
640
100
AcDbEntity
  8
0
 62
     7
370
     0
100
AcDb2dPolyline
 66
     1
 10
0.0
 20
0.0
 30
0.0
  0
VERTEX
  5
8F8
330
8F7
100
AcDbEntity
  8
0
 62
     7
370
     0
100
AcDbVertex
100
AcDb2dVertex
 10
31.55604958507203
 20
269.411144423749
 30
0.0
 40
0.0610715132384735
 41
0.0610715132384735
  0
VERTEX
  5
8F9
330
8F7
100
AcDbEntity
  8
0
 62
     7
370
     0
100
AcDbVertex
100
AcDb2dVertex
 10
50.65107605763507
 20
269.411144423749
 30
0.0
 40
0.0610715132384735
 41
0.0610715132384735
  0
VERTEX
  5
8FA
330
8F7
100
AcDbEntity
  8
0
 62
     7
370
     0
100
AcDbVertex
100
AcDb2dVertex
 10
50.65107605763507
 20
261.1868473076345
 30
0.0
 40
0.0610715132384735
 41
0.0610715132384735
  0
VERTEX
  5
8FB
330
8F7
100
AcDbEntity
  8
0
 62
     7
370
     0
100
AcDbVertex
100
AcDb2dVertex
 10
31.55604958507203
 20
261.1868473076345
 30
0.0
 40
0.0610715132384735
 41
0.0610715132384735
  0
VERTEX
  5
8FC
330
8F7
100
AcDbEntity
  8
0
 62
     7
370
     0
100
AcDbVertex
100
AcDb2dVertex
 10
31.55604958507203
 20
269.411144423749
 30
0.0
 40
0.0610715132384735
 41
0.0610715132384735
  0
SEQEND
  5
8FD
330
8F7
100
AcDbEntity
  8
0
 62
     7
370
     0
  0
POLYLINE
  5
8FE
330
640
100
AcDbEntity
  8
0
 62
     7
370
     0
100
AcDb2dPolyline
 66
     1
 10
0.0
 20
0.0
 30
0.0
  0
VERTEX
  5
8FF
330
8FE
100
AcDbEntity
  8
0
 62
     7
370
     0
100
AcDbVertex
100
AcDb2dVertex
 10
31.5764067561517
 20
269.3907872526697
 30
0.0
  0
VERTEX
  5
900
330
8FE
100
AcDbEntity
  8
0
 62
     7
370
     0
100
AcDbVertex
100
AcDb2dVertex
 10
50.6307188865554
 20
269.3907872526697
 30
0.0
  0
VERTEX
  5
901
330
8FE
100
AcDbEntity
  8
0
 62
     7
370
     0
100
AcDbVertex
100
AcDb2dVertex
 10
50.6307188865554
 20
261.2072044787142
 30
0.0
  0
VERTEX
  5
902
330
8FE
100
AcDbEntity
  8
0
 62
     7
370
     0
100
AcDbVertex
100
AcDb2dVertex
 10
31.5764067561517
 20
261.2072044787142
 30
0.0
  0
VERTEX
  5
903
330
8FE
100
AcDbEntity
  8
0
 62
     7
370
     0
100
AcDbVertex
100
AcDb2dVertex
 10
31.5764067561517
 20
269.3907872526697
 30
0.0
  0
SEQEND
  5
904
330
8FE
100
AcDbEntity
  8
0
 62
     7
370
     0
  0
ENDBLK
  5
66D
330
640
100
AcDbEntity
  8
0
 48
0.5
100
AcDbBlockEnd
  0
BLOCK
  5
B9B
330
B90
100
AcDbEntity
  8
0
100
AcDbBlockBegin
  2
*D15
 70
     1
 10
0.0
 20
0.0
 30
0.0
  3
*D15
  1

  0
LINE
  5
DE3
330
B90
100
AcDbEntity
  8
0
 62
     0
370
    -2
100
AcDbLine
 10
-5738.392689503868
 20
-4670.174446869687
 30
0.0
 11
-5812.723128888314
 21
-4595.844007485239
 31
0.0
  0
LINE
  5
DE4
330
B90
100
AcDbEntity
  8
0
 62
     0
370
    -2
100
AcDbLine
 10
-5596.971333266615
 20
-4528.753090632437
 30
0.0
 11
-5671.301772651061
 21
-4454.422651247989
 31
0.0
  0
LINE
  5
DE5
330
B90
100
AcDbEntity
  8
0
 62
     0
370
    -2
100
AcDbLine
 10
-5883.150964294496
 20
-4666.837528316367
 30
0.0
 11
-5953.861642413151
 21
-4737.548206435021
 31
0.0
  0
LINE
  5
DE6
330
B90
100
AcDbEntity
  8
0
 62
     0
370
    -2
100
AcDbLine
 10
-5600.308251819931
 20
-4383.99481584181
 30
0.0
 11
-5529.597573701275
 21
-4313.284137723156
 31
0.0
  0
SOLID
  5
DE7
330
B90
100
AcDbEntity
  8
0
 62
     0
100
AcDbTrace
 10
-5894.936077314271
 20
-4655.052415296592
 30
0.0
 11
-5871.36585127472
 21
-4678.622641336143
 31
0.0
 12
-5812.44028617584
 22
-4596.126850197714
 32
0.0
 13
-5812.44028617584
 23
-4596.126850197714
 33
0.0
  0
SOLID
  5
DE8
330
B90
100
AcDbEntity
  8
0
 62
     0
100
AcDbTrace
 10
-5612.093364839706
 20
-4372.209702822034
 30
0.0
 11
-5588.523138800155
 21
-4395.779928861586
 31
0.0
 12
-5671.018929938587
 22
-4454.705493960464
 32
0.0
 13
-5671.018929938587
 23
-4454.705493960464
 33
0.0
  0
MTEXT
  5
DE9
330
B90
100
AcDbEntity
  8
0
 62
     0
100
AcDbMText
 10
-5774.787959453944
 20
-4492.357820682358
 30
0.0
 40
90.0
 41
0.0
 71
     5
 72
     1
  1
\A1;200
  7
STYLE2
 11
0.7071067811865567
 21
0.7071067811865384
 31
0.0
 73
     1
 44
1.0
  0
POINT
  5
DEA
330
B90
100
AcDbEntity
  8
Defpoints
 62
     0
100
AcDbPoint
 10
-5738.392689503868
 20
-4670.174446869687
 30
0.0
  0
POINT
  5
DEB
330
B90
100
AcDbEntity
  8
Defpoints
 62
     0
100
AcDbPoint
 10
-5596.971333266615
 20
-4528.753090632437
 30
0.0
  0
POINT
  5
DEC
330
B90
100
AcDbEntity
  8
Defpoints
 62
     0
100
AcDbPoint
 10
-5671.018929938587
 20
-4454.705493960464
 30
0.0
  0
ENDBLK
  5
B9C
330
B90
100
AcDbEntity
  8
0
100
AcDbBlockEnd
  0
BLOCK
  5
BA8
330
B9D
100
AcDbEntity
  8
0
100
AcDbBlockBegin
  2
*D16
 70
     1
 10
0.0
 20
0.0
 30
0.0
  3
*D16
  1

  0
LINE
  5
DED
330
B9D
100
AcDbEntity
  8
0
 62
     0
370
    -2
100
AcDbLine
 10
-5703.037350444557
 20
-4776.240464047629
 30
0.0
 11
-5904.629731558647
 21
-4574.64808293354
 31
0.0
  0
LINE
  5
DEE
330
B9D
100
AcDbEntity
  8
0
 62
     0
370
    -2
100
AcDbLine
 10
-5490.905316088678
 20
-4564.10842969175
 30
0.0
 11
-5692.497697202768
 21
-4362.516048577661
 31
0.0
  0
LINE
  5
DEF
330
B9D
100
AcDbEntity
  8
0
 62
     0
370
    -2
100
AcDbLine
 10
-5833.636210727517
 20
-4504.22024752736
 30
0.0
 11
-5762.925532608949
 21
-4433.50956940879
 31
0.0
  0
SOLID
  5
DF0
330
B9D
100
AcDbEntity
  8
0
 62
     0
100
AcDbTrace
 10
-5845.421323747293
 20
-4492.435134507584
 30
0.0
 11
-5821.851097707741
 21
-4516.005360547135
 31
0.0
 12
-5904.346888846172
 22
-4574.930925646015
 32
0.0
 13
-5904.346888846172
 23
-4574.930925646015
 33
0.0
  0
SOLID
  5
DF1
330
B9D
100
AcDbEntity
  8
0
 62
     0
100
AcDbTrace
 10
-5774.710645628724
 20
-4421.724456389014
 30
0.0
 11
-5751.140419589173
 21
-4445.294682428565
 31
0.0
 12
-5692.214854490294
 22
-4362.798891290136
 32
0.0
 13
-5692.214854490294
 23
-4362.798891290136
 33
0.0
  0
MTEXT
  5
DF2
330
B9D
100
AcDbEntity
  8
0
 62
     0
100
AcDbMText
 10
-5831.339223064963
 20
-4435.806557071343
 30
0.0
 40
90.0
 41
0.0
 71
     5
 72
     1
  1
\A1;300
  7
STYLE2
 11
0.707106781186546
 21
0.707106781186549
 31
0.0
 73
     1
 44
1.0
  0
POINT
  5
DF3
330
B9D
100
AcDbEntity
  8
Defpoints
 62
     0
100
AcDbPoint
 10
-5703.037350444557
 20
-4776.240464047629
 30
0.0
  0
POINT
  5
DF4
330
B9D
100
AcDbEntity
  8
Defpoints
 62
     0
100
AcDbPoint
 10
-5490.905316088678
 20
-4564.10842969175
 30
0.0
  0
POINT
  5
DF5
330
B9D
100
AcDbEntity
  8
Defpoints
 62
     0
100
AcDbPoint
 10
-5692.214854490294
 20
-4362.798891290136
 30
0.0
  0
ENDBLK
  5
BA9
330
B9D
100
AcDbEntity
  8
0
100
AcDbBlockEnd
  0
BLOCK
  5
BB5
330
BAA
100
AcDbEntity
  8
0
100
AcDbBlockBegin
  2
*D17
 70
     1
 10
0.0
 20
0.0
 30
0.0
  3
*D17
  1

  0
LINE
  5
E08
330
BAA
100
AcDbEntity
  8
0
 62
     0
370
    -2
100
AcDbLine
 10
-5604.04240107848
 20
-4234.581383075087
 30
0.0
 11
-5255.975291185888
 21
-4234.581383075087
 31
0.0
  0
LINE
  5
E09
330
BAA
100
AcDbEntity
  8
0
 62
     0
370
    -2
100
AcDbLine
 10
-5604.882774297189
 20
-3734.581383075286
 30
0.0
 11
-5255.975291185888
 21
-3734.581383075286
 31
0.0
  0
LINE
  5
E0A
330
BAA
100
AcDbEntity
  8
0
 62
     0
370
    -2
100
AcDbLine
 10
-5256.375291185887
 20
-4134.581383075087
 30
0.0
 11
-5256.375291185887
 21
-3834.581383075286
 31
0.0
  0
SOLID
  5
E0B
330
BAA
100
AcDbEntity
  8
0
 62
     0
100
AcDbTrace
 10
-5273.041957852554
 20
-4134.581383075087
 30
0.0
 11
-5239.70862451922
 21
-4134.581383075087
 31
0.0
 12
-5256.375291185887
 22
-4234.581383075087
 32
0.0
 13
-5256.375291185887
 23
-4234.581383075087
 33
0.0
  0
SOLID
  5
E0C
330
BAA
100
AcDbEntity
  8
0
 62
     0
100
AcDbTrace
 10
-5273.041957852554
 20
-3834.581383075286
 30
0.0
 11
-5239.70862451922
 21
-3834.581383075286
 31
0.0
 12
-5256.375291185887
 22
-3734.581383075286
 32
0.0
 13
-5256.375291185887
 23
-3734.581383075286
 33
0.0
  0
MTEXT
  5
E0D
330
BAA
100
AcDbEntity
  8
0
 62
     0
100
AcDbMText
 10
-5303.126860080839
 20
-3984.581383075187
 30
0.0
 40
90.0
 41
0.0
 71
     5
 72
     1
  1
\A1;500
  7
STYLE2
 11
6.123233995736766E-17
 21
1.0
 31
0.0
 73
     1
 44
1.0
  0
POINT
  5
E0E
330
BAA
100
AcDbEntity
  8
Defpoints
 62
     0
100
AcDbPoint
 10
-5604.04240107848
 20
-4234.581383075087
 30
0.0
  0
POINT
  5
E0F
330
BAA
100
AcDbEntity
  8
Defpoints
 62
     0
100
AcDbPoint
 10
-5604.882774297189
 20
-3734.581383075286
 30
0.0
  0
POINT
  5
E10
330
BAA
100
AcDbEntity
  8
Defpoints
 62
     0
100
AcDbPoint
 10
-5256.375291185887
 20
-3734.581383075286
 30
0.0
  0
ENDBLK
  5
BB6
330
BAA
100
AcDbEntity
  8
0
100
AcDbBlockEnd
  0
BLOCK
  5
BC2
330
BB7
100
AcDbEntity
  8
0
100
AcDbBlockBegin
  2
*D18
 70
     1
 10
0.0
 20
0.0
 30
0.0
  3
*D18
  1

  0
LINE
  5
DFF
330
BB7
100
AcDbEntity
  8
0
 62
     0
370
    -2
100
AcDbLine
 10
-5422.141532741537
 20
-3734.581383075286
 30
0.0
 11
-5255.975291185888
 21
-3734.581383075286
 31
0.0
  0
LINE
  5
E00
330
BB7
100
AcDbEntity
  8
0
 62
     0
370
    -2
100
AcDbLine
 10
-5604.882774297189
 20
-3434.581383075406
 30
0.0
 11
-5255.975291185888
 21
-3434.581383075406
 31
0.0
  0
LINE
  5
E01
330
BB7
100
AcDbEntity
  8
0
 62
     0
370
    -2
100
AcDbLine
 10
-5256.375291185887
 20
-3634.581383075286
 30
0.0
 11
-5256.375291185887
 21
-3534.581383075406
 31
0.0
  0
SOLID
  5
E02
330
BB7
100
AcDbEntity
  8
0
 62
     0
100
AcDbTrace
 10
-5273.041957852554
 20
-3634.581383075286
 30
0.0
 11
-5239.70862451922
 21
-3634.581383075286
 31
0.0
 12
-5256.375291185887
 22
-3734.581383075286
 32
0.0
 13
-5256.375291185887
 23
-3734.581383075286
 33
0.0
  0
SOLID
  5
E03
330
BB7
100
AcDbEntity
  8
0
 62
     0
100
AcDbTrace
 10
-5273.041957852554
 20
-3534.581383075406
 30
0.0
 11
-5239.70862451922
 21
-3534.581383075406
 31
0.0
 12
-5256.375291185887
 22
-3434.581383075406
 32
0.0
 13
-5256.375291185887
 23
-3434.581383075406
 33
0.0
  0
MTEXT
  5
E04
330
BB7
100
AcDbEntity
  8
0
 62
     0
100
AcDbMText
 10
-5303.126860080839
 20
-3584.581383075347
 30
0.0
 40
90.0
 41
0.0
 71
     5
 72
     1
  1
\A1;300
  7
STYLE2
 11
6.123233995736766E-17
 21
1.0
 31
0.0
 73
     1
 44
1.0
  0
POINT
  5
E05
330
BB7
100
AcDbEntity
  8
Defpoints
 62
     0
100
AcDbPoint
 10
-5422.141532741537
 20
-3734.581383075286
 30
0.0
  0
POINT
  5
E06
330
BB7
100
AcDbEntity
  8
Defpoints
 62
     0
100
AcDbPoint
 10
-5604.882774297189
 20
-3434.581383075406
 30
0.0
  0
POINT
  5
E07
330
BB7
100
AcDbEntity
  8
Defpoints
 62
     0
100
AcDbPoint
 10
-5256.375291185887
 20
-3434.581383075406
 30
0.0
  0
ENDBLK
  5
BC3
330
BB7
100
AcDbEntity
  8
0
100
AcDbBlockEnd
  0
BLOCK
  5
BE9
330
BDE
100
AcDbEntity
  8
0
100
AcDbBlockBegin
  2
*D21
 70
     1
 10
0.0
 20
0.0
 30
0.0
  3
*D21
  1

  0
LINE
  5
D51
330
BDE
100
AcDbEntity
  8
0
 62
     0
370
    -2
100
AcDbLine
 10
-5615.904308888507
 20
-4813.460588745295
 30
0.0
 11
-5615.904308888507
 21
-4969.82388083263
 31
0.0
  0
LINE
  5
D52
330
BDE
100
AcDbEntity
  8
0
 62
     0
370
    -2
100
AcDbLine
 10
-5577.983961805553
 20
-4811.682011017704
 30
0.0
 11
-5577.983961805553
 21
-4969.82388083263
 31
0.0
  0
LINE
  5
D53
330
BDE
100
AcDbEntity
  8
0
 62
     0
370
    -2
100
AcDbLine
 10
-5613.404308888507
 20
-4968.57388083263
 30
0.0
 11
-5580.483961805553
 21
-4968.57388083263
 31
0.0
  0
SOLID
  5
D54
330
BDE
100
AcDbEntity
  8
0
 62
     0
100
AcDbTrace
 10
-5613.404308888507
 20
-4968.157214165964
 30
0.0
 11
-5613.404308888507
 21
-4968.990547499297
 31
0.0
 12
-5615.904308888507
 22
-4968.57388083263
 32
0.0
 13
-5615.904308888507
 23
-4968.57388083263
 33
0.0
  0
SOLID
  5
D55
330
BDE
100
AcDbEntity
  8
0
 62
     0
100
AcDbTrace
 10
-5580.483961805553
 20
-4968.157214165964
 30
0.0
 11
-5580.483961805553
 21
-4968.990547499297
 31
0.0
 12
-5577.983961805553
 22
-4968.57388083263
 32
0.0
 13
-5577.983961805553
 23
-4968.57388083263
 33
0.0
  0
MTEXT
  5
D56
330
BDE
100
AcDbEntity
  8
0
 62
     0
100
AcDbMText
 10
-5596.94413534703
 20
-4966.69888083263
 30
0.0
 40
2.5
 41
0.0
 71
     5
 72
     1
  1
40
 73
     1
 44
1.0
  0
POINT
  5
D57
330
BDE
100
AcDbEntity
  8
Defpoints
 62
     0
100
AcDbPoint
 10
-5615.904308888507
 20
-4812.835588745295
 30
0.0
  0
POINT
  5
D58
330
BDE
100
AcDbEntity
  8
Defpoints
 62
     0
100
AcDbPoint
 10
-5577.983961805553
 20
-4811.057011017704
 30
0.0
  0
POINT
  5
D59
330
BDE
100
AcDbEntity
  8
Defpoints
 62
     0
100
AcDbPoint
 10
-5577.983961805553
 20
-4968.57388083263
 30
0.0
  0
ENDBLK
  5
BEA
330
BDE
100
AcDbEntity
  8
0
100
AcDbBlockEnd
  0
BLOCK
  5
BF6
330
BEB
100
AcDbEntity
  8
0
100
AcDbBlockBegin
  2
*D22
 70
     1
 10
0.0
 20
0.0
 30
0.0
  3
*D22
  1

  0
LINE
  5
D5A
330
BEB
100
AcDbEntity
  8
0
 62
     0
370
    -2
100
AcDbLine
 10
-5597.596333266615
 20
-4800.09580310694
 30
0.0
 11
-5749.282895550609
 21
-4800.09580310694
 31
0.0
  0
LINE
  5
D5B
330
BEB
100
AcDbEntity
  8
0
 62
     0
370
    -2
100
AcDbLine
 10
-5597.596333266615
 20
-4823.095803106931
 30
0.0
 11
-5749.282895550609
 21
-4823.095803106931
 31
0.0
  0
LINE
  5
D5C
330
BEB
100
AcDbEntity
  8
0
 62
     0
370
    -2
100
AcDbLine
 10
-5748.032895550609
 20
-4802.59580310694
 30
0.0
 11
-5748.032895550609
 21
-4820.595803106931
 31
0.0
  0
SOLID
  5
D5D
330
BEB
100
AcDbEntity
  8
0
 62
     0
100
AcDbTrace
 10
-5748.449562217276
 20
-4802.59580310694
 30
0.0
 11
-5747.616228883942
 21
-4802.59580310694
 31
0.0
 12
-5748.032895550609
 22
-4800.09580310694
 32
0.0
 13
-5748.032895550609
 23
-4800.09580310694
 33
0.0
  0
SOLID
  5
D5E
330
BEB
100
AcDbEntity
  8
0
 62
     0
100
AcDbTrace
 10
-5748.449562217276
 20
-4820.595803106931
 30
0.0
 11
-5747.616228883942
 21
-4820.595803106931
 31
0.0
 12
-5748.032895550609
 22
-4823.095803106931
 32
0.0
 13
-5748.032895550609
 23
-4823.095803106931
 33
0.0
  0
MTEXT
  5
D5F
330
BEB
100
AcDbEntity
  8
0
 62
     0
100
AcDbMText
 10
-5749.907895550608
 20
-4811.595803106937
 30
0.0
 40
2.5
 41
0.0
 71
     5
 72
     1
  1
24
 11
6.123233995736766E-17
 21
1.0
 31
0.0
 73
     1
 44
1.0
  0
POINT
  5
D60
330
BEB
100
AcDbEntity
  8
Defpoints
 62
     0
100
AcDbPoint
 10
-5596.971333266615
 20
-4800.09580310694
 30
0.0
  0
POINT
  5
D61
330
BEB
100
AcDbEntity
  8
Defpoints
 62
     0
100
AcDbPoint
 10
-5596.971333266615
 20
-4823.095803106931
 30
0.0
  0
POINT
  5
D62
330
BEB
100
AcDbEntity
  8
Defpoints
 62
     0
100
AcDbPoint
 10
-5748.032895550609
 20
-4823.095803106931
 30
0.0
  0
ENDBLK
  5
BF7
330
BEB
100
AcDbEntity
  8
0
100
AcDbBlockEnd
  0
BLOCK
  5
C03
330
BF8
100
AcDbEntity
  8
0
100
AcDbBlockBegin
  2
*D23
 70
     1
 10
0.0
 20
0.0
 30
0.0
  3
*D23
  1

  0
LINE
  5
DD1
330
BF8
100
AcDbEntity
  8
0
 62
     0
370
    -2
100
AcDbLine
 10
-5532.205664072298
 20
1655.418616924429
 30
0.0
 11
-5532.205664072298
 21
2003.712492980339
 31
0.0
  0
LINE
  5
DD2
330
BF8
100
AcDbEntity
  8
0
 62
     0
370
    -2
100
AcDbLine
 10
-4765.08987894614
 20
1655.418616924429
 30
0.0
 11
-4765.08987894614
 21
2003.712492980339
 31
0.0
  0
LINE
  5
DD3
330
BF8
100
AcDbEntity
  8
0
 62
     0
370
    -2
100
AcDbLine
 10
-5432.205664072298
 20
2003.312492980339
 30
0.0
 11
-4865.08987894614
 21
2003.312492980339
 31
0.0
  0
SOLID
  5
DD4
330
BF8
100
AcDbEntity
  8
0
 62
     0
100
AcDbTrace
 10
-5432.205664072298
 20
2019.979159647006
 30
0.0
 11
-5432.205664072298
 21
1986.645826313672
 31
0.0
 12
-5532.205664072298
 22
2003.312492980339
 32
0.0
 13
-5532.205664072298
 23
2003.312492980339
 33
0.0
  0
SOLID
  5
DD5
330
BF8
100
AcDbEntity
  8
0
 62
     0
100
AcDbTrace
 10
-4865.08987894614
 20
2019.979159647006
 30
0.0
 11
-4865.08987894614
 21
1986.645826313672
 31
0.0
 12
-4765.08987894614
 22
2003.312492980339
 32
0.0
 13
-4765.08987894614
 23
2003.312492980339
 33
0.0
  0
MTEXT
  5
DD6
330
BF8
100
AcDbEntity
  8
0
 62
     0
100
AcDbMText
 10
-5148.647771509219
 20
2050.064061875291
 30
0.0
 40
90.0
 41
0.0
 71
     5
 72
     1
  1
\A1;750
  7
STYLE2
 73
     1
 44
1.0
  0
POINT
  5
DD7
330
BF8
100
AcDbEntity
  8
Defpoints
 62
     0
100
AcDbPoint
 10
-5532.205664072298
 20
1655.418616924429
 30
0.0
  0
POINT
  5
DD8
330
BF8
100
AcDbEntity
  8
Defpoints
 62
     0
100
AcDbPoint
 10
-4765.08987894614
 20
1655.418616924429
 30
0.0
  0
POINT
  5
DD9
330
BF8
100
AcDbEntity
  8
Defpoints
 62
     0
100
AcDbPoint
 10
-4765.08987894614
 20
2003.312492980339
 30
0.0
  0
ENDBLK
  5
C04
330
BF8
100
AcDbEntity
  8
0
100
AcDbBlockEnd
  0
BLOCK
  5
C10
330
C05
100
AcDbEntity
  8
0
100
AcDbBlockBegin
  2
*D24
 70
     1
 10
0.0
 20
0.0
 30
0.0
  3
*D24
  1

  0
LINE
  5
D6C
330
C05
100
AcDbEntity
  8
0
 62
     0
370
    -2
100
AcDbLine
 10
-5401.733846132184
 20
-4234.581383075087
 30
0.0
 11
-5903.390915123703
 21
-4234.581383075087
 31
0.0
  0
LINE
  5
D6D
330
C05
100
AcDbEntity
  8
0
 62
     0
370
    -2
100
AcDbLine
 10
-5401.733846132184
 20
-4224.581383075091
 30
0.0
 11
-5903.390915123703
 21
-4224.581383075091
 31
0.0
  0
LINE
  5
D6E
330
C05
100
AcDbEntity
  8
0
 62
     0
370
    -2
100
AcDbLine
 10
-5902.140915123703
 20
-4232.081383075087
 30
0.0
 11
-5902.140915123703
 21
-4227.081383075091
 31
0.0
  0
SOLID
  5
D6F
330
C05
100
AcDbEntity
  8
0
 62
     0
100
AcDbTrace
 10
-5902.55758179037
 20
-4232.081383075087
 30
0.0
 11
-5901.724248457036
 21
-4232.081383075087
 31
0.0
 12
-5902.140915123703
 22
-4234.581383075087
 32
0.0
 13
-5902.140915123703
 23
-4234.581383075087
 33
0.0
  0
SOLID
  5
D70
330
C05
100
AcDbEntity
  8
0
 62
     0
100
AcDbTrace
 10
-5902.55758179037
 20
-4227.081383075091
 30
0.0
 11
-5901.724248457036
 21
-4227.081383075091
 31
0.0
 12
-5902.140915123703
 22
-4224.581383075091
 32
0.0
 13
-5902.140915123703
 23
-4224.581383075091
 33
0.0
  0
MTEXT
  5
D71
330
C05
100
AcDbEntity
  8
0
 62
     0
100
AcDbMText
 10
-5904.015915123702
 20
-4229.58138307509
 30
0.0
 40
2.5
 41
0.0
 71
     5
 72
     1
  1
10
 11
6.123233995736766E-17
 21
1.0
 31
0.0
 73
     1
 44
1.0
  0
POINT
  5
D72
330
C05
100
AcDbEntity
  8
Defpoints
 62
     0
100
AcDbPoint
 10
-5401.108846132184
 20
-4234.581383075087
 30
0.0
  0
POINT
  5
D73
330
C05
100
AcDbEntity
  8
Defpoints
 62
     0
100
AcDbPoint
 10
-5401.108846132184
 20
-4224.581383075091
 30
0.0
  0
POINT
  5
D74
330
C05
100
AcDbEntity
  8
Defpoints
 62
     0
100
AcDbPoint
 10
-5902.140915123703
 20
-4224.581383075091
 30
0.0
  0
ENDBLK
  5
C11
330
C05
100
AcDbEntity
  8
0
100
AcDbBlockEnd
  0
BLOCK
  5
C1C
330
C12
100
AcDbEntity
  8
0
100
AcDbBlockBegin
  2
*D25
 70
     1
 10
0.0
 20
0.0
 30
0.0
  3
*D25
  1

  0
LINE
  5
DDA
330
C12
100
AcDbEntity
  8
0
 62
     0
370
    -2
100
AcDbLine
 10
-5213.175291185887
 20
-4234.581383075087
 30
0.0
 11
-4561.925540520187
 21
-4234.581383075087
 31
0.0
  0
LINE
  5
DDB
330
C12
100
AcDbEntity
  8
0
 62
     0
370
    -2
100
AcDbLine
 10
-4765.08987894614
 20
1535.418616924429
 30
0.0
 11
-4561.925540520187
 21
1535.418616924429
 31
0.0
  0
LINE
  5
DDC
330
C12
100
AcDbEntity
  8
0
 62
     0
370
    -2
100
AcDbLine
 10
-4562.325540520187
 20
-4134.581383075087
 30
0.0
 11
-4562.325540520186
 21
1435.418616924429
 31
0.0
  0
SOLID
  5
DDD
330
C12
100
AcDbEntity
  8
0
 62
     0
100
AcDbTrace
 10
-4578.992207186854
 20
-4134.581383075087
 30
0.0
 11
-4545.65887385352
 21
-4134.581383075087
 31
0.0
 12
-4562.325540520187
 22
-4234.581383075087
 32
0.0
 13
-4562.325540520187
 23
-4234.581383075087
 33
0.0
  0
SOLID
  5
DDE
330
C12
100
AcDbEntity
  8
0
 62
     0
100
AcDbTrace
 10
-4578.992207186853
 20
1435.418616924429
 30
0.0
 11
-4545.658873853519
 21
1435.418616924429
 31
0.0
 12
-4562.325540520186
 22
1535.418616924429
 32
0.0
 13
-4562.325540520186
 23
1535.418616924429
 33
0.0
  0
MTEXT
  5
DDF
330
C12
100
AcDbEntity
  8
0
 62
     0
100
AcDbMText
 10
-4609.077109415139
 20
-1349.58138307533
 30
0.0
 40
90.0
 41
0.0
 71
     5
 72
     1
  1
\A1;5770
  7
STYLE2
 11
6.123233995736766E-17
 21
1.0
 31
0.0
 73
     1
 44
1.0
  0
POINT
  5
DE0
330
C12
100
AcDbEntity
  8
Defpoints
 62
     0
100
AcDbPoint
 10
-5213.175291185887
 20
-4234.581383075087
 30
0.0
  0
POINT
  5
DE1
330
C12
100
AcDbEntity
  8
Defpoints
 62
     0
100
AcDbPoint
 10
-4765.08987894614
 20
1535.418616924429
 30
0.0
  0
POINT
  5
DE2
330
C12
100
AcDbEntity
  8
Defpoints
 62
     0
100
AcDbPoint
 10
-4562.325540520186
 20
1535.418616924429
 30
0.0
  0
ENDBLK
  5
C1D
330
C12
100
AcDbEntity
  8
0
100
AcDbBlockEnd
  0
ENDSEC
  0
SECTION
  2
ENTITIES
  0
MTEXT
  5
382
330
1F
100
AcDbEntity
  8
D
 48
0.5
100
AcDbMText
 10
-2796.673543478973
 20
1924.661674222588
 30
-952.243841260342
 40
32.0
 41
1638.03891184054
 71
     1
 72
     5
  3
{\fVirtueLight|b0|i0|c0|p2;\H1.563x;Columna recomendada para zonas residenciales, zonas peatonales, centros históricos, zonas lúdicas, zonas verdes, recintos de comunidades y plazas.\P\PColumna telescópica fabricada en dos piezas y de altura total 6
  3
000 mm. Base y fuste de sección simétrica respecto un eje diagonal obtenida a partir de una sección cuadrada mediante deslizamiento y rotación respecto a un eje perpendicular.  La altura de la base es de 1220 mm. Brazo de 750 mm de largo, situado a 
  3
5970 mm de labase y con salida para acoplar luminaria en posición suspendida.\P\P\fVirtue|b0|i0|c0|p2;Base:\fVirtueLight|b0|i0|c0|p2; fabricada en acero y acabados superficiales mediante revestimiento de poliuretano texturado en forja.\P\fVirtue|b0|
  3
i0|c0|p2;Fuste:\fVirtueLight|b0|i0|c0|p2; de madera tropical tratada con barniz ecológico, con alma interior en acero galvanizado.\PBrazo de acero galvanizado acabado negro microtexturado.\P\P\P\PPernos de anclaje M18 x 500 mm (IA01)\P\P\P\P\H0.8997
  1
x;MODELO PATENTADO}
  7
STYLE2
 73
     1
 44
1.0
  0
MTEXT
  5
383
330
1F
100
AcDbEntity
  8
D
 48
0.5
100
AcDbMText
 10
-3376.318890786551
 20
1931.827237504606
 30
-952.243841260342
 40
32.0
 41
550.8571428571428
 71
     1
 72
     5
  1
{\fVirtue|b0|i0|c0|p2;\H1.563x;APLICACIÓN:\P\P\P\PDESCRIPCIÓN:\P\P\P\P\P\P\P\P\P\PMATERIAL:\P\P\P\P\P\P\P\P\PFIJACIÓN:}
  7
STYLE2
 73
     1
 44
1.0
  0
INSERT
  5
4D2
330
1F
100
AcDbEntity
  8
D
 48
0.5
100
AcDbBlockReference
  2
Perno anclaje IA01+Cotas
 10
-2835.675088597329
 20
-2647.536689062847
 30
0.0
  0
MTEXT
  5
5F1
330
1F
100
AcDbEntity
  8
Cotas
 48
0.5
100
AcDbMText
 10
-4300.215733911716
 20
-4467.284197814178
 30
-26.36534533655413
 40
75.0
 41
742.5173931737281
 71
     1
 72
     5
  1
{\fVirtueLight|b0|i0|c0|p2;PLANTILLA IPTU}
  7
STYLE2
 73
     1
 44
1.0
  0
INSERT
  5
79D
330
1F
100
AcDbEntity
  8
D
100
AcDbBlockReference
 66
     1
  2
Prova
 10
-7302.523190645195
 20
-6238.034880228965
 30
0.0
 41
35.0
 42
35.0
 43
35.0
  0
ATTRIB
  5
79E
330
79D
100
AcDbEntity
  8
D
 62
     7
 48
0.5
100
AcDbText
 10
-3424.945097422627
 20
3026.861398321804
 30
0.0
 40
52.5
  1
Departamento I + D, 2002
  7
TIPO LIGHT
100
AcDbAttribute
  2
AUTOR
 70
     0
  0
ATTRIB
  5
79F
330
79D
100
AcDbEntity
  8
D
 62
     7
 48
0.5
100
AcDbText
 10
-1501.041170861499
 20
2925.524324666339
 30
0.0
 40
95.0
  1
ICFU601APP
  7
TIPO NEGRETA
100
AcDbAttribute
  2
REF
 70
     0
  0
ATTRIB
  5
7A0
330
79D
100
AcDbEntity
  8
D
 62
     7
 48
0.5
100
AcDbText
 10
-1824.033629895408
 20
2773.604461435649
 30
0.0
 40
74.37360744509644
  1
1/35
  7
TIPO LIGHT
100
AcDbAttribute
  2
ESC
 70
     0
  0
ATTRIB
  5
7A1
330
79D
100
AcDbEntity
  8
D
 62
     7
 48
0.5
100
AcDbText
 10
-3151.593242522558
 20
2776.055538557093
 30
0.0
 40
52.5
  1
© Fundició Dúctil Benito
  7
TIPO LIGHT
100
AcDbAttribute
  2
PRODUCTOR
 70
     0
  0
ATTRIB
  5
7A2
330
79D
100
AcDbEntity
  8
D
 62
     7
 48
0.5
100
AcDbText
 10
-1853.370535494949
 20
3028.605465079063
 30
0.0
 40
54.6841776364963
  1
mm
  7
TIPO LIGHT
100
AcDbAttribute
  2
COTAS
 70
     0
  0
ATTRIB
  5
7A3
330
79D
100
AcDbEntity
  8
D
 62
     7
 48
0.5
100
AcDbText
 10
-5143.692179662751
 20
2957.974292428737
 30
0.0
 40
105.0
  1
Fusta 60 acero
  7
TIPO NEGRETA
100
AcDbAttribute
  2
NOMBRE_PIEZA
 70
     0
  0
ATTRIB
  5
7A4
330
79D
100
AcDbEntity
  8
D
 62
     7
 48
0.5
100
AcDbText
 10
-5143.692179662751
 20
2721.647177403689
 30
0.0
 40
87.5
  1
General
  7
TIPO NEGRETA
100
AcDbAttribute
  2
Planta
 70
     0
  0
SEQEND
  5
7A5
330
79D
100
AcDbEntity
  8
D
  0
DIMENSION
  5
AF3
330
1F
100
AcDbEntity
  8
0
100
AcDbDimension
  2
*D15
 10
-5671.018929938587
 20
-4454.705493960464
 30
0.0
 11
-5774.787959453944
 21
-4492.357820682358
 31
0.0
 70
    33
 71
     5
 42
199.9999999999181
  3
STANDARD
100
AcDbAlignedDimension
 13
-5738.392689503868
 23
-4670.174446869687
 33
0.0
 14
-5596.971333266615
 24
-4528.753090632437
 34
0.0
1001
ACAD
1000
DSTYLE
1002
{
1070
    40
1040
1.0
1070
    41
1040
100.0
1070
   140
1040
500.0
1070
   340
1005
196
1002
}
  0
DIMENSION
  5
AF4
330
1F
100
AcDbEntity
  8
0
100
AcDbDimension
  2
*D16
 10
-5692.214854490294
 20
-4362.798891290136
 30
0.0
 11
-5831.339223064963
 21
-4435.806557071343
 31
0.0
 70
    33
 71
     5
 42
299.999999999879
  3
STANDARD
100
AcDbAlignedDimension
 13
-5703.037350444557
 23
-4776.240464047629
 33
0.0
 14
-5490.905316088679
 24
-4564.10842969175
 34
0.0
1001
ACAD
1000
DSTYLE
1002
{
1070
    40
1040
1.0
1070
    41
1040
100.0
1070
   140
1040
500.0
1070
   340
1005
196
1002
}
  0
DIMENSION
  5
AF5
330
1F
100
AcDbEntity
  8
0
100
AcDbDimension
  2
*D17
 10
-5256.375291185887
 20
-3734.581383075286
 30
0.0
 11
-5303.126860080839
 21
-3984.581383075187
 31
0.0
 70
    32
 71
     5
 42
499.9999999997999
  3
STANDARD
100
AcDbAlignedDimension
 13
-5604.04240107848
 23
-4234.581383075087
 33
0.0
 14
-5604.882774297189
 24
-3734.581383075287
 34
0.0
 50
90.0
100
AcDbRotatedDimension
1001
ACAD
1000
DSTYLE
1002
{
1070
    40
1040
1.0
1070
    41
1040
100.0
1070
   140
1040
500.0
1070
   340
1005
196
1002
}
  0
DIMENSION
  5
AF6
330
1F
100
AcDbEntity
  8
0
100
AcDbDimension
  2
*D18
 10
-5256.375291185887
 20
-3434.581383075406
 30
0.0
 11
-5303.126860080839
 21
-3584.581383075347
 31
0.0
 70
    32
 71
     5
 42
299.9999999998799
  3
STANDARD
100
AcDbAlignedDimension
 13
-5422.141532741537
 23
-3734.581383075287
 33
0.0
 14
-5604.882774297189
 24
-3434.581383075407
 34
0.0
 50
90.0
100
AcDbRotatedDimension
1001
ACAD
1000
DSTYLE
1002
{
1070
    40
1040
1.0
1070
    41
1040
100.0
1070
   140
1040
500.0
1070
   340
1005
196
1002
}
  0
CIRCLE
  5
AF8
330
1F
100
AcDbEntity
  8
0
100
AcDbCircle
 10
-5604.882774297189
 20
-3464.581383075395
 30
0.0
 40
3.399999999998639
  0
LINE
  5
AF9
330
1F
100
AcDbEntity
  8
0
100
AcDbLine
 10
-5505.987390651536
 20
-3024.581383075571
 30
0.0
 11
-5493.99575905007
 21
-3024.581383075571
 31
0.0
  0
LINE
  5
AFA
330
1F
100
AcDbEntity
  8
0
100
AcDbLine
 10
-5542.864221865199
 20
-3024.581383075571
 30
0.0
 11
-5505.987390651536
 21
-3024.581383075571
 31
0.0
  0
ARC
  5
AFB
330
1F
100
AcDbEntity
  8
0
100
AcDbCircle
 10
-5505.987390651536
 20
-3026.58138307557
 30
0.0
 40
1.999999999999202
100
AcDbArc
 50
0.0
 51
90.0
  0
LINE
  5
AFC
330
1F
100
AcDbEntity
  8
0
100
AcDbLine
 10
-5551.34779473463
 20
-3024.581383075571
 30
0.0
 11
-5542.864221865199
 21
-3024.581383075571
 31
0.0
  0
LINE
  5
AFD
330
1F
100
AcDbEntity
  8
0
100
AcDbLine
 10
-5657.385107662049
 20
-3024.581383075571
 30
0.0
 11
-5551.34779473463
 21
-3024.581383075571
 31
0.0
  0
LINE
  5
AFE
330
1F
100
AcDbEntity
  8
0
100
AcDbLine
 10
-5699.946907483166
 20
-3024.581383075571
 30
0.0
 11
-5657.385107662049
 21
-3024.581383075571
 31
0.0
  0
LINE
  5
AFF
330
1F
100
AcDbEntity
  8
0
100
AcDbLine
 10
-5589.900265454756
 20
-4224.581383075091
 30
0.0
 11
-5391.910366722602
 21
-4224.581383075091
 31
0.0
  0
ELLIPSE
  5
B00
330
1F
100
AcDbEntity
  8
0
100
AcDbEllipse
 10
-5554.970223203659
 20
-4219.581383075092
 30
0.0
 11
3.469446951952228E-15
 21
4.999999999997996
 31
0.0
210
0.0
220
0.0
230
1.0
 40
0.5174897812898108
 41
3.141592653589794
 42
4.71238898038469
  0
LINE
  5
B01
330
1F
100
AcDbEntity
  8
0
100
AcDbLine
 10
-5589.900265454756
 20
-4234.581383075087
 30
0.0
 11
-5391.910366722602
 21
-4234.581383075087
 31
0.0
  0
LINE
  5
B02
330
1F
100
AcDbEntity
  8
0
100
AcDbLine
 10
-5802.032299810634
 20
-4234.581383075087
 30
0.0
 11
-5604.04240107848
 21
-4234.581383075087
 31
0.0
  0
LINE
  5
B03
330
1F
100
AcDbEntity
  8
0
100
AcDbLine
 10
-5802.032299810634
 20
-4224.581383075091
 30
0.0
 11
-5604.04240107848
 21
-4224.581383075091
 31
0.0
  0
LINE
  5
B04
330
1F
100
AcDbEntity
  8
0
100
AcDbLine
 10
-5391.910366722602
 20
-4234.581383075087
 30
0.0
 11
-5388.981434534468
 21
-4234.581383075087
 31
0.0
  0
LINE
  5
B05
330
1F
100
AcDbEntity
  8
0
100
AcDbLine
 10
-5391.910366722602
 20
-4224.581383075091
 30
0.0
 11
-5388.981434534468
 21
-4224.581383075091
 31
0.0
  0
LINE
  5
B06
330
1F
100
AcDbEntity
  8
0
100
AcDbLine
 10
-5802.032299810634
 20
-4224.581383075091
 30
0.0
 11
-5804.961231998767
 21
-4224.581383075091
 31
0.0
  0
LINE
  5
B07
330
1F
100
AcDbEntity
  8
0
100
AcDbLine
 10
-5589.900265454756
 20
-4234.581383075087
 30
0.0
 11
-5604.04240107848
 21
-4234.581383075087
 31
0.0
  0
LINE
  5
B08
330
1F
100
AcDbEntity
  8
0
100
AcDbLine
 10
-5604.04240107848
 20
-4224.581383075091
 30
0.0
 11
-5589.900265454756
 21
-4224.581383075091
 31
0.0
  0
LINE
  5
B09
330
1F
100
AcDbEntity
  8
0
100
AcDbLine
 10
-5543.80131495375
 20
-4219.581383075093
 30
0.0
 11
-5543.80131495375
 21
-3026.58138307557
 31
0.0
  0
LINE
  5
B0A
330
1F
100
AcDbEntity
  8
0
100
AcDbLine
 10
-5552.382774297211
 20
-4219.581383075093
 30
0.0
 11
-5552.382774297211
 21
-3026.58138307557
 31
0.0
  0
LINE
  5
B0B
330
1F
100
AcDbEntity
  8
0
100
AcDbLine
 10
-5702.085271183622
 20
-4219.581383075093
 30
0.0
 11
-5702.085271183622
 21
-3026.58138307557
 31
0.0
  0
LINE
  5
B0C
330
1F
100
AcDbEntity
  8
0
100
AcDbLine
 10
-5503.987390651536
 20
-4219.581383075093
 30
0.0
 11
-5503.987390651536
 21
-3026.58138307557
 31
0.0
  0
LINE
  5
B0D
330
1F
100
AcDbEntity
  8
0
100
AcDbLine
 10
-5491.857395349613
 20
-4219.581383075093
 30
0.0
 11
-5491.857395349613
 21
-3026.58138307557
 31
0.0
  0
LINE
  5
B0E
330
1F
100
AcDbEntity
  8
0
100
AcDbLine
 10
-5642.382774297174
 20
-3449.5813830754
 30
0.0
 11
-5619.882774297183
 21
-3449.5813830754
 31
0.0
  0
LINE
  5
B0F
330
1F
100
AcDbEntity
  8
0
100
AcDbLine
 10
-5589.882774297194
 20
-3449.5813830754
 30
0.0
 11
-5567.382774297203
 21
-3449.5813830754
 31
0.0
  0
CIRCLE
  5
B10
330
1F
100
AcDbEntity
  8
0
100
AcDbCircle
 10
-5597.382774297193
 20
-3037.581383075564
 30
0.0
 40
6.9999999999972
  0
ARC
  5
B11
330
1F
100
AcDbEntity
  8
0
100
AcDbCircle
 10
-5567.382774297203
 20
-3444.581383075403
 30
0.0
 40
9.999999999996037
100
AcDbArc
 50
0.0
 51
90.0
  0
LINE
  5
B12
330
1F
100
AcDbEntity
  8
0
100
AcDbLine
 10
-5567.382774297203
 20
-3434.581383075407
 30
0.0
 11
-5642.382774297174
 21
-3434.581383075407
 31
0.0
  0
ARC
  5
B13
330
1F
100
AcDbEntity
  8
0
100
AcDbCircle
 10
-5642.382774297174
 20
-3444.581383075403
 30
0.0
 40
9.999999999996009
100
AcDbArc
 50
90.0
 51
180.0
  0
LINE
  5
B14
330
1F
100
AcDbEntity
  8
0
100
AcDbLine
 10
-5652.382774297171
 20
-3444.581383075403
 30
0.0
 11
-5652.382774297171
 21
-3724.58138307529
 31
0.0
  0
LINE
  5
B15
330
1F
100
AcDbEntity
  8
0
100
AcDbLine
 10
-5642.382774297174
 20
-3734.581383075287
 30
0.0
 11
-5567.382774297203
 21
-3734.581383075287
 31
0.0
  0
LINE
  5
B16
330
1F
100
AcDbEntity
  8
0
100
AcDbLine
 10
-5557.382774297207
 20
-3724.58138307529
 30
0.0
 11
-5557.382774297207
 21
-3444.581383075403
 31
0.0
  0
ARC
  5
B17
330
1F
100
AcDbEntity
  8
0
100
AcDbCircle
 10
-5567.382774297203
 20
-3724.58138307529
 30
0.0
 40
9.999999999996009
100
AcDbArc
 50
270.0
 51
0.0
  0
ARC
  5
B18
330
1F
100
AcDbEntity
  8
0
100
AcDbCircle
 10
-5642.382774297174
 20
-3724.58138307529
 30
0.0
 40
9.999999999996009
100
AcDbArc
 50
180.0
 51
270.0
  0
LINE
  5
B19
330
1F
100
AcDbEntity
  8
0
100
AcDbLine
 10
-5567.382774297203
 20
-3434.581383075407
 30
0.0
 11
-5567.382774297203
 21
-3734.581383075287
 31
0.0
  0
LINE
  5
B1A
330
1F
100
AcDbEntity
  8
0
100
AcDbLine
 10
-5642.382774297174
 20
-3434.581383075407
 30
0.0
 11
-5642.382774297174
 21
-3734.581383075287
 31
0.0
  0
LINE
  5
B1B
330
1F
100
AcDbEntity
  8
0
100
AcDbLine
 10
-5619.882774297183
 20
-3479.581383075389
 30
0.0
 11
-5589.882774297194
 21
-3479.581383075389
 31
0.0
  0
LINE
  5
B1C
330
1F
100
AcDbEntity
  8
0
100
AcDbLine
 10
-5619.882774297183
 20
-3434.581383075407
 30
0.0
 11
-5619.882774297183
 21
-3479.581383075389
 31
0.0
  0
LINE
  5
B1D
330
1F
100
AcDbEntity
  8
0
100
AcDbLine
 10
-5589.882774297194
 20
-3479.581383075389
 30
0.0
 11
-5589.882774297194
 21
-3434.581383075407
 31
0.0
  0
ARC
  5
B1E
330
1F
100
AcDbEntity
  8
0
100
AcDbCircle
 10
-5596.559892236043
 20
-3037.581383075564
 30
0.0
 40
6.999999999997107
100
AcDbArc
 50
90.0
 51
264.6708338564902
  0
ARC
  5
B1F
330
1F
100
AcDbEntity
  8
0
100
AcDbCircle
 10
-5493.923922469666
 20
-3026.647726536478
 30
0.0
 40
2.067591785802813
100
AcDbArc
 50
1.838783129245977
 51
91.99109004132004
  0
SPLINE
  5
B20
330
1F
100
AcDbEntity
  8
0
100
AcDbSpline
210
0.0
220
0.0
230
1.0
 70
     8
 71
     3
 72
    22
 73
    18
 74
     0
 42
0.0000000001
 43
0.0000000001
 40
0.0
 40
0.0
 40
0.0
 40
0.0
 40
0.125
 40
0.125
 40
0.25
 40
0.25
 40
0.375
 40
0.375
 40
0.5
 40
0.5
 40
0.625
 40
0.625
 40
0.75
 40
0.75
 40
0.875
 40
0.875
 40
1.0
 40
1.0
 40
1.0
 40
1.0
 10
-5543.80131495375
 20
-3026.58138307557
 30
0.0
 10
-5543.80131495375
 20
-3026.437810287295
 30
0.0
 10
-5543.794073603348
 20
-3026.297372528732
 30
0.0
 10
-5543.765995978757
 20
-3026.022394597145
 30
0.0
 10
-5543.744821053479
 20
-3025.887230028432
 30
0.0
 10
-5543.69146050731
 20
-3025.636127717825
 30
0.0
 10
-5543.658848974076
 20
-3025.517458964454
 30
0.0
 10
-5543.584291103064
 20
-3025.299265880531
 30
0.0
 10
-5543.542940022088
 20
-3025.201054021854
 30
0.0
 10
-5543.452978460185
 20
-3025.024319294046
 30
0.0
 10
-5543.404319071559
 20
-3024.946116542071
 30
0.0
 10
-5543.303710515628
 20
-3024.813566549588
 30
0.0
 10
-5543.251341097476
 20
-3024.758344624433
 30
0.0
 10
-5543.142699246785
 20
-3024.669216741305
 30
0.0
 10
-5543.087691599686
 20
-3024.636363554291
 30
0.0
 10
-5542.976719935757
 20
-3024.592456781072
 30
0.0
 10
-5542.920077682652
 20
-3024.581383075571
 30
0.0
 10
-5542.864221865199
 20
-3024.581383075571
 30
0.0
  0
ELLIPSE
  5
B21
330
1F
100
AcDbEntity
  8
0
100
AcDbEllipse
 10
-5551.34779473463
 20
-3026.58138307557
 30
0.0
 11
0.0
 21
-1.999999999999202
 31
0.0
210
0.0
220
0.0
230
1.0
 40
0.5174897812898094
 41
3.141592653589793
 42
4.71238898038469
  0
ARC
  5
B22
330
1F
100
AcDbEntity
  8
0
100
AcDbCircle
 10
-5700.01874406357
 20
-3026.647726536478
 30
0.0
 40
2.067591785802815
100
AcDbArc
 50
88.00890995867996
 51
178.161216870754
  0
ARC
  5
B23
330
1F
100
AcDbEntity
  8
0
100
AcDbCircle
 10
-5498.987390651538
 20
-4219.581383075093
 30
0.0
 40
4.999999999998004
100
AcDbArc
 50
180.0
 51
270.0
  0
SPLINE
  5
B24
330
1F
100
AcDbEntity
  8
0
100
AcDbSpline
210
0.0
220
0.0
230
1.0
 70
     8
 71
     3
 72
    24
 73
    20
 74
     0
 42
0.0000000001
 43
0.0000000001
 40
0.0
 40
0.0
 40
0.0
 40
0.0
 40
0.1249999999999999
 40
0.1249999999999999
 40
0.2499999999999997
 40
0.2499999999999997
 40
0.3749999999999996
 40
0.3749999999999996
 40
0.4999999999999994
 40
0.4999999999999994
 40
0.6249999999999993
 40
0.6249999999999993
 40
0.7499999999999991
 40
0.7499999999999991
 40
0.874999999999999
 40
0.874999999999999
 40
0.9374999999999996
 40
0.9374999999999996
 40
1.0
 40
1.0
 40
1.0
 40
1.0
 10
-5543.80131495375
 20
-4219.581383075092
 30
0.0
 10
-5543.80131495375
 20
-4219.937368301894
 30
0.0
 10
-5543.819110994768
 20
-4220.285625274457
 30
0.0
 10
-5543.888278176923
 20
-4220.967630275276
 30
0.0
 10
-5543.940516419219
 20
-4221.303207981091
 30
0.0
 10
-5544.07284052802
 20
-4221.927424902384
 30
0.0
 10
-5544.153829820211
 20
-4222.222374955523
 30
0.0
 10
-5544.340754001182
 20
-4222.767159986928
 30
0.0
 10
-5544.444960109056
 20
-4223.012853624071
 30
0.0
 10
-5544.673372006438
 20
-4223.455977049845
 30
0.0
 10
-5544.798051916284
 20
-4223.653173841059
 30
0.0
 10
-5545.058101259093
 20
-4223.98824740281
 30
0.0
 10
-5545.194494649392
 20
-4224.128340362517
 30
0.0
 10
-5545.48001792239
 20
-4224.355199179834
 30
0.0
 10
-5545.626810488461
 20
-4224.439844221084
 30
0.0
 10
-5545.85015223396
 20
-4224.524497363735
 30
0.0
 10
-5545.925273115775
 20
-4224.545729827769
 30
0.0
 10
-5546.076875231766
 20
-4224.574174785045
 30
0.0
 10
-5546.154229792776
 20
-4224.58138307509
 30
0.0
 10
-5546.230454855079
 20
-4224.58138307509
 30
0.0
  0
ARC
  5
B25
330
1F
100
AcDbEntity
  8
0
100
AcDbCircle
 10
-5707.222133222253
 20
-4219.443403243102
 30
0.0
 40
5.138714823567618
100
AcDbArc
 50
269.0309264729116
 51
358.4613638664015
  0
ARC
  5
B26
330
1F
100
AcDbEntity
  8
0
100
AcDbCircle
 10
-5486.720533310982
 20
-4219.443403243102
 30
0.0
 40
5.138714823567645
100
AcDbArc
 50
181.5386361335985
 51
270.9690735270884
  0
LINE
  5
B27
330
1F
100
AcDbEntity
  8
0
100
AcDbLine
 10
-5642.382774297174
 20
-3559.581383075357
 30
0.0
 11
-5567.382774297203
 21
-3559.581383075357
 31
0.0
  0
CIRCLE
  5
B28
330
1F
100
AcDbEntity
  8
0
100
AcDbCircle
 10
-5607.382774297189
 20
-3584.581383075347
 30
0.0
 40
2.999999999998799
  0
LINE
  5
B29
330
1F
100
AcDbEntity
  8
0
100
AcDbLine
 10
-5642.382774297174
 20
-3609.581383075337
 30
0.0
 11
-5567.382774297203
 21
-3609.581383075337
 31
0.0
  0
LINE
  5
B2A
330
1F
100
AcDbEntity
  8
0
100
AcDbLine
 10
-5802.032299810634
 20
-4234.581383075087
 30
0.0
 11
-5804.961231998767
 21
-4234.581383075087
 31
0.0
  0
LINE
  5
B2B
330
1F
100
AcDbEntity
  8
0
100
AcDbLine
 10
-5388.981434534468
 20
-4234.581383075087
 30
0.0
 11
-5388.981434534468
 21
-4224.58138307509
 31
0.0
  0
LINE
  5
B2C
330
1F
100
AcDbEntity
  8
0
100
AcDbLine
 10
-5804.961231998767
 20
-4224.581383075091
 30
0.0
 11
-5804.961231998767
 21
-4234.581383075087
 31
0.0
  0
ARC
  5
B2D
330
1F
100
AcDbEntity
  8
0
100
AcDbCircle
 10
-5604.882774297189
 20
-3464.581383075395
 30
0.0
 40
3.9999999999984
100
AcDbArc
 50
255.0000000000056
 51
194.9999999999945
  0
ARC
  5
B2E
330
1F
100
AcDbEntity
  8
0
100
AcDbCircle
 10
-5596.559892236043
 20
-3037.581383075564
 30
0.0
 40
7.999999999996694
100
AcDbArc
 50
255.0000000000056
 51
194.9999999999945
  0
ARC
  5
B2F
330
1F
100
AcDbEntity
  8
0
100
AcDbCircle
 10
-5597.382774297193
 20
-3037.581383075564
 30
0.0
 40
7.999999999996801
100
AcDbArc
 50
255.0000000000056
 51
194.9999999999945
  0
LWPOLYLINE
  5
B31
330
1F
100
AcDbEntity
  8
0
100
AcDbPolyline
 90
        3
 70
     0
 43
0.0
 39
41.47138492264897
 10
-5523.665854504853
 20
-4642.216249095026
 10
-5523.713815782868
 20
-4690.061205515418
 10
-5523.715976065831
 20
-4692.216249095026
  0
LINE
  5
B32
330
1F
100
AcDbEntity
  8
0
100
AcDbLine
 10
-5531.685752644694
 20
-4692.216249095027
 30
0.0000000000004547
 11
-5523.715976065831
 21
-4692.216249095027
 31
0.0000000000004547
  0
LINE
  5
B33
330
1F
100
AcDbEntity
  8
0
100
AcDbLine
 10
-5531.685752644694
 20
-4642.216249095027
 30
0.0000000000004547
 11
-5523.665854504853
 21
-4642.216249095027
 31
0.0000000000004547
  0
CIRCLE
  5
B34
330
1F
100
AcDbEntity
  8
0
100
AcDbCircle
 10
-4774.17554750036
 20
-4667.216249095027
 30
0.0000000000004547
 40
27.50000000000006
  0
LINE
  5
B35
330
1F
100
AcDbEntity
  8
0
100
AcDbLine
 10
-5523.700939597537
 20
-4677.216249095027
 30
0.0000000000004547
 11
-4799.792924415257
 21
-4677.216249095027
 31
0.0000000000004547
  0
LINE
  5
B36
330
1F
100
AcDbEntity
  8
0
100
AcDbLine
 10
-5523.680890973145
 20
-4657.216249095027
 30
0.0000000000004547
 11
-4799.792924415257
 21
-4657.216249095027
 31
0.0000000000004547
  0
LINE
  5
B37
330
1F
100
AcDbEntity
  8
0
100
AcDbLine
 10
-5667.814666846008
 20
1765.418616924429
 30
0.0
 11
-5532.205664072298
 21
1765.418616924428
 31
0.0
  0
ARC
  5
B38
330
1F
100
AcDbEntity
  8
0
100
AcDbCircle
 10
-4773.712991921943
 20
568.4609546934735
 30
0.0
 40
1011.963359626511
100
AcDbArc
 50
91.06884175227141
 51
137.6493229824043
  0
ARC
  5
B39
330
1F
100
AcDbEntity
  8
0
100
AcDbCircle
 10
-4821.636443924871
 20
27.00890360877565
 30
0.0
 40
1608.671970547509
100
AcDbArc
 50
88.96539750921656
 51
115.792458665108
  0
ARC
  5
B3A
330
1F
100
AcDbEntity
  8
0
100
AcDbCircle
 10
-4821.636443924871
 20
27.00890360877565
 30
0.0
 40
1588.671970547509
100
AcDbArc
 50
88.96539750921656
 51
116.141549654631
  0
LINE
  5
B3B
330
1F
100
AcDbEntity
  8
0
100
AcDbLine
 10
-5521.589878946138
 20
1175.186708264199
 30
0.0
 11
-5532.205664072298
 21
1175.186708264199
 31
0.0
  0
LINE
  5
B3C
330
1F
100
AcDbEntity
  8
0
100
AcDbLine
 10
-5521.589878946138
 20
1250.186708264199
 30
0.0
 11
-5521.589878946138
 21
1175.186708264199
 31
0.0
  0
LINE
  5
B3D
330
1F
100
AcDbEntity
  8
0
100
AcDbLine
 10
-5521.589878946138
 20
1565.418616924429
 30
0.0
 11
-5532.205664072298
 21
1565.418616924429
 31
0.0
  0
LINE
  5
B3E
330
1F
100
AcDbEntity
  8
0
100
AcDbLine
 10
-5521.589878946138
 20
1250.186708264199
 30
0.0
 11
-5521.589878946138
 21
1565.418616924429
 31
0.0
  0
LINE
  5
B3F
330
1F
100
AcDbEntity
  8
0
100
AcDbLine
 10
-5521.589878946138
 20
1562.166106737838
 30
0.0
 11
-5521.589878946138
 21
1565.418616924427
 31
0.0
  0
LINE
  5
B43
330
1F
100
AcDbEntity
  8
0
100
AcDbLine
 10
-4792.58987894614
 20
1655.418616924429
 30
0.0
 11
-4737.58987894614
 21
1655.418616924429
 31
0.0
  0
LINE
  5
B44
330
1F
100
AcDbEntity
  8
0
100
AcDbLine
 10
-4792.58987894614
 20
1535.418616924429
 30
0.0
 11
-4737.58987894614
 21
1535.418616924429
 31
0.0
  0
LINE
  5
B45
330
1F
100
AcDbEntity
  8
0
100
AcDbLine
 10
-4792.58987894614
 20
1655.418616924429
 30
0.0
 11
-4792.58987894614
 21
1535.418616924429
 31
0.0
  0
LINE
  5
B46
330
1F
100
AcDbEntity
  8
0
100
AcDbLine
 10
-4737.58987894614
 20
1655.418616924429
 30
0.0
 11
-4737.58987894614
 21
1535.418616924429
 31
0.0
  0
LINE
  5
B47
330
1F
100
AcDbEntity
  8
0
100
AcDbLine
 10
-5666.494923210824
 20
-3024.581383075571
 30
0.0
 11
-5526.589878946136
 21
-3024.581383075571
 31
0.0
  0
LINE
  5
B48
330
1F
100
AcDbEntity
  8
0
100
AcDbLine
 10
-5503.987390651536
 20
-4625.585887900282
 30
0.0
 11
-5498.987390651538
 21
-4628.17333680673
 31
0.0
  0
LINE
  5
B49
330
1F
100
AcDbEntity
  8
0
100
AcDbLine
 10
-5694.955275881698
 20
-4712.17555693265
 30
0.0
 11
-5689.9552758817
 21
-4714.763005839098
 31
0.0
  0
ARC
  5
B4A
330
1F
100
AcDbEntity
  8
0
100
AcDbCircle
 10
-5536.557558871186
 20
-4622.19050425459
 30
0.0
 40
44.99999999998199
100
AcDbArc
 50
6.617821453704155
 51
90.0
  0
LINE
  5
B4B
330
1F
100
AcDbEntity
  8
0
100
AcDbLine
 10
-5491.857395349613
 20
-4617.004428556821
 30
0.0
 11
-5503.987390651536
 21
-4625.585887900282
 31
0.0
  0
ARC
  5
B4C
330
1F
100
AcDbEntity
  8
0
100
AcDbCircle
 10
-5644.955275881718
 20
-4609.760672474257
 30
0.0
 40
44.99999999998199
100
AcDbArc
 50
96.61782145370589
 51
180.0
  0
LINE
  5
B4D
330
1F
100
AcDbEntity
  8
0
100
AcDbLine
 10
-5650.141351579486
 20
-4565.060508952684
 30
0.0
 11
-5641.559892236027
 21
-4577.190504254608
 31
0.0
  0
LINE
  5
B4E
330
1F
100
AcDbEntity
  8
0
100
AcDbLine
 10
-5689.9552758817
 20
-4714.763005839097
 30
0.0
 11
-5689.9552758817
 21
-4609.760672474257
 31
0.0
  0
LINE
  5
B4F
330
1F
100
AcDbEntity
  8
0
100
AcDbLine
 10
-5641.559892236027
 20
-4577.190504254608
 30
0.0
 11
-5536.557558871186
 21
-4577.190504254608
 31
0.0
  0
ARC
  5
B50
330
1F
100
AcDbEntity
  8
0
100
AcDbCircle
 10
-5657.385107662049
 20
-4718.158389484789
 30
0.0
 40
44.99999999998199
100
AcDbArc
 50
186.6178214537042
 51
270.0
  0
ARC
  5
B51
330
1F
100
AcDbEntity
  8
0
100
AcDbCircle
 10
-5548.987390651518
 20
-4730.588221265121
 30
0.0
 40
44.99999999998199
100
AcDbArc
 50
276.6178214537059
 51
0.0
  0
LINE
  5
B52
330
1F
100
AcDbEntity
  8
0
100
AcDbLine
 10
-5702.085271183624
 20
-4723.344465182558
 30
0.0
 11
-5689.9552758817
 21
-4714.763005839097
 31
0.0
  0
LINE
  5
B53
330
1F
100
AcDbEntity
  8
0
100
AcDbLine
 10
-5503.987390651536
 20
-4625.585887900282
 30
0.0
 11
-5503.987390651536
 21
-4657.216249095027
 31
0.0
  0
LINE
  5
B54
330
1F
100
AcDbEntity
  8
0
100
AcDbLine
 10
-5543.80131495375
 20
-4775.288384786694
 30
0.0
 11
-5552.382774297211
 21
-4763.158389484771
 31
0.0
  0
LINE
  5
B55
330
1F
100
AcDbEntity
  8
0
100
AcDbLine
 10
-5552.382774297211
 20
-4763.158389484771
 30
0.0
 11
-5657.385107662049
 21
-4763.158389484771
 31
0.0
  0
ARC
  5
B56
330
1F
100
AcDbEntity
  8
0
100
AcDbCircle
 10
-5455.549977029369
 20
-4662.674446869693
 30
0.0
 40
11.49999999999541
100
AcDbArc
 50
28.3349947847001
 51
151.6650052152999
  0
LINE
  5
B57
330
1F
100
AcDbEntity
  8
0
100
AcDbLine
 10
-5552.382774297211
 20
-4763.158389484771
 30
0.0
 11
-5554.970223203659
 21
-4768.158389484769
 31
0.0
  0
LINE
  5
B58
330
1F
100
AcDbEntity
  8
0
100
AcDbLine
 10
-5589.900265454756
 20
-4875.235413413706
 30
0.0
 11
-5391.910366722602
 21
-4677.245514681552
 31
0.0
  0
LINE
  5
B59
330
1F
100
AcDbEntity
  8
0
100
AcDbLine
 10
-5397.797496685401
 20
-4657.216249095027
 30
0.0
 11
-5589.900265454756
 21
-4465.113480325673
 31
0.0
  0
LINE
  5
B5A
330
1F
100
AcDbEntity
  8
0
100
AcDbLine
 10
-5604.04240107848
 20
-4465.113480325673
 30
0.0
 11
-5802.032299810634
 21
-4663.103379057827
 31
0.0
  0
ARC
  5
B5B
330
1F
100
AcDbEntity
  8
0
100
AcDbCircle
 10
-5398.981434534465
 20
-4670.17444686969
 30
0.0
 40
9.999999999996003
100
AcDbArc
 50
315.0000000000047
 51
315.2366465330428
  0
LINE
  5
B5C
330
1F
100
AcDbEntity
  8
0
100
AcDbLine
 10
-5802.032299810634
 20
-4677.245514681552
 30
0.0
 11
-5604.04240107848
 21
-4875.235413413706
 31
0.0
  0
ARC
  5
B5D
330
1F
100
AcDbEntity
  8
0
100
AcDbCircle
 10
-5794.961231998773
 20
-4670.17444686969
 30
0.0
 40
9.999999999996003
100
AcDbArc
 50
135.0000000000046
 51
224.9999999999954
  0
ARC
  5
B5E
330
1F
100
AcDbEntity
  8
0
100
AcDbCircle
 10
-5455.549977029371
 20
-4677.674446869692
 30
0.0
 40
11.49999999999537
100
AcDbArc
 50
180.0
 51
0.0
  0
LINE
  5
B5F
330
1F
100
AcDbEntity
  8
0
100
AcDbLine
 10
-5444.049977029375
 20
-4677.674446869692
 30
0.0
 11
-5444.049977029375
 21
-4677.216249095027
 31
0.0
  0
LINE
  5
B60
330
1F
100
AcDbEntity
  8
0
100
AcDbLine
 10
-5589.471333266617
 20
-4540.253090632434
 30
0.0
 11
-5604.471333266615
 21
-4540.253090632434
 31
0.0
  0
ARC
  5
B61
330
1F
100
AcDbEntity
  8
0
100
AcDbCircle
 10
-5589.471333266617
 20
-4528.753090632437
 30
0.0
 40
11.49999999999538
100
AcDbArc
 50
270.0
 51
90.0
  0
LINE
  5
B62
330
1F
100
AcDbEntity
  8
0
100
AcDbLine
 10
-5604.471333266615
 20
-4517.253090632443
 30
0.0
 11
-5589.471333266617
 21
-4517.253090632443
 31
0.0
  0
ARC
  5
B63
330
1F
100
AcDbEntity
  8
0
100
AcDbCircle
 10
-5604.471333266615
 20
-4528.753090632437
 30
0.0
 40
11.49999999999541
100
AcDbArc
 50
90.0
 51
270.0
  0
ARC
  5
B64
330
1F
100
AcDbEntity
  8
0
100
AcDbCircle
 10
-5596.971333266619
 20
-4472.184548137536
 30
0.0
 40
9.999999999996003
100
AcDbArc
 50
44.9999999999954
 51
135.0000000000046
  0
ARC
  5
B65
330
1F
100
AcDbEntity
  8
0
100
AcDbCircle
 10
-5596.971333266619
 20
-4868.164345601844
 30
0.0
 40
9.999999999996003
100
AcDbArc
 50
224.9999999999954
 51
315.0000000000047
  0
SPLINE
  5
B66
330
1F
100
AcDbEntity
  8
0
100
AcDbSpline
210
0.0
220
0.0
230
1.0
 70
     8
 71
     3
 72
    22
 73
    18
 74
     0
 42
0.0000000001
 43
0.0000000001
 40
0.0
 40
0.0
 40
0.0
 40
0.0
 40
0.125
 40
0.125
 40
0.25
 40
0.25
 40
0.375
 40
0.375
 40
0.5
 40
0.5
 40
0.625
 40
0.625
 40
0.75
 40
0.75
 40
0.875
 40
0.875
 40
1.0
 40
1.0
 40
1.0
 40
1.0
 10
-5491.857395349613
 20
-4617.004428556821
 30
0.0
 10
-5491.857395349613
 20
-4617.004428556821
 30
0.0
 10
-5491.873613821153
 20
-4616.99718720642
 30
0.0
 10
-5491.936573018217
 20
-4616.969109581829
 30
0.0
 10
-5491.984076134559
 20
-4616.947934656551
 30
0.0
 10
-5492.104006763154
 20
-4616.894574110381
 30
0.0
 10
-5492.177392762534
 20
-4616.861962577147
 30
0.0
 10
-5492.345581478668
 20
-4616.787404706135
 30
0.0
 10
-5492.439040765173
 20
-4616.746053625161
 30
0.0
 10
-5492.642946399518
 20
-4616.656092063256
 30
0.0
 10
-5492.753511349113
 20
-4616.60743267463
 30
0.0
 10
-5492.982840288242
 20
-4616.5068241187
 30
0.0
 10
-5493.102554186556
 20
-4616.454454700547
 30
0.0
 10
-5493.351754752936
 20
-4616.345812849857
 30
0.0
 10
-5493.478341555655
 20
-4616.290805202757
 30
0.0
 10
-5493.734607364541
 20
-4616.179833538828
 30
0.0
 10
-5493.865872375592
 20
-4616.123191285724
 30
0.0
 10
-5493.99575905007
 20
-4616.06733546827
 30
0.0
  0
LINE
  5
B67
330
1F
100
AcDbEntity
  8
0
100
AcDbLine
 10
-5503.987390651536
 20
-4625.585887900282
 30
0.0
 11
-5505.987390651536
 21
-4624.550908337702
 31
0.0
  0
SPLINE
  5
B68
330
1F
100
AcDbEntity
  8
0
100
AcDbSpline
210
0.0
220
0.0
230
1.0
 70
     8
 71
     3
 72
    22
 73
    18
 74
     0
 42
0.0000000001
 43
0.0000000001
 40
0.0
 40
0.0
 40
0.0
 40
0.0
 40
0.125
 40
0.125
 40
0.25
 40
0.25
 40
0.375
 40
0.375
 40
0.5
 40
0.5
 40
0.625
 40
0.625
 40
0.75
 40
0.75
 40
0.875
 40
0.875
 40
1.0
 40
1.0
 40
1.0
 40
1.0
 10
-5651.078444668036
 20
-4567.198872653141
 30
0.0
 10
-5651.022588850586
 20
-4567.068985978663
 30
0.0
 10
-5650.965946597479
 20
-4566.937720967612
 30
0.0
 10
-5650.85497493355
 20
-4566.681455158726
 30
0.0
 10
-5650.799967286451
 20
-4566.554868356007
 30
0.0
 10
-5650.69132543576
 20
-4566.305667789627
 30
0.0
 10
-5650.638956017608
 20
-4566.185953891314
 30
0.0
 10
-5650.538347461676
 20
-4565.956624952185
 30
0.0
 10
-5650.489688073051
 20
-4565.84606000259
 30
0.0
 10
-5650.399726511147
 20
-4565.642154368245
 30
0.0
 10
-5650.358375430172
 20
-4565.548695081739
 30
0.0
 10
-5650.28381755916
 20
-4565.380506365605
 30
0.0
 10
-5650.251206025926
 20
-4565.307120366226
 30
0.0
 10
-5650.197845479756
 20
-4565.187189737631
 30
0.0
 10
-5650.176670554479
 20
-4565.139686621288
 30
0.0
 10
-5650.148592929888
 20
-4565.076727424223
 30
0.0
 10
-5650.141351579486
 20
-4565.060508952684
 30
0.0
 10
-5650.141351579486
 20
-4565.060508952683
 30
0.0
  0
LINE
  5
B69
330
1F
100
AcDbEntity
  8
0
100
AcDbLine
 10
-5642.594871798606
 20
-4579.190504254607
 30
0.0
 11
-5641.559892236027
 21
-4577.190504254608
 31
0.0
  0
SPLINE
  5
B6A
330
1F
100
AcDbEntity
  8
0
100
AcDbSpline
210
0.0
220
0.0
230
1.0
 70
     8
 71
     3
 72
    22
 73
    18
 74
     0
 42
0.0000000001
 43
0.0000000001
 40
0.0
 40
0.0
 40
0.0
 40
0.0
 40
0.125
 40
0.125
 40
0.25
 40
0.25
 40
0.375
 40
0.375
 40
0.5
 40
0.5
 40
0.625
 40
0.625
 40
0.75
 40
0.75
 40
0.875
 40
0.875
 40
1.0
 40
1.0
 40
1.0
 40
1.0
 10
-5699.946907483166
 20
-4724.281558271108
 30
0.0
 10
-5700.076794157644
 20
-4724.225702453656
 30
0.0
 10
-5700.208059168694
 20
-4724.16906020055
 30
0.0
 10
-5700.464324977581
 20
-4724.058088536622
 30
0.0
 10
-5700.590911780299
 20
-4724.003080889522
 30
0.0
 10
-5700.84011234668
 20
-4723.894439038831
 30
0.0
 10
-5700.959826244994
 20
-4723.842069620679
 30
0.0
 10
-5701.189155184123
 20
-4723.741461064748
 30
0.0
 10
-5701.299720133718
 20
-4723.692801676122
 30
0.0
 10
-5701.503625768063
 20
-4723.602840114218
 30
0.0
 10
-5701.597085054568
 20
-4723.561489033244
 30
0.0
 10
-5701.765273770702
 20
-4723.486931162231
 30
0.0
 10
-5701.838659770082
 20
-4723.454319628997
 30
0.0
 10
-5701.958590398676
 20
-4723.400959082827
 30
0.0
 10
-5702.006093515019
 20
-4723.379784157549
 30
0.0
 10
-5702.069052712083
 20
-4723.351706532959
 30
0.0
 10
-5702.085271183624
 20
-4723.344465182558
 30
0.0
 10
-5702.085271183624
 20
-4723.344465182558
 30
0.0
  0
LINE
  5
B6B
330
1F
100
AcDbEntity
  8
0
100
AcDbLine
 10
-5552.382774297211
 20
-4763.158389484771
 30
0.0
 11
-5551.34779473463
 21
-4761.158389484772
 31
0.0
  0
SPLINE
  5
B6C
330
1F
100
AcDbEntity
  8
0
100
AcDbSpline
210
0.0
220
0.0
230
1.0
 70
     8
 71
     3
 72
    22
 73
    18
 74
     0
 42
0.0000000001
 43
0.0000000001
 40
0.0
 40
0.0
 40
0.0
 40
0.0
 40
0.125
 40
0.125
 40
0.25
 40
0.25
 40
0.375
 40
0.375
 40
0.5
 40
0.5
 40
0.625
 40
0.625
 40
0.75
 40
0.75
 40
0.875
 40
0.875
 40
1.0
 40
1.0
 40
1.0
 40
1.0
 10
-5543.80131495375
 20
-4775.288384786694
 30
0.0
 10
-5543.80131495375
 20
-4775.288384786694
 30
0.0
 10
-5543.794073603348
 20
-4775.272166315154
 30
0.0
 10
-5543.765995978757
 20
-4775.20920711809
 30
0.0
 10
-5543.744821053479
 20
-4775.161704001747
 30
0.0
 10
-5543.69146050731
 20
-4775.041773373153
 30
0.0
 10
-5543.658848974076
 20
-4774.968387373774
 30
0.0
 10
-5543.584291103064
 20
-4774.80019865764
 30
0.0
 10
-5543.54294002209
 20
-4774.706739371134
 30
0.0
 10
-5543.452978460185
 20
-4774.502833736788
 30
0.0
 10
-5543.404319071559
 20
-4774.392268787194
 30
0.0
 10
-5543.303710515628
 20
-4774.162939848065
 30
0.0
 10
-5543.251341097476
 20
-4774.043225949751
 30
0.0
 10
-5543.142699246785
 20
-4773.794025383371
 30
0.0
 10
-5543.087691599686
 20
-4773.667438580653
 30
0.0
 10
-5542.976719935757
 20
-4773.411172771766
 30
0.0
 10
-5542.920077682652
 20
-4773.279907760714
 30
0.0
 10
-5542.864221865199
 20
-4773.150021086238
 30
0.0
  0
LINE
  5
B6D
330
1F
100
AcDbEntity
  8
0
100
AcDbLine
 10
-5687.9552758817
 20
-4715.797985401677
 30
0.0
 11
-5689.9552758817
 21
-4714.763005839097
 31
0.0
  0
SPLINE
  5
B6E
330
1F
100
AcDbEntity
  8
0
100
AcDbSpline
210
0.0
220
0.0
230
1.0
 70
     8
 71
     3
 72
    24
 73
    20
 74
     0
 42
0.0000000001
 43
0.0000000001
 40
0.0
 40
0.0
 40
0.0
 40
0.0
 40
0.0625
 40
0.0625
 40
0.125
 40
0.125
 40
0.25
 40
0.25
 40
0.375
 40
0.375
 40
0.5
 40
0.5
 40
0.625
 40
0.625
 40
0.75
 40
0.75
 40
0.875
 40
0.875
 40
1.0
 40
1.0
 40
1.0
 40
1.0
 10
-5707.309042853622
 20
-4720.915325281228
 30
0.0
 10
-5707.151213066108
 20
-4720.991550343531
 30
0.0
 10
-5706.990549995961
 20
-4721.06890490454
 30
0.0
 10
-5706.674599795105
 20
-4721.220507020533
 30
0.0
 10
-5706.517519847884
 20
-4721.295627902346
 30
0.0
 10
-5706.048961917767
 20
-4721.518969647846
 30
0.0
 10
-5705.738903903167
 20
-4721.665762213917
 30
0.0
 10
-5705.131834665829
 20
-4721.951285486915
 30
0.0
 10
-5704.839811641504
 20
-4722.087678877214
 30
0.0
 10
-5704.279635691552
 20
-4722.347728220023
 30
0.0
 10
-5704.009232397496
 20
-4722.472408129869
 30
0.0
 10
-5703.511115614509
 20
-4722.700820027252
 30
0.0
 10
-5703.282411471101
 20
-4722.805026135125
 30
0.0
 10
-5702.870333857179
 20
-4722.991950316096
 30
0.0
 10
-5702.690771103275
 20
-4723.072939608288
 30
0.0
 10
-5702.396530770619
 20
-4723.205263717088
 30
0.0
 10
-5702.279850401087
 20
-4723.257501959384
 30
0.0
 10
-5702.125180442767
 20
-4723.326669141539
 30
0.0
 10
-5702.085271183624
 20
-4723.344465182558
 30
0.0
 10
-5702.085271183624
 20
-4723.344465182558
 30
0.0
  0
SPLINE
  5
B6F
330
1F
100
AcDbEntity
  8
0
100
AcDbSpline
210
0.0
220
0.0
230
1.0
 70
     8
 71
     3
 72
    24
 73
    20
 74
     0
 42
0.0000000001
 43
0.0000000001
 40
0.0
 40
0.0
 40
0.0
 40
0.0
 40
0.1249999999999999
 40
0.1249999999999999
 40
0.2499999999999997
 40
0.2499999999999997
 40
0.3749999999999996
 40
0.3749999999999996
 40
0.4999999999999994
 40
0.4999999999999994
 40
0.6249999999999993
 40
0.6249999999999993
 40
0.7499999999999991
 40
0.7499999999999991
 40
0.874999999999999
 40
0.874999999999999
 40
0.9374999999999996
 40
0.9374999999999996
 40
1.0
 40
1.0
 40
1.0
 40
1.0
 10
-5543.80131495375
 20
-4775.288384786695
 30
0.0
 10
-5543.80131495375
 20
-4775.288384786695
 30
0.0
 10
-5543.819110994768
 20
-4775.328294045838
 30
0.0
 10
-5543.888278176923
 20
-4775.482964004159
 30
0.0
 10
-5543.940516419219
 20
-4775.59964437369
 30
0.0
 10
-5544.07284052802
 20
-4775.893884706346
 30
0.0
 10
-5544.153829820211
 20
-4776.07344746025
 30
0.0
 10
-5544.340754001182
 20
-4776.485525074172
 30
0.0
 10
-5544.444960109056
 20
-4776.71422921758
 30
0.0
 10
-5544.673372006438
 20
-4777.212346000568
 30
0.0
 10
-5544.798051916284
 20
-4777.482749294623
 30
0.0
 10
-5545.058101259093
 20
-4778.042925244575
 30
0.0
 10
-5545.194494649392
 20
-4778.3349482689
 30
0.0
 10
-5545.48001792239
 20
-4778.942017506239
 30
0.0
 10
-5545.626810488461
 20
-4779.252075520839
 30
0.0
 10
-5545.85015223396
 20
-4779.720633450955
 30
0.0
 10
-5545.925273115775
 20
-4779.877713398176
 30
0.0
 10
-5546.076875231766
 20
-4780.193663599032
 30
0.0
 10
-5546.154229792776
 20
-4780.354326669179
 30
0.0
 10
-5546.230454855079
 20
-4780.512156456693
 30
0.0
  0
SPLINE
  5
B70
330
1F
100
AcDbEntity
  8
0
100
AcDbSpline
210
0.0
220
0.0
230
1.0
 70
     8
 71
     3
 72
    24
 73
    20
 74
     0
 42
0.0000000001
 43
0.0000000001
 40
0.0
 40
0.0
 40
0.0
 40
0.0
 40
0.1249999999999999
 40
0.1249999999999999
 40
0.2499999999999996
 40
0.2499999999999996
 40
0.3749999999999994
 40
0.3749999999999994
 40
0.4999999999999991
 40
0.4999999999999991
 40
0.6249999999999988
 40
0.6249999999999988
 40
0.7499999999999986
 40
0.7499999999999986
 40
0.8749999999999982
 40
0.8749999999999982
 40
0.9374999999999992
 40
0.9374999999999992
 40
1.0
 40
1.0
 40
1.0
 40
1.0
 10
-5491.857395349613
 20
-4617.004428556821
 30
0.0
 10
-5491.857395349613
 20
-4617.004428556821
 30
0.0
 10
-5491.817486090468
 20
-4617.022224597839
 30
0.0
 10
-5491.662816132149
 20
-4617.091391779994
 30
0.0
 10
-5491.546135762616
 20
-4617.14363002229
 30
0.0
 10
-5491.25189542996
 20
-4617.275954131091
 30
0.0
 10
-5491.072332676057
 20
-4617.356943423282
 30
0.0
 10
-5490.660255062135
 20
-4617.543867604254
 30
0.0
 10
-5490.431550918726
 20
-4617.648073712126
 30
0.0
 10
-5489.93343413574
 20
-4617.876485609509
 30
0.0
 10
-5489.663030841683
 20
-4618.001165519356
 30
0.0
 10
-5489.102854891732
 20
-4618.261214862165
 30
0.0
 10
-5488.810831867407
 20
-4618.397608252463
 30
0.0
 10
-5488.203762630069
 20
-4618.683131525461
 30
0.0
 10
-5487.893704615469
 20
-4618.829924091532
 30
0.0
 10
-5487.425146685352
 20
-4619.053265837032
 30
0.0
 10
-5487.268066738131
 20
-4619.128386718846
 30
0.0
 10
-5486.952116537274
 20
-4619.279988834838
 30
0.0
 10
-5486.791453467128
 20
-4619.357343395847
 30
0.0
 10
-5486.633623679613
 20
-4619.433568458151
 30
0.0
  0
ARC
  5
B71
330
1F
100
AcDbEntity
  8
0
100
AcDbCircle
 10
-5475.737278815911
 20
-4642.984595658467
 30
0.0
 40
191.0207943797027
100
AcDbArc
 50
154.1967790068838
 51
155.9248131961589
  0
LINE
  5
B72
330
1F
100
AcDbEntity
  8
0
100
AcDbLine
 10
-5638.972443329579
 20
-4572.19050425461
 30
0.0
 11
-5641.559892236027
 21
-4577.190504254608
 31
0.0
  0
LINE
  5
B73
330
1F
100
AcDbEntity
  8
0
100
AcDbLine
 10
-5749.892689503863
 20
-4677.674446869687
 30
0.0
 11
-5749.892689503863
 21
-4662.674446869689
 31
0.0
  0
ARC
  5
B74
330
1F
100
AcDbEntity
  8
0
100
AcDbCircle
 10
-5738.392689503868
 20
-4677.674446869687
 30
0.0
 40
11.49999999999546
100
AcDbArc
 50
180.0
 51
0.0
  0
LINE
  5
B75
330
1F
100
AcDbEntity
  8
0
100
AcDbLine
 10
-5726.892689503872
 20
-4662.674446869689
 30
0.0
 11
-5726.892689503872
 21
-4677.674446869687
 31
0.0
  0
ARC
  5
B76
330
1F
100
AcDbEntity
  8
0
100
AcDbCircle
 10
-5738.392689503868
 20
-4662.674446869689
 30
0.0
 40
11.49999999999541
100
AcDbArc
 50
0.0
 51
180.0
  0
ARC
  5
B77
330
1F
100
AcDbEntity
  8
0
100
AcDbCircle
 10
-5589.471333266617
 20
-4811.595803106936
 30
0.0
 40
11.49999999999542
100
AcDbArc
 50
270.0
 51
90.0
  0
LINE
  5
B78
330
1F
100
AcDbEntity
  8
0
100
AcDbLine
 10
-5604.471333266615
 20
-4800.095803106941
 30
0.0
 11
-5589.471333266617
 21
-4800.09580310694
 31
0.0
  0
ARC
  5
B79
330
1F
100
AcDbEntity
  8
0
100
AcDbCircle
 10
-5604.471333266615
 20
-4811.595803106937
 30
0.0
 40
11.49999999999541
100
AcDbArc
 50
90.0
 51
270.0
  0
LINE
  5
B7A
330
1F
100
AcDbEntity
  8
0
100
AcDbLine
 10
-5589.471333266617
 20
-4823.095803106931
 30
0.0
 11
-5604.471333266615
 21
-4823.095803106932
 31
0.0
  0
LINE
  5
B7B
330
1F
100
AcDbEntity
  8
0
100
AcDbLine
 10
-5467.049977029365
 20
-4677.216249095027
 30
0.0
 11
-5467.049977029365
 21
-4677.674446869691
 31
0.0
  0
LINE
  5
B7C
330
1F
100
AcDbEntity
  8
0
100
AcDbLine
 10
-5620.446559251489
 20
-4528.753090632437
 30
0.0
 11
-5573.496107281743
 21
-4528.753090632438
 31
0.0
  0
LINE
  5
B7D
330
1F
100
AcDbEntity
  8
0
100
AcDbLine
 10
-5596.971333266615
 20
-4505.277864647564
 30
0.0
 11
-5596.971333266617
 21
-4552.228316617311
 31
0.0
  0
LINE
  5
B7E
330
1F
100
AcDbEntity
  8
0
100
AcDbLine
 10
-5573.496107281747
 20
-4811.595803106941
 30
0.0
 11
-5620.446559251493
 21
-4811.59580310694
 31
0.0
  0
LINE
  5
B7F
330
1F
100
AcDbEntity
  8
0
100
AcDbLine
 10
-5596.971333266621
 20
-4835.071029091814
 30
0.0
 11
-5596.971333266621
 21
-4788.120577122068
 31
0.0
  0
LINE
  5
B80
330
1F
100
AcDbEntity
  8
0
100
AcDbLine
 10
-5738.39268950387
 20
-4693.64967285456
 30
0.0
 11
-5738.392689503868
 21
-4646.699220884814
 31
0.0
  0
LINE
  5
B81
330
1F
100
AcDbEntity
  8
0
100
AcDbLine
 10
-5761.867915488742
 20
-4670.174446869687
 30
0.0
 11
-5714.917463518997
 21
-4670.174446869688
 31
0.0
  0
DIMENSION
  5
B82
330
1F
100
AcDbEntity
  8
0
100
AcDbDimension
  2
*D21
 10
-5577.983961805553
 20
-4968.57388083263
 30
0.0
 11
-5596.94413534703
 21
-4966.69888083263
 31
0.0
 70
    32
  1
40
 71
     5
 42
37.92034708295432
  3
ISO-25
100
AcDbAlignedDimension
 13
-5615.904308888507
 23
-4812.835588745295
 33
0.0
 14
-5577.983961805553
 24
-4811.057011017704
 34
0.0
100
AcDbRotatedDimension
  0
DIMENSION
  5
B83
330
1F
100
AcDbEntity
  8
0
100
AcDbDimension
  2
*D22
 10
-5748.032895550609
 20
-4823.095803106931
 30
0.0
 11
-5749.907895550608
 21
-4811.595803106937
 31
0.0
 70
    32
  1
24
 71
     5
 42
22.99999999999091
  3
ISO-25
100
AcDbAlignedDimension
 13
-5596.971333266615
 23
-4800.09580310694
 33
0.0
 14
-5596.971333266615
 24
-4823.095803106931
 34
0.0
 50
90.0
100
AcDbRotatedDimension
  0
LWPOLYLINE
  5
B84
330
1F
100
AcDbEntity
  8
0
100
AcDbPolyline
 90
       24
 70
     0
 43
0.0
 39
41.47138492264899
 10
-5561.646960998022
 20
-4604.861038477141
 10
-5627.011455380562
 20
-4604.92656188696
 42
-0.1910949740964896
 10
-5628.706984718087
 20
-4604.255953318145
 10
-5633.771998195097
 20
-4599.496828374956
 42
0.3069905906811329
 10
-5636.511817049265
 20
-4599.058735597469
 42
0.2460198584195708
 10
-5662.788538292037
 20
-4633.539636930003
 42
0.0424561894996227
 10
-5662.833207105105
 20
-4634.071053518795
 10
-5662.777088867698
 20
-4690.053186069689
 10
-5662.764870628173
 20
-4702.241792413601
 42
-0.1910949740967706
 10
-5663.43547919699
 20
-4703.937321751125
 10
-5667.404823563867
 20
-4708.161792205909
 42
0.3141869811116161
 10
-5667.814666846019
 20
-4710.960049311369
 42
0.2454751505009854
 10
-5633.885873064874
 20
-4735.488350161866
 10
-5566.36294947166
 20
-4735.420663075215
 42
-0.1910949740964894
 10
-5564.667420134133
 20
-4736.091271644033
 10
-5560.120346324699
 20
-4740.363736561101
 42
0.3084654681941095
 10
-5557.368471180945
 20
-4740.796155623872
 42
0.2525203978380993
 10
-5532.205664072298
 20
-4706.540752570088
 10
-5532.222191723694
 20
-4690.053186069688
 10
-5532.273997162639
 20
-4638.373392054461
 42
-0.191094974096934
 10
-5531.603388593826
 20
-4636.677862716935
 10
-5527.909622581322
 20
-4632.746683170782
 42
0.3544984404735833
 10
-5527.682715279628
 20
-4629.640402248471
 42
0.1618762310302102
 10
-5560.65294366161
 20
-4605.021157915019
  0
LINE
  5
B85
330
1F
100
AcDbEntity
  8
0
100
AcDbLine
 10
-5667.814666846008
 20
-3024.581383075571
 30
0.0
 11
-5667.814666846008
 21
1765.418616924428
 31
0.0
  0
LINE
  5
B86
330
1F
100
AcDbEntity
  8
0
100
AcDbLine
 10
-5633.885873064874
 20
1765.418616924428
 30
0.0
 11
-5633.885873064874
 21
-3024.581383075571
 31
0.0
  0
LINE
  5
B87
330
1F
100
AcDbEntity
  8
0
100
AcDbLine
 10
-5566.362949471662
 20
1765.418616924429
 30
0.0
 11
-5566.362949471662
 21
-3024.581383075571
 31
0.0
  0
LINE
  5
B88
330
1F
100
AcDbEntity
  8
0
100
AcDbLine
 10
-5560.120346324708
 20
1765.418616924429
 30
0.0
 11
-5560.120346324708
 21
-3024.581383075571
 31
0.0
  0
LINE
  5
B89
330
1F
100
AcDbEntity
  8
0
100
AcDbLine
 10
-5532.205664072298
 20
1755.418616924428
 30
0.0
 11
-5532.205664072298
 21
-3024.581383075571
 31
0.0
  0
LINE
  5
B8A
330
1F
100
AcDbEntity
  8
0
100
AcDbLine
 10
-5659.713812723642
 20
-3024.581383075571
 30
0.0
 11
-5659.713812723642
 21
-4224.581383075091
 31
0.0
  0
LINE
  5
B8B
330
1F
100
AcDbEntity
  8
0
100
AcDbLine
 10
-5503.987390651536
 20
-4677.216249095027
 30
0.0
 11
-5503.987390651536
 21
-4730.588221265121
 31
0.0
  0
DIMENSION
  5
B8C
330
1F
100
AcDbEntity
  8
0
100
AcDbDimension
  2
*D23
 10
-4765.08987894614
 20
2003.312492980339
 30
0.0
 11
-5148.647771509219
 21
2050.064061875291
 31
0.0
 70
    32
  1
750
 71
     5
 42
767.1157851261578
  3
STANDARD
100
AcDbAlignedDimension
 13
-5532.205664072298
 23
1655.418616924429
 33
0.0
 14
-4765.08987894614
 24
1655.418616924429
 34
0.0
100
AcDbRotatedDimension
1001
ACAD
1000
DSTYLE
1002
{
1070
   340
1005
196
1070
   140
1040
500.0
1070
    41
1040
100.0
1070
    40
1040
1.0
1002
}
  0
DIMENSION
  5
B8D
330
1F
100
AcDbEntity
  8
0
100
AcDbDimension
  2
*D24
 10
-5902.140915123703
 20
-4224.581383075091
 30
0.0
 11
-5904.015915123702
 21
-4229.58138307509
 31
0.0
 70
    32
 71
     5
 42
9.999999999995453
  3
ISO-25
100
AcDbAlignedDimension
 13
-5401.108846132184
 23
-4234.581383075087
 33
0.0
 14
-5401.108846132184
 24
-4224.581383075091
 34
0.0
 50
90.0
100
AcDbRotatedDimension
  0
DIMENSION
  5
B8E
330
1F
100
AcDbEntity
  8
0
100
AcDbDimension
  2
*D25
 10
-4562.325540520186
 20
1535.418616924429
 30
0.0
 11
-4609.077109415139
 21
-1349.58138307533
 31
0.0
 70
    32
 71
     5
 42
5769.999999999515
  3
STANDARD
100
AcDbAlignedDimension
 13
-5213.175291185887
 23
-4234.581383075087
 33
0.0
 14
-4765.08987894614
 24
1535.418616924429
 34
0.0
 50
90.0
100
AcDbRotatedDimension
1001
ACAD
1000
DSTYLE
1002
{
1070
    40
1040
1.0
1070
    41
1040
100.0
1070
   140
1040
500.0
1070
   340
1005
196
1002
}
  0
VIEWPORT
  5
7B8
102
{ACAD_XDICTIONARY
360
E4D
102
}
330
7A6
100
AcDbEntity
 67
     1
  8
0
100
AcDbViewport
 10
133.3499908447266
 20
101.5999970436096
 30
0.0
 40
362.3412342472195
 41
228.4221935424805
 68
     1
 69
     1
 12
133.3499908447266
 22
101.5999970436096
 13
0.0
 23
0.0
 14
10.0
 24
10.0
 15
10.0
 25
10.0
 16
0.0
 26
0.0
 36
1.0
 17
0.0
 27
0.0
 37
0.0
 42
50.0
 43
0.0
 44
0.0
 45
228.4221935424805
 50
0.0
 51
0.0
 72
  1000
 90
    32800
  1

281
     0
 71
     1
 74
     0
110
0.0
120
0.0
130
0.0
111
1.0
121
0.0
131
0.0
112
0.0
122
1.0
132
0.0
 79
     0
146
0.0
  0
VIEWPORT
  5
7BA
102
{ACAD_XDICTIONARY
360
E4F
102
}
330
7A6
100
AcDbEntity
 67
     1
  8
0
100
AcDbViewport
 10
133.3499939441681
 20
101.5999939441681
 30
0.0
 40
213.3599903106689
 41
162.5599903106689
 68
     2
 69
     2
 12
-3627.52319064521
 22
-1040.534880228968
 13
0.0
 23
0.0
 14
10.0
 24
10.0
 15
10.0
 25
10.0
 16
0.0
 26
0.0
 36
1.0
 17
0.0
 27
0.0
 37
0.0
 42
50.0
 43
0.0
 44
0.0
 45
10486.317715959
 50
0.0
 51
0.0
 72
  1000
 90
    32864
  1

281
     0
 71
     1
 74
     0
110
0.0
120
0.0
130
0.0
111
1.0
121
0.0
131
0.0
112
0.0
122
1.0
132
0.0
 79
     0
146
0.0
  0
ENDSEC
  0
SECTION
  2
OBJECTS
  0
DICTIONARY
  5
C
330
0
100
AcDbDictionary
281
     1
  3
ACAD_COLOR
350
6B
  3
ACAD_GROUP
350
D
  3
ACAD_LAYOUT
350
1A
  3
ACAD_MATERIAL
350
6A
  3
ACAD_MLEADERSTYLE
350
E36
  3
ACAD_MLINESTYLE
350
17
  3
ACAD_PLOTSETTINGS
350
19
  3
ACAD_PLOTSTYLENAME
350
E
  3
ACAD_SCALELIST
350
E24
  3
ACAD_TABLESTYLE
350
9AD
  3
ACAD_VISUALSTYLE
350
99C
  3
ACDBHEADERROUNDTRIPXREC
350
E49
  3
AcDbVariableDictionary
350
5E
  3
DWGPROPS
350
E4C
  0
DICTIONARY
  5
E51
330
8
100
AcDbDictionary
280
     1
281
     1
  3
ACAD_XREC_ROUNDTRIP
360
E52
  0
DICTIONARY
  5
815
330
640
100
AcDbDictionary
280
     1
281
     1
  3
ACAD_SORTENTS
360
905
  0
DICTIONARY
  5
E4D
330
7B8
100
AcDbDictionary
280
     1
281
     1
  3
ACAD_XREC_ROUNDTRIP
360
E4E
  0
DICTIONARY
  5
E4F
330
7BA
100
AcDbDictionary
280
     1
281
     1
  3
ACAD_XREC_ROUNDTRIP
360
E50
  0
DICTIONARY
  5
6B
102
{ACAD_REACTORS
330
C
102
}
330
C
100
AcDbDictionary
281
     1
  0
DICTIONARY
  5
D
102
{ACAD_REACTORS
330
C
102
}
330
C
100
AcDbDictionary
281
     1
  0
DICTIONARY
  5
1A
102
{ACAD_REACTORS
330
C
102
}
330
C
100
AcDbDictionary
281
     1
  3
Model
350
22
  3
Presentación1
350
7A7
  0
DICTIONARY
  5
6A
102
{ACAD_REACTORS
330
C
102
}
330
C
100
AcDbDictionary
281
     1
  3
ByBlock
350
99A
  3
ByLayer
350
999
  3
Global
350
99B
  0
DICTIONARY
  5
E36
102
{ACAD_REACTORS
330
C
102
}
330
C
100
AcDbDictionary
281
     1
  3
Standard
350
E37
  0
DICTIONARY
  5
17
102
{ACAD_REACTORS
330
C
102
}
330
C
100
AcDbDictionary
281
     1
  3
Standard
350
18
  0
DICTIONARY
  5
19
102
{ACAD_REACTORS
330
C
102
}
330
C
100
AcDbDictionary
281
     1
  0
ACDBDICTIONARYWDFLT
  5
E
102
{ACAD_REACTORS
330
C
102
}
330
C
100
AcDbDictionary
281
     1
  3
Normal
350
F
100
AcDbDictionaryWithDefault
340
F
  0
DICTIONARY
  5
E24
102
{ACAD_REACTORS
330
C
102
}
330
C
100
AcDbDictionary
281
     1
  3
A0
350
E25
  3
A1
350
E26
  3
A2
350
E27
  3
A3
350
E28
  3
A4
350
E29
  3
A5
350
E2A
  3
A6
350
E2B
  3
A7
350
E2C
  3
A8
350
E2D
  3
A9
350
E2E
  3
B0
350
E2F
  3
B1
350
E30
  3
B2
350
E31
  3
B3
350
E32
  3
B4
350
E33
  3
B5
350
E34
  3
B6
350
E35
  0
DICTIONARY
  5
9AD
102
{ACAD_REACTORS
330
C
102
}
330
C
100
AcDbDictionary
281
     1
  3
Standard
350
9AE
  0
DICTIONARY
  5
99C
102
{ACAD_REACTORS
330
C
102
}
330
C
100
AcDbDictionary
281
     1
  3
2dWireframe
350
9A2
  3
3D Hidden
350
9A4
  3
3dWireframe
350
9A3
  3
Basic
350
9A1
  3
Brighten
350
9A8
  3
ColorChange
350
9AC
  3
Conceptual
350
9A5
  3
Dim
350
9A7
  3
EdgeColorOff
350
E3C
  3
Facepattern
350
9AB
  3
Flat
350
99D
  3
FlatWithEdges
350
99E
  3
Gouraud
350
99F
  3
GouraudWithEdges
350
9A0
  3
Hidden
350
E39
  3
JitterOff
350
E3A
  3
Linepattern
350
9AA
  3
OverhangOff
350
E3B
  3
Realistic
350
9A6
  3
Shaded
350
E41
  3
Shaded with edges
350
E40
  3
Shades of Gray
350
E3D
  3
Sketchy
350
E3E
  3
Thicken
350
9A9
  3
Wireframe
350
E38
  3
X-Ray
350
E3F
  0
DICTIONARY
  5
E49
102
{ACAD_REACTORS
330
C
102
}
330
C
100
AcDbDictionary
281
     1
  3
COLORDICT
350
E4A
  3
MATERIALDICT
350
E4B
  0
DICTIONARY
  5
5E
102
{ACAD_REACTORS
330
C
102
}
330
C
100
AcDbDictionary
281
     1
  3
CANNOSCALE
350
E53
  3
CMLEADERSTYLE
350
E44
  3
CTABLESTYLE
350
E23
  3
DIMASSOC
350
5F
  3
HIDETEXT
350
63
  3
MSLTSCALE
350
E45
  3
XCLIPFRAME
350
E46
  0
XRECORD
  5
E4C
102
{ACAD_REACTORS
330
C
102
}
330
C
100
AcDbXrecord
280
     1
  1
DWGPROPS COOKIE
  2

  3

  4

  6

  7

  8
acae2
  9

300
=
301
=
302
=
303
=
304
=
305
=
306
=
307
=
308
=
309
=
 40
0.0
 41
2453566.686227025
 42
2460396.578199248
  1

 90
        0
  0
XRECORD
  5
E52
102
{ACAD_REACTORS
330
E51
102
}
330
E51
100
AcDbXrecord
280
     1
102
VTR_0.000_0.000_1.000_1.000_VISUALSTYLE
340
9A2
102
VTR_0.000_0.000_1.000_1.000_GRIDDISPLAY
 70
     3
102
VTR_0.000_0.000_1.000_1.000_GRIDMAJOR
 70
     5
102
VTR_0.000_0.000_1.000_1.000_DEFAULTLIGHTING
280
     1
102
VTR_0.000_0.000_1.000_1.000_DEFAULTLIGHTINGTYPE
 70
     1
102
VTR_0.000_0.000_1.000_1.000_BRIGHTNESS
141
0.0
102
VTR_0.000_0.000_1.000_1.000_CONTRAST
142
0.0
  0
SORTENTSTABLE
  5
905
102
{ACAD_REACTORS
330
815
102
}
330
815
100
AcDbSortentsTable
330
640
  0
XRECORD
  5
E4E
102
{ACAD_REACTORS
330
E4D
102
}
330
E4D
100
AcDbXrecord
280
     1
102
VISUALSTYLE
340
9A2
102
GRIDDISPLAY
 70
     0
102
GRIDMAJOR
 70
     5
102
DEFAULTLIGHTING
280
     1
102
DEFAULTLIGHTINGTYPE
 70
     1
102
BRIGHTNESS
141
0.0
102
CONTRAST
142
0.0
  0
XRECORD
  5
E50
102
{ACAD_REACTORS
330
E4F
102
}
330
E4F
100
AcDbXrecord
280
     1
102
VISUALSTYLE
340
9A2
102
GRIDDISPLAY
 70
     0
102
GRIDMAJOR
 70
     5
102
DEFAULTLIGHTING
280
     1
102
DEFAULTLIGHTINGTYPE
 70
     1
102
BRIGHTNESS
141
0.0
102
CONTRAST
142
0.0
  0
LAYOUT
  5
22
102
{ACAD_REACTORS
330
1A
102
}
330
1A
100
AcDbPlotSettings
  1

  2
PDFCreator
  4
A4
  6

 40
3.174999952316284
 41
3.174999952316284
 42
3.175003051757812
 43
3.17498779296875
 44
209.8886566162109
 45
297.0530090332031
 46
-3.23
 47
-3.15
 48
-7302.523190645209
 49
-6238.034880228966
140
47.47680935479184
141
4156.965119771029
142
1.0
143
35.0
 70
 11940
 72
     1
 73
     0
 74
     4
  7

 75
     0
147
0.0285714285714286
148
7302.523190645209
149
6238.034880228966
100
AcDbLayout
  1
Model
 70
     1
 71
     0
 10
0.0
 20
0.0
 11
12.0
 21
9.0
 12
0.0
 22
0.0
 32
0.0
 14
0.0
 24
0.0
 34
0.0
 15
0.0
 25
0.0
 35
0.0
146
0.0
 13
0.0
 23
0.0
 33
0.0
 16
1.0
 26
0.0
 36
0.0
 17
0.0
 27
1.0
 37
0.0
 76
     0
330
1F
331
997
  0
LAYOUT
  5
7A7
102
{ACAD_REACTORS
330
1A
102
}
330
1A
100
AcDbPlotSettings
  1

  2
none_device
  4
Letter_(8.50_x_11.00_Inches)
  6

 40
6.349999904632568
 41
6.349999904632568
 42
6.350006103515625
 43
6.350006103515625
 44
215.8999938964844
 45
279.3999938964844
 46
0.0
 47
0.0
 48
0.0
 49
0.0
140
0.0
141
0.0
142
1.0
143
1.0
 70
   688
 72
     1
 73
     1
 74
     5
  7

 75
    16
147
1.0
148
0.0
149
0.0
100
AcDbLayout
  1
Presentación1
 70
     1
 71
     1
 10
-6.350006103515625
 20
-6.349999904632568
 11
273.0499877929688
 21
209.5499939918518
 12
0.0
 22
0.0
 32
0.0
 14
26.66999878883362
 24
20.31999878883363
 34
0.0
 15
240.0299890995026
 25
182.8799890995026
 35
0.0
146
0.0
 13
0.0
 23
0.0
 33
0.0
 16
1.0
 26
0.0
 36
0.0
 17
0.0
 27
1.0
 37
0.0
 76
     0
330
7A6
331
7B8
  0
MATERIAL
  5
99A
102
{ACAD_REACTORS
330
6A
102
}
102
{ACAD_XDICTIONARY
360
E54
102
}
330
6A
100
AcDbMaterial
  1
ByBlock
  0
MATERIAL
  5
999
102
{ACAD_REACTORS
330
6A
102
}
102
{ACAD_XDICTIONARY
360
E56
102
}
330
6A
100
AcDbMaterial
  1
ByLayer
  0
MATERIAL
  5
99B
102
{ACAD_REACTORS
330
6A
102
}
102
{ACAD_XDICTIONARY
360
E58
102
}
330
6A
100
AcDbMaterial
  1
Global
  0
MLEADERSTYLE
  5
E37
102
{ACAD_REACTORS
330
E36
102
}
102
{ACAD_XDICTIONARY
360
E8F
102
}
330
E36
100
AcDbMLeaderStyle
170
     2
171
     1
172
     0
 90
        2
 40
0.0
 41
0.0
173
     1
 91
-1056964608
340
14
 92
       -2
290
     1
 42
2.0
291
     1
 43
8.0
  3
Standard
341
0
 44
4.0
300

342
11
174
     1
178
     6
175
     1
176
     0
 93
-1056964608
 45
4.0
292
     0
297
     0
 46
4.0
343
0
 94
-1056964608
 47
1.0
 49
1.0
140
1.0
293
     1
141
0.0
294
     1
177
     0
142
1.0
295
     0
296
     0
143
3.75
1001
ACAD_MLEADERVER
1070
     2
  0
MLINESTYLE
  5
18
102
{ACAD_REACTORS
330
17
102
}
330
17
100
AcDbMlineStyle
  2
STANDARD
 70
     0
  3

 62
   256
 51
90.0
 52
90.0
 71
     2
 49
0.5
 62
   256
  6
BYLAYER
 49
-0.5
 62
   256
  6
BYLAYER
  0
ACDBPLACEHOLDER
  5
F
102
{ACAD_REACTORS
330
E
102
}
330
E
  0
SCALE
  5
E25
102
{ACAD_REACTORS
330
E24
102
}
330
E24
100
AcDbScale
 70
     0
300
1:1
140
1.0
141
1.0
290
     1
  0
SCALE
  5
E26
102
{ACAD_REACTORS
330
E24
102
}
330
E24
100
AcDbScale
 70
     0
300
1:2
140
1.0
141
2.0
290
     0
  0
SCALE
  5
E27
102
{ACAD_REACTORS
330
E24
102
}
330
E24
100
AcDbScale
 70
     0
300
1:4
140
1.0
141
4.0
290
     0
  0
SCALE
  5
E28
102
{ACAD_REACTORS
330
E24
102
}
330
E24
100
AcDbScale
 70
     0
300
1:5
140
1.0
141
5.0
290
     0
  0
SCALE
  5
E29
102
{ACAD_REACTORS
330
E24
102
}
330
E24
100
AcDbScale
 70
     0
300
1:8
140
1.0
141
8.0
290
     0
  0
SCALE
  5
E2A
102
{ACAD_REACTORS
330
E24
102
}
330
E24
100
AcDbScale
 70
     0
300
1:10
140
1.0
141
10.0
290
     0
  0
SCALE
  5
E2B
102
{ACAD_REACTORS
330
E24
102
}
330
E24
100
AcDbScale
 70
     0
300
1:16
140
1.0
141
16.0
290
     0
  0
SCALE
  5
E2C
102
{ACAD_REACTORS
330
E24
102
}
330
E24
100
AcDbScale
 70
     0
300
1:20
140
1.0
141
20.0
290
     0
  0
SCALE
  5
E2D
102
{ACAD_REACTORS
330
E24
102
}
330
E24
100
AcDbScale
 70
     0
300
1:30
140
1.0
141
30.0
290
     0
  0
SCALE
  5
E2E
102
{ACAD_REACTORS
330
E24
102
}
330
E24
100
AcDbScale
 70
     0
300
1:40
140
1.0
141
40.0
290
     0
  0
SCALE
  5
E2F
102
{ACAD_REACTORS
330
E24
102
}
330
E24
100
AcDbScale
 70
     0
300
1:50
140
1.0
141
50.0
290
     0
  0
SCALE
  5
E30
102
{ACAD_REACTORS
330
E24
102
}
330
E24
100
AcDbScale
 70
     0
300
1:100
140
1.0
141
100.0
290
     0
  0
SCALE
  5
E31
102
{ACAD_REACTORS
330
E24
102
}
330
E24
100
AcDbScale
 70
     0
300
2:1
140
2.0
141
1.0
290
     0
  0
SCALE
  5
E32
102
{ACAD_REACTORS
330
E24
102
}
330
E24
100
AcDbScale
 70
     0
300
4:1
140
4.0
141
1.0
290
     0
  0
SCALE
  5
E33
102
{ACAD_REACTORS
330
E24
102
}
330
E24
100
AcDbScale
 70
     0
300
8:1
140
8.0
141
1.0
290
     0
  0
SCALE
  5
E34
102
{ACAD_REACTORS
330
E24
102
}
330
E24
100
AcDbScale
 70
     0
300
10:1
140
10.0
141
1.0
290
     0
  0
SCALE
  5
E35
102
{ACAD_REACTORS
330
E24
102
}
330
E24
100
AcDbScale
 70
     0
300
100:1
140
100.0
141
1.0
290
     0
  0
TABLESTYLE
  5
9AE
102
{ACAD_REACTORS
330
9AD
102
}
330
9AD
100
AcDbTableStyle
  3
Standard
 70
     0
 71
     8
 40
1.5
 41
1.5
280
     0
281
     0
  7
Standard
140
4.5
170
     2
 62
     0
 63
   257
283
     0
274
    -2
284
     1
 64
     0
275
    -2
285
     1
 65
     0
276
    -2
286
     1
 66
     0
277
    -2
287
     1
 67
     0
278
    -2
288
     1
 68
     0
279
    -2
289
     1
 69
     0
  7
Standard
140
6.0
170
     5
 62
     0
 63
   257
283
     0
274
    -2
284
     1
 64
     0
275
    -2
285
     1
 65
     0
276
    -2
286
     1
 66
     0
277
    -2
287
     1
 67
     0
278
    -2
288
     1
 68
     0
279
    -2
289
     1
 69
     0
  7
Standard
140
4.5
170
     5
 62
     0
 63
   257
283
     0
274
    -2
284
     1
 64
     0
275
    -2
285
     1
 65
     0
276
    -2
286
     1
 66
     0
277
    -2
287
     1
 67
     0
278
    -2
288
     1
 68
     0
279
    -2
289
     1
 69
     0
  0
VISUALSTYLE
  5
9A2
102
{ACAD_REACTORS
330
99C
102
}
102
{ACAD_XDICTIONARY
360
E5A
102
}
330
99C
100
AcDbVisualStyle
  2
2dWireframe
 70
     4
 71
     0
 72
     2
 73
     0
 90
        0
 40
-0.6
 41
-30.0
 62
     5
 63
     7
 74
     1
 91
        4
 64
     7
 65
   257
 75
     1
175
     1
 42
1.0
 92
        0
 66
   257
 43
1.0
 76
     1
 77
     6
 78
     2
 67
     7
 79
     5
170
     0
171
     0
290
     0
174
     0
 93
        1
 44
0.0
173
     0
291
     0
 45
0.0
1001
ACAD
1000
AcDbSavedByObjectVersion
1070
     0
  0
VISUALSTYLE
  5
9A4
102
{ACAD_REACTORS
330
99C
102
}
102
{ACAD_XDICTIONARY
360
E5C
102
}
330
99C
100
AcDbVisualStyle
  2
3D Hidden
 70
     6
 71
     1
 72
     2
 73
     2
 90
        0
 40
-0.6
 41
-30.0
 62
     5
 63
     7
 74
     2
 91
        2
 64
     7
 65
   257
 75
     2
175
     1
 42
40.0
 92
        0
 66
   257
 43
1.0
 76
     1
 77
     6
 78
     2
 67
     7
 79
     3
170
     0
171
     0
290
     0
174
     0
 93
        1
 44
0.0
173
     0
291
     0
 45
0.0
1001
ACAD
1000
AcDbSavedByObjectVersion
1070
     0
  0
VISUALSTYLE
  5
9A3
102
{ACAD_REACTORS
330
99C
102
}
102
{ACAD_XDICTIONARY
360
E5E
102
}
330
99C
100
AcDbVisualStyle
  2
3dWireframe
 70
     5
 71
     0
 72
     2
 73
     0
 90
        0
 40
-0.6
 41
-30.0
 62
     5
 63
     7
 74
     1
 91
        4
 64
     7
 65
   257
 75
     1
175
     1
 42
1.0
 92
        0
 66
   257
 43
1.0
 76
     1
 77
     6
 78
     2
 67
     7
 79
     5
170
     0
171
     0
290
     0
174
     0
 93
        1
 44
0.0
173
     0
291
     0
 45
0.0
1001
ACAD
1000
AcDbSavedByObjectVersion
1070
     0
  0
VISUALSTYLE
  5
9A1
102
{ACAD_REACTORS
330
99C
102
}
102
{ACAD_XDICTIONARY
360
E60
102
}
330
99C
100
AcDbVisualStyle
  2
Basic
 70
     7
 71
     1
 72
     0
 73
     1
 90
        0
 40
-0.6
 41
-30.0
 62
     5
 63
     7
 74
     0
 91
        4
 64
     7
 65
   257
 75
     1
175
     1
 42
1.0
 92
        8
 66
     7
 43
1.0
 76
     1
 77
     6
 78
     2
 67
     7
 79
     5
170
     0
171
     0
290
     0
174
     0
 93
        1
 44
0.0
173
     0
291
     1
 45
0.0
1001
ACAD
1000
AcDbSavedByObjectVersion
1070
     0
  0
VISUALSTYLE
  5
9A8
102
{ACAD_REACTORS
330
99C
102
}
102
{ACAD_XDICTIONARY
360
E62
102
}
330
99C
100
AcDbVisualStyle
  2
Brighten
 70
    12
 71
     2
 72
     2
 73
     0
 90
        0
 40
-0.6
 41
-30.0
 62
     5
 63
     7
 74
     1
 91
        4
 64
     7
 65
   257
 75
     1
175
     1
 42
1.0
 92
        8
 66
     7
 43
1.0
 76
     1
 77
     6
 78
     2
 67
     7
 79
     5
170
     0
171
     0
290
     0
174
     0
 93
        1
 44
50.0
173
     0
291
     1
 45
0.0
1001
ACAD
1000
AcDbSavedByObjectVersion
1070
     0
  0
VISUALSTYLE
  5
9AC
102
{ACAD_REACTORS
330
99C
102
}
102
{ACAD_XDICTIONARY
360
E64
102
}
330
99C
100
AcDbVisualStyle
  2
ColorChange
 70
    16
 71
     2
 72
     2
 73
     3
 90
        0
 40
-0.6
 41
-30.0
 62
     5
 63
     8
 74
     1
 91
        4
 64
     7
 65
   257
 75
     1
175
     1
 42
1.0
 92
        8
 66
     8
 43
1.0
 76
     1
 77
     6
 78
     2
 67
     7
 79
     5
170
     0
171
     0
290
     0
174
     0
 93
        1
 44
0.0
173
     0
291
     1
 45
0.0
1001
ACAD
1000
AcDbSavedByObjectVersion
1070
     0
  0
VISUALSTYLE
  5
9A5
102
{ACAD_REACTORS
330
99C
102
}
102
{ACAD_XDICTIONARY
360
E66
102
}
330
99C
100
AcDbVisualStyle
  2
Conceptual
 70
     9
 71
     3
 72
     2
 73
     0
 90
        0
 40
-0.6
 41
-30.0
 62
     5
 63
     7
 74
     2
 91
        2
 64
     7
 65
   257
 75
     1
175
     1
 42
40.0
 92
        8
 66
     7
 43
1.0
 76
     1
 77
     6
 78
     2
 67
     7
 79
     3
170
     0
171
     0
290
     0
174
     0
 93
        1
 44
0.0
173
     0
291
     0
 45
0.0
1001
ACAD
1000
AcDbSavedByObjectVersion
1070
     0
  0
VISUALSTYLE
  5
9A7
102
{ACAD_REACTORS
330
99C
102
}
102
{ACAD_XDICTIONARY
360
E68
102
}
330
99C
100
AcDbVisualStyle
  2
Dim
 70
    11
 71
     2
 72
     2
 73
     0
 90
        0
 40
-0.6
 41
-30.0
 62
     5
 63
     7
 74
     1
 91
        4
 64
     7
 65
   257
 75
     1
175
     1
 42
1.0
 92
        8
 66
     7
 43
1.0
 76
     1
 77
     6
 78
     2
 67
     7
 79
     5
170
     0
171
     0
290
     0
174
     0
 93
        1
 44
-50.0
173
     0
291
     1
 45
0.0
1001
ACAD
1000
AcDbSavedByObjectVersion
1070
     0
  0
VISUALSTYLE
  5
E3C
102
{ACAD_REACTORS
330
99C
102
}
102
{ACAD_XDICTIONARY
360
E82
102
}
330
99C
100
AcDbVisualStyle
  2
EdgeColorOff
 70
    22
 71
     2
 72
     2
 73
     0
 90
        0
 40
0.6
 41
30.0
 62
     5
 63
     7
 74
     1
 91
        4
 64
     7
 65
   257
 75
     1
175
     1
 42
1.0
 92
        8
 66
     7
 43
1.0
 76
     1
 77
     6
 78
     2
 67
     7
 79
     5
170
     0
171
     0
290
     0
174
     0
 93
        1
 44
0.0
173
     0
291
     1
 45
0.0
1001
ACAD
1000
AcDbSavedByObjectVersion
1070
     0
  0
VISUALSTYLE
  5
9AB
102
{ACAD_REACTORS
330
99C
102
}
102
{ACAD_XDICTIONARY
360
E6A
102
}
330
99C
100
AcDbVisualStyle
  2
Facepattern
 70
    15
 71
     2
 72
     2
 73
     0
 90
        0
 40
-0.6
 41
-30.0
 62
     5
 63
     7
 74
     1
 91
        4
 64
     7
 65
   257
 75
     1
175
     1
 42
1.0
 92
        8
 66
     7
 43
1.0
 76
     1
 77
     6
 78
     2
 67
     7
 79
     5
170
     0
171
     0
290
     0
174
     0
 93
        1
 44
0.0
173
     0
291
     1
 45
0.0
1001
ACAD
1000
AcDbSavedByObjectVersion
1070
     0
  0
VISUALSTYLE
  5
99D
102
{ACAD_REACTORS
330
99C
102
}
102
{ACAD_XDICTIONARY
360
E6C
102
}
330
99C
100
AcDbVisualStyle
  2
Flat
 70
     0
 71
     2
 72
     1
 73
     1
 90
        2
 40
-0.6
 41
30.0
 62
     5
 63
     7
 74
     0
 91
        4
 64
     7
 65
   257
 75
     1
175
     1
 42
1.0
 92
        8
 66
     7
 43
1.0
 76
     1
 77
     6
 78
     2
 67
     7
 79
     5
170
     0
171
     0
290
     0
174
     0
 93
       13
 44
0.0
173
     0
291
     1
 45
0.0
1001
ACAD
1000
AcDbSavedByObjectVersion
1070
     0
  0
VISUALSTYLE
  5
99E
102
{ACAD_REACTORS
330
99C
102
}
102
{ACAD_XDICTIONARY
360
E6E
102
}
330
99C
100
AcDbVisualStyle
  2
FlatWithEdges
 70
     1
 71
     2
 72
     1
 73
     1
 90
        2
 40
-0.6
 41
30.0
 62
     5
 63
     7
 74
     1
 91
        4
 64
     7
 65
   257
 75
     1
175
     1
 42
1.0
 92
        0
 66
   257
 43
1.0
 76
     1
 77
     6
 78
     2
 67
     7
 79
     5
170
     0
171
     0
290
     0
174
     0
 93
       13
 44
0.0
173
     0
291
     1
 45
0.0
1001
ACAD
1000
AcDbSavedByObjectVersion
1070
     0
  0
VISUALSTYLE
  5
99F
102
{ACAD_REACTORS
330
99C
102
}
102
{ACAD_XDICTIONARY
360
E70
102
}
330
99C
100
AcDbVisualStyle
  2
Gouraud
 70
     2
 71
     2
 72
     2
 73
     1
 90
        2
 40
-0.6
 41
30.0
 62
     5
 63
     7
 74
     0
 91
        4
 64
     7
 65
   257
 75
     1
175
     1
 42
1.0
 92
        0
 66
     7
 43
1.0
 76
     1
 77
     6
 78
     2
 67
     7
 79
     5
170
     0
171
     0
290
     0
174
     0
 93
       13
 44
0.0
173
     0
291
     1
 45
0.0
1001
ACAD
1000
AcDbSavedByObjectVersion
1070
     0
  0
VISUALSTYLE
  5
9A0
102
{ACAD_REACTORS
330
99C
102
}
102
{ACAD_XDICTIONARY
360
E72
102
}
330
99C
100
AcDbVisualStyle
  2
GouraudWithEdges
 70
     3
 71
     2
 72
     2
 73
     1
 90
        2
 40
-0.6
 41
30.0
 62
     5
 63
     7
 74
     1
 91
        4
 64
     7
 65
   257
 75
     1
175
     1
 42
1.0
 92
        0
 66
   257
 43
1.0
 76
     1
 77
     6
 78
     2
 67
     7
 79
     5
170
     0
171
     0
290
     0
174
     0
 93
       13
 44
0.0
173
     0
291
     1
 45
0.0
1001
ACAD
1000
AcDbSavedByObjectVersion
1070
     0
  0
VISUALSTYLE
  5
E39
102
{ACAD_REACTORS
330
99C
102
}
102
{ACAD_XDICTIONARY
360
E7C
102
}
330
99C
100
AcDbVisualStyle
  2
Hidden
 70
     6
 71
     1
 72
     2
 73
     2
 90
        0
 40
0.6
 41
30.0
 62
     5
 63
     7
 74
     2
 91
        2
 64
     7
 65
   257
 75
     2
175
     1
 42
40.0
 92
        0
 66
   257
 43
1.0
 76
     1
 77
     6
 78
     2
 67
     7
 79
     3
170
     0
171
     0
290
     0
174
     0
 93
        1
 44
0.0
173
     0
291
     0
 45
0.0
1001
ACAD
1000
AcDbSavedByObjectVersion
1070
     0
  0
VISUALSTYLE
  5
E3A
102
{ACAD_REACTORS
330
99C
102
}
102
{ACAD_XDICTIONARY
360
E7E
102
}
330
99C
100
AcDbVisualStyle
  2
JitterOff
 70
    20
 71
     2
 72
     2
 73
     0
 90
        0
 40
0.6
 41
30.0
 62
     5
 63
     7
 74
     1
 91
        4
 64
     7
 65
   257
 75
     1
175
     1
 42
1.0
 92
       10
 66
     7
 43
1.0
 76
     1
 77
     6
 78
     2
 67
     7
 79
     5
170
     0
171
     0
290
     0
174
     0
 93
        1
 44
0.0
173
     0
291
     1
 45
0.0
1001
ACAD
1000
AcDbSavedByObjectVersion
1070
     0
  0
VISUALSTYLE
  5
9AA
102
{ACAD_REACTORS
330
99C
102
}
102
{ACAD_XDICTIONARY
360
E74
102
}
330
99C
100
AcDbVisualStyle
  2
Linepattern
 70
    14
 71
     2
 72
     2
 73
     0
 90
        0
 40
-0.6
 41
-30.0
 62
     5
 63
     7
 74
     1
 91
        4
 64
     7
 65
   257
 75
     7
175
     7
 42
1.0
 92
        8
 66
     7
 43
1.0
 76
     1
 77
     6
 78
     2
 67
     7
 79
     5
170
     0
171
     0
290
     0
174
     0
 93
        1
 44
0.0
173
     0
291
     1
 45
0.0
1001
ACAD
1000
AcDbSavedByObjectVersion
1070
     0
  0
VISUALSTYLE
  5
E3B
102
{ACAD_REACTORS
330
99C
102
}
102
{ACAD_XDICTIONARY
360
E80
102
}
330
99C
100
AcDbVisualStyle
  2
OverhangOff
 70
    21
 71
     2
 72
     2
 73
     0
 90
        0
 40
0.6
 41
30.0
 62
     5
 63
     7
 74
     1
 91
        4
 64
     7
 65
   257
 75
     1
175
     1
 42
1.0
 92
        9
 66
     7
 43
1.0
 76
     1
 77
     6
 78
     2
 67
     7
 79
     5
170
     0
171
     0
290
     0
174
     0
 93
        1
 44
0.0
173
     0
291
     1
 45
0.0
1001
ACAD
1000
AcDbSavedByObjectVersion
1070
     0
  0
VISUALSTYLE
  5
9A6
102
{ACAD_REACTORS
330
99C
102
}
102
{ACAD_XDICTIONARY
360
E76
102
}
330
99C
100
AcDbVisualStyle
  2
Realistic
 70
     8
 71
     2
 72
     2
 73
     0
 90
        0
 40
-0.6
 41
-30.0
 62
     5
 63
     7
 74
     1
 91
        0
 64
     7
 65
   257
 75
     1
175
     1
 42
1.0
 92
        8
 66
     8
 43
1.0
 76
     1
 77
     6
 78
     2
 67
     7
 79
     5
170
     0
171
     0
290
     0
174
     0
 93
       13
 44
0.0
173
     0
291
     0
 45
0.0
1001
ACAD
1000
AcDbSavedByObjectVersion
1070
     0
  0
VISUALSTYLE
  5
E41
102
{ACAD_REACTORS
330
99C
102
}
102
{ACAD_XDICTIONARY
360
E8C
102
}
330
99C
100
AcDbVisualStyle
  2
Shaded
 70
    27
 71
     2
 72
     2
 73
     1
 90
        2
 40
0.6
 41
30.0
 62
     5
 63
     7
 74
     0
 91
        4
 64
     7
 65
   257
 75
     1
175
     1
 42
1.0
 92
        8
 66
   257
 43
1.0
 76
     1
 77
     6
 78
     2
 67
     8
 79
     3
170
     0
171
     0
290
     0
174
     0
 93
        5
 44
0.0
173
     0
291
     0
 45
0.0
1001
ACAD
1000
AcDbSavedByObjectVersion
1070
     0
  0
VISUALSTYLE
  5
E40
102
{ACAD_REACTORS
330
99C
102
}
102
{ACAD_XDICTIONARY
360
E8A
102
}
330
99C
100
AcDbVisualStyle
  2
Shaded with edges
 70
    26
 71
     2
 72
     2
 73
     1
 90
        2
 40
0.6
 41
30.0
 62
     5
 63
     7
 74
     1
 91
       10
 64
     7
 65
   257
 75
     2
175
     1
 42
1.0
 92
        8
 66
   257
 43
1.0
 76
     1
 77
     6
 78
     2
 67
     7
 79
     3
170
     0
171
     0
290
     0
174
     0
 93
        5
 44
0.0
173
     0
291
     0
 45
0.0
1001
ACAD
1000
AcDbSavedByObjectVersion
1070
     0
  0
VISUALSTYLE
  5
E3D
102
{ACAD_REACTORS
330
99C
102
}
102
{ACAD_XDICTIONARY
360
E84
102
}
330
99C
100
AcDbVisualStyle
  2
Shades of Gray
 70
    23
 71
     2
 72
     2
 73
     3
 90
        0
 40
0.6
 41
30.0
 62
     5
 63
     7
 74
     2
 91
        2
 64
     7
 65
     7
 75
     1
175
     1
 42
40.0
 92
        8
 66
     7
 43
1.0
 76
     1
 77
     6
 78
     2
 67
     7
 79
     3
170
     0
171
     0
290
     0
174
     0
 93
        1
 44
0.0
173
     0
291
     0
 45
0.0
1001
ACAD
1000
AcDbSavedByObjectVersion
1070
     0
  0
VISUALSTYLE
  5
E3E
102
{ACAD_REACTORS
330
99C
102
}
102
{ACAD_XDICTIONARY
360
E86
102
}
330
99C
100
AcDbVisualStyle
  2
Sketchy
 70
    24
 71
     1
 72
     2
 73
     2
 90
        0
 40
0.6
 41
30.0
 62
     5
 63
     7
 74
     2
 91
        2
 64
     7
 65
     7
 75
     1
175
     1
 42
40.0
 92
       11
 66
     7
 43
1.0
 76
     1
 77
     6
 78
     2
 67
     7
 79
     6
170
     0
171
     0
290
     0
174
     0
 93
        1
 44
0.0
173
     0
291
     0
 45
0.0
1001
ACAD
1000
AcDbSavedByObjectVersion
1070
     0
  0
VISUALSTYLE
  5
9A9
102
{ACAD_REACTORS
330
99C
102
}
102
{ACAD_XDICTIONARY
360
E78
102
}
330
99C
100
AcDbVisualStyle
  2
Thicken
 70
    13
 71
     2
 72
     2
 73
     0
 90
        0
 40
-0.6
 41
-30.0
 62
     5
 63
     7
 74
     1
 91
        4
 64
     7
 65
   257
 75
     1
175
     1
 42
1.0
 92
       12
 66
     7
 43
1.0
 76
     1
 77
     6
 78
     2
 67
     7
 79
     5
170
     0
171
     0
290
     0
174
     0
 93
        1
 44
0.0
173
     0
291
     1
 45
0.0
1001
ACAD
1000
AcDbSavedByObjectVersion
1070
     0
  0
VISUALSTYLE
  5
E38
102
{ACAD_REACTORS
330
99C
102
}
102
{ACAD_XDICTIONARY
360
E7A
102
}
330
99C
100
AcDbVisualStyle
  2
Wireframe
 70
     5
 71
     0
 72
     2
 73
     0
 90
        0
 40
0.6
 41
30.0
 62
     5
 63
     7
 74
     1
 91
        4
 64
     7
 65
   257
 75
     1
175
     1
 42
1.0
 92
        0
 66
   257
 43
1.0
 76
     1
 77
     6
 78
     2
 67
     7
 79
     3
170
     0
171
     0
290
     0
174
     0
 93
        1
 44
0.0
173
     0
291
     0
 45
0.0
1001
ACAD
1000
AcDbSavedByObjectVersion
1070
     0
  0
VISUALSTYLE
  5
E3F
102
{ACAD_REACTORS
330
99C
102
}
102
{ACAD_XDICTIONARY
360
E88
102
}
330
99C
100
AcDbVisualStyle
  2
X-Ray
 70
    25
 71
     2
 72
     2
 73
     1
 90
        1
 40
0.5
 41
30.0
 62
     5
 63
     7
 74
     1
 91
        0
 64
     7
 65
   257
 75
     1
175
     1
 42
1.0
 92
        8
 66
     7
 43
1.0
 76
     1
 77
     6
 78
     2
 67
     7
 79
     3
170
     0
171
     0
290
     0
174
     0
 93
       13
 44
0.0
173
     0
291
     0
 45
0.0
1001
ACAD
1000
AcDbSavedByObjectVersion
1070
     0
  0
XRECORD
  5
E4A
102
{ACAD_REACTORS
330
E49
102
}
330
E49
100
AcDbXrecord
280
     1
340
6B
  0
XRECORD
  5
E4B
102
{ACAD_REACTORS
330
E49
102
}
330
E49
100
AcDbXrecord
280
     1
340
6A
  0
DICTIONARYVAR
  5
E53
102
{ACAD_REACTORS
330
5E
102
}
330
5E
100
DictionaryVariables
280
     0
  1
1:1
  0
DICTIONARYVAR
  5
E44
102
{ACAD_REACTORS
330
5E
102
}
330
5E
100
DictionaryVariables
280
     0
  1
Standard
  0
DICTIONARYVAR
  5
E23
102
{ACAD_REACTORS
330
5E
102
}
330
5E
100
DictionaryVariables
280
     0
  1
Standard
  0
DICTIONARYVAR
  5
5F
102
{ACAD_REACTORS
330
5E
102
}
330
5E
100
DictionaryVariables
280
     0
  1
2
  0
DICTIONARYVAR
  5
63
102
{ACAD_REACTORS
330
5E
102
}
330
5E
100
DictionaryVariables
280
     0
  1
1
  0
DICTIONARYVAR
  5
E45
102
{ACAD_REACTORS
330
5E
102
}
330
5E
100
DictionaryVariables
280
     0
  1
0
  0
DICTIONARYVAR
  5
E46
102
{ACAD_REACTORS
330
5E
102
}
330
5E
100
DictionaryVariables
280
     0
  1
0
  0
DICTIONARY
  5
E54
330
99A
100
AcDbDictionary
280
     1
281
     1
  3
ACAD_XREC_ROUNDTRIP
360
E55
  0
DICTIONARY
  5
E56
330
999
100
AcDbDictionary
280
     1
281
     1
  3
ACAD_XREC_ROUNDTRIP
360
E57
  0
DICTIONARY
  5
E58
330
99B
100
AcDbDictionary
280
     1
281
     1
  3
ACAD_XREC_ROUNDTRIP
360
E59
  0
DICTIONARY
  5
E8F
330
E37
100
AcDbDictionary
280
     1
281
     1
  3
ACAD_XREC_ROUNDTRIP
360
E90
  0
DICTIONARY
  5
E5A
330
9A2
100
AcDbDictionary
280
     1
281
     1
  3
ACAD_XREC_ROUNDTRIP
360
E5B
  0
DICTIONARY
  5
E5C
330
9A4
100
AcDbDictionary
280
     1
281
     1
  3
ACAD_XREC_ROUNDTRIP
360
E5D
  0
DICTIONARY
  5
E5E
330
9A3
100
AcDbDictionary
280
     1
281
     1
  3
ACAD_XREC_ROUNDTRIP
360
E5F
  0
DICTIONARY
  5
E60
330
9A1
100
AcDbDictionary
280
     1
281
     1
  3
ACAD_XREC_ROUNDTRIP
360
E61
  0
DICTIONARY
  5
E62
330
9A8
100
AcDbDictionary
280
     1
281
     1
  3
ACAD_XREC_ROUNDTRIP
360
E63
  0
DICTIONARY
  5
E64
330
9AC
100
AcDbDictionary
280
     1
281
     1
  3
ACAD_XREC_ROUNDTRIP
360
E65
  0
DICTIONARY
  5
E66
330
9A5
100
AcDbDictionary
280
     1
281
     1
  3
ACAD_XREC_ROUNDTRIP
360
E67
  0
DICTIONARY
  5
E68
330
9A7
100
AcDbDictionary
280
     1
281
     1
  3
ACAD_XREC_ROUNDTRIP
360
E69
  0
DICTIONARY
  5
E82
330
E3C
100
AcDbDictionary
280
     1
281
     1
  3
ACAD_XREC_ROUNDTRIP
360
E83
  0
DICTIONARY
  5
E6A
330
9AB
100
AcDbDictionary
280
     1
281
     1
  3
ACAD_XREC_ROUNDTRIP
360
E6B
  0
DICTIONARY
  5
E6C
330
99D
100
AcDbDictionary
280
     1
281
     1
  3
ACAD_XREC_ROUNDTRIP
360
E6D
  0
DICTIONARY
  5
E6E
330
99E
100
AcDbDictionary
280
     1
281
     1
  3
ACAD_XREC_ROUNDTRIP
360
E6F
  0
DICTIONARY
  5
E70
330
99F
100
AcDbDictionary
280
     1
281
     1
  3
ACAD_XREC_ROUNDTRIP
360
E71
  0
DICTIONARY
  5
E72
330
9A0
100
AcDbDictionary
280
     1
281
     1
  3
ACAD_XREC_ROUNDTRIP
360
E73
  0
DICTIONARY
  5
E7C
330
E39
100
AcDbDictionary
280
     1
281
     1
  3
ACAD_XREC_ROUNDTRIP
360
E7D
  0
DICTIONARY
  5
E7E
330
E3A
100
AcDbDictionary
280
     1
281
     1
  3
ACAD_XREC_ROUNDTRIP
360
E7F
  0
DICTIONARY
  5
E74
330
9AA
100
AcDbDictionary
280
     1
281
     1
  3
ACAD_XREC_ROUNDTRIP
360
E75
  0
DICTIONARY
  5
E80
330
E3B
100
AcDbDictionary
280
     1
281
     1
  3
ACAD_XREC_ROUNDTRIP
360
E81
  0
DICTIONARY
  5
E76
330
9A6
100
AcDbDictionary
280
     1
281
     1
  3
ACAD_XREC_ROUNDTRIP
360
E77
  0
DICTIONARY
  5
E8C
330
E41
100
AcDbDictionary
280
     1
281
     1
  3
ACAD_XREC_ROUNDTRIP
360
E8D
  0
DICTIONARY
  5
E8A
330
E40
100
AcDbDictionary
280
     1
281
     1
  3
ACAD_XREC_ROUNDTRIP
360
E8B
  0
DICTIONARY
  5
E84
330
E3D
100
AcDbDictionary
280
     1
281
     1
  3
ACAD_XREC_ROUNDTRIP
360
E85
  0
DICTIONARY
  5
E86
330
E3E
100
AcDbDictionary
280
     1
281
     1
  3
ACAD_XREC_ROUNDTRIP
360
E87
  0
DICTIONARY
  5
E78
330
9A9
100
AcDbDictionary
280
     1
281
     1
  3
ACAD_XREC_ROUNDTRIP
360
E79
  0
DICTIONARY
  5
E7A
330
E38
100
AcDbDictionary
280
     1
281
     1
  3
ACAD_XREC_ROUNDTRIP
360
E7B
  0
DICTIONARY
  5
E88
330
E3F
100
AcDbDictionary
280
     1
281
     1
  3
ACAD_XREC_ROUNDTRIP
360
E89
  0
XRECORD
  5
E55
102
{ACAD_REACTORS
330
E54
102
}
330
E54
100
AcDbXrecord
280
     1
102
MATERIAL
148
0.0
149
0.0
149
0.0
 93
        0
 94
       63
282
     0
 72
     1
 77
     1
171
     1
175
     1
179
     1
273
     0
  0
XRECORD
  5
E57
102
{ACAD_REACTORS
330
E56
102
}
330
E56
100
AcDbXrecord
280
     1
102
MATERIAL
148
0.0
149
0.0
149
0.0
 93
        0
 94
       63
282
     0
 72
     1
 77
     1
171
     1
175
     1
179
     1
273
     0
  0
XRECORD
  5
E59
102
{ACAD_REACTORS
330
E58
102
}
330
E58
100
AcDbXrecord
280
     1
102
MATERIAL
148
0.0
149
0.0
149
0.0
 93
        0
 94
       63
282
     0
 72
     1
 77
     1
171
     1
175
     1
179
     1
273
     0
  0
XRECORD
  5
E90
102
{ACAD_REACTORS
330
E8F
102
}
330
E8F
100
AcDbXrecord
280
     1
102
ACAD_ROUNDTRIP_2010_MLEADER_STYLE
  0
XRECORD
  5
E5B
102
{ACAD_REACTORS
330
E5A
102
}
330
E5A
100
AcDbXrecord
280
     1
102
RTVSPropertyOp0
 70
     1
102
RTVSPropertyOp1
 70
     1
102
RTVSPropertyOp2
 70
     1
102
RTVSPropertyOp3
 70
     1
102
RTVSPropertyOp4
 70
     1
102
RTVSPropertyOp5
 70
     1
102
RTVSPropertyOp6
 70
     1
102
RTVSPropertyOp7
 70
     1
102
RTVSPropertyOp8
 70
     1
102
RTVSPropertyOp9
 70
     1
102
RTVSPropertyOp10
 70
     1
102
RTVSPropertyOp11
 70
     1
102
RTVSPropertyOp12
 70
     1
102
RTVSPropertyOp13
 70
     1
102
RTVSPropertyOp14
 70
     1
102
RTVSPropertyOp15
 70
     1
102
RTVSPropertyOp16
 70
     1
102
RTVSPropertyOp17
 70
     1
102
RTVSPropertyOp18
 70
     1
102
RTVSPropertyOp19
 70
     1
102
RTVSPropertyOp20
 70
     1
102
RTVSPropertyOp21
 70
     1
102
RTVSPropertyOp22
 70
     1
102
RTVSPropertyOp23
 70
     1
102
RTVSPropertyOp24
 70
     1
102
RTVSPropertyOp25
 70
     1
102
RTVSPropertyOp26
 70
     1
102
RTVSPropertyOp27
 70
     1
102
RTVSPropertyOp28
 70
     1
102
RTVSPropertyOp29
 70
     1
102
RTVSPropertyOp30
 70
     1
102
RTVSPropertyOp31
 70
     1
102
RTVSPropertyOp32
 70
     1
102
RTVSPropertyOp33
 70
     1
102
RTVSPropertyOp34
 70
     1
102
RTVSPropertyOp35
 70
     1
102
RTVSPropertyOp36
 70
     1
102
RTVSPropertyOp37
 70
     1
102
RTVSPropertyOp38
 70
     1
102
RTVSPropertyOp39
 70
     1
102
RTVSPropertyOp40
 70
     1
102
RTVSPropertyOp41
 70
     1
102
RTVSPropertyOp42
 70
     1
102
RTVSPropertyOp43
 70
     1
102
RTVSPropertyOp44
 70
     1
102
RTVSPropertyOp45
 70
     1
102
RTVSPropertyOp46
 70
     1
102
RTVSPropertyOp47
 70
     1
102
RTVSPropertyOp48
 70
     1
102
RTVSPropertyOp49
 70
     1
102
RTVSPropertyOp50
 70
     1
102
RTVSPropertyOp51
 70
     0
102
RTVSPropertyOp52
 70
     0
102
RTVSPropertyOp53
 70
     1
102
RTVSPropertyOp54
 70
     1
102
RTVSPropertyOp55
 70
     1
102
RTVSPropertyOp56
 70
     1
102
RTVSPropertyOp57
 70
     1
102
RTVSPost2010Prop28
280
     1
102
RTVSPost2010PropOp28
 70
     1
102
RTVSPost2010Prop29
280
     1
102
RTVSPost2010PropOp29
 70
     1
102
RTVSPost2010Prop30
280
     0
102
RTVSPost2010PropOp30
 70
     1
102
RTVSPost2010Prop31
280
     0
102
RTVSPost2010PropOp31
 70
     1
102
RTVSPost2010Prop32
280
     0
102
RTVSPost2010PropOp32
 70
     1
102
RTVSPost2010Prop33
280
     0
102
RTVSPost2010PropOp33
 70
     1
102
RTVSPost2010Prop34
280
     0
102
RTVSPost2010PropOp34
 70
     1
102
RTVSPost2010Prop35
280
     0
102
RTVSPost2010PropOp35
 70
     1
102
RTVSPost2010Prop36
280
     0
102
RTVSPost2010PropOp36
 70
     1
102
RTVSPost2010Prop37
 90
       50
102
RTVSPost2010PropOp37
 70
     1
102
RTVSPost2010Prop38
140
0.0
102
RTVSPost2010PropOp38
 70
     1
102
RTVSPost2010Prop39
140
1.0
102
RTVSPost2010PropOp39
 70
     1
102
RTVSPost2010Prop40
 90
        0
102
RTVSPost2010PropOp40
 70
     1
102
RTVSPost2010Prop41ColorIndex
 90
       18
102
RTVSPost2010Prop41ColorRGB
 90
        0
102
RTVSPost2010PropOp41
 70
     1
102
RTVSPost2010Prop42
 90
       50
102
RTVSPost2010PropOp42
 70
     1
102
RTVSPost2010Prop43
 90
        3
102
RTVSPost2010PropOp43
 70
     1
102
RTVSPost2010Prop44ColorIndex
 90
        5
102
RTVSPost2010Prop44ColorRGB
 90
      255
102
RTVSPost2010PropOp44
 70
     1
102
RTVSPost2010Prop45
280
     0
102
RTVSPost2010PropOp45
 70
     1
102
RTVSPost2010Prop46
 90
       50
102
RTVSPost2010PropOp46
 70
     1
102
RTVSPost2010Prop47
 90
       50
102
RTVSPost2010PropOp47
 70
     1
102
RTVSPost2010Prop48
 90
       50
102
RTVSPost2010PropOp48
 70
     1
102
RTVSPost2010Prop49
280
     0
102
RTVSPost2010PropOp49
 70
     1
102
RTVSPost2010Prop50
 90
       50
102
RTVSPost2010PropOp50
 70
     1
102
RTVSPost2010Prop51ColorIndex
 90
      256
102
RTVSPost2010Prop51ColorRGB
 90
-16777216
102
RTVSPost2010PropOp51
 70
     0
102
RTVSPost2010Prop52
140
1.0
102
RTVSPost2010PropOp52
 70
     0
102
RTVSPost2010Prop53
 90
        2
102
RTVSPost2010PropOp53
 70
     1
102
RTVSPost2010Prop54
  1
strokes_ogs.tif
102
RTVSPost2010PropOp54
 70
     1
102
RTVSPost2010Prop55
280
     0
102
RTVSPost2010PropOp55
 70
     1
102
RTVSPost2010Prop56
140
1.0
102
RTVSPost2010PropOp56
 70
     1
102
RTVSPost2010Prop57
140
1.0
102
RTVSPost2010PropOp57
 70
     1
  0
XRECORD
  5
E5D
102
{ACAD_REACTORS
330
E5C
102
}
330
E5C
100
AcDbXrecord
280
     1
102
RTVSPropertyOp0
 70
     1
102
RTVSPropertyOp1
 70
     1
102
RTVSPropertyOp2
 70
     1
102
RTVSPropertyOp3
 70
     1
102
RTVSPropertyOp4
 70
     1
102
RTVSPropertyOp5
 70
     1
102
RTVSPropertyOp6
 70
     1
102
RTVSPropertyOp7
 70
     1
102
RTVSPropertyOp8
 70
     1
102
RTVSPropertyOp9
 70
     1
102
RTVSPropertyOp10
 70
     1
102
RTVSPropertyOp11
 70
     1
102
RTVSPropertyOp12
 70
     1
102
RTVSPropertyOp13
 70
     1
102
RTVSPropertyOp14
 70
     1
102
RTVSPropertyOp15
 70
     1
102
RTVSPropertyOp16
 70
     1
102
RTVSPropertyOp17
 70
     1
102
RTVSPropertyOp18
 70
     1
102
RTVSPropertyOp19
 70
     1
102
RTVSPropertyOp20
 70
     1
102
RTVSPropertyOp21
 70
     1
102
RTVSPropertyOp22
 70
     1
102
RTVSPropertyOp23
 70
     1
102
RTVSPropertyOp24
 70
     1
102
RTVSPropertyOp25
 70
     1
102
RTVSPropertyOp26
 70
     1
102
RTVSPropertyOp27
 70
     1
102
RTVSPropertyOp28
 70
     1
102
RTVSPropertyOp29
 70
     1
102
RTVSPropertyOp30
 70
     1
102
RTVSPropertyOp31
 70
     1
102
RTVSPropertyOp32
 70
     1
102
RTVSPropertyOp33
 70
     1
102
RTVSPropertyOp34
 70
     1
102
RTVSPropertyOp35
 70
     1
102
RTVSPropertyOp36
 70
     1
102
RTVSPropertyOp37
 70
     1
102
RTVSPropertyOp38
 70
     1
102
RTVSPropertyOp39
 70
     1
102
RTVSPropertyOp40
 70
     1
102
RTVSPropertyOp41
 70
     1
102
RTVSPropertyOp42
 70
     1
102
RTVSPropertyOp43
 70
     1
102
RTVSPropertyOp44
 70
     1
102
RTVSPropertyOp45
 70
     1
102
RTVSPropertyOp46
 70
     1
102
RTVSPropertyOp47
 70
     1
102
RTVSPropertyOp48
 70
     1
102
RTVSPropertyOp49
 70
     1
102
RTVSPropertyOp50
 70
     1
102
RTVSPropertyOp51
 70
     0
102
RTVSPropertyOp52
 70
     0
102
RTVSPropertyOp53
 70
     1
102
RTVSPropertyOp54
 70
     1
102
RTVSPropertyOp55
 70
     1
102
RTVSPropertyOp56
 70
     1
102
RTVSPropertyOp57
 70
     1
102
RTVSPost2010Prop28
280
     0
102
RTVSPost2010PropOp28
 70
     1
102
RTVSPost2010Prop29
280
     1
102
RTVSPost2010PropOp29
 70
     1
102
RTVSPost2010Prop30
280
     1
102
RTVSPost2010PropOp30
 70
     1
102
RTVSPost2010Prop31
280
     0
102
RTVSPost2010PropOp31
 70
     1
102
RTVSPost2010Prop32
280
     0
102
RTVSPost2010PropOp32
 70
     1
102
RTVSPost2010Prop33
280
     0
102
RTVSPost2010PropOp33
 70
     1
102
RTVSPost2010Prop34
280
     0
102
RTVSPost2010PropOp34
 70
     1
102
RTVSPost2010Prop35
280
     0
102
RTVSPost2010PropOp35
 70
     1
102
RTVSPost2010Prop36
280
     0
102
RTVSPost2010PropOp36
 70
     1
102
RTVSPost2010Prop37
 90
       50
102
RTVSPost2010PropOp37
 70
     1
102
RTVSPost2010Prop38
140
0.0
102
RTVSPost2010PropOp38
 70
     1
102
RTVSPost2010Prop39
140
1.0
102
RTVSPost2010PropOp39
 70
     1
102
RTVSPost2010Prop40
 90
        0
102
RTVSPost2010PropOp40
 70
     1
102
RTVSPost2010Prop41ColorIndex
 90
       18
102
RTVSPost2010Prop41ColorRGB
 90
        0
102
RTVSPost2010PropOp41
 70
     1
102
RTVSPost2010Prop42
 90
       50
102
RTVSPost2010PropOp42
 70
     1
102
RTVSPost2010Prop43
 90
        3
102
RTVSPost2010PropOp43
 70
     1
102
RTVSPost2010Prop44ColorIndex
 90
        5
102
RTVSPost2010Prop44ColorRGB
 90
      255
102
RTVSPost2010PropOp44
 70
     1
102
RTVSPost2010Prop45
280
     0
102
RTVSPost2010PropOp45
 70
     1
102
RTVSPost2010Prop46
 90
       50
102
RTVSPost2010PropOp46
 70
     1
102
RTVSPost2010Prop47
 90
       50
102
RTVSPost2010PropOp47
 70
     1
102
RTVSPost2010Prop48
 90
       50
102
RTVSPost2010PropOp48
 70
     1
102
RTVSPost2010Prop49
280
     0
102
RTVSPost2010PropOp49
 70
     1
102
RTVSPost2010Prop50
 90
       50
102
RTVSPost2010PropOp50
 70
     1
102
RTVSPost2010Prop51ColorIndex
 90
      256
102
RTVSPost2010Prop51ColorRGB
 90
-16777216
102
RTVSPost2010PropOp51
 70
     0
102
RTVSPost2010Prop52
140
1.0
102
RTVSPost2010PropOp52
 70
     0
102
RTVSPost2010Prop53
 90
        2
102
RTVSPost2010PropOp53
 70
     1
102
RTVSPost2010Prop54
  1
strokes_ogs.tif
102
RTVSPost2010PropOp54
 70
     1
102
RTVSPost2010Prop55
280
     0
102
RTVSPost2010PropOp55
 70
     1
102
RTVSPost2010Prop56
140
1.0
102
RTVSPost2010PropOp56
 70
     1
102
RTVSPost2010Prop57
140
1.0
102
RTVSPost2010PropOp57
 70
     1
  0
XRECORD
  5
E5F
102
{ACAD_REACTORS
330
E5E
102
}
330
E5E
100
AcDbXrecord
280
     1
102
RTVSPropertyOp0
 70
     1
102
RTVSPropertyOp1
 70
     1
102
RTVSPropertyOp2
 70
     1
102
RTVSPropertyOp3
 70
     1
102
RTVSPropertyOp4
 70
     1
102
RTVSPropertyOp5
 70
     1
102
RTVSPropertyOp6
 70
     1
102
RTVSPropertyOp7
 70
     1
102
RTVSPropertyOp8
 70
     1
102
RTVSPropertyOp9
 70
     1
102
RTVSPropertyOp10
 70
     1
102
RTVSPropertyOp11
 70
     1
102
RTVSPropertyOp12
 70
     1
102
RTVSPropertyOp13
 70
     1
102
RTVSPropertyOp14
 70
     1
102
RTVSPropertyOp15
 70
     1
102
RTVSPropertyOp16
 70
     1
102
RTVSPropertyOp17
 70
     1
102
RTVSPropertyOp18
 70
     1
102
RTVSPropertyOp19
 70
     1
102
RTVSPropertyOp20
 70
     1
102
RTVSPropertyOp21
 70
     1
102
RTVSPropertyOp22
 70
     1
102
RTVSPropertyOp23
 70
     1
102
RTVSPropertyOp24
 70
     1
102
RTVSPropertyOp25
 70
     1
102
RTVSPropertyOp26
 70
     1
102
RTVSPropertyOp27
 70
     1
102
RTVSPropertyOp28
 70
     1
102
RTVSPropertyOp29
 70
     1
102
RTVSPropertyOp30
 70
     1
102
RTVSPropertyOp31
 70
     1
102
RTVSPropertyOp32
 70
     1
102
RTVSPropertyOp33
 70
     1
102
RTVSPropertyOp34
 70
     1
102
RTVSPropertyOp35
 70
     1
102
RTVSPropertyOp36
 70
     1
102
RTVSPropertyOp37
 70
     1
102
RTVSPropertyOp38
 70
     1
102
RTVSPropertyOp39
 70
     1
102
RTVSPropertyOp40
 70
     1
102
RTVSPropertyOp41
 70
     1
102
RTVSPropertyOp42
 70
     1
102
RTVSPropertyOp43
 70
     1
102
RTVSPropertyOp44
 70
     1
102
RTVSPropertyOp45
 70
     1
102
RTVSPropertyOp46
 70
     1
102
RTVSPropertyOp47
 70
     1
102
RTVSPropertyOp48
 70
     1
102
RTVSPropertyOp49
 70
     1
102
RTVSPropertyOp50
 70
     1
102
RTVSPropertyOp51
 70
     0
102
RTVSPropertyOp52
 70
     0
102
RTVSPropertyOp53
 70
     1
102
RTVSPropertyOp54
 70
     1
102
RTVSPropertyOp55
 70
     1
102
RTVSPropertyOp56
 70
     1
102
RTVSPropertyOp57
 70
     1
102
RTVSPost2010Prop28
280
     0
102
RTVSPost2010PropOp28
 70
     1
102
RTVSPost2010Prop29
280
     1
102
RTVSPost2010PropOp29
 70
     1
102
RTVSPost2010Prop30
280
     1
102
RTVSPost2010PropOp30
 70
     1
102
RTVSPost2010Prop31
280
     0
102
RTVSPost2010PropOp31
 70
     1
102
RTVSPost2010Prop32
280
     0
102
RTVSPost2010PropOp32
 70
     1
102
RTVSPost2010Prop33
280
     0
102
RTVSPost2010PropOp33
 70
     1
102
RTVSPost2010Prop34
280
     0
102
RTVSPost2010PropOp34
 70
     1
102
RTVSPost2010Prop35
280
     0
102
RTVSPost2010PropOp35
 70
     1
102
RTVSPost2010Prop36
280
     0
102
RTVSPost2010PropOp36
 70
     1
102
RTVSPost2010Prop37
 90
       50
102
RTVSPost2010PropOp37
 70
     1
102
RTVSPost2010Prop38
140
0.0
102
RTVSPost2010PropOp38
 70
     1
102
RTVSPost2010Prop39
140
1.0
102
RTVSPost2010PropOp39
 70
     1
102
RTVSPost2010Prop40
 90
        0
102
RTVSPost2010PropOp40
 70
     1
102
RTVSPost2010Prop41ColorIndex
 90
       18
102
RTVSPost2010Prop41ColorRGB
 90
        0
102
RTVSPost2010PropOp41
 70
     1
102
RTVSPost2010Prop42
 90
       50
102
RTVSPost2010PropOp42
 70
     1
102
RTVSPost2010Prop43
 90
        3
102
RTVSPost2010PropOp43
 70
     1
102
RTVSPost2010Prop44ColorIndex
 90
        5
102
RTVSPost2010Prop44ColorRGB
 90
      255
102
RTVSPost2010PropOp44
 70
     1
102
RTVSPost2010Prop45
280
     0
102
RTVSPost2010PropOp45
 70
     1
102
RTVSPost2010Prop46
 90
       50
102
RTVSPost2010PropOp46
 70
     1
102
RTVSPost2010Prop47
 90
       50
102
RTVSPost2010PropOp47
 70
     1
102
RTVSPost2010Prop48
 90
       50
102
RTVSPost2010PropOp48
 70
     1
102
RTVSPost2010Prop49
280
     0
102
RTVSPost2010PropOp49
 70
     1
102
RTVSPost2010Prop50
 90
       50
102
RTVSPost2010PropOp50
 70
     1
102
RTVSPost2010Prop51ColorIndex
 90
      256
102
RTVSPost2010Prop51ColorRGB
 90
-16777216
102
RTVSPost2010PropOp51
 70
     0
102
RTVSPost2010Prop52
140
1.0
102
RTVSPost2010PropOp52
 70
     0
102
RTVSPost2010Prop53
 90
        2
102
RTVSPost2010PropOp53
 70
     1
102
RTVSPost2010Prop54
  1
strokes_ogs.tif
102
RTVSPost2010PropOp54
 70
     1
102
RTVSPost2010Prop55
280
     0
102
RTVSPost2010PropOp55
 70
     1
102
RTVSPost2010Prop56
140
1.0
102
RTVSPost2010PropOp56
 70
     1
102
RTVSPost2010Prop57
140
1.0
102
RTVSPost2010PropOp57
 70
     1
  0
XRECORD
  5
E61
102
{ACAD_REACTORS
330
E60
102
}
330
E60
100
AcDbXrecord
280
     1
102
RTVSPropertyOp0
 70
     1
102
RTVSPropertyOp1
 70
     1
102
RTVSPropertyOp2
 70
     1
102
RTVSPropertyOp3
 70
     1
102
RTVSPropertyOp4
 70
     1
102
RTVSPropertyOp5
 70
     1
102
RTVSPropertyOp6
 70
     1
102
RTVSPropertyOp7
 70
     1
102
RTVSPropertyOp8
 70
     1
102
RTVSPropertyOp9
 70
     1
102
RTVSPropertyOp10
 70
     1
102
RTVSPropertyOp11
 70
     1
102
RTVSPropertyOp12
 70
     1
102
RTVSPropertyOp13
 70
     1
102
RTVSPropertyOp14
 70
     1
102
RTVSPropertyOp15
 70
     1
102
RTVSPropertyOp16
 70
     1
102
RTVSPropertyOp17
 70
     1
102
RTVSPropertyOp18
 70
     1
102
RTVSPropertyOp19
 70
     1
102
RTVSPropertyOp20
 70
     1
102
RTVSPropertyOp21
 70
     1
102
RTVSPropertyOp22
 70
     1
102
RTVSPropertyOp23
 70
     1
102
RTVSPropertyOp24
 70
     1
102
RTVSPropertyOp25
 70
     1
102
RTVSPropertyOp26
 70
     1
102
RTVSPropertyOp27
 70
     1
102
RTVSPropertyOp28
 70
     1
102
RTVSPropertyOp29
 70
     1
102
RTVSPropertyOp30
 70
     1
102
RTVSPropertyOp31
 70
     1
102
RTVSPropertyOp32
 70
     1
102
RTVSPropertyOp33
 70
     1
102
RTVSPropertyOp34
 70
     1
102
RTVSPropertyOp35
 70
     1
102
RTVSPropertyOp36
 70
     1
102
RTVSPropertyOp37
 70
     1
102
RTVSPropertyOp38
 70
     1
102
RTVSPropertyOp39
 70
     1
102
RTVSPropertyOp40
 70
     1
102
RTVSPropertyOp41
 70
     1
102
RTVSPropertyOp42
 70
     1
102
RTVSPropertyOp43
 70
     1
102
RTVSPropertyOp44
 70
     1
102
RTVSPropertyOp45
 70
     1
102
RTVSPropertyOp46
 70
     1
102
RTVSPropertyOp47
 70
     1
102
RTVSPropertyOp48
 70
     1
102
RTVSPropertyOp49
 70
     1
102
RTVSPropertyOp50
 70
     1
102
RTVSPropertyOp51
 70
     0
102
RTVSPropertyOp52
 70
     0
102
RTVSPropertyOp53
 70
     1
102
RTVSPropertyOp54
 70
     1
102
RTVSPropertyOp55
 70
     1
102
RTVSPropertyOp56
 70
     1
102
RTVSPropertyOp57
 70
     1
102
RTVSPost2010Prop28
280
     0
102
RTVSPost2010PropOp28
 70
     1
102
RTVSPost2010Prop29
280
     1
102
RTVSPost2010PropOp29
 70
     1
102
RTVSPost2010Prop30
280
     1
102
RTVSPost2010PropOp30
 70
     1
102
RTVSPost2010Prop31
280
     0
102
RTVSPost2010PropOp31
 70
     1
102
RTVSPost2010Prop32
280
     0
102
RTVSPost2010PropOp32
 70
     1
102
RTVSPost2010Prop33
280
     0
102
RTVSPost2010PropOp33
 70
     1
102
RTVSPost2010Prop34
280
     0
102
RTVSPost2010PropOp34
 70
     1
102
RTVSPost2010Prop35
280
     0
102
RTVSPost2010PropOp35
 70
     1
102
RTVSPost2010Prop36
280
     0
102
RTVSPost2010PropOp36
 70
     1
102
RTVSPost2010Prop37
 90
       50
102
RTVSPost2010PropOp37
 70
     1
102
RTVSPost2010Prop38
140
0.0
102
RTVSPost2010PropOp38
 70
     1
102
RTVSPost2010Prop39
140
1.0
102
RTVSPost2010PropOp39
 70
     1
102
RTVSPost2010Prop40
 90
        0
102
RTVSPost2010PropOp40
 70
     1
102
RTVSPost2010Prop41ColorIndex
 90
       18
102
RTVSPost2010Prop41ColorRGB
 90
        0
102
RTVSPost2010PropOp41
 70
     1
102
RTVSPost2010Prop42
 90
       50
102
RTVSPost2010PropOp42
 70
     1
102
RTVSPost2010Prop43
 90
        3
102
RTVSPost2010PropOp43
 70
     1
102
RTVSPost2010Prop44ColorIndex
 90
        5
102
RTVSPost2010Prop44ColorRGB
 90
      255
102
RTVSPost2010PropOp44
 70
     1
102
RTVSPost2010Prop45
280
     0
102
RTVSPost2010PropOp45
 70
     1
102
RTVSPost2010Prop46
 90
       50
102
RTVSPost2010PropOp46
 70
     1
102
RTVSPost2010Prop47
 90
       50
102
RTVSPost2010PropOp47
 70
     1
102
RTVSPost2010Prop48
 90
       50
102
RTVSPost2010PropOp48
 70
     1
102
RTVSPost2010Prop49
280
     0
102
RTVSPost2010PropOp49
 70
     1
102
RTVSPost2010Prop50
 90
       50
102
RTVSPost2010PropOp50
 70
     1
102
RTVSPost2010Prop51ColorIndex
 90
      256
102
RTVSPost2010Prop51ColorRGB
 90
-16777216
102
RTVSPost2010PropOp51
 70
     0
102
RTVSPost2010Prop52
140
1.0
102
RTVSPost2010PropOp52
 70
     0
102
RTVSPost2010Prop53
 90
        2
102
RTVSPost2010PropOp53
 70
     1
102
RTVSPost2010Prop54
  1
strokes_ogs.tif
102
RTVSPost2010PropOp54
 70
     1
102
RTVSPost2010Prop55
280
     0
102
RTVSPost2010PropOp55
 70
     1
102
RTVSPost2010Prop56
140
1.0
102
RTVSPost2010PropOp56
 70
     1
102
RTVSPost2010Prop57
140
1.0
102
RTVSPost2010PropOp57
 70
     1
  0
XRECORD
  5
E63
102
{ACAD_REACTORS
330
E62
102
}
330
E62
100
AcDbXrecord
280
     1
102
RTVSPropertyOp0
 70
     1
102
RTVSPropertyOp1
 70
     1
102
RTVSPropertyOp2
 70
     1
102
RTVSPropertyOp3
 70
     1
102
RTVSPropertyOp4
 70
     1
102
RTVSPropertyOp5
 70
     1
102
RTVSPropertyOp6
 70
     1
102
RTVSPropertyOp7
 70
     1
102
RTVSPropertyOp8
 70
     1
102
RTVSPropertyOp9
 70
     1
102
RTVSPropertyOp10
 70
     1
102
RTVSPropertyOp11
 70
     1
102
RTVSPropertyOp12
 70
     1
102
RTVSPropertyOp13
 70
     1
102
RTVSPropertyOp14
 70
     1
102
RTVSPropertyOp15
 70
     1
102
RTVSPropertyOp16
 70
     1
102
RTVSPropertyOp17
 70
     1
102
RTVSPropertyOp18
 70
     1
102
RTVSPropertyOp19
 70
     1
102
RTVSPropertyOp20
 70
     1
102
RTVSPropertyOp21
 70
     1
102
RTVSPropertyOp22
 70
     1
102
RTVSPropertyOp23
 70
     1
102
RTVSPropertyOp24
 70
     1
102
RTVSPropertyOp25
 70
     1
102
RTVSPropertyOp26
 70
     1
102
RTVSPropertyOp27
 70
     1
102
RTVSPropertyOp28
 70
     1
102
RTVSPropertyOp29
 70
     1
102
RTVSPropertyOp30
 70
     1
102
RTVSPropertyOp31
 70
     1
102
RTVSPropertyOp32
 70
     1
102
RTVSPropertyOp33
 70
     1
102
RTVSPropertyOp34
 70
     1
102
RTVSPropertyOp35
 70
     1
102
RTVSPropertyOp36
 70
     1
102
RTVSPropertyOp37
 70
     1
102
RTVSPropertyOp38
 70
     1
102
RTVSPropertyOp39
 70
     1
102
RTVSPropertyOp40
 70
     1
102
RTVSPropertyOp41
 70
     1
102
RTVSPropertyOp42
 70
     1
102
RTVSPropertyOp43
 70
     1
102
RTVSPropertyOp44
 70
     1
102
RTVSPropertyOp45
 70
     1
102
RTVSPropertyOp46
 70
     1
102
RTVSPropertyOp47
 70
     1
102
RTVSPropertyOp48
 70
     1
102
RTVSPropertyOp49
 70
     1
102
RTVSPropertyOp50
 70
     1
102
RTVSPropertyOp51
 70
     0
102
RTVSPropertyOp52
 70
     0
102
RTVSPropertyOp53
 70
     1
102
RTVSPropertyOp54
 70
     1
102
RTVSPropertyOp55
 70
     1
102
RTVSPropertyOp56
 70
     1
102
RTVSPropertyOp57
 70
     1
102
RTVSPost2010Prop28
280
     0
102
RTVSPost2010PropOp28
 70
     1
102
RTVSPost2010Prop29
280
     1
102
RTVSPost2010PropOp29
 70
     1
102
RTVSPost2010Prop30
280
     1
102
RTVSPost2010PropOp30
 70
     1
102
RTVSPost2010Prop31
280
     0
102
RTVSPost2010PropOp31
 70
     1
102
RTVSPost2010Prop32
280
     0
102
RTVSPost2010PropOp32
 70
     1
102
RTVSPost2010Prop33
280
     0
102
RTVSPost2010PropOp33
 70
     1
102
RTVSPost2010Prop34
280
     0
102
RTVSPost2010PropOp34
 70
     1
102
RTVSPost2010Prop35
280
     0
102
RTVSPost2010PropOp35
 70
     1
102
RTVSPost2010Prop36
280
     0
102
RTVSPost2010PropOp36
 70
     1
102
RTVSPost2010Prop37
 90
       50
102
RTVSPost2010PropOp37
 70
     1
102
RTVSPost2010Prop38
140
0.0
102
RTVSPost2010PropOp38
 70
     1
102
RTVSPost2010Prop39
140
1.0
102
RTVSPost2010PropOp39
 70
     1
102
RTVSPost2010Prop40
 90
        0
102
RTVSPost2010PropOp40
 70
     1
102
RTVSPost2010Prop41ColorIndex
 90
       18
102
RTVSPost2010Prop41ColorRGB
 90
        0
102
RTVSPost2010PropOp41
 70
     1
102
RTVSPost2010Prop42
 90
       50
102
RTVSPost2010PropOp42
 70
     1
102
RTVSPost2010Prop43
 90
        3
102
RTVSPost2010PropOp43
 70
     1
102
RTVSPost2010Prop44ColorIndex
 90
        5
102
RTVSPost2010Prop44ColorRGB
 90
      255
102
RTVSPost2010PropOp44
 70
     1
102
RTVSPost2010Prop45
280
     0
102
RTVSPost2010PropOp45
 70
     1
102
RTVSPost2010Prop46
 90
       50
102
RTVSPost2010PropOp46
 70
     1
102
RTVSPost2010Prop47
 90
       50
102
RTVSPost2010PropOp47
 70
     1
102
RTVSPost2010Prop48
 90
       50
102
RTVSPost2010PropOp48
 70
     1
102
RTVSPost2010Prop49
280
     0
102
RTVSPost2010PropOp49
 70
     1
102
RTVSPost2010Prop50
 90
       50
102
RTVSPost2010PropOp50
 70
     1
102
RTVSPost2010Prop51ColorIndex
 90
      256
102
RTVSPost2010Prop51ColorRGB
 90
-16777216
102
RTVSPost2010PropOp51
 70
     0
102
RTVSPost2010Prop52
140
1.0
102
RTVSPost2010PropOp52
 70
     0
102
RTVSPost2010Prop53
 90
        2
102
RTVSPost2010PropOp53
 70
     1
102
RTVSPost2010Prop54
  1
strokes_ogs.tif
102
RTVSPost2010PropOp54
 70
     1
102
RTVSPost2010Prop55
280
     0
102
RTVSPost2010PropOp55
 70
     1
102
RTVSPost2010Prop56
140
1.0
102
RTVSPost2010PropOp56
 70
     1
102
RTVSPost2010Prop57
140
1.0
102
RTVSPost2010PropOp57
 70
     1
  0
XRECORD
  5
E65
102
{ACAD_REACTORS
330
E64
102
}
330
E64
100
AcDbXrecord
280
     1
102
RTVSPropertyOp0
 70
     1
102
RTVSPropertyOp1
 70
     1
102
RTVSPropertyOp2
 70
     1
102
RTVSPropertyOp3
 70
     1
102
RTVSPropertyOp4
 70
     1
102
RTVSPropertyOp5
 70
     1
102
RTVSPropertyOp6
 70
     1
102
RTVSPropertyOp7
 70
     1
102
RTVSPropertyOp8
 70
     1
102
RTVSPropertyOp9
 70
     1
102
RTVSPropertyOp10
 70
     1
102
RTVSPropertyOp11
 70
     1
102
RTVSPropertyOp12
 70
     1
102
RTVSPropertyOp13
 70
     1
102
RTVSPropertyOp14
 70
     1
102
RTVSPropertyOp15
 70
     1
102
RTVSPropertyOp16
 70
     1
102
RTVSPropertyOp17
 70
     1
102
RTVSPropertyOp18
 70
     1
102
RTVSPropertyOp19
 70
     1
102
RTVSPropertyOp20
 70
     1
102
RTVSPropertyOp21
 70
     1
102
RTVSPropertyOp22
 70
     1
102
RTVSPropertyOp23
 70
     1
102
RTVSPropertyOp24
 70
     1
102
RTVSPropertyOp25
 70
     1
102
RTVSPropertyOp26
 70
     1
102
RTVSPropertyOp27
 70
     1
102
RTVSPropertyOp28
 70
     1
102
RTVSPropertyOp29
 70
     1
102
RTVSPropertyOp30
 70
     1
102
RTVSPropertyOp31
 70
     1
102
RTVSPropertyOp32
 70
     1
102
RTVSPropertyOp33
 70
     1
102
RTVSPropertyOp34
 70
     1
102
RTVSPropertyOp35
 70
     1
102
RTVSPropertyOp36
 70
     1
102
RTVSPropertyOp37
 70
     1
102
RTVSPropertyOp38
 70
     1
102
RTVSPropertyOp39
 70
     1
102
RTVSPropertyOp40
 70
     1
102
RTVSPropertyOp41
 70
     1
102
RTVSPropertyOp42
 70
     1
102
RTVSPropertyOp43
 70
     1
102
RTVSPropertyOp44
 70
     1
102
RTVSPropertyOp45
 70
     1
102
RTVSPropertyOp46
 70
     1
102
RTVSPropertyOp47
 70
     1
102
RTVSPropertyOp48
 70
     1
102
RTVSPropertyOp49
 70
     1
102
RTVSPropertyOp50
 70
     1
102
RTVSPropertyOp51
 70
     0
102
RTVSPropertyOp52
 70
     0
102
RTVSPropertyOp53
 70
     1
102
RTVSPropertyOp54
 70
     1
102
RTVSPropertyOp55
 70
     1
102
RTVSPropertyOp56
 70
     1
102
RTVSPropertyOp57
 70
     1
102
RTVSPost2010Prop28
280
     0
102
RTVSPost2010PropOp28
 70
     1
102
RTVSPost2010Prop29
280
     1
102
RTVSPost2010PropOp29
 70
     1
102
RTVSPost2010Prop30
280
     1
102
RTVSPost2010PropOp30
 70
     1
102
RTVSPost2010Prop31
280
     0
102
RTVSPost2010PropOp31
 70
     1
102
RTVSPost2010Prop32
280
     0
102
RTVSPost2010PropOp32
 70
     1
102
RTVSPost2010Prop33
280
     0
102
RTVSPost2010PropOp33
 70
     1
102
RTVSPost2010Prop34
280
     0
102
RTVSPost2010PropOp34
 70
     1
102
RTVSPost2010Prop35
280
     0
102
RTVSPost2010PropOp35
 70
     1
102
RTVSPost2010Prop36
280
     0
102
RTVSPost2010PropOp36
 70
     1
102
RTVSPost2010Prop37
 90
       50
102
RTVSPost2010PropOp37
 70
     1
102
RTVSPost2010Prop38
140
0.0
102
RTVSPost2010PropOp38
 70
     1
102
RTVSPost2010Prop39
140
1.0
102
RTVSPost2010PropOp39
 70
     1
102
RTVSPost2010Prop40
 90
        0
102
RTVSPost2010PropOp40
 70
     1
102
RTVSPost2010Prop41ColorIndex
 90
       18
102
RTVSPost2010Prop41ColorRGB
 90
        0
102
RTVSPost2010PropOp41
 70
     1
102
RTVSPost2010Prop42
 90
       50
102
RTVSPost2010PropOp42
 70
     1
102
RTVSPost2010Prop43
 90
        3
102
RTVSPost2010PropOp43
 70
     1
102
RTVSPost2010Prop44ColorIndex
 90
        5
102
RTVSPost2010Prop44ColorRGB
 90
      255
102
RTVSPost2010PropOp44
 70
     1
102
RTVSPost2010Prop45
280
     0
102
RTVSPost2010PropOp45
 70
     1
102
RTVSPost2010Prop46
 90
       50
102
RTVSPost2010PropOp46
 70
     1
102
RTVSPost2010Prop47
 90
       50
102
RTVSPost2010PropOp47
 70
     1
102
RTVSPost2010Prop48
 90
       50
102
RTVSPost2010PropOp48
 70
     1
102
RTVSPost2010Prop49
280
     0
102
RTVSPost2010PropOp49
 70
     1
102
RTVSPost2010Prop50
 90
       50
102
RTVSPost2010PropOp50
 70
     1
102
RTVSPost2010Prop51ColorIndex
 90
      256
102
RTVSPost2010Prop51ColorRGB
 90
-16777216
102
RTVSPost2010PropOp51
 70
     0
102
RTVSPost2010Prop52
140
1.0
102
RTVSPost2010PropOp52
 70
     0
102
RTVSPost2010Prop53
 90
        2
102
RTVSPost2010PropOp53
 70
     1
102
RTVSPost2010Prop54
  1
strokes_ogs.tif
102
RTVSPost2010PropOp54
 70
     1
102
RTVSPost2010Prop55
280
     0
102
RTVSPost2010PropOp55
 70
     1
102
RTVSPost2010Prop56
140
1.0
102
RTVSPost2010PropOp56
 70
     1
102
RTVSPost2010Prop57
140
1.0
102
RTVSPost2010PropOp57
 70
     1
  0
XRECORD
  5
E67
102
{ACAD_REACTORS
330
E66
102
}
330
E66
100
AcDbXrecord
280
     1
102
RTVSPropertyOp0
 70
     1
102
RTVSPropertyOp1
 70
     1
102
RTVSPropertyOp2
 70
     1
102
RTVSPropertyOp3
 70
     1
102
RTVSPropertyOp4
 70
     1
102
RTVSPropertyOp5
 70
     1
102
RTVSPropertyOp6
 70
     1
102
RTVSPropertyOp7
 70
     1
102
RTVSPropertyOp8
 70
     1
102
RTVSPropertyOp9
 70
     1
102
RTVSPropertyOp10
 70
     1
102
RTVSPropertyOp11
 70
     1
102
RTVSPropertyOp12
 70
     1
102
RTVSPropertyOp13
 70
     1
102
RTVSPropertyOp14
 70
     1
102
RTVSPropertyOp15
 70
     1
102
RTVSPropertyOp16
 70
     1
102
RTVSPropertyOp17
 70
     1
102
RTVSPropertyOp18
 70
     1
102
RTVSPropertyOp19
 70
     1
102
RTVSPropertyOp20
 70
     1
102
RTVSPropertyOp21
 70
     1
102
RTVSPropertyOp22
 70
     1
102
RTVSPropertyOp23
 70
     1
102
RTVSPropertyOp24
 70
     1
102
RTVSPropertyOp25
 70
     1
102
RTVSPropertyOp26
 70
     1
102
RTVSPropertyOp27
 70
     1
102
RTVSPropertyOp28
 70
     1
102
RTVSPropertyOp29
 70
     1
102
RTVSPropertyOp30
 70
     1
102
RTVSPropertyOp31
 70
     1
102
RTVSPropertyOp32
 70
     1
102
RTVSPropertyOp33
 70
     1
102
RTVSPropertyOp34
 70
     1
102
RTVSPropertyOp35
 70
     1
102
RTVSPropertyOp36
 70
     1
102
RTVSPropertyOp37
 70
     1
102
RTVSPropertyOp38
 70
     1
102
RTVSPropertyOp39
 70
     1
102
RTVSPropertyOp40
 70
     1
102
RTVSPropertyOp41
 70
     1
102
RTVSPropertyOp42
 70
     1
102
RTVSPropertyOp43
 70
     1
102
RTVSPropertyOp44
 70
     1
102
RTVSPropertyOp45
 70
     1
102
RTVSPropertyOp46
 70
     1
102
RTVSPropertyOp47
 70
     1
102
RTVSPropertyOp48
 70
     1
102
RTVSPropertyOp49
 70
     1
102
RTVSPropertyOp50
 70
     1
102
RTVSPropertyOp51
 70
     0
102
RTVSPropertyOp52
 70
     0
102
RTVSPropertyOp53
 70
     1
102
RTVSPropertyOp54
 70
     1
102
RTVSPropertyOp55
 70
     1
102
RTVSPropertyOp56
 70
     1
102
RTVSPropertyOp57
 70
     1
102
RTVSPost2010Prop28
280
     0
102
RTVSPost2010PropOp28
 70
     1
102
RTVSPost2010Prop29
280
     1
102
RTVSPost2010PropOp29
 70
     1
102
RTVSPost2010Prop30
280
     1
102
RTVSPost2010PropOp30
 70
     1
102
RTVSPost2010Prop31
280
     0
102
RTVSPost2010PropOp31
 70
     1
102
RTVSPost2010Prop32
280
     0
102
RTVSPost2010PropOp32
 70
     1
102
RTVSPost2010Prop33
280
     0
102
RTVSPost2010PropOp33
 70
     1
102
RTVSPost2010Prop34
280
     0
102
RTVSPost2010PropOp34
 70
     1
102
RTVSPost2010Prop35
280
     0
102
RTVSPost2010PropOp35
 70
     1
102
RTVSPost2010Prop36
280
     0
102
RTVSPost2010PropOp36
 70
     1
102
RTVSPost2010Prop37
 90
       50
102
RTVSPost2010PropOp37
 70
     1
102
RTVSPost2010Prop38
140
0.0
102
RTVSPost2010PropOp38
 70
     1
102
RTVSPost2010Prop39
140
1.0
102
RTVSPost2010PropOp39
 70
     1
102
RTVSPost2010Prop40
 90
        0
102
RTVSPost2010PropOp40
 70
     1
102
RTVSPost2010Prop41ColorIndex
 90
       18
102
RTVSPost2010Prop41ColorRGB
 90
        0
102
RTVSPost2010PropOp41
 70
     1
102
RTVSPost2010Prop42
 90
       50
102
RTVSPost2010PropOp42
 70
     1
102
RTVSPost2010Prop43
 90
        3
102
RTVSPost2010PropOp43
 70
     1
102
RTVSPost2010Prop44ColorIndex
 90
        5
102
RTVSPost2010Prop44ColorRGB
 90
      255
102
RTVSPost2010PropOp44
 70
     1
102
RTVSPost2010Prop45
280
     0
102
RTVSPost2010PropOp45
 70
     1
102
RTVSPost2010Prop46
 90
       50
102
RTVSPost2010PropOp46
 70
     1
102
RTVSPost2010Prop47
 90
       50
102
RTVSPost2010PropOp47
 70
     1
102
RTVSPost2010Prop48
 90
       50
102
RTVSPost2010PropOp48
 70
     1
102
RTVSPost2010Prop49
280
     0
102
RTVSPost2010PropOp49
 70
     1
102
RTVSPost2010Prop50
 90
       50
102
RTVSPost2010PropOp50
 70
     1
102
RTVSPost2010Prop51ColorIndex
 90
      256
102
RTVSPost2010Prop51ColorRGB
 90
-16777216
102
RTVSPost2010PropOp51
 70
     0
102
RTVSPost2010Prop52
140
1.0
102
RTVSPost2010PropOp52
 70
     0
102
RTVSPost2010Prop53
 90
        2
102
RTVSPost2010PropOp53
 70
     1
102
RTVSPost2010Prop54
  1
strokes_ogs.tif
102
RTVSPost2010PropOp54
 70
     1
102
RTVSPost2010Prop55
280
     0
102
RTVSPost2010PropOp55
 70
     1
102
RTVSPost2010Prop56
140
1.0
102
RTVSPost2010PropOp56
 70
     1
102
RTVSPost2010Prop57
140
1.0
102
RTVSPost2010PropOp57
 70
     1
  0
XRECORD
  5
E69
102
{ACAD_REACTORS
330
E68
102
}
330
E68
100
AcDbXrecord
280
     1
102
RTVSPropertyOp0
 70
     1
102
RTVSPropertyOp1
 70
     1
102
RTVSPropertyOp2
 70
     1
102
RTVSPropertyOp3
 70
     1
102
RTVSPropertyOp4
 70
     1
102
RTVSPropertyOp5
 70
     1
102
RTVSPropertyOp6
 70
     1
102
RTVSPropertyOp7
 70
     1
102
RTVSPropertyOp8
 70
     1
102
RTVSPropertyOp9
 70
     1
102
RTVSPropertyOp10
 70
     1
102
RTVSPropertyOp11
 70
     1
102
RTVSPropertyOp12
 70
     1
102
RTVSPropertyOp13
 70
     1
102
RTVSPropertyOp14
 70
     1
102
RTVSPropertyOp15
 70
     1
102
RTVSPropertyOp16
 70
     1
102
RTVSPropertyOp17
 70
     1
102
RTVSPropertyOp18
 70
     1
102
RTVSPropertyOp19
 70
     1
102
RTVSPropertyOp20
 70
     1
102
RTVSPropertyOp21
 70
     1
102
RTVSPropertyOp22
 70
     1
102
RTVSPropertyOp23
 70
     1
102
RTVSPropertyOp24
 70
     1
102
RTVSPropertyOp25
 70
     1
102
RTVSPropertyOp26
 70
     1
102
RTVSPropertyOp27
 70
     1
102
RTVSPropertyOp28
 70
     1
102
RTVSPropertyOp29
 70
     1
102
RTVSPropertyOp30
 70
     1
102
RTVSPropertyOp31
 70
     1
102
RTVSPropertyOp32
 70
     1
102
RTVSPropertyOp33
 70
     1
102
RTVSPropertyOp34
 70
     1
102
RTVSPropertyOp35
 70
     1
102
RTVSPropertyOp36
 70
     1
102
RTVSPropertyOp37
 70
     1
102
RTVSPropertyOp38
 70
     1
102
RTVSPropertyOp39
 70
     1
102
RTVSPropertyOp40
 70
     1
102
RTVSPropertyOp41
 70
     1
102
RTVSPropertyOp42
 70
     1
102
RTVSPropertyOp43
 70
     1
102
RTVSPropertyOp44
 70
     1
102
RTVSPropertyOp45
 70
     1
102
RTVSPropertyOp46
 70
     1
102
RTVSPropertyOp47
 70
     1
102
RTVSPropertyOp48
 70
     1
102
RTVSPropertyOp49
 70
     1
102
RTVSPropertyOp50
 70
     1
102
RTVSPropertyOp51
 70
     0
102
RTVSPropertyOp52
 70
     0
102
RTVSPropertyOp53
 70
     1
102
RTVSPropertyOp54
 70
     1
102
RTVSPropertyOp55
 70
     1
102
RTVSPropertyOp56
 70
     1
102
RTVSPropertyOp57
 70
     1
102
RTVSPost2010Prop28
280
     0
102
RTVSPost2010PropOp28
 70
     1
102
RTVSPost2010Prop29
280
     1
102
RTVSPost2010PropOp29
 70
     1
102
RTVSPost2010Prop30
280
     1
102
RTVSPost2010PropOp30
 70
     1
102
RTVSPost2010Prop31
280
     0
102
RTVSPost2010PropOp31
 70
     1
102
RTVSPost2010Prop32
280
     0
102
RTVSPost2010PropOp32
 70
     1
102
RTVSPost2010Prop33
280
     0
102
RTVSPost2010PropOp33
 70
     1
102
RTVSPost2010Prop34
280
     0
102
RTVSPost2010PropOp34
 70
     1
102
RTVSPost2010Prop35
280
     0
102
RTVSPost2010PropOp35
 70
     1
102
RTVSPost2010Prop36
280
     0
102
RTVSPost2010PropOp36
 70
     1
102
RTVSPost2010Prop37
 90
       50
102
RTVSPost2010PropOp37
 70
     1
102
RTVSPost2010Prop38
140
0.0
102
RTVSPost2010PropOp38
 70
     1
102
RTVSPost2010Prop39
140
1.0
102
RTVSPost2010PropOp39
 70
     1
102
RTVSPost2010Prop40
 90
        0
102
RTVSPost2010PropOp40
 70
     1
102
RTVSPost2010Prop41ColorIndex
 90
       18
102
RTVSPost2010Prop41ColorRGB
 90
        0
102
RTVSPost2010PropOp41
 70
     1
102
RTVSPost2010Prop42
 90
       50
102
RTVSPost2010PropOp42
 70
     1
102
RTVSPost2010Prop43
 90
        3
102
RTVSPost2010PropOp43
 70
     1
102
RTVSPost2010Prop44ColorIndex
 90
        5
102
RTVSPost2010Prop44ColorRGB
 90
      255
102
RTVSPost2010PropOp44
 70
     1
102
RTVSPost2010Prop45
280
     0
102
RTVSPost2010PropOp45
 70
     1
102
RTVSPost2010Prop46
 90
       50
102
RTVSPost2010PropOp46
 70
     1
102
RTVSPost2010Prop47
 90
       50
102
RTVSPost2010PropOp47
 70
     1
102
RTVSPost2010Prop48
 90
       50
102
RTVSPost2010PropOp48
 70
     1
102
RTVSPost2010Prop49
280
     0
102
RTVSPost2010PropOp49
 70
     1
102
RTVSPost2010Prop50
 90
       50
102
RTVSPost2010PropOp50
 70
     1
102
RTVSPost2010Prop51ColorIndex
 90
      256
102
RTVSPost2010Prop51ColorRGB
 90
-16777216
102
RTVSPost2010PropOp51
 70
     0
102
RTVSPost2010Prop52
140
1.0
102
RTVSPost2010PropOp52
 70
     0
102
RTVSPost2010Prop53
 90
        2
102
RTVSPost2010PropOp53
 70
     1
102
RTVSPost2010Prop54
  1
strokes_ogs.tif
102
RTVSPost2010PropOp54
 70
     1
102
RTVSPost2010Prop55
280
     0
102
RTVSPost2010PropOp55
 70
     1
102
RTVSPost2010Prop56
140
1.0
102
RTVSPost2010PropOp56
 70
     1
102
RTVSPost2010Prop57
140
1.0
102
RTVSPost2010PropOp57
 70
     1
  0
XRECORD
  5
E83
102
{ACAD_REACTORS
330
E82
102
}
330
E82
100
AcDbXrecord
280
     1
102
RTVSPropertyOp0
 70
     0
102
RTVSPropertyOp1
 70
     0
102
RTVSPropertyOp2
 70
     0
102
RTVSPropertyOp3
 70
     0
102
RTVSPropertyOp4
 70
     0
102
RTVSPropertyOp5
 70
     0
102
RTVSPropertyOp6
 70
     0
102
RTVSPropertyOp7
 70
     0
102
RTVSPropertyOp8
 70
     0
102
RTVSPropertyOp9
 70
     0
102
RTVSPropertyOp10
 70
     0
102
RTVSPropertyOp11
 70
     0
102
RTVSPropertyOp12
 70
     0
102
RTVSPropertyOp13
 70
     0
102
RTVSPropertyOp14
 70
     2
102
RTVSPropertyOp15
 70
     0
102
RTVSPropertyOp16
 70
     0
102
RTVSPropertyOp17
 70
     0
102
RTVSPropertyOp18
 70
     0
102
RTVSPropertyOp19
 70
     0
102
RTVSPropertyOp20
 70
     0
102
RTVSPropertyOp21
 70
     0
102
RTVSPropertyOp22
 70
     0
102
RTVSPropertyOp23
 70
     0
102
RTVSPropertyOp24
 70
     0
102
RTVSPropertyOp25
 70
     0
102
RTVSPropertyOp26
 70
     0
102
RTVSPropertyOp27
 70
     0
102
RTVSPropertyOp28
 70
     0
102
RTVSPropertyOp29
 70
     0
102
RTVSPropertyOp30
 70
     0
102
RTVSPropertyOp31
 70
     0
102
RTVSPropertyOp32
 70
     0
102
RTVSPropertyOp33
 70
     0
102
RTVSPropertyOp34
 70
     0
102
RTVSPropertyOp35
 70
     0
102
RTVSPropertyOp36
 70
     0
102
RTVSPropertyOp37
 70
     0
102
RTVSPropertyOp38
 70
     0
102
RTVSPropertyOp39
 70
     0
102
RTVSPropertyOp40
 70
     0
102
RTVSPropertyOp41
 70
     0
102
RTVSPropertyOp42
 70
     0
102
RTVSPropertyOp43
 70
     0
102
RTVSPropertyOp44
 70
     0
102
RTVSPropertyOp45
 70
     0
102
RTVSPropertyOp46
 70
     0
102
RTVSPropertyOp47
 70
     0
102
RTVSPropertyOp48
 70
     0
102
RTVSPropertyOp49
 70
     0
102
RTVSPropertyOp50
 70
     0
102
RTVSPropertyOp51
 70
     0
102
RTVSPropertyOp52
 70
     0
102
RTVSPropertyOp53
 70
     0
102
RTVSPropertyOp54
 70
     0
102
RTVSPropertyOp55
 70
     0
102
RTVSPropertyOp56
 70
     0
102
RTVSPropertyOp57
 70
     0
102
RTVSPost2010Prop28
280
     0
102
RTVSPost2010PropOp28
 70
     0
102
RTVSPost2010Prop29
280
     1
102
RTVSPost2010PropOp29
 70
     0
102
RTVSPost2010Prop30
280
     1
102
RTVSPost2010PropOp30
 70
     0
102
RTVSPost2010Prop31
280
     0
102
RTVSPost2010PropOp31
 70
     0
102
RTVSPost2010Prop32
280
     0
102
RTVSPost2010PropOp32
 70
     0
102
RTVSPost2010Prop33
280
     0
102
RTVSPost2010PropOp33
 70
     0
102
RTVSPost2010Prop34
280
     0
102
RTVSPost2010PropOp34
 70
     0
102
RTVSPost2010Prop35
280
     0
102
RTVSPost2010PropOp35
 70
     0
102
RTVSPost2010Prop36
280
     0
102
RTVSPost2010PropOp36
 70
     0
102
RTVSPost2010Prop37
 90
       50
102
RTVSPost2010PropOp37
 70
     0
102
RTVSPost2010Prop38
140
0.0
102
RTVSPost2010PropOp38
 70
     0
102
RTVSPost2010Prop39
140
1.0
102
RTVSPost2010PropOp39
 70
     0
102
RTVSPost2010Prop40
 90
        0
102
RTVSPost2010PropOp40
 70
     0
102
RTVSPost2010Prop41ColorIndex
 90
       18
102
RTVSPost2010Prop41ColorRGB
 90
        0
102
RTVSPost2010PropOp41
 70
     0
102
RTVSPost2010Prop42
 90
       50
102
RTVSPost2010PropOp42
 70
     0
102
RTVSPost2010Prop43
 90
        3
102
RTVSPost2010PropOp43
 70
     0
102
RTVSPost2010Prop44ColorIndex
 90
        5
102
RTVSPost2010Prop44ColorRGB
 90
      255
102
RTVSPost2010PropOp44
 70
     0
102
RTVSPost2010Prop45
280
     0
102
RTVSPost2010PropOp45
 70
     0
102
RTVSPost2010Prop46
 90
       50
102
RTVSPost2010PropOp46
 70
     0
102
RTVSPost2010Prop47
 90
       50
102
RTVSPost2010PropOp47
 70
     0
102
RTVSPost2010Prop48
 90
       50
102
RTVSPost2010PropOp48
 70
     0
102
RTVSPost2010Prop49
280
     0
102
RTVSPost2010PropOp49
 70
     0
102
RTVSPost2010Prop50
 90
       50
102
RTVSPost2010PropOp50
 70
     0
102
RTVSPost2010Prop51ColorIndex
 90
      256
102
RTVSPost2010Prop51ColorRGB
 90
-16777216
102
RTVSPost2010PropOp51
 70
     0
102
RTVSPost2010Prop52
140
1.0
102
RTVSPost2010PropOp52
 70
     0
102
RTVSPost2010Prop53
 90
        2
102
RTVSPost2010PropOp53
 70
     0
102
RTVSPost2010Prop54
  1
strokes_ogs.tif
102
RTVSPost2010PropOp54
 70
     0
102
RTVSPost2010Prop55
280
     0
102
RTVSPost2010PropOp55
 70
     0
102
RTVSPost2010Prop56
140
1.0
102
RTVSPost2010PropOp56
 70
     0
102
RTVSPost2010Prop57
140
1.0
102
RTVSPost2010PropOp57
 70
     0
  0
XRECORD
  5
E6B
102
{ACAD_REACTORS
330
E6A
102
}
330
E6A
100
AcDbXrecord
280
     1
102
RTVSPropertyOp0
 70
     1
102
RTVSPropertyOp1
 70
     1
102
RTVSPropertyOp2
 70
     1
102
RTVSPropertyOp3
 70
     1
102
RTVSPropertyOp4
 70
     1
102
RTVSPropertyOp5
 70
     1
102
RTVSPropertyOp6
 70
     1
102
RTVSPropertyOp7
 70
     1
102
RTVSPropertyOp8
 70
     1
102
RTVSPropertyOp9
 70
     1
102
RTVSPropertyOp10
 70
     1
102
RTVSPropertyOp11
 70
     1
102
RTVSPropertyOp12
 70
     1
102
RTVSPropertyOp13
 70
     1
102
RTVSPropertyOp14
 70
     1
102
RTVSPropertyOp15
 70
     1
102
RTVSPropertyOp16
 70
     1
102
RTVSPropertyOp17
 70
     1
102
RTVSPropertyOp18
 70
     1
102
RTVSPropertyOp19
 70
     1
102
RTVSPropertyOp20
 70
     1
102
RTVSPropertyOp21
 70
     1
102
RTVSPropertyOp22
 70
     1
102
RTVSPropertyOp23
 70
     1
102
RTVSPropertyOp24
 70
     1
102
RTVSPropertyOp25
 70
     1
102
RTVSPropertyOp26
 70
     1
102
RTVSPropertyOp27
 70
     1
102
RTVSPropertyOp28
 70
     1
102
RTVSPropertyOp29
 70
     1
102
RTVSPropertyOp30
 70
     1
102
RTVSPropertyOp31
 70
     1
102
RTVSPropertyOp32
 70
     1
102
RTVSPropertyOp33
 70
     1
102
RTVSPropertyOp34
 70
     1
102
RTVSPropertyOp35
 70
     1
102
RTVSPropertyOp36
 70
     1
102
RTVSPropertyOp37
 70
     1
102
RTVSPropertyOp38
 70
     1
102
RTVSPropertyOp39
 70
     1
102
RTVSPropertyOp40
 70
     1
102
RTVSPropertyOp41
 70
     1
102
RTVSPropertyOp42
 70
     1
102
RTVSPropertyOp43
 70
     1
102
RTVSPropertyOp44
 70
     1
102
RTVSPropertyOp45
 70
     1
102
RTVSPropertyOp46
 70
     1
102
RTVSPropertyOp47
 70
     1
102
RTVSPropertyOp48
 70
     1
102
RTVSPropertyOp49
 70
     1
102
RTVSPropertyOp50
 70
     1
102
RTVSPropertyOp51
 70
     0
102
RTVSPropertyOp52
 70
     0
102
RTVSPropertyOp53
 70
     1
102
RTVSPropertyOp54
 70
     1
102
RTVSPropertyOp55
 70
     1
102
RTVSPropertyOp56
 70
     1
102
RTVSPropertyOp57
 70
     1
102
RTVSPost2010Prop28
280
     0
102
RTVSPost2010PropOp28
 70
     1
102
RTVSPost2010Prop29
280
     1
102
RTVSPost2010PropOp29
 70
     1
102
RTVSPost2010Prop30
280
     1
102
RTVSPost2010PropOp30
 70
     1
102
RTVSPost2010Prop31
280
     0
102
RTVSPost2010PropOp31
 70
     1
102
RTVSPost2010Prop32
280
     0
102
RTVSPost2010PropOp32
 70
     1
102
RTVSPost2010Prop33
280
     0
102
RTVSPost2010PropOp33
 70
     1
102
RTVSPost2010Prop34
280
     0
102
RTVSPost2010PropOp34
 70
     1
102
RTVSPost2010Prop35
280
     0
102
RTVSPost2010PropOp35
 70
     1
102
RTVSPost2010Prop36
280
     0
102
RTVSPost2010PropOp36
 70
     1
102
RTVSPost2010Prop37
 90
       50
102
RTVSPost2010PropOp37
 70
     1
102
RTVSPost2010Prop38
140
0.0
102
RTVSPost2010PropOp38
 70
     1
102
RTVSPost2010Prop39
140
1.0
102
RTVSPost2010PropOp39
 70
     1
102
RTVSPost2010Prop40
 90
        0
102
RTVSPost2010PropOp40
 70
     1
102
RTVSPost2010Prop41ColorIndex
 90
       18
102
RTVSPost2010Prop41ColorRGB
 90
        0
102
RTVSPost2010PropOp41
 70
     1
102
RTVSPost2010Prop42
 90
       50
102
RTVSPost2010PropOp42
 70
     1
102
RTVSPost2010Prop43
 90
        3
102
RTVSPost2010PropOp43
 70
     1
102
RTVSPost2010Prop44ColorIndex
 90
        5
102
RTVSPost2010Prop44ColorRGB
 90
      255
102
RTVSPost2010PropOp44
 70
     1
102
RTVSPost2010Prop45
280
     0
102
RTVSPost2010PropOp45
 70
     1
102
RTVSPost2010Prop46
 90
       50
102
RTVSPost2010PropOp46
 70
     1
102
RTVSPost2010Prop47
 90
       50
102
RTVSPost2010PropOp47
 70
     1
102
RTVSPost2010Prop48
 90
       50
102
RTVSPost2010PropOp48
 70
     1
102
RTVSPost2010Prop49
280
     0
102
RTVSPost2010PropOp49
 70
     1
102
RTVSPost2010Prop50
 90
       50
102
RTVSPost2010PropOp50
 70
     1
102
RTVSPost2010Prop51ColorIndex
 90
      256
102
RTVSPost2010Prop51ColorRGB
 90
-16777216
102
RTVSPost2010PropOp51
 70
     0
102
RTVSPost2010Prop52
140
1.0
102
RTVSPost2010PropOp52
 70
     0
102
RTVSPost2010Prop53
 90
        2
102
RTVSPost2010PropOp53
 70
     1
102
RTVSPost2010Prop54
  1
strokes_ogs.tif
102
RTVSPost2010PropOp54
 70
     1
102
RTVSPost2010Prop55
280
     0
102
RTVSPost2010PropOp55
 70
     1
102
RTVSPost2010Prop56
140
1.0
102
RTVSPost2010PropOp56
 70
     1
102
RTVSPost2010Prop57
140
1.0
102
RTVSPost2010PropOp57
 70
     1
  0
XRECORD
  5
E6D
102
{ACAD_REACTORS
330
E6C
102
}
330
E6C
100
AcDbXrecord
280
     1
102
RTVSPropertyOp0
 70
     1
102
RTVSPropertyOp1
 70
     1
102
RTVSPropertyOp2
 70
     1
102
RTVSPropertyOp3
 70
     1
102
RTVSPropertyOp4
 70
     1
102
RTVSPropertyOp5
 70
     1
102
RTVSPropertyOp6
 70
     1
102
RTVSPropertyOp7
 70
     1
102
RTVSPropertyOp8
 70
     1
102
RTVSPropertyOp9
 70
     1
102
RTVSPropertyOp10
 70
     1
102
RTVSPropertyOp11
 70
     1
102
RTVSPropertyOp12
 70
     1
102
RTVSPropertyOp13
 70
     1
102
RTVSPropertyOp14
 70
     1
102
RTVSPropertyOp15
 70
     1
102
RTVSPropertyOp16
 70
     1
102
RTVSPropertyOp17
 70
     1
102
RTVSPropertyOp18
 70
     1
102
RTVSPropertyOp19
 70
     1
102
RTVSPropertyOp20
 70
     1
102
RTVSPropertyOp21
 70
     1
102
RTVSPropertyOp22
 70
     1
102
RTVSPropertyOp23
 70
     1
102
RTVSPropertyOp24
 70
     1
102
RTVSPropertyOp25
 70
     1
102
RTVSPropertyOp26
 70
     1
102
RTVSPropertyOp27
 70
     1
102
RTVSPropertyOp28
 70
     1
102
RTVSPropertyOp29
 70
     1
102
RTVSPropertyOp30
 70
     1
102
RTVSPropertyOp31
 70
     1
102
RTVSPropertyOp32
 70
     1
102
RTVSPropertyOp33
 70
     1
102
RTVSPropertyOp34
 70
     1
102
RTVSPropertyOp35
 70
     1
102
RTVSPropertyOp36
 70
     1
102
RTVSPropertyOp37
 70
     1
102
RTVSPropertyOp38
 70
     1
102
RTVSPropertyOp39
 70
     1
102
RTVSPropertyOp40
 70
     1
102
RTVSPropertyOp41
 70
     1
102
RTVSPropertyOp42
 70
     1
102
RTVSPropertyOp43
 70
     1
102
RTVSPropertyOp44
 70
     1
102
RTVSPropertyOp45
 70
     1
102
RTVSPropertyOp46
 70
     1
102
RTVSPropertyOp47
 70
     1
102
RTVSPropertyOp48
 70
     1
102
RTVSPropertyOp49
 70
     1
102
RTVSPropertyOp50
 70
     1
102
RTVSPropertyOp51
 70
     0
102
RTVSPropertyOp52
 70
     0
102
RTVSPropertyOp53
 70
     1
102
RTVSPropertyOp54
 70
     1
102
RTVSPropertyOp55
 70
     1
102
RTVSPropertyOp56
 70
     1
102
RTVSPropertyOp57
 70
     1
102
RTVSPost2010Prop28
280
     0
102
RTVSPost2010PropOp28
 70
     1
102
RTVSPost2010Prop29
280
     1
102
RTVSPost2010PropOp29
 70
     1
102
RTVSPost2010Prop30
280
     1
102
RTVSPost2010PropOp30
 70
     1
102
RTVSPost2010Prop31
280
     0
102
RTVSPost2010PropOp31
 70
     1
102
RTVSPost2010Prop32
280
     0
102
RTVSPost2010PropOp32
 70
     1
102
RTVSPost2010Prop33
280
     0
102
RTVSPost2010PropOp33
 70
     1
102
RTVSPost2010Prop34
280
     0
102
RTVSPost2010PropOp34
 70
     1
102
RTVSPost2010Prop35
280
     0
102
RTVSPost2010PropOp35
 70
     1
102
RTVSPost2010Prop36
280
     0
102
RTVSPost2010PropOp36
 70
     1
102
RTVSPost2010Prop37
 90
       50
102
RTVSPost2010PropOp37
 70
     1
102
RTVSPost2010Prop38
140
0.0
102
RTVSPost2010PropOp38
 70
     1
102
RTVSPost2010Prop39
140
1.0
102
RTVSPost2010PropOp39
 70
     1
102
RTVSPost2010Prop40
 90
        0
102
RTVSPost2010PropOp40
 70
     1
102
RTVSPost2010Prop41ColorIndex
 90
       18
102
RTVSPost2010Prop41ColorRGB
 90
        0
102
RTVSPost2010PropOp41
 70
     1
102
RTVSPost2010Prop42
 90
       50
102
RTVSPost2010PropOp42
 70
     1
102
RTVSPost2010Prop43
 90
        3
102
RTVSPost2010PropOp43
 70
     1
102
RTVSPost2010Prop44ColorIndex
 90
        5
102
RTVSPost2010Prop44ColorRGB
 90
      255
102
RTVSPost2010PropOp44
 70
     1
102
RTVSPost2010Prop45
280
     0
102
RTVSPost2010PropOp45
 70
     1
102
RTVSPost2010Prop46
 90
       50
102
RTVSPost2010PropOp46
 70
     1
102
RTVSPost2010Prop47
 90
       50
102
RTVSPost2010PropOp47
 70
     1
102
RTVSPost2010Prop48
 90
       50
102
RTVSPost2010PropOp48
 70
     1
102
RTVSPost2010Prop49
280
     0
102
RTVSPost2010PropOp49
 70
     1
102
RTVSPost2010Prop50
 90
       50
102
RTVSPost2010PropOp50
 70
     1
102
RTVSPost2010Prop51ColorIndex
 90
      256
102
RTVSPost2010Prop51ColorRGB
 90
-16777216
102
RTVSPost2010PropOp51
 70
     0
102
RTVSPost2010Prop52
140
1.0
102
RTVSPost2010PropOp52
 70
     0
102
RTVSPost2010Prop53
 90
        2
102
RTVSPost2010PropOp53
 70
     1
102
RTVSPost2010Prop54
  1
strokes_ogs.tif
102
RTVSPost2010PropOp54
 70
     1
102
RTVSPost2010Prop55
280
     0
102
RTVSPost2010PropOp55
 70
     1
102
RTVSPost2010Prop56
140
1.0
102
RTVSPost2010PropOp56
 70
     1
102
RTVSPost2010Prop57
140
1.0
102
RTVSPost2010PropOp57
 70
     1
  0
XRECORD
  5
E6F
102
{ACAD_REACTORS
330
E6E
102
}
330
E6E
100
AcDbXrecord
280
     1
102
RTVSPropertyOp0
 70
     1
102
RTVSPropertyOp1
 70
     1
102
RTVSPropertyOp2
 70
     1
102
RTVSPropertyOp3
 70
     1
102
RTVSPropertyOp4
 70
     1
102
RTVSPropertyOp5
 70
     1
102
RTVSPropertyOp6
 70
     1
102
RTVSPropertyOp7
 70
     1
102
RTVSPropertyOp8
 70
     1
102
RTVSPropertyOp9
 70
     1
102
RTVSPropertyOp10
 70
     1
102
RTVSPropertyOp11
 70
     1
102
RTVSPropertyOp12
 70
     1
102
RTVSPropertyOp13
 70
     1
102
RTVSPropertyOp14
 70
     1
102
RTVSPropertyOp15
 70
     1
102
RTVSPropertyOp16
 70
     1
102
RTVSPropertyOp17
 70
     1
102
RTVSPropertyOp18
 70
     1
102
RTVSPropertyOp19
 70
     1
102
RTVSPropertyOp20
 70
     1
102
RTVSPropertyOp21
 70
     1
102
RTVSPropertyOp22
 70
     1
102
RTVSPropertyOp23
 70
     1
102
RTVSPropertyOp24
 70
     1
102
RTVSPropertyOp25
 70
     1
102
RTVSPropertyOp26
 70
     1
102
RTVSPropertyOp27
 70
     1
102
RTVSPropertyOp28
 70
     1
102
RTVSPropertyOp29
 70
     1
102
RTVSPropertyOp30
 70
     1
102
RTVSPropertyOp31
 70
     1
102
RTVSPropertyOp32
 70
     1
102
RTVSPropertyOp33
 70
     1
102
RTVSPropertyOp34
 70
     1
102
RTVSPropertyOp35
 70
     1
102
RTVSPropertyOp36
 70
     1
102
RTVSPropertyOp37
 70
     1
102
RTVSPropertyOp38
 70
     1
102
RTVSPropertyOp39
 70
     1
102
RTVSPropertyOp40
 70
     1
102
RTVSPropertyOp41
 70
     1
102
RTVSPropertyOp42
 70
     1
102
RTVSPropertyOp43
 70
     1
102
RTVSPropertyOp44
 70
     1
102
RTVSPropertyOp45
 70
     1
102
RTVSPropertyOp46
 70
     1
102
RTVSPropertyOp47
 70
     1
102
RTVSPropertyOp48
 70
     1
102
RTVSPropertyOp49
 70
     1
102
RTVSPropertyOp50
 70
     1
102
RTVSPropertyOp51
 70
     0
102
RTVSPropertyOp52
 70
     0
102
RTVSPropertyOp53
 70
     1
102
RTVSPropertyOp54
 70
     1
102
RTVSPropertyOp55
 70
     1
102
RTVSPropertyOp56
 70
     1
102
RTVSPropertyOp57
 70
     1
102
RTVSPost2010Prop28
280
     0
102
RTVSPost2010PropOp28
 70
     1
102
RTVSPost2010Prop29
280
     1
102
RTVSPost2010PropOp29
 70
     1
102
RTVSPost2010Prop30
280
     1
102
RTVSPost2010PropOp30
 70
     1
102
RTVSPost2010Prop31
280
     0
102
RTVSPost2010PropOp31
 70
     1
102
RTVSPost2010Prop32
280
     0
102
RTVSPost2010PropOp32
 70
     1
102
RTVSPost2010Prop33
280
     0
102
RTVSPost2010PropOp33
 70
     1
102
RTVSPost2010Prop34
280
     0
102
RTVSPost2010PropOp34
 70
     1
102
RTVSPost2010Prop35
280
     0
102
RTVSPost2010PropOp35
 70
     1
102
RTVSPost2010Prop36
280
     0
102
RTVSPost2010PropOp36
 70
     1
102
RTVSPost2010Prop37
 90
       50
102
RTVSPost2010PropOp37
 70
     1
102
RTVSPost2010Prop38
140
0.0
102
RTVSPost2010PropOp38
 70
     1
102
RTVSPost2010Prop39
140
1.0
102
RTVSPost2010PropOp39
 70
     1
102
RTVSPost2010Prop40
 90
        0
102
RTVSPost2010PropOp40
 70
     1
102
RTVSPost2010Prop41ColorIndex
 90
       18
102
RTVSPost2010Prop41ColorRGB
 90
        0
102
RTVSPost2010PropOp41
 70
     1
102
RTVSPost2010Prop42
 90
       50
102
RTVSPost2010PropOp42
 70
     1
102
RTVSPost2010Prop43
 90
        3
102
RTVSPost2010PropOp43
 70
     1
102
RTVSPost2010Prop44ColorIndex
 90
        5
102
RTVSPost2010Prop44ColorRGB
 90
      255
102
RTVSPost2010PropOp44
 70
     1
102
RTVSPost2010Prop45
280
     0
102
RTVSPost2010PropOp45
 70
     1
102
RTVSPost2010Prop46
 90
       50
102
RTVSPost2010PropOp46
 70
     1
102
RTVSPost2010Prop47
 90
       50
102
RTVSPost2010PropOp47
 70
     1
102
RTVSPost2010Prop48
 90
       50
102
RTVSPost2010PropOp48
 70
     1
102
RTVSPost2010Prop49
280
     0
102
RTVSPost2010PropOp49
 70
     1
102
RTVSPost2010Prop50
 90
       50
102
RTVSPost2010PropOp50
 70
     1
102
RTVSPost2010Prop51ColorIndex
 90
      256
102
RTVSPost2010Prop51ColorRGB
 90
-16777216
102
RTVSPost2010PropOp51
 70
     0
102
RTVSPost2010Prop52
140
1.0
102
RTVSPost2010PropOp52
 70
     0
102
RTVSPost2010Prop53
 90
        2
102
RTVSPost2010PropOp53
 70
     1
102
RTVSPost2010Prop54
  1
strokes_ogs.tif
102
RTVSPost2010PropOp54
 70
     1
102
RTVSPost2010Prop55
280
     0
102
RTVSPost2010PropOp55
 70
     1
102
RTVSPost2010Prop56
140
1.0
102
RTVSPost2010PropOp56
 70
     1
102
RTVSPost2010Prop57
140
1.0
102
RTVSPost2010PropOp57
 70
     1
  0
XRECORD
  5
E71
102
{ACAD_REACTORS
330
E70
102
}
330
E70
100
AcDbXrecord
280
     1
102
RTVSPropertyOp0
 70
     1
102
RTVSPropertyOp1
 70
     1
102
RTVSPropertyOp2
 70
     1
102
RTVSPropertyOp3
 70
     1
102
RTVSPropertyOp4
 70
     1
102
RTVSPropertyOp5
 70
     1
102
RTVSPropertyOp6
 70
     1
102
RTVSPropertyOp7
 70
     1
102
RTVSPropertyOp8
 70
     1
102
RTVSPropertyOp9
 70
     1
102
RTVSPropertyOp10
 70
     1
102
RTVSPropertyOp11
 70
     1
102
RTVSPropertyOp12
 70
     1
102
RTVSPropertyOp13
 70
     1
102
RTVSPropertyOp14
 70
     1
102
RTVSPropertyOp15
 70
     1
102
RTVSPropertyOp16
 70
     1
102
RTVSPropertyOp17
 70
     1
102
RTVSPropertyOp18
 70
     1
102
RTVSPropertyOp19
 70
     1
102
RTVSPropertyOp20
 70
     1
102
RTVSPropertyOp21
 70
     1
102
RTVSPropertyOp22
 70
     1
102
RTVSPropertyOp23
 70
     1
102
RTVSPropertyOp24
 70
     1
102
RTVSPropertyOp25
 70
     1
102
RTVSPropertyOp26
 70
     1
102
RTVSPropertyOp27
 70
     1
102
RTVSPropertyOp28
 70
     1
102
RTVSPropertyOp29
 70
     1
102
RTVSPropertyOp30
 70
     1
102
RTVSPropertyOp31
 70
     1
102
RTVSPropertyOp32
 70
     1
102
RTVSPropertyOp33
 70
     1
102
RTVSPropertyOp34
 70
     1
102
RTVSPropertyOp35
 70
     1
102
RTVSPropertyOp36
 70
     1
102
RTVSPropertyOp37
 70
     1
102
RTVSPropertyOp38
 70
     1
102
RTVSPropertyOp39
 70
     1
102
RTVSPropertyOp40
 70
     1
102
RTVSPropertyOp41
 70
     1
102
RTVSPropertyOp42
 70
     1
102
RTVSPropertyOp43
 70
     1
102
RTVSPropertyOp44
 70
     1
102
RTVSPropertyOp45
 70
     1
102
RTVSPropertyOp46
 70
     1
102
RTVSPropertyOp47
 70
     1
102
RTVSPropertyOp48
 70
     1
102
RTVSPropertyOp49
 70
     1
102
RTVSPropertyOp50
 70
     1
102
RTVSPropertyOp51
 70
     0
102
RTVSPropertyOp52
 70
     0
102
RTVSPropertyOp53
 70
     1
102
RTVSPropertyOp54
 70
     1
102
RTVSPropertyOp55
 70
     1
102
RTVSPropertyOp56
 70
     1
102
RTVSPropertyOp57
 70
     1
102
RTVSPost2010Prop28
280
     0
102
RTVSPost2010PropOp28
 70
     1
102
RTVSPost2010Prop29
280
     1
102
RTVSPost2010PropOp29
 70
     1
102
RTVSPost2010Prop30
280
     1
102
RTVSPost2010PropOp30
 70
     1
102
RTVSPost2010Prop31
280
     0
102
RTVSPost2010PropOp31
 70
     1
102
RTVSPost2010Prop32
280
     0
102
RTVSPost2010PropOp32
 70
     1
102
RTVSPost2010Prop33
280
     0
102
RTVSPost2010PropOp33
 70
     1
102
RTVSPost2010Prop34
280
     0
102
RTVSPost2010PropOp34
 70
     1
102
RTVSPost2010Prop35
280
     0
102
RTVSPost2010PropOp35
 70
     1
102
RTVSPost2010Prop36
280
     0
102
RTVSPost2010PropOp36
 70
     1
102
RTVSPost2010Prop37
 90
       50
102
RTVSPost2010PropOp37
 70
     1
102
RTVSPost2010Prop38
140
0.0
102
RTVSPost2010PropOp38
 70
     1
102
RTVSPost2010Prop39
140
1.0
102
RTVSPost2010PropOp39
 70
     1
102
RTVSPost2010Prop40
 90
        0
102
RTVSPost2010PropOp40
 70
     1
102
RTVSPost2010Prop41ColorIndex
 90
       18
102
RTVSPost2010Prop41ColorRGB
 90
        0
102
RTVSPost2010PropOp41
 70
     1
102
RTVSPost2010Prop42
 90
       50
102
RTVSPost2010PropOp42
 70
     1
102
RTVSPost2010Prop43
 90
        3
102
RTVSPost2010PropOp43
 70
     1
102
RTVSPost2010Prop44ColorIndex
 90
        5
102
RTVSPost2010Prop44ColorRGB
 90
      255
102
RTVSPost2010PropOp44
 70
     1
102
RTVSPost2010Prop45
280
     0
102
RTVSPost2010PropOp45
 70
     1
102
RTVSPost2010Prop46
 90
       50
102
RTVSPost2010PropOp46
 70
     1
102
RTVSPost2010Prop47
 90
       50
102
RTVSPost2010PropOp47
 70
     1
102
RTVSPost2010Prop48
 90
       50
102
RTVSPost2010PropOp48
 70
     1
102
RTVSPost2010Prop49
280
     0
102
RTVSPost2010PropOp49
 70
     1
102
RTVSPost2010Prop50
 90
       50
102
RTVSPost2010PropOp50
 70
     1
102
RTVSPost2010Prop51ColorIndex
 90
      256
102
RTVSPost2010Prop51ColorRGB
 90
-16777216
102
RTVSPost2010PropOp51
 70
     0
102
RTVSPost2010Prop52
140
1.0
102
RTVSPost2010PropOp52
 70
     0
102
RTVSPost2010Prop53
 90
        2
102
RTVSPost2010PropOp53
 70
     1
102
RTVSPost2010Prop54
  1
strokes_ogs.tif
102
RTVSPost2010PropOp54
 70
     1
102
RTVSPost2010Prop55
280
     0
102
RTVSPost2010PropOp55
 70
     1
102
RTVSPost2010Prop56
140
1.0
102
RTVSPost2010PropOp56
 70
     1
102
RTVSPost2010Prop57
140
1.0
102
RTVSPost2010PropOp57
 70
     1
  0
XRECORD
  5
E73
102
{ACAD_REACTORS
330
E72
102
}
330
E72
100
AcDbXrecord
280
     1
102
RTVSPropertyOp0
 70
     1
102
RTVSPropertyOp1
 70
     1
102
RTVSPropertyOp2
 70
     1
102
RTVSPropertyOp3
 70
     1
102
RTVSPropertyOp4
 70
     1
102
RTVSPropertyOp5
 70
     1
102
RTVSPropertyOp6
 70
     1
102
RTVSPropertyOp7
 70
     1
102
RTVSPropertyOp8
 70
     1
102
RTVSPropertyOp9
 70
     1
102
RTVSPropertyOp10
 70
     1
102
RTVSPropertyOp11
 70
     1
102
RTVSPropertyOp12
 70
     1
102
RTVSPropertyOp13
 70
     1
102
RTVSPropertyOp14
 70
     1
102
RTVSPropertyOp15
 70
     1
102
RTVSPropertyOp16
 70
     1
102
RTVSPropertyOp17
 70
     1
102
RTVSPropertyOp18
 70
     1
102
RTVSPropertyOp19
 70
     1
102
RTVSPropertyOp20
 70
     1
102
RTVSPropertyOp21
 70
     1
102
RTVSPropertyOp22
 70
     1
102
RTVSPropertyOp23
 70
     1
102
RTVSPropertyOp24
 70
     1
102
RTVSPropertyOp25
 70
     1
102
RTVSPropertyOp26
 70
     1
102
RTVSPropertyOp27
 70
     1
102
RTVSPropertyOp28
 70
     1
102
RTVSPropertyOp29
 70
     1
102
RTVSPropertyOp30
 70
     1
102
RTVSPropertyOp31
 70
     1
102
RTVSPropertyOp32
 70
     1
102
RTVSPropertyOp33
 70
     1
102
RTVSPropertyOp34
 70
     1
102
RTVSPropertyOp35
 70
     1
102
RTVSPropertyOp36
 70
     1
102
RTVSPropertyOp37
 70
     1
102
RTVSPropertyOp38
 70
     1
102
RTVSPropertyOp39
 70
     1
102
RTVSPropertyOp40
 70
     1
102
RTVSPropertyOp41
 70
     1
102
RTVSPropertyOp42
 70
     1
102
RTVSPropertyOp43
 70
     1
102
RTVSPropertyOp44
 70
     1
102
RTVSPropertyOp45
 70
     1
102
RTVSPropertyOp46
 70
     1
102
RTVSPropertyOp47
 70
     1
102
RTVSPropertyOp48
 70
     1
102
RTVSPropertyOp49
 70
     1
102
RTVSPropertyOp50
 70
     1
102
RTVSPropertyOp51
 70
     0
102
RTVSPropertyOp52
 70
     0
102
RTVSPropertyOp53
 70
     1
102
RTVSPropertyOp54
 70
     1
102
RTVSPropertyOp55
 70
     1
102
RTVSPropertyOp56
 70
     1
102
RTVSPropertyOp57
 70
     1
102
RTVSPost2010Prop28
280
     0
102
RTVSPost2010PropOp28
 70
     1
102
RTVSPost2010Prop29
280
     1
102
RTVSPost2010PropOp29
 70
     1
102
RTVSPost2010Prop30
280
     1
102
RTVSPost2010PropOp30
 70
     1
102
RTVSPost2010Prop31
280
     0
102
RTVSPost2010PropOp31
 70
     1
102
RTVSPost2010Prop32
280
     0
102
RTVSPost2010PropOp32
 70
     1
102
RTVSPost2010Prop33
280
     0
102
RTVSPost2010PropOp33
 70
     1
102
RTVSPost2010Prop34
280
     0
102
RTVSPost2010PropOp34
 70
     1
102
RTVSPost2010Prop35
280
     0
102
RTVSPost2010PropOp35
 70
     1
102
RTVSPost2010Prop36
280
     0
102
RTVSPost2010PropOp36
 70
     1
102
RTVSPost2010Prop37
 90
       50
102
RTVSPost2010PropOp37
 70
     1
102
RTVSPost2010Prop38
140
0.0
102
RTVSPost2010PropOp38
 70
     1
102
RTVSPost2010Prop39
140
1.0
102
RTVSPost2010PropOp39
 70
     1
102
RTVSPost2010Prop40
 90
        0
102
RTVSPost2010PropOp40
 70
     1
102
RTVSPost2010Prop41ColorIndex
 90
       18
102
RTVSPost2010Prop41ColorRGB
 90
        0
102
RTVSPost2010PropOp41
 70
     1
102
RTVSPost2010Prop42
 90
       50
102
RTVSPost2010PropOp42
 70
     1
102
RTVSPost2010Prop43
 90
        3
102
RTVSPost2010PropOp43
 70
     1
102
RTVSPost2010Prop44ColorIndex
 90
        5
102
RTVSPost2010Prop44ColorRGB
 90
      255
102
RTVSPost2010PropOp44
 70
     1
102
RTVSPost2010Prop45
280
     0
102
RTVSPost2010PropOp45
 70
     1
102
RTVSPost2010Prop46
 90
       50
102
RTVSPost2010PropOp46
 70
     1
102
RTVSPost2010Prop47
 90
       50
102
RTVSPost2010PropOp47
 70
     1
102
RTVSPost2010Prop48
 90
       50
102
RTVSPost2010PropOp48
 70
     1
102
RTVSPost2010Prop49
280
     0
102
RTVSPost2010PropOp49
 70
     1
102
RTVSPost2010Prop50
 90
       50
102
RTVSPost2010PropOp50
 70
     1
102
RTVSPost2010Prop51ColorIndex
 90
      256
102
RTVSPost2010Prop51ColorRGB
 90
-16777216
102
RTVSPost2010PropOp51
 70
     0
102
RTVSPost2010Prop52
140
1.0
102
RTVSPost2010PropOp52
 70
     0
102
RTVSPost2010Prop53
 90
        2
102
RTVSPost2010PropOp53
 70
     1
102
RTVSPost2010Prop54
  1
strokes_ogs.tif
102
RTVSPost2010PropOp54
 70
     1
102
RTVSPost2010Prop55
280
     0
102
RTVSPost2010PropOp55
 70
     1
102
RTVSPost2010Prop56
140
1.0
102
RTVSPost2010PropOp56
 70
     1
102
RTVSPost2010Prop57
140
1.0
102
RTVSPost2010PropOp57
 70
     1
  0
XRECORD
  5
E7D
102
{ACAD_REACTORS
330
E7C
102
}
330
E7C
100
AcDbXrecord
280
     1
102
RTVSPropertyOp0
 70
     1
102
RTVSPropertyOp1
 70
     1
102
RTVSPropertyOp2
 70
     1
102
RTVSPropertyOp3
 70
     1
102
RTVSPropertyOp4
 70
     1
102
RTVSPropertyOp5
 70
     1
102
RTVSPropertyOp6
 70
     1
102
RTVSPropertyOp7
 70
     1
102
RTVSPropertyOp8
 70
     1
102
RTVSPropertyOp9
 70
     1
102
RTVSPropertyOp10
 70
     1
102
RTVSPropertyOp11
 70
     1
102
RTVSPropertyOp12
 70
     1
102
RTVSPropertyOp13
 70
     1
102
RTVSPropertyOp14
 70
     1
102
RTVSPropertyOp15
 70
     1
102
RTVSPropertyOp16
 70
     1
102
RTVSPropertyOp17
 70
     1
102
RTVSPropertyOp18
 70
     1
102
RTVSPropertyOp19
 70
     1
102
RTVSPropertyOp20
 70
     1
102
RTVSPropertyOp21
 70
     1
102
RTVSPropertyOp22
 70
     1
102
RTVSPropertyOp23
 70
     1
102
RTVSPropertyOp24
 70
     1
102
RTVSPropertyOp25
 70
     1
102
RTVSPropertyOp26
 70
     1
102
RTVSPropertyOp27
 70
     1
102
RTVSPropertyOp28
 70
     1
102
RTVSPropertyOp29
 70
     1
102
RTVSPropertyOp30
 70
     1
102
RTVSPropertyOp31
 70
     1
102
RTVSPropertyOp32
 70
     1
102
RTVSPropertyOp33
 70
     1
102
RTVSPropertyOp34
 70
     1
102
RTVSPropertyOp35
 70
     1
102
RTVSPropertyOp36
 70
     1
102
RTVSPropertyOp37
 70
     1
102
RTVSPropertyOp38
 70
     1
102
RTVSPropertyOp39
 70
     1
102
RTVSPropertyOp40
 70
     1
102
RTVSPropertyOp41
 70
     1
102
RTVSPropertyOp42
 70
     1
102
RTVSPropertyOp43
 70
     1
102
RTVSPropertyOp44
 70
     1
102
RTVSPropertyOp45
 70
     1
102
RTVSPropertyOp46
 70
     1
102
RTVSPropertyOp47
 70
     1
102
RTVSPropertyOp48
 70
     1
102
RTVSPropertyOp49
 70
     1
102
RTVSPropertyOp50
 70
     1
102
RTVSPropertyOp51
 70
     0
102
RTVSPropertyOp52
 70
     0
102
RTVSPropertyOp53
 70
     1
102
RTVSPropertyOp54
 70
     1
102
RTVSPropertyOp55
 70
     1
102
RTVSPropertyOp56
 70
     1
102
RTVSPropertyOp57
 70
     1
102
RTVSPost2010Prop28
280
     0
102
RTVSPost2010PropOp28
 70
     1
102
RTVSPost2010Prop29
280
     1
102
RTVSPost2010PropOp29
 70
     1
102
RTVSPost2010Prop30
280
     1
102
RTVSPost2010PropOp30
 70
     1
102
RTVSPost2010Prop31
280
     0
102
RTVSPost2010PropOp31
 70
     1
102
RTVSPost2010Prop32
280
     0
102
RTVSPost2010PropOp32
 70
     1
102
RTVSPost2010Prop33
280
     0
102
RTVSPost2010PropOp33
 70
     1
102
RTVSPost2010Prop34
280
     0
102
RTVSPost2010PropOp34
 70
     1
102
RTVSPost2010Prop35
280
     0
102
RTVSPost2010PropOp35
 70
     1
102
RTVSPost2010Prop36
280
     0
102
RTVSPost2010PropOp36
 70
     1
102
RTVSPost2010Prop37
 90
       50
102
RTVSPost2010PropOp37
 70
     1
102
RTVSPost2010Prop38
140
0.0
102
RTVSPost2010PropOp38
 70
     1
102
RTVSPost2010Prop39
140
1.0
102
RTVSPost2010PropOp39
 70
     1
102
RTVSPost2010Prop40
 90
        0
102
RTVSPost2010PropOp40
 70
     1
102
RTVSPost2010Prop41ColorIndex
 90
       18
102
RTVSPost2010Prop41ColorRGB
 90
        0
102
RTVSPost2010PropOp41
 70
     1
102
RTVSPost2010Prop42
 90
       50
102
RTVSPost2010PropOp42
 70
     1
102
RTVSPost2010Prop43
 90
        3
102
RTVSPost2010PropOp43
 70
     1
102
RTVSPost2010Prop44ColorIndex
 90
        5
102
RTVSPost2010Prop44ColorRGB
 90
      255
102
RTVSPost2010PropOp44
 70
     1
102
RTVSPost2010Prop45
280
     0
102
RTVSPost2010PropOp45
 70
     1
102
RTVSPost2010Prop46
 90
       50
102
RTVSPost2010PropOp46
 70
     1
102
RTVSPost2010Prop47
 90
       50
102
RTVSPost2010PropOp47
 70
     1
102
RTVSPost2010Prop48
 90
       50
102
RTVSPost2010PropOp48
 70
     1
102
RTVSPost2010Prop49
280
     0
102
RTVSPost2010PropOp49
 70
     1
102
RTVSPost2010Prop50
 90
       50
102
RTVSPost2010PropOp50
 70
     1
102
RTVSPost2010Prop51ColorIndex
 90
      256
102
RTVSPost2010Prop51ColorRGB
 90
-16777216
102
RTVSPost2010PropOp51
 70
     0
102
RTVSPost2010Prop52
140
1.0
102
RTVSPost2010PropOp52
 70
     0
102
RTVSPost2010Prop53
 90
        2
102
RTVSPost2010PropOp53
 70
     1
102
RTVSPost2010Prop54
  1
strokes_ogs.tif
102
RTVSPost2010PropOp54
 70
     1
102
RTVSPost2010Prop55
280
     0
102
RTVSPost2010PropOp55
 70
     1
102
RTVSPost2010Prop56
140
1.0
102
RTVSPost2010PropOp56
 70
     1
102
RTVSPost2010Prop57
140
1.0
102
RTVSPost2010PropOp57
 70
     1
  0
XRECORD
  5
E7F
102
{ACAD_REACTORS
330
E7E
102
}
330
E7E
100
AcDbXrecord
280
     1
102
RTVSPropertyOp0
 70
     0
102
RTVSPropertyOp1
 70
     0
102
RTVSPropertyOp2
 70
     0
102
RTVSPropertyOp3
 70
     0
102
RTVSPropertyOp4
 70
     0
102
RTVSPropertyOp5
 70
     0
102
RTVSPropertyOp6
 70
     0
102
RTVSPropertyOp7
 70
     0
102
RTVSPropertyOp8
 70
     0
102
RTVSPropertyOp9
 70
     0
102
RTVSPropertyOp10
 70
     0
102
RTVSPropertyOp11
 70
     0
102
RTVSPropertyOp12
 70
     0
102
RTVSPropertyOp13
 70
     0
102
RTVSPropertyOp14
 70
     2
102
RTVSPropertyOp15
 70
     0
102
RTVSPropertyOp16
 70
     0
102
RTVSPropertyOp17
 70
     0
102
RTVSPropertyOp18
 70
     0
102
RTVSPropertyOp19
 70
     0
102
RTVSPropertyOp20
 70
     0
102
RTVSPropertyOp21
 70
     0
102
RTVSPropertyOp22
 70
     0
102
RTVSPropertyOp23
 70
     0
102
RTVSPropertyOp24
 70
     0
102
RTVSPropertyOp25
 70
     0
102
RTVSPropertyOp26
 70
     0
102
RTVSPropertyOp27
 70
     0
102
RTVSPropertyOp28
 70
     0
102
RTVSPropertyOp29
 70
     0
102
RTVSPropertyOp30
 70
     0
102
RTVSPropertyOp31
 70
     0
102
RTVSPropertyOp32
 70
     0
102
RTVSPropertyOp33
 70
     0
102
RTVSPropertyOp34
 70
     0
102
RTVSPropertyOp35
 70
     0
102
RTVSPropertyOp36
 70
     0
102
RTVSPropertyOp37
 70
     0
102
RTVSPropertyOp38
 70
     0
102
RTVSPropertyOp39
 70
     0
102
RTVSPropertyOp40
 70
     0
102
RTVSPropertyOp41
 70
     0
102
RTVSPropertyOp42
 70
     0
102
RTVSPropertyOp43
 70
     0
102
RTVSPropertyOp44
 70
     0
102
RTVSPropertyOp45
 70
     0
102
RTVSPropertyOp46
 70
     0
102
RTVSPropertyOp47
 70
     0
102
RTVSPropertyOp48
 70
     0
102
RTVSPropertyOp49
 70
     0
102
RTVSPropertyOp50
 70
     0
102
RTVSPropertyOp51
 70
     0
102
RTVSPropertyOp52
 70
     0
102
RTVSPropertyOp53
 70
     0
102
RTVSPropertyOp54
 70
     0
102
RTVSPropertyOp55
 70
     0
102
RTVSPropertyOp56
 70
     0
102
RTVSPropertyOp57
 70
     0
102
RTVSPost2010Prop28
280
     0
102
RTVSPost2010PropOp28
 70
     0
102
RTVSPost2010Prop29
280
     1
102
RTVSPost2010PropOp29
 70
     0
102
RTVSPost2010Prop30
280
     1
102
RTVSPost2010PropOp30
 70
     0
102
RTVSPost2010Prop31
280
     0
102
RTVSPost2010PropOp31
 70
     0
102
RTVSPost2010Prop32
280
     0
102
RTVSPost2010PropOp32
 70
     0
102
RTVSPost2010Prop33
280
     0
102
RTVSPost2010PropOp33
 70
     0
102
RTVSPost2010Prop34
280
     0
102
RTVSPost2010PropOp34
 70
     0
102
RTVSPost2010Prop35
280
     0
102
RTVSPost2010PropOp35
 70
     0
102
RTVSPost2010Prop36
280
     0
102
RTVSPost2010PropOp36
 70
     0
102
RTVSPost2010Prop37
 90
       50
102
RTVSPost2010PropOp37
 70
     0
102
RTVSPost2010Prop38
140
0.0
102
RTVSPost2010PropOp38
 70
     0
102
RTVSPost2010Prop39
140
1.0
102
RTVSPost2010PropOp39
 70
     0
102
RTVSPost2010Prop40
 90
        0
102
RTVSPost2010PropOp40
 70
     0
102
RTVSPost2010Prop41ColorIndex
 90
       18
102
RTVSPost2010Prop41ColorRGB
 90
        0
102
RTVSPost2010PropOp41
 70
     0
102
RTVSPost2010Prop42
 90
       50
102
RTVSPost2010PropOp42
 70
     0
102
RTVSPost2010Prop43
 90
        3
102
RTVSPost2010PropOp43
 70
     0
102
RTVSPost2010Prop44ColorIndex
 90
        5
102
RTVSPost2010Prop44ColorRGB
 90
      255
102
RTVSPost2010PropOp44
 70
     0
102
RTVSPost2010Prop45
280
     0
102
RTVSPost2010PropOp45
 70
     0
102
RTVSPost2010Prop46
 90
       50
102
RTVSPost2010PropOp46
 70
     0
102
RTVSPost2010Prop47
 90
       50
102
RTVSPost2010PropOp47
 70
     0
102
RTVSPost2010Prop48
 90
       50
102
RTVSPost2010PropOp48
 70
     0
102
RTVSPost2010Prop49
280
     0
102
RTVSPost2010PropOp49
 70
     0
102
RTVSPost2010Prop50
 90
       50
102
RTVSPost2010PropOp50
 70
     0
102
RTVSPost2010Prop51ColorIndex
 90
      256
102
RTVSPost2010Prop51ColorRGB
 90
-16777216
102
RTVSPost2010PropOp51
 70
     0
102
RTVSPost2010Prop52
140
1.0
102
RTVSPost2010PropOp52
 70
     0
102
RTVSPost2010Prop53
 90
        2
102
RTVSPost2010PropOp53
 70
     0
102
RTVSPost2010Prop54
  1
strokes_ogs.tif
102
RTVSPost2010PropOp54
 70
     0
102
RTVSPost2010Prop55
280
     0
102
RTVSPost2010PropOp55
 70
     0
102
RTVSPost2010Prop56
140
1.0
102
RTVSPost2010PropOp56
 70
     0
102
RTVSPost2010Prop57
140
1.0
102
RTVSPost2010PropOp57
 70
     0
  0
XRECORD
  5
E75
102
{ACAD_REACTORS
330
E74
102
}
330
E74
100
AcDbXrecord
280
     1
102
RTVSPropertyOp0
 70
     1
102
RTVSPropertyOp1
 70
     1
102
RTVSPropertyOp2
 70
     1
102
RTVSPropertyOp3
 70
     1
102
RTVSPropertyOp4
 70
     1
102
RTVSPropertyOp5
 70
     1
102
RTVSPropertyOp6
 70
     1
102
RTVSPropertyOp7
 70
     1
102
RTVSPropertyOp8
 70
     1
102
RTVSPropertyOp9
 70
     1
102
RTVSPropertyOp10
 70
     1
102
RTVSPropertyOp11
 70
     1
102
RTVSPropertyOp12
 70
     1
102
RTVSPropertyOp13
 70
     1
102
RTVSPropertyOp14
 70
     1
102
RTVSPropertyOp15
 70
     1
102
RTVSPropertyOp16
 70
     1
102
RTVSPropertyOp17
 70
     1
102
RTVSPropertyOp18
 70
     1
102
RTVSPropertyOp19
 70
     1
102
RTVSPropertyOp20
 70
     1
102
RTVSPropertyOp21
 70
     1
102
RTVSPropertyOp22
 70
     1
102
RTVSPropertyOp23
 70
     1
102
RTVSPropertyOp24
 70
     1
102
RTVSPropertyOp25
 70
     1
102
RTVSPropertyOp26
 70
     1
102
RTVSPropertyOp27
 70
     1
102
RTVSPropertyOp28
 70
     1
102
RTVSPropertyOp29
 70
     1
102
RTVSPropertyOp30
 70
     1
102
RTVSPropertyOp31
 70
     1
102
RTVSPropertyOp32
 70
     1
102
RTVSPropertyOp33
 70
     1
102
RTVSPropertyOp34
 70
     1
102
RTVSPropertyOp35
 70
     1
102
RTVSPropertyOp36
 70
     1
102
RTVSPropertyOp37
 70
     1
102
RTVSPropertyOp38
 70
     1
102
RTVSPropertyOp39
 70
     1
102
RTVSPropertyOp40
 70
     1
102
RTVSPropertyOp41
 70
     1
102
RTVSPropertyOp42
 70
     1
102
RTVSPropertyOp43
 70
     1
102
RTVSPropertyOp44
 70
     1
102
RTVSPropertyOp45
 70
     1
102
RTVSPropertyOp46
 70
     1
102
RTVSPropertyOp47
 70
     1
102
RTVSPropertyOp48
 70
     1
102
RTVSPropertyOp49
 70
     1
102
RTVSPropertyOp50
 70
     1
102
RTVSPropertyOp51
 70
     0
102
RTVSPropertyOp52
 70
     0
102
RTVSPropertyOp53
 70
     1
102
RTVSPropertyOp54
 70
     1
102
RTVSPropertyOp55
 70
     1
102
RTVSPropertyOp56
 70
     1
102
RTVSPropertyOp57
 70
     1
102
RTVSPost2010Prop28
280
     0
102
RTVSPost2010PropOp28
 70
     1
102
RTVSPost2010Prop29
280
     1
102
RTVSPost2010PropOp29
 70
     1
102
RTVSPost2010Prop30
280
     1
102
RTVSPost2010PropOp30
 70
     1
102
RTVSPost2010Prop31
280
     0
102
RTVSPost2010PropOp31
 70
     1
102
RTVSPost2010Prop32
280
     0
102
RTVSPost2010PropOp32
 70
     1
102
RTVSPost2010Prop33
280
     0
102
RTVSPost2010PropOp33
 70
     1
102
RTVSPost2010Prop34
280
     0
102
RTVSPost2010PropOp34
 70
     1
102
RTVSPost2010Prop35
280
     0
102
RTVSPost2010PropOp35
 70
     1
102
RTVSPost2010Prop36
280
     0
102
RTVSPost2010PropOp36
 70
     1
102
RTVSPost2010Prop37
 90
       50
102
RTVSPost2010PropOp37
 70
     1
102
RTVSPost2010Prop38
140
0.0
102
RTVSPost2010PropOp38
 70
     1
102
RTVSPost2010Prop39
140
1.0
102
RTVSPost2010PropOp39
 70
     1
102
RTVSPost2010Prop40
 90
        0
102
RTVSPost2010PropOp40
 70
     1
102
RTVSPost2010Prop41ColorIndex
 90
       18
102
RTVSPost2010Prop41ColorRGB
 90
        0
102
RTVSPost2010PropOp41
 70
     1
102
RTVSPost2010Prop42
 90
       50
102
RTVSPost2010PropOp42
 70
     1
102
RTVSPost2010Prop43
 90
        3
102
RTVSPost2010PropOp43
 70
     1
102
RTVSPost2010Prop44ColorIndex
 90
        5
102
RTVSPost2010Prop44ColorRGB
 90
      255
102
RTVSPost2010PropOp44
 70
     1
102
RTVSPost2010Prop45
280
     0
102
RTVSPost2010PropOp45
 70
     1
102
RTVSPost2010Prop46
 90
       50
102
RTVSPost2010PropOp46
 70
     1
102
RTVSPost2010Prop47
 90
       50
102
RTVSPost2010PropOp47
 70
     1
102
RTVSPost2010Prop48
 90
       50
102
RTVSPost2010PropOp48
 70
     1
102
RTVSPost2010Prop49
280
     0
102
RTVSPost2010PropOp49
 70
     1
102
RTVSPost2010Prop50
 90
       50
102
RTVSPost2010PropOp50
 70
     1
102
RTVSPost2010Prop51ColorIndex
 90
      256
102
RTVSPost2010Prop51ColorRGB
 90
-16777216
102
RTVSPost2010PropOp51
 70
     0
102
RTVSPost2010Prop52
140
1.0
102
RTVSPost2010PropOp52
 70
     0
102
RTVSPost2010Prop53
 90
        2
102
RTVSPost2010PropOp53
 70
     1
102
RTVSPost2010Prop54
  1
strokes_ogs.tif
102
RTVSPost2010PropOp54
 70
     1
102
RTVSPost2010Prop55
280
     0
102
RTVSPost2010PropOp55
 70
     1
102
RTVSPost2010Prop56
140
1.0
102
RTVSPost2010PropOp56
 70
     1
102
RTVSPost2010Prop57
140
1.0
102
RTVSPost2010PropOp57
 70
     1
  0
XRECORD
  5
E81
102
{ACAD_REACTORS
330
E80
102
}
330
E80
100
AcDbXrecord
280
     1
102
RTVSPropertyOp0
 70
     0
102
RTVSPropertyOp1
 70
     0
102
RTVSPropertyOp2
 70
     0
102
RTVSPropertyOp3
 70
     0
102
RTVSPropertyOp4
 70
     0
102
RTVSPropertyOp5
 70
     0
102
RTVSPropertyOp6
 70
     0
102
RTVSPropertyOp7
 70
     0
102
RTVSPropertyOp8
 70
     0
102
RTVSPropertyOp9
 70
     0
102
RTVSPropertyOp10
 70
     0
102
RTVSPropertyOp11
 70
     0
102
RTVSPropertyOp12
 70
     0
102
RTVSPropertyOp13
 70
     0
102
RTVSPropertyOp14
 70
     2
102
RTVSPropertyOp15
 70
     0
102
RTVSPropertyOp16
 70
     0
102
RTVSPropertyOp17
 70
     0
102
RTVSPropertyOp18
 70
     0
102
RTVSPropertyOp19
 70
     0
102
RTVSPropertyOp20
 70
     0
102
RTVSPropertyOp21
 70
     0
102
RTVSPropertyOp22
 70
     0
102
RTVSPropertyOp23
 70
     0
102
RTVSPropertyOp24
 70
     0
102
RTVSPropertyOp25
 70
     0
102
RTVSPropertyOp26
 70
     0
102
RTVSPropertyOp27
 70
     0
102
RTVSPropertyOp28
 70
     0
102
RTVSPropertyOp29
 70
     0
102
RTVSPropertyOp30
 70
     0
102
RTVSPropertyOp31
 70
     0
102
RTVSPropertyOp32
 70
     0
102
RTVSPropertyOp33
 70
     0
102
RTVSPropertyOp34
 70
     0
102
RTVSPropertyOp35
 70
     0
102
RTVSPropertyOp36
 70
     0
102
RTVSPropertyOp37
 70
     0
102
RTVSPropertyOp38
 70
     0
102
RTVSPropertyOp39
 70
     0
102
RTVSPropertyOp40
 70
     0
102
RTVSPropertyOp41
 70
     0
102
RTVSPropertyOp42
 70
     0
102
RTVSPropertyOp43
 70
     0
102
RTVSPropertyOp44
 70
     0
102
RTVSPropertyOp45
 70
     0
102
RTVSPropertyOp46
 70
     0
102
RTVSPropertyOp47
 70
     0
102
RTVSPropertyOp48
 70
     0
102
RTVSPropertyOp49
 70
     0
102
RTVSPropertyOp50
 70
     0
102
RTVSPropertyOp51
 70
     0
102
RTVSPropertyOp52
 70
     0
102
RTVSPropertyOp53
 70
     0
102
RTVSPropertyOp54
 70
     0
102
RTVSPropertyOp55
 70
     0
102
RTVSPropertyOp56
 70
     0
102
RTVSPropertyOp57
 70
     0
102
RTVSPost2010Prop28
280
     0
102
RTVSPost2010PropOp28
 70
     0
102
RTVSPost2010Prop29
280
     1
102
RTVSPost2010PropOp29
 70
     0
102
RTVSPost2010Prop30
280
     1
102
RTVSPost2010PropOp30
 70
     0
102
RTVSPost2010Prop31
280
     0
102
RTVSPost2010PropOp31
 70
     0
102
RTVSPost2010Prop32
280
     0
102
RTVSPost2010PropOp32
 70
     0
102
RTVSPost2010Prop33
280
     0
102
RTVSPost2010PropOp33
 70
     0
102
RTVSPost2010Prop34
280
     0
102
RTVSPost2010PropOp34
 70
     0
102
RTVSPost2010Prop35
280
     0
102
RTVSPost2010PropOp35
 70
     0
102
RTVSPost2010Prop36
280
     0
102
RTVSPost2010PropOp36
 70
     0
102
RTVSPost2010Prop37
 90
       50
102
RTVSPost2010PropOp37
 70
     0
102
RTVSPost2010Prop38
140
0.0
102
RTVSPost2010PropOp38
 70
     0
102
RTVSPost2010Prop39
140
1.0
102
RTVSPost2010PropOp39
 70
     0
102
RTVSPost2010Prop40
 90
        0
102
RTVSPost2010PropOp40
 70
     0
102
RTVSPost2010Prop41ColorIndex
 90
       18
102
RTVSPost2010Prop41ColorRGB
 90
        0
102
RTVSPost2010PropOp41
 70
     0
102
RTVSPost2010Prop42
 90
       50
102
RTVSPost2010PropOp42
 70
     0
102
RTVSPost2010Prop43
 90
        3
102
RTVSPost2010PropOp43
 70
     0
102
RTVSPost2010Prop44ColorIndex
 90
        5
102
RTVSPost2010Prop44ColorRGB
 90
      255
102
RTVSPost2010PropOp44
 70
     0
102
RTVSPost2010Prop45
280
     0
102
RTVSPost2010PropOp45
 70
     0
102
RTVSPost2010Prop46
 90
       50
102
RTVSPost2010PropOp46
 70
     0
102
RTVSPost2010Prop47
 90
       50
102
RTVSPost2010PropOp47
 70
     0
102
RTVSPost2010Prop48
 90
       50
102
RTVSPost2010PropOp48
 70
     0
102
RTVSPost2010Prop49
280
     0
102
RTVSPost2010PropOp49
 70
     0
102
RTVSPost2010Prop50
 90
       50
102
RTVSPost2010PropOp50
 70
     0
102
RTVSPost2010Prop51ColorIndex
 90
      256
102
RTVSPost2010Prop51ColorRGB
 90
-16777216
102
RTVSPost2010PropOp51
 70
     0
102
RTVSPost2010Prop52
140
1.0
102
RTVSPost2010PropOp52
 70
     0
102
RTVSPost2010Prop53
 90
        2
102
RTVSPost2010PropOp53
 70
     0
102
RTVSPost2010Prop54
  1
strokes_ogs.tif
102
RTVSPost2010PropOp54
 70
     0
102
RTVSPost2010Prop55
280
     0
102
RTVSPost2010PropOp55
 70
     0
102
RTVSPost2010Prop56
140
1.0
102
RTVSPost2010PropOp56
 70
     0
102
RTVSPost2010Prop57
140
1.0
102
RTVSPost2010PropOp57
 70
     0
  0
XRECORD
  5
E77
102
{ACAD_REACTORS
330
E76
102
}
330
E76
100
AcDbXrecord
280
     1
102
RTVSPropertyOp0
 70
     1
102
RTVSPropertyOp1
 70
     1
102
RTVSPropertyOp2
 70
     1
102
RTVSPropertyOp3
 70
     1
102
RTVSPropertyOp4
 70
     1
102
RTVSPropertyOp5
 70
     1
102
RTVSPropertyOp6
 70
     1
102
RTVSPropertyOp7
 70
     1
102
RTVSPropertyOp8
 70
     1
102
RTVSPropertyOp9
 70
     1
102
RTVSPropertyOp10
 70
     1
102
RTVSPropertyOp11
 70
     1
102
RTVSPropertyOp12
 70
     1
102
RTVSPropertyOp13
 70
     1
102
RTVSPropertyOp14
 70
     1
102
RTVSPropertyOp15
 70
     1
102
RTVSPropertyOp16
 70
     1
102
RTVSPropertyOp17
 70
     1
102
RTVSPropertyOp18
 70
     1
102
RTVSPropertyOp19
 70
     1
102
RTVSPropertyOp20
 70
     1
102
RTVSPropertyOp21
 70
     1
102
RTVSPropertyOp22
 70
     1
102
RTVSPropertyOp23
 70
     1
102
RTVSPropertyOp24
 70
     1
102
RTVSPropertyOp25
 70
     1
102
RTVSPropertyOp26
 70
     1
102
RTVSPropertyOp27
 70
     1
102
RTVSPropertyOp28
 70
     1
102
RTVSPropertyOp29
 70
     1
102
RTVSPropertyOp30
 70
     1
102
RTVSPropertyOp31
 70
     1
102
RTVSPropertyOp32
 70
     1
102
RTVSPropertyOp33
 70
     1
102
RTVSPropertyOp34
 70
     1
102
RTVSPropertyOp35
 70
     1
102
RTVSPropertyOp36
 70
     1
102
RTVSPropertyOp37
 70
     1
102
RTVSPropertyOp38
 70
     1
102
RTVSPropertyOp39
 70
     1
102
RTVSPropertyOp40
 70
     1
102
RTVSPropertyOp41
 70
     1
102
RTVSPropertyOp42
 70
     1
102
RTVSPropertyOp43
 70
     1
102
RTVSPropertyOp44
 70
     1
102
RTVSPropertyOp45
 70
     1
102
RTVSPropertyOp46
 70
     1
102
RTVSPropertyOp47
 70
     1
102
RTVSPropertyOp48
 70
     1
102
RTVSPropertyOp49
 70
     1
102
RTVSPropertyOp50
 70
     1
102
RTVSPropertyOp51
 70
     0
102
RTVSPropertyOp52
 70
     0
102
RTVSPropertyOp53
 70
     1
102
RTVSPropertyOp54
 70
     1
102
RTVSPropertyOp55
 70
     1
102
RTVSPropertyOp56
 70
     1
102
RTVSPropertyOp57
 70
     1
102
RTVSPost2010Prop28
280
     0
102
RTVSPost2010PropOp28
 70
     1
102
RTVSPost2010Prop29
280
     1
102
RTVSPost2010PropOp29
 70
     1
102
RTVSPost2010Prop30
280
     1
102
RTVSPost2010PropOp30
 70
     1
102
RTVSPost2010Prop31
280
     0
102
RTVSPost2010PropOp31
 70
     1
102
RTVSPost2010Prop32
280
     0
102
RTVSPost2010PropOp32
 70
     1
102
RTVSPost2010Prop33
280
     0
102
RTVSPost2010PropOp33
 70
     1
102
RTVSPost2010Prop34
280
     0
102
RTVSPost2010PropOp34
 70
     1
102
RTVSPost2010Prop35
280
     0
102
RTVSPost2010PropOp35
 70
     1
102
RTVSPost2010Prop36
280
     0
102
RTVSPost2010PropOp36
 70
     1
102
RTVSPost2010Prop37
 90
       50
102
RTVSPost2010PropOp37
 70
     1
102
RTVSPost2010Prop38
140
0.0
102
RTVSPost2010PropOp38
 70
     1
102
RTVSPost2010Prop39
140
1.0
102
RTVSPost2010PropOp39
 70
     1
102
RTVSPost2010Prop40
 90
        0
102
RTVSPost2010PropOp40
 70
     1
102
RTVSPost2010Prop41ColorIndex
 90
       18
102
RTVSPost2010Prop41ColorRGB
 90
        0
102
RTVSPost2010PropOp41
 70
     1
102
RTVSPost2010Prop42
 90
       50
102
RTVSPost2010PropOp42
 70
     1
102
RTVSPost2010Prop43
 90
        3
102
RTVSPost2010PropOp43
 70
     1
102
RTVSPost2010Prop44ColorIndex
 90
        5
102
RTVSPost2010Prop44ColorRGB
 90
      255
102
RTVSPost2010PropOp44
 70
     1
102
RTVSPost2010Prop45
280
     0
102
RTVSPost2010PropOp45
 70
     1
102
RTVSPost2010Prop46
 90
       50
102
RTVSPost2010PropOp46
 70
     1
102
RTVSPost2010Prop47
 90
       50
102
RTVSPost2010PropOp47
 70
     1
102
RTVSPost2010Prop48
 90
       50
102
RTVSPost2010PropOp48
 70
     1
102
RTVSPost2010Prop49
280
     0
102
RTVSPost2010PropOp49
 70
     1
102
RTVSPost2010Prop50
 90
       50
102
RTVSPost2010PropOp50
 70
     1
102
RTVSPost2010Prop51ColorIndex
 90
      256
102
RTVSPost2010Prop51ColorRGB
 90
-16777216
102
RTVSPost2010PropOp51
 70
     0
102
RTVSPost2010Prop52
140
1.0
102
RTVSPost2010PropOp52
 70
     0
102
RTVSPost2010Prop53
 90
        2
102
RTVSPost2010PropOp53
 70
     1
102
RTVSPost2010Prop54
  1
strokes_ogs.tif
102
RTVSPost2010PropOp54
 70
     1
102
RTVSPost2010Prop55
280
     0
102
RTVSPost2010PropOp55
 70
     1
102
RTVSPost2010Prop56
140
1.0
102
RTVSPost2010PropOp56
 70
     1
102
RTVSPost2010Prop57
140
1.0
102
RTVSPost2010PropOp57
 70
     1
  0
XRECORD
  5
E8D
102
{ACAD_REACTORS
330
E8C
102
}
330
E8C
100
AcDbXrecord
280
     1
102
RTVSPropertyOp0
 70
     1
102
RTVSPropertyOp1
 70
     1
102
RTVSPropertyOp2
 70
     1
102
RTVSPropertyOp3
 70
     1
102
RTVSPropertyOp4
 70
     1
102
RTVSPropertyOp5
 70
     1
102
RTVSPropertyOp6
 70
     1
102
RTVSPropertyOp7
 70
     1
102
RTVSPropertyOp8
 70
     1
102
RTVSPropertyOp9
 70
     1
102
RTVSPropertyOp10
 70
     1
102
RTVSPropertyOp11
 70
     1
102
RTVSPropertyOp12
 70
     1
102
RTVSPropertyOp13
 70
     1
102
RTVSPropertyOp14
 70
     1
102
RTVSPropertyOp15
 70
     1
102
RTVSPropertyOp16
 70
     1
102
RTVSPropertyOp17
 70
     1
102
RTVSPropertyOp18
 70
     1
102
RTVSPropertyOp19
 70
     1
102
RTVSPropertyOp20
 70
     1
102
RTVSPropertyOp21
 70
     1
102
RTVSPropertyOp22
 70
     1
102
RTVSPropertyOp23
 70
     1
102
RTVSPropertyOp24
 70
     1
102
RTVSPropertyOp25
 70
     1
102
RTVSPropertyOp26
 70
     1
102
RTVSPropertyOp27
 70
     1
102
RTVSPropertyOp28
 70
     1
102
RTVSPropertyOp29
 70
     1
102
RTVSPropertyOp30
 70
     1
102
RTVSPropertyOp31
 70
     1
102
RTVSPropertyOp32
 70
     1
102
RTVSPropertyOp33
 70
     1
102
RTVSPropertyOp34
 70
     1
102
RTVSPropertyOp35
 70
     1
102
RTVSPropertyOp36
 70
     1
102
RTVSPropertyOp37
 70
     1
102
RTVSPropertyOp38
 70
     1
102
RTVSPropertyOp39
 70
     1
102
RTVSPropertyOp40
 70
     1
102
RTVSPropertyOp41
 70
     1
102
RTVSPropertyOp42
 70
     1
102
RTVSPropertyOp43
 70
     1
102
RTVSPropertyOp44
 70
     1
102
RTVSPropertyOp45
 70
     1
102
RTVSPropertyOp46
 70
     1
102
RTVSPropertyOp47
 70
     1
102
RTVSPropertyOp48
 70
     1
102
RTVSPropertyOp49
 70
     1
102
RTVSPropertyOp50
 70
     1
102
RTVSPropertyOp51
 70
     0
102
RTVSPropertyOp52
 70
     0
102
RTVSPropertyOp53
 70
     1
102
RTVSPropertyOp54
 70
     1
102
RTVSPropertyOp55
 70
     1
102
RTVSPropertyOp56
 70
     1
102
RTVSPropertyOp57
 70
     1
102
RTVSPost2010Prop28
280
     0
102
RTVSPost2010PropOp28
 70
     1
102
RTVSPost2010Prop29
280
     1
102
RTVSPost2010PropOp29
 70
     1
102
RTVSPost2010Prop30
280
     1
102
RTVSPost2010PropOp30
 70
     1
102
RTVSPost2010Prop31
280
     0
102
RTVSPost2010PropOp31
 70
     1
102
RTVSPost2010Prop32
280
     0
102
RTVSPost2010PropOp32
 70
     1
102
RTVSPost2010Prop33
280
     0
102
RTVSPost2010PropOp33
 70
     1
102
RTVSPost2010Prop34
280
     0
102
RTVSPost2010PropOp34
 70
     1
102
RTVSPost2010Prop35
280
     0
102
RTVSPost2010PropOp35
 70
     1
102
RTVSPost2010Prop36
280
     0
102
RTVSPost2010PropOp36
 70
     1
102
RTVSPost2010Prop37
 90
       50
102
RTVSPost2010PropOp37
 70
     1
102
RTVSPost2010Prop38
140
0.0
102
RTVSPost2010PropOp38
 70
     1
102
RTVSPost2010Prop39
140
1.0
102
RTVSPost2010PropOp39
 70
     1
102
RTVSPost2010Prop40
 90
        0
102
RTVSPost2010PropOp40
 70
     1
102
RTVSPost2010Prop41ColorIndex
 90
       18
102
RTVSPost2010Prop41ColorRGB
 90
        0
102
RTVSPost2010PropOp41
 70
     1
102
RTVSPost2010Prop42
 90
       50
102
RTVSPost2010PropOp42
 70
     1
102
RTVSPost2010Prop43
 90
        3
102
RTVSPost2010PropOp43
 70
     1
102
RTVSPost2010Prop44ColorIndex
 90
        5
102
RTVSPost2010Prop44ColorRGB
 90
      255
102
RTVSPost2010PropOp44
 70
     1
102
RTVSPost2010Prop45
280
     0
102
RTVSPost2010PropOp45
 70
     1
102
RTVSPost2010Prop46
 90
       50
102
RTVSPost2010PropOp46
 70
     1
102
RTVSPost2010Prop47
 90
       50
102
RTVSPost2010PropOp47
 70
     1
102
RTVSPost2010Prop48
 90
       50
102
RTVSPost2010PropOp48
 70
     1
102
RTVSPost2010Prop49
280
     0
102
RTVSPost2010PropOp49
 70
     1
102
RTVSPost2010Prop50
 90
       50
102
RTVSPost2010PropOp50
 70
     1
102
RTVSPost2010Prop51ColorIndex
 90
      256
102
RTVSPost2010Prop51ColorRGB
 90
-16777216
102
RTVSPost2010PropOp51
 70
     0
102
RTVSPost2010Prop52
140
1.0
102
RTVSPost2010PropOp52
 70
     0
102
RTVSPost2010Prop53
 90
        2
102
RTVSPost2010PropOp53
 70
     1
102
RTVSPost2010Prop54
  1
strokes_ogs.tif
102
RTVSPost2010PropOp54
 70
     1
102
RTVSPost2010Prop55
280
     0
102
RTVSPost2010PropOp55
 70
     1
102
RTVSPost2010Prop56
140
1.0
102
RTVSPost2010PropOp56
 70
     1
102
RTVSPost2010Prop57
140
1.0
102
RTVSPost2010PropOp57
 70
     1
  0
XRECORD
  5
E8B
102
{ACAD_REACTORS
330
E8A
102
}
330
E8A
100
AcDbXrecord
280
     1
102
RTVSPropertyOp0
 70
     1
102
RTVSPropertyOp1
 70
     1
102
RTVSPropertyOp2
 70
     1
102
RTVSPropertyOp3
 70
     1
102
RTVSPropertyOp4
 70
     1
102
RTVSPropertyOp5
 70
     1
102
RTVSPropertyOp6
 70
     1
102
RTVSPropertyOp7
 70
     1
102
RTVSPropertyOp8
 70
     1
102
RTVSPropertyOp9
 70
     1
102
RTVSPropertyOp10
 70
     1
102
RTVSPropertyOp11
 70
     1
102
RTVSPropertyOp12
 70
     1
102
RTVSPropertyOp13
 70
     1
102
RTVSPropertyOp14
 70
     1
102
RTVSPropertyOp15
 70
     1
102
RTVSPropertyOp16
 70
     1
102
RTVSPropertyOp17
 70
     1
102
RTVSPropertyOp18
 70
     1
102
RTVSPropertyOp19
 70
     1
102
RTVSPropertyOp20
 70
     1
102
RTVSPropertyOp21
 70
     1
102
RTVSPropertyOp22
 70
     1
102
RTVSPropertyOp23
 70
     1
102
RTVSPropertyOp24
 70
     1
102
RTVSPropertyOp25
 70
     1
102
RTVSPropertyOp26
 70
     1
102
RTVSPropertyOp27
 70
     1
102
RTVSPropertyOp28
 70
     1
102
RTVSPropertyOp29
 70
     1
102
RTVSPropertyOp30
 70
     1
102
RTVSPropertyOp31
 70
     1
102
RTVSPropertyOp32
 70
     1
102
RTVSPropertyOp33
 70
     1
102
RTVSPropertyOp34
 70
     1
102
RTVSPropertyOp35
 70
     1
102
RTVSPropertyOp36
 70
     1
102
RTVSPropertyOp37
 70
     1
102
RTVSPropertyOp38
 70
     1
102
RTVSPropertyOp39
 70
     1
102
RTVSPropertyOp40
 70
     1
102
RTVSPropertyOp41
 70
     1
102
RTVSPropertyOp42
 70
     1
102
RTVSPropertyOp43
 70
     1
102
RTVSPropertyOp44
 70
     1
102
RTVSPropertyOp45
 70
     1
102
RTVSPropertyOp46
 70
     1
102
RTVSPropertyOp47
 70
     1
102
RTVSPropertyOp48
 70
     1
102
RTVSPropertyOp49
 70
     1
102
RTVSPropertyOp50
 70
     1
102
RTVSPropertyOp51
 70
     0
102
RTVSPropertyOp52
 70
     0
102
RTVSPropertyOp53
 70
     1
102
RTVSPropertyOp54
 70
     1
102
RTVSPropertyOp55
 70
     1
102
RTVSPropertyOp56
 70
     1
102
RTVSPropertyOp57
 70
     1
102
RTVSPost2010Prop28
280
     0
102
RTVSPost2010PropOp28
 70
     1
102
RTVSPost2010Prop29
280
     1
102
RTVSPost2010PropOp29
 70
     1
102
RTVSPost2010Prop30
280
     1
102
RTVSPost2010PropOp30
 70
     1
102
RTVSPost2010Prop31
280
     0
102
RTVSPost2010PropOp31
 70
     1
102
RTVSPost2010Prop32
280
     0
102
RTVSPost2010PropOp32
 70
     1
102
RTVSPost2010Prop33
280
     0
102
RTVSPost2010PropOp33
 70
     1
102
RTVSPost2010Prop34
280
     0
102
RTVSPost2010PropOp34
 70
     1
102
RTVSPost2010Prop35
280
     0
102
RTVSPost2010PropOp35
 70
     1
102
RTVSPost2010Prop36
280
     0
102
RTVSPost2010PropOp36
 70
     1
102
RTVSPost2010Prop37
 90
       50
102
RTVSPost2010PropOp37
 70
     1
102
RTVSPost2010Prop38
140
0.0
102
RTVSPost2010PropOp38
 70
     1
102
RTVSPost2010Prop39
140
1.0
102
RTVSPost2010PropOp39
 70
     1
102
RTVSPost2010Prop40
 90
        0
102
RTVSPost2010PropOp40
 70
     1
102
RTVSPost2010Prop41ColorIndex
 90
       18
102
RTVSPost2010Prop41ColorRGB
 90
        0
102
RTVSPost2010PropOp41
 70
     1
102
RTVSPost2010Prop42
 90
       50
102
RTVSPost2010PropOp42
 70
     1
102
RTVSPost2010Prop43
 90
        3
102
RTVSPost2010PropOp43
 70
     1
102
RTVSPost2010Prop44ColorIndex
 90
        5
102
RTVSPost2010Prop44ColorRGB
 90
      255
102
RTVSPost2010PropOp44
 70
     1
102
RTVSPost2010Prop45
280
     0
102
RTVSPost2010PropOp45
 70
     1
102
RTVSPost2010Prop46
 90
       50
102
RTVSPost2010PropOp46
 70
     1
102
RTVSPost2010Prop47
 90
       50
102
RTVSPost2010PropOp47
 70
     1
102
RTVSPost2010Prop48
 90
       50
102
RTVSPost2010PropOp48
 70
     1
102
RTVSPost2010Prop49
280
     0
102
RTVSPost2010PropOp49
 70
     1
102
RTVSPost2010Prop50
 90
       50
102
RTVSPost2010PropOp50
 70
     1
102
RTVSPost2010Prop51ColorIndex
 90
      256
102
RTVSPost2010Prop51ColorRGB
 90
-16777216
102
RTVSPost2010PropOp51
 70
     0
102
RTVSPost2010Prop52
140
1.0
102
RTVSPost2010PropOp52
 70
     0
102
RTVSPost2010Prop53
 90
        2
102
RTVSPost2010PropOp53
 70
     1
102
RTVSPost2010Prop54
  1
strokes_ogs.tif
102
RTVSPost2010PropOp54
 70
     1
102
RTVSPost2010Prop55
280
     0
102
RTVSPost2010PropOp55
 70
     1
102
RTVSPost2010Prop56
140
1.0
102
RTVSPost2010PropOp56
 70
     1
102
RTVSPost2010Prop57
140
1.0
102
RTVSPost2010PropOp57
 70
     1
  0
XRECORD
  5
E85
102
{ACAD_REACTORS
330
E84
102
}
330
E84
100
AcDbXrecord
280
     1
102
RTVSPropertyOp0
 70
     1
102
RTVSPropertyOp1
 70
     1
102
RTVSPropertyOp2
 70
     1
102
RTVSPropertyOp3
 70
     1
102
RTVSPropertyOp4
 70
     1
102
RTVSPropertyOp5
 70
     1
102
RTVSPropertyOp6
 70
     1
102
RTVSPropertyOp7
 70
     1
102
RTVSPropertyOp8
 70
     1
102
RTVSPropertyOp9
 70
     1
102
RTVSPropertyOp10
 70
     1
102
RTVSPropertyOp11
 70
     1
102
RTVSPropertyOp12
 70
     1
102
RTVSPropertyOp13
 70
     1
102
RTVSPropertyOp14
 70
     1
102
RTVSPropertyOp15
 70
     1
102
RTVSPropertyOp16
 70
     1
102
RTVSPropertyOp17
 70
     1
102
RTVSPropertyOp18
 70
     1
102
RTVSPropertyOp19
 70
     1
102
RTVSPropertyOp20
 70
     1
102
RTVSPropertyOp21
 70
     1
102
RTVSPropertyOp22
 70
     1
102
RTVSPropertyOp23
 70
     1
102
RTVSPropertyOp24
 70
     1
102
RTVSPropertyOp25
 70
     1
102
RTVSPropertyOp26
 70
     1
102
RTVSPropertyOp27
 70
     1
102
RTVSPropertyOp28
 70
     1
102
RTVSPropertyOp29
 70
     1
102
RTVSPropertyOp30
 70
     1
102
RTVSPropertyOp31
 70
     1
102
RTVSPropertyOp32
 70
     1
102
RTVSPropertyOp33
 70
     1
102
RTVSPropertyOp34
 70
     1
102
RTVSPropertyOp35
 70
     1
102
RTVSPropertyOp36
 70
     1
102
RTVSPropertyOp37
 70
     1
102
RTVSPropertyOp38
 70
     1
102
RTVSPropertyOp39
 70
     1
102
RTVSPropertyOp40
 70
     1
102
RTVSPropertyOp41
 70
     1
102
RTVSPropertyOp42
 70
     1
102
RTVSPropertyOp43
 70
     1
102
RTVSPropertyOp44
 70
     1
102
RTVSPropertyOp45
 70
     1
102
RTVSPropertyOp46
 70
     1
102
RTVSPropertyOp47
 70
     1
102
RTVSPropertyOp48
 70
     1
102
RTVSPropertyOp49
 70
     1
102
RTVSPropertyOp50
 70
     1
102
RTVSPropertyOp51
 70
     0
102
RTVSPropertyOp52
 70
     0
102
RTVSPropertyOp53
 70
     1
102
RTVSPropertyOp54
 70
     1
102
RTVSPropertyOp55
 70
     1
102
RTVSPropertyOp56
 70
     1
102
RTVSPropertyOp57
 70
     1
102
RTVSPost2010Prop28
280
     0
102
RTVSPost2010PropOp28
 70
     1
102
RTVSPost2010Prop29
280
     1
102
RTVSPost2010PropOp29
 70
     1
102
RTVSPost2010Prop30
280
     1
102
RTVSPost2010PropOp30
 70
     1
102
RTVSPost2010Prop31
280
     0
102
RTVSPost2010PropOp31
 70
     1
102
RTVSPost2010Prop32
280
     0
102
RTVSPost2010PropOp32
 70
     1
102
RTVSPost2010Prop33
280
     0
102
RTVSPost2010PropOp33
 70
     1
102
RTVSPost2010Prop34
280
     0
102
RTVSPost2010PropOp34
 70
     1
102
RTVSPost2010Prop35
280
     0
102
RTVSPost2010PropOp35
 70
     1
102
RTVSPost2010Prop36
280
     0
102
RTVSPost2010PropOp36
 70
     1
102
RTVSPost2010Prop37
 90
       50
102
RTVSPost2010PropOp37
 70
     1
102
RTVSPost2010Prop38
140
0.0
102
RTVSPost2010PropOp38
 70
     1
102
RTVSPost2010Prop39
140
1.0
102
RTVSPost2010PropOp39
 70
     1
102
RTVSPost2010Prop40
 90
        0
102
RTVSPost2010PropOp40
 70
     1
102
RTVSPost2010Prop41ColorIndex
 90
       18
102
RTVSPost2010Prop41ColorRGB
 90
        0
102
RTVSPost2010PropOp41
 70
     1
102
RTVSPost2010Prop42
 90
       50
102
RTVSPost2010PropOp42
 70
     1
102
RTVSPost2010Prop43
 90
        3
102
RTVSPost2010PropOp43
 70
     1
102
RTVSPost2010Prop44ColorIndex
 90
        5
102
RTVSPost2010Prop44ColorRGB
 90
      255
102
RTVSPost2010PropOp44
 70
     1
102
RTVSPost2010Prop45
280
     0
102
RTVSPost2010PropOp45
 70
     1
102
RTVSPost2010Prop46
 90
       50
102
RTVSPost2010PropOp46
 70
     1
102
RTVSPost2010Prop47
 90
       50
102
RTVSPost2010PropOp47
 70
     1
102
RTVSPost2010Prop48
 90
       50
102
RTVSPost2010PropOp48
 70
     1
102
RTVSPost2010Prop49
280
     0
102
RTVSPost2010PropOp49
 70
     1
102
RTVSPost2010Prop50
 90
       50
102
RTVSPost2010PropOp50
 70
     1
102
RTVSPost2010Prop51ColorIndex
 90
      256
102
RTVSPost2010Prop51ColorRGB
 90
-16777216
102
RTVSPost2010PropOp51
 70
     0
102
RTVSPost2010Prop52
140
1.0
102
RTVSPost2010PropOp52
 70
     0
102
RTVSPost2010Prop53
 90
        2
102
RTVSPost2010PropOp53
 70
     1
102
RTVSPost2010Prop54
  1
strokes_ogs.tif
102
RTVSPost2010PropOp54
 70
     1
102
RTVSPost2010Prop55
280
     0
102
RTVSPost2010PropOp55
 70
     1
102
RTVSPost2010Prop56
140
1.0
102
RTVSPost2010PropOp56
 70
     1
102
RTVSPost2010Prop57
140
1.0
102
RTVSPost2010PropOp57
 70
     1
  0
XRECORD
  5
E87
102
{ACAD_REACTORS
330
E86
102
}
330
E86
100
AcDbXrecord
280
     1
102
RTVSPropertyOp0
 70
     1
102
RTVSPropertyOp1
 70
     1
102
RTVSPropertyOp2
 70
     1
102
RTVSPropertyOp3
 70
     1
102
RTVSPropertyOp4
 70
     1
102
RTVSPropertyOp5
 70
     1
102
RTVSPropertyOp6
 70
     1
102
RTVSPropertyOp7
 70
     1
102
RTVSPropertyOp8
 70
     1
102
RTVSPropertyOp9
 70
     1
102
RTVSPropertyOp10
 70
     1
102
RTVSPropertyOp11
 70
     1
102
RTVSPropertyOp12
 70
     1
102
RTVSPropertyOp13
 70
     1
102
RTVSPropertyOp14
 70
     1
102
RTVSPropertyOp15
 70
     1
102
RTVSPropertyOp16
 70
     1
102
RTVSPropertyOp17
 70
     1
102
RTVSPropertyOp18
 70
     1
102
RTVSPropertyOp19
 70
     1
102
RTVSPropertyOp20
 70
     1
102
RTVSPropertyOp21
 70
     1
102
RTVSPropertyOp22
 70
     1
102
RTVSPropertyOp23
 70
     1
102
RTVSPropertyOp24
 70
     1
102
RTVSPropertyOp25
 70
     1
102
RTVSPropertyOp26
 70
     1
102
RTVSPropertyOp27
 70
     1
102
RTVSPropertyOp28
 70
     1
102
RTVSPropertyOp29
 70
     1
102
RTVSPropertyOp30
 70
     1
102
RTVSPropertyOp31
 70
     1
102
RTVSPropertyOp32
 70
     1
102
RTVSPropertyOp33
 70
     1
102
RTVSPropertyOp34
 70
     1
102
RTVSPropertyOp35
 70
     1
102
RTVSPropertyOp36
 70
     1
102
RTVSPropertyOp37
 70
     1
102
RTVSPropertyOp38
 70
     1
102
RTVSPropertyOp39
 70
     1
102
RTVSPropertyOp40
 70
     1
102
RTVSPropertyOp41
 70
     1
102
RTVSPropertyOp42
 70
     1
102
RTVSPropertyOp43
 70
     1
102
RTVSPropertyOp44
 70
     1
102
RTVSPropertyOp45
 70
     1
102
RTVSPropertyOp46
 70
     1
102
RTVSPropertyOp47
 70
     1
102
RTVSPropertyOp48
 70
     1
102
RTVSPropertyOp49
 70
     1
102
RTVSPropertyOp50
 70
     1
102
RTVSPropertyOp51
 70
     0
102
RTVSPropertyOp52
 70
     0
102
RTVSPropertyOp53
 70
     1
102
RTVSPropertyOp54
 70
     1
102
RTVSPropertyOp55
 70
     1
102
RTVSPropertyOp56
 70
     1
102
RTVSPropertyOp57
 70
     1
102
RTVSPost2010Prop28
280
     0
102
RTVSPost2010PropOp28
 70
     1
102
RTVSPost2010Prop29
280
     1
102
RTVSPost2010PropOp29
 70
     1
102
RTVSPost2010Prop30
280
     1
102
RTVSPost2010PropOp30
 70
     1
102
RTVSPost2010Prop31
280
     0
102
RTVSPost2010PropOp31
 70
     1
102
RTVSPost2010Prop32
280
     0
102
RTVSPost2010PropOp32
 70
     1
102
RTVSPost2010Prop33
280
     0
102
RTVSPost2010PropOp33
 70
     1
102
RTVSPost2010Prop34
280
     0
102
RTVSPost2010PropOp34
 70
     1
102
RTVSPost2010Prop35
280
     0
102
RTVSPost2010PropOp35
 70
     1
102
RTVSPost2010Prop36
280
     0
102
RTVSPost2010PropOp36
 70
     1
102
RTVSPost2010Prop37
 90
       50
102
RTVSPost2010PropOp37
 70
     1
102
RTVSPost2010Prop38
140
0.0
102
RTVSPost2010PropOp38
 70
     1
102
RTVSPost2010Prop39
140
1.0
102
RTVSPost2010PropOp39
 70
     1
102
RTVSPost2010Prop40
 90
        0
102
RTVSPost2010PropOp40
 70
     1
102
RTVSPost2010Prop41ColorIndex
 90
       18
102
RTVSPost2010Prop41ColorRGB
 90
        0
102
RTVSPost2010PropOp41
 70
     1
102
RTVSPost2010Prop42
 90
       50
102
RTVSPost2010PropOp42
 70
     1
102
RTVSPost2010Prop43
 90
        3
102
RTVSPost2010PropOp43
 70
     1
102
RTVSPost2010Prop44ColorIndex
 90
        5
102
RTVSPost2010Prop44ColorRGB
 90
      255
102
RTVSPost2010PropOp44
 70
     1
102
RTVSPost2010Prop45
280
     0
102
RTVSPost2010PropOp45
 70
     1
102
RTVSPost2010Prop46
 90
       50
102
RTVSPost2010PropOp46
 70
     1
102
RTVSPost2010Prop47
 90
       50
102
RTVSPost2010PropOp47
 70
     1
102
RTVSPost2010Prop48
 90
       50
102
RTVSPost2010PropOp48
 70
     1
102
RTVSPost2010Prop49
280
     0
102
RTVSPost2010PropOp49
 70
     1
102
RTVSPost2010Prop50
 90
       50
102
RTVSPost2010PropOp50
 70
     1
102
RTVSPost2010Prop51ColorIndex
 90
      256
102
RTVSPost2010Prop51ColorRGB
 90
-16777216
102
RTVSPost2010PropOp51
 70
     0
102
RTVSPost2010Prop52
140
1.0
102
RTVSPost2010PropOp52
 70
     0
102
RTVSPost2010Prop53
 90
        2
102
RTVSPost2010PropOp53
 70
     1
102
RTVSPost2010Prop54
  1
strokes_ogs.tif
102
RTVSPost2010PropOp54
 70
     1
102
RTVSPost2010Prop55
280
     0
102
RTVSPost2010PropOp55
 70
     1
102
RTVSPost2010Prop56
140
1.0
102
RTVSPost2010PropOp56
 70
     1
102
RTVSPost2010Prop57
140
1.0
102
RTVSPost2010PropOp57
 70
     1
  0
XRECORD
  5
E79
102
{ACAD_REACTORS
330
E78
102
}
330
E78
100
AcDbXrecord
280
     1
102
RTVSPropertyOp0
 70
     1
102
RTVSPropertyOp1
 70
     1
102
RTVSPropertyOp2
 70
     1
102
RTVSPropertyOp3
 70
     1
102
RTVSPropertyOp4
 70
     1
102
RTVSPropertyOp5
 70
     1
102
RTVSPropertyOp6
 70
     1
102
RTVSPropertyOp7
 70
     1
102
RTVSPropertyOp8
 70
     1
102
RTVSPropertyOp9
 70
     1
102
RTVSPropertyOp10
 70
     1
102
RTVSPropertyOp11
 70
     1
102
RTVSPropertyOp12
 70
     1
102
RTVSPropertyOp13
 70
     1
102
RTVSPropertyOp14
 70
     1
102
RTVSPropertyOp15
 70
     1
102
RTVSPropertyOp16
 70
     1
102
RTVSPropertyOp17
 70
     1
102
RTVSPropertyOp18
 70
     1
102
RTVSPropertyOp19
 70
     1
102
RTVSPropertyOp20
 70
     1
102
RTVSPropertyOp21
 70
     1
102
RTVSPropertyOp22
 70
     1
102
RTVSPropertyOp23
 70
     1
102
RTVSPropertyOp24
 70
     1
102
RTVSPropertyOp25
 70
     1
102
RTVSPropertyOp26
 70
     1
102
RTVSPropertyOp27
 70
     1
102
RTVSPropertyOp28
 70
     1
102
RTVSPropertyOp29
 70
     1
102
RTVSPropertyOp30
 70
     1
102
RTVSPropertyOp31
 70
     1
102
RTVSPropertyOp32
 70
     1
102
RTVSPropertyOp33
 70
     1
102
RTVSPropertyOp34
 70
     1
102
RTVSPropertyOp35
 70
     1
102
RTVSPropertyOp36
 70
     1
102
RTVSPropertyOp37
 70
     1
102
RTVSPropertyOp38
 70
     1
102
RTVSPropertyOp39
 70
     1
102
RTVSPropertyOp40
 70
     1
102
RTVSPropertyOp41
 70
     1
102
RTVSPropertyOp42
 70
     1
102
RTVSPropertyOp43
 70
     1
102
RTVSPropertyOp44
 70
     1
102
RTVSPropertyOp45
 70
     1
102
RTVSPropertyOp46
 70
     1
102
RTVSPropertyOp47
 70
     1
102
RTVSPropertyOp48
 70
     1
102
RTVSPropertyOp49
 70
     1
102
RTVSPropertyOp50
 70
     1
102
RTVSPropertyOp51
 70
     0
102
RTVSPropertyOp52
 70
     0
102
RTVSPropertyOp53
 70
     1
102
RTVSPropertyOp54
 70
     1
102
RTVSPropertyOp55
 70
     1
102
RTVSPropertyOp56
 70
     1
102
RTVSPropertyOp57
 70
     1
102
RTVSPost2010Prop28
280
     0
102
RTVSPost2010PropOp28
 70
     1
102
RTVSPost2010Prop29
280
     1
102
RTVSPost2010PropOp29
 70
     1
102
RTVSPost2010Prop30
280
     1
102
RTVSPost2010PropOp30
 70
     1
102
RTVSPost2010Prop31
280
     0
102
RTVSPost2010PropOp31
 70
     1
102
RTVSPost2010Prop32
280
     0
102
RTVSPost2010PropOp32
 70
     1
102
RTVSPost2010Prop33
280
     0
102
RTVSPost2010PropOp33
 70
     1
102
RTVSPost2010Prop34
280
     0
102
RTVSPost2010PropOp34
 70
     1
102
RTVSPost2010Prop35
280
     0
102
RTVSPost2010PropOp35
 70
     1
102
RTVSPost2010Prop36
280
     0
102
RTVSPost2010PropOp36
 70
     1
102
RTVSPost2010Prop37
 90
       50
102
RTVSPost2010PropOp37
 70
     1
102
RTVSPost2010Prop38
140
0.0
102
RTVSPost2010PropOp38
 70
     1
102
RTVSPost2010Prop39
140
1.0
102
RTVSPost2010PropOp39
 70
     1
102
RTVSPost2010Prop40
 90
        0
102
RTVSPost2010PropOp40
 70
     1
102
RTVSPost2010Prop41ColorIndex
 90
       18
102
RTVSPost2010Prop41ColorRGB
 90
        0
102
RTVSPost2010PropOp41
 70
     1
102
RTVSPost2010Prop42
 90
       50
102
RTVSPost2010PropOp42
 70
     1
102
RTVSPost2010Prop43
 90
        3
102
RTVSPost2010PropOp43
 70
     1
102
RTVSPost2010Prop44ColorIndex
 90
        5
102
RTVSPost2010Prop44ColorRGB
 90
      255
102
RTVSPost2010PropOp44
 70
     1
102
RTVSPost2010Prop45
280
     0
102
RTVSPost2010PropOp45
 70
     1
102
RTVSPost2010Prop46
 90
       50
102
RTVSPost2010PropOp46
 70
     1
102
RTVSPost2010Prop47
 90
       50
102
RTVSPost2010PropOp47
 70
     1
102
RTVSPost2010Prop48
 90
       50
102
RTVSPost2010PropOp48
 70
     1
102
RTVSPost2010Prop49
280
     0
102
RTVSPost2010PropOp49
 70
     1
102
RTVSPost2010Prop50
 90
       50
102
RTVSPost2010PropOp50
 70
     1
102
RTVSPost2010Prop51ColorIndex
 90
      256
102
RTVSPost2010Prop51ColorRGB
 90
-16777216
102
RTVSPost2010PropOp51
 70
     0
102
RTVSPost2010Prop52
140
1.0
102
RTVSPost2010PropOp52
 70
     0
102
RTVSPost2010Prop53
 90
        2
102
RTVSPost2010PropOp53
 70
     1
102
RTVSPost2010Prop54
  1
strokes_ogs.tif
102
RTVSPost2010PropOp54
 70
     1
102
RTVSPost2010Prop55
280
     0
102
RTVSPost2010PropOp55
 70
     1
102
RTVSPost2010Prop56
140
1.0
102
RTVSPost2010PropOp56
 70
     1
102
RTVSPost2010Prop57
140
1.0
102
RTVSPost2010PropOp57
 70
     1
  0
XRECORD
  5
E7B
102
{ACAD_REACTORS
330
E7A
102
}
330
E7A
100
AcDbXrecord
280
     1
102
RTVSPropertyOp0
 70
     1
102
RTVSPropertyOp1
 70
     1
102
RTVSPropertyOp2
 70
     1
102
RTVSPropertyOp3
 70
     1
102
RTVSPropertyOp4
 70
     1
102
RTVSPropertyOp5
 70
     1
102
RTVSPropertyOp6
 70
     1
102
RTVSPropertyOp7
 70
     1
102
RTVSPropertyOp8
 70
     1
102
RTVSPropertyOp9
 70
     1
102
RTVSPropertyOp10
 70
     1
102
RTVSPropertyOp11
 70
     1
102
RTVSPropertyOp12
 70
     1
102
RTVSPropertyOp13
 70
     1
102
RTVSPropertyOp14
 70
     1
102
RTVSPropertyOp15
 70
     1
102
RTVSPropertyOp16
 70
     1
102
RTVSPropertyOp17
 70
     1
102
RTVSPropertyOp18
 70
     1
102
RTVSPropertyOp19
 70
     1
102
RTVSPropertyOp20
 70
     1
102
RTVSPropertyOp21
 70
     1
102
RTVSPropertyOp22
 70
     1
102
RTVSPropertyOp23
 70
     1
102
RTVSPropertyOp24
 70
     1
102
RTVSPropertyOp25
 70
     1
102
RTVSPropertyOp26
 70
     1
102
RTVSPropertyOp27
 70
     1
102
RTVSPropertyOp28
 70
     1
102
RTVSPropertyOp29
 70
     1
102
RTVSPropertyOp30
 70
     1
102
RTVSPropertyOp31
 70
     1
102
RTVSPropertyOp32
 70
     1
102
RTVSPropertyOp33
 70
     1
102
RTVSPropertyOp34
 70
     1
102
RTVSPropertyOp35
 70
     1
102
RTVSPropertyOp36
 70
     1
102
RTVSPropertyOp37
 70
     1
102
RTVSPropertyOp38
 70
     1
102
RTVSPropertyOp39
 70
     1
102
RTVSPropertyOp40
 70
     1
102
RTVSPropertyOp41
 70
     1
102
RTVSPropertyOp42
 70
     1
102
RTVSPropertyOp43
 70
     1
102
RTVSPropertyOp44
 70
     1
102
RTVSPropertyOp45
 70
     1
102
RTVSPropertyOp46
 70
     1
102
RTVSPropertyOp47
 70
     1
102
RTVSPropertyOp48
 70
     1
102
RTVSPropertyOp49
 70
     1
102
RTVSPropertyOp50
 70
     1
102
RTVSPropertyOp51
 70
     0
102
RTVSPropertyOp52
 70
     0
102
RTVSPropertyOp53
 70
     1
102
RTVSPropertyOp54
 70
     1
102
RTVSPropertyOp55
 70
     1
102
RTVSPropertyOp56
 70
     1
102
RTVSPropertyOp57
 70
     1
102
RTVSPost2010Prop28
280
     0
102
RTVSPost2010PropOp28
 70
     1
102
RTVSPost2010Prop29
280
     1
102
RTVSPost2010PropOp29
 70
     1
102
RTVSPost2010Prop30
280
     1
102
RTVSPost2010PropOp30
 70
     1
102
RTVSPost2010Prop31
280
     0
102
RTVSPost2010PropOp31
 70
     1
102
RTVSPost2010Prop32
280
     0
102
RTVSPost2010PropOp32
 70
     1
102
RTVSPost2010Prop33
280
     0
102
RTVSPost2010PropOp33
 70
     1
102
RTVSPost2010Prop34
280
     0
102
RTVSPost2010PropOp34
 70
     1
102
RTVSPost2010Prop35
280
     0
102
RTVSPost2010PropOp35
 70
     1
102
RTVSPost2010Prop36
280
     0
102
RTVSPost2010PropOp36
 70
     1
102
RTVSPost2010Prop37
 90
       50
102
RTVSPost2010PropOp37
 70
     1
102
RTVSPost2010Prop38
140
0.0
102
RTVSPost2010PropOp38
 70
     1
102
RTVSPost2010Prop39
140
1.0
102
RTVSPost2010PropOp39
 70
     1
102
RTVSPost2010Prop40
 90
        0
102
RTVSPost2010PropOp40
 70
     1
102
RTVSPost2010Prop41ColorIndex
 90
       18
102
RTVSPost2010Prop41ColorRGB
 90
        0
102
RTVSPost2010PropOp41
 70
     1
102
RTVSPost2010Prop42
 90
       50
102
RTVSPost2010PropOp42
 70
     1
102
RTVSPost2010Prop43
 90
        3
102
RTVSPost2010PropOp43
 70
     1
102
RTVSPost2010Prop44ColorIndex
 90
        5
102
RTVSPost2010Prop44ColorRGB
 90
      255
102
RTVSPost2010PropOp44
 70
     1
102
RTVSPost2010Prop45
280
     0
102
RTVSPost2010PropOp45
 70
     1
102
RTVSPost2010Prop46
 90
       50
102
RTVSPost2010PropOp46
 70
     1
102
RTVSPost2010Prop47
 90
       50
102
RTVSPost2010PropOp47
 70
     1
102
RTVSPost2010Prop48
 90
       50
102
RTVSPost2010PropOp48
 70
     1
102
RTVSPost2010Prop49
280
     0
102
RTVSPost2010PropOp49
 70
     1
102
RTVSPost2010Prop50
 90
       50
102
RTVSPost2010PropOp50
 70
     1
102
RTVSPost2010Prop51ColorIndex
 90
      256
102
RTVSPost2010Prop51ColorRGB
 90
-16777216
102
RTVSPost2010PropOp51
 70
     0
102
RTVSPost2010Prop52
140
1.0
102
RTVSPost2010PropOp52
 70
     0
102
RTVSPost2010Prop53
 90
        2
102
RTVSPost2010PropOp53
 70
     1
102
RTVSPost2010Prop54
  1
strokes_ogs.tif
102
RTVSPost2010PropOp54
 70
     1
102
RTVSPost2010Prop55
280
     0
102
RTVSPost2010PropOp55
 70
     1
102
RTVSPost2010Prop56
140
1.0
102
RTVSPost2010PropOp56
 70
     1
102
RTVSPost2010Prop57
140
1.0
102
RTVSPost2010PropOp57
 70
     1
  0
XRECORD
  5
E89
102
{ACAD_REACTORS
330
E88
102
}
330
E88
100
AcDbXrecord
280
     1
102
RTVSPropertyOp0
 70
     1
102
RTVSPropertyOp1
 70
     1
102
RTVSPropertyOp2
 70
     1
102
RTVSPropertyOp3
 70
     1
102
RTVSPropertyOp4
 70
     1
102
RTVSPropertyOp5
 70
     1
102
RTVSPropertyOp6
 70
     1
102
RTVSPropertyOp7
 70
     1
102
RTVSPropertyOp8
 70
     1
102
RTVSPropertyOp9
 70
     1
102
RTVSPropertyOp10
 70
     1
102
RTVSPropertyOp11
 70
     1
102
RTVSPropertyOp12
 70
     1
102
RTVSPropertyOp13
 70
     1
102
RTVSPropertyOp14
 70
     1
102
RTVSPropertyOp15
 70
     1
102
RTVSPropertyOp16
 70
     1
102
RTVSPropertyOp17
 70
     1
102
RTVSPropertyOp18
 70
     1
102
RTVSPropertyOp19
 70
     1
102
RTVSPropertyOp20
 70
     1
102
RTVSPropertyOp21
 70
     1
102
RTVSPropertyOp22
 70
     1
102
RTVSPropertyOp23
 70
     1
102
RTVSPropertyOp24
 70
     1
102
RTVSPropertyOp25
 70
     1
102
RTVSPropertyOp26
 70
     1
102
RTVSPropertyOp27
 70
     1
102
RTVSPropertyOp28
 70
     1
102
RTVSPropertyOp29
 70
     1
102
RTVSPropertyOp30
 70
     1
102
RTVSPropertyOp31
 70
     1
102
RTVSPropertyOp32
 70
     1
102
RTVSPropertyOp33
 70
     1
102
RTVSPropertyOp34
 70
     1
102
RTVSPropertyOp35
 70
     1
102
RTVSPropertyOp36
 70
     1
102
RTVSPropertyOp37
 70
     1
102
RTVSPropertyOp38
 70
     1
102
RTVSPropertyOp39
 70
     1
102
RTVSPropertyOp40
 70
     1
102
RTVSPropertyOp41
 70
     1
102
RTVSPropertyOp42
 70
     1
102
RTVSPropertyOp43
 70
     1
102
RTVSPropertyOp44
 70
     1
102
RTVSPropertyOp45
 70
     1
102
RTVSPropertyOp46
 70
     1
102
RTVSPropertyOp47
 70
     1
102
RTVSPropertyOp48
 70
     1
102
RTVSPropertyOp49
 70
     1
102
RTVSPropertyOp50
 70
     1
102
RTVSPropertyOp51
 70
     0
102
RTVSPropertyOp52
 70
     0
102
RTVSPropertyOp53
 70
     1
102
RTVSPropertyOp54
 70
     1
102
RTVSPropertyOp55
 70
     1
102
RTVSPropertyOp56
 70
     1
102
RTVSPropertyOp57
 70
     1
102
RTVSPost2010Prop28
280
     0
102
RTVSPost2010PropOp28
 70
     1
102
RTVSPost2010Prop29
280
     1
102
RTVSPost2010PropOp29
 70
     1
102
RTVSPost2010Prop30
280
     1
102
RTVSPost2010PropOp30
 70
     1
102
RTVSPost2010Prop31
280
     0
102
RTVSPost2010PropOp31
 70
     1
102
RTVSPost2010Prop32
280
     0
102
RTVSPost2010PropOp32
 70
     1
102
RTVSPost2010Prop33
280
     0
102
RTVSPost2010PropOp33
 70
     1
102
RTVSPost2010Prop34
280
     0
102
RTVSPost2010PropOp34
 70
     1
102
RTVSPost2010Prop35
280
     0
102
RTVSPost2010PropOp35
 70
     1
102
RTVSPost2010Prop36
280
     0
102
RTVSPost2010PropOp36
 70
     1
102
RTVSPost2010Prop37
 90
       50
102
RTVSPost2010PropOp37
 70
     1
102
RTVSPost2010Prop38
140
0.0
102
RTVSPost2010PropOp38
 70
     1
102
RTVSPost2010Prop39
140
1.0
102
RTVSPost2010PropOp39
 70
     1
102
RTVSPost2010Prop40
 90
        0
102
RTVSPost2010PropOp40
 70
     1
102
RTVSPost2010Prop41ColorIndex
 90
       18
102
RTVSPost2010Prop41ColorRGB
 90
        0
102
RTVSPost2010PropOp41
 70
     1
102
RTVSPost2010Prop42
 90
       50
102
RTVSPost2010PropOp42
 70
     1
102
RTVSPost2010Prop43
 90
        3
102
RTVSPost2010PropOp43
 70
     1
102
RTVSPost2010Prop44ColorIndex
 90
        5
102
RTVSPost2010Prop44ColorRGB
 90
      255
102
RTVSPost2010PropOp44
 70
     1
102
RTVSPost2010Prop45
280
     0
102
RTVSPost2010PropOp45
 70
     1
102
RTVSPost2010Prop46
 90
       50
102
RTVSPost2010PropOp46
 70
     1
102
RTVSPost2010Prop47
 90
       50
102
RTVSPost2010PropOp47
 70
     1
102
RTVSPost2010Prop48
 90
       50
102
RTVSPost2010PropOp48
 70
     1
102
RTVSPost2010Prop49
280
     0
102
RTVSPost2010PropOp49
 70
     1
102
RTVSPost2010Prop50
 90
       50
102
RTVSPost2010PropOp50
 70
     1
102
RTVSPost2010Prop51ColorIndex
 90
      256
102
RTVSPost2010Prop51ColorRGB
 90
-16777216
102
RTVSPost2010PropOp51
 70
     0
102
RTVSPost2010Prop52
140
1.0
102
RTVSPost2010PropOp52
 70
     0
102
RTVSPost2010Prop53
 90
        2
102
RTVSPost2010PropOp53
 70
     1
102
RTVSPost2010Prop54
  1
strokes_ogs.tif
102
RTVSPost2010PropOp54
 70
     1
102
RTVSPost2010Prop55
280
     0
102
RTVSPost2010PropOp55
 70
     1
102
RTVSPost2010Prop56
140
1.0
102
RTVSPost2010PropOp56
 70
     1
102
RTVSPost2010Prop57
140
1.0
102
RTVSPost2010PropOp57
 70
     1
  0
ENDSEC
  0
EOF
