  0
SECTION
  2
HEADER
  9
$ACADVER
  1
AC1015
  9
$ACADMAINTVER
 70
     6
  9
$DWGCODEPAGE
  3
ANSI_1252
  9
$INSBASE
 10
0.0
 20
0.0
 30
0.0
  9
$EXTMIN
 10
17.56777351625999
 20
20.94683753958066
 30
-0.0015258207003583
  9
$EXTMAX
 10
503.2153257274496
 20
603.9655732993076
 30
0.0000000349246037
  9
$LIMMIN
 10
0.0
 20
0.0
  9
$LIMMAX
 10
12.0
 20
9.0
  9
$ORTHOMODE
 70
     0
  9
$REGENMODE
 70
     1
  9
$FILLMODE
 70
     1
  9
$QTEXTMODE
 70
     0
  9
$MIRRTEXT
 70
     0
  9
$LTSCALE
 40
1.0
  9
$ATTMODE
 70
     1
  9
$TEXTSIZE
 40
0.2
  9
$TRACEWID
 40
0.05
  9
$TEXTSTYLE
  7
Standard
  9
$CLAYER
  8
0
  9
$CELTYPE
  6
ByLayer
  9
$CECOLOR
 62
   256
  9
$CELTSCALE
 40
1.0
  9
$DISPSILH
 70
     0
  9
$DIMSCALE
 40
1.0
  9
$DIMASZ
 40
0.18
  9
$DIMEXO
 40
0.0625
  9
$DIMDLI
 40
0.38
  9
$DIMRND
 40
0.0
  9
$DIMDLE
 40
0.0
  9
$DIMEXE
 40
0.18
  9
$DIMTP
 40
0.0
  9
$DIMTM
 40
0.0
  9
$DIMTXT
 40
0.18
  9
$DIMCEN
 40
0.09
  9
$DIMTSZ
 40
0.0
  9
$DIMTOL
 70
     0
  9
$DIMLIM
 70
     0
  9
$DIMTIH
 70
     1
  9
$DIMTOH
 70
     1
  9
$DIMSE1
 70
     0
  9
$DIMSE2
 70
     0
  9
$DIMTAD
 70
     0
  9
$DIMZIN
 70
     0
  9
$DIMBLK
  1

  9
$DIMASO
 70
     1
  9
$DIMSHO
 70
     1
  9
$DIMPOST
  1

  9
$DIMAPOST
  1

  9
$DIMALT
 70
     0
  9
$DIMALTD
 70
     2
  9
$DIMALTF
 40
25.4
  9
$DIMLFAC
 40
1.0
  9
$DIMTOFL
 70
     0
  9
$DIMTVP
 40
0.0
  9
$DIMTIX
 70
     0
  9
$DIMSOXD
 70
     0
  9
$DIMSAH
 70
     0
  9
$DIMBLK1
  1

  9
$DIMBLK2
  1

  9
$DIMSTYLE
  2
Standard
  9
$DIMCLRD
 70
     0
  9
$DIMCLRE
 70
     0
  9
$DIMCLRT
 70
     0
  9
$DIMTFAC
 40
1.0
  9
$DIMGAP
 40
0.09
  9
$DIMJUST
 70
     0
  9
$DIMSD1
 70
     0
  9
$DIMSD2
 70
     0
  9
$DIMTOLJ
 70
     1
  9
$DIMTZIN
 70
     0
  9
$DIMALTZ
 70
     0
  9
$DIMALTTZ
 70
     0
  9
$DIMUPT
 70
     0
  9
$DIMDEC
 70
     4
  9
$DIMTDEC
 70
     4
  9
$DIMALTU
 70
     2
  9
$DIMALTTD
 70
     2
  9
$DIMTXSTY
  7
Standard
  9
$DIMAUNIT
 70
     0
  9
$DIMADEC
 70
     0
  9
$DIMALTRND
 40
0.0
  9
$DIMAZIN
 70
     0
  9
$DIMDSEP
 70
    46
  9
$DIMATFIT
 70
     3
  9
$DIMFRAC
 70
     0
  9
$DIMLDRBLK
  1

  9
$DIMLUNIT
 70
     2
  9
$DIMLWD
 70
    -2
  9
$DIMLWE
 70
    -2
  9
$DIMTMOVE
 70
     0
  9
$LUNITS
 70
     2
  9
$LUPREC
 70
     4
  9
$SKETCHINC
 40
0.1
  9
$FILLETRAD
 40
0.0
  9
$AUNITS
 70
     0
  9
$AUPREC
 70
     0
  9
$MENU
  1
.
  9
$ELEVATION
 40
0.0
  9
$PELEVATION
 40
0.0
  9
$THICKNESS
 40
0.0
  9
$LIMCHECK
 70
     0
  9
$CHAMFERA
 40
0.0
  9
$CHAMFERB
 40
0.0
  9
$CHAMFERC
 40
0.0
  9
$CHAMFERD
 40
0.0
  9
$SKPOLY
 70
     0
  9
$TDCREATE
 40
2455511.402929259
  9
$TDUCREATE
 40
2455511.319595926
  9
$TDUPDATE
 40
2460150.668707662
  9
$TDUUPDATE
 40
2460150.585374329
  9
$TDINDWG
 40
0.0004216898
  9
$TDUSRTIMER
 40
0.0004215046
  9
$USRTIMER
 70
     1
  9
$ANGBASE
 50
0.0
  9
$ANGDIR
 70
     0
  9
$PDMODE
 70
     0
  9
$PDSIZE
 40
0.0
  9
$PLINEWID
 40
0.0
  9
$SPLFRAME
 70
     0
  9
$SPLINETYPE
 70
     6
  9
$SPLINESEGS
 70
     8
  9
$HANDSEED
  5
623
  9
$SURFTAB1
 70
     6
  9
$SURFTAB2
 70
     6
  9
$SURFTYPE
 70
     6
  9
$SURFU
 70
     6
  9
$SURFV
 70
     6
  9
$UCSBASE
  2

  9
$UCSNAME
  2

  9
$UCSORG
 10
0.0
 20
0.0
 30
0.0
  9
$UCSXDIR
 10
1.0
 20
0.0
 30
0.0
  9
$UCSYDIR
 10
0.0
 20
1.0
 30
0.0
  9
$UCSORTHOREF
  2

  9
$UCSORTHOVIEW
 70
     0
  9
$UCSORGTOP
 10
0.0
 20
0.0
 30
0.0
  9
$UCSORGBOTTOM
 10
0.0
 20
0.0
 30
0.0
  9
$UCSORGLEFT
 10
0.0
 20
0.0
 30
0.0
  9
$UCSORGRIGHT
 10
0.0
 20
0.0
 30
0.0
  9
$UCSORGFRONT
 10
0.0
 20
0.0
 30
0.0
  9
$UCSORGBACK
 10
0.0
 20
0.0
 30
0.0
  9
$PUCSBASE
  2

  9
$PUCSNAME
  2

  9
$PUCSORG
 10
0.0
 20
0.0
 30
0.0
  9
$PUCSXDIR
 10
1.0
 20
0.0
 30
0.0
  9
$PUCSYDIR
 10
0.0
 20
1.0
 30
0.0
  9
$PUCSORTHOREF
  2

  9
$PUCSORTHOVIEW
 70
     0
  9
$PUCSORGTOP
 10
0.0
 20
0.0
 30
0.0
  9
$PUCSORGBOTTOM
 10
0.0
 20
0.0
 30
0.0
  9
$PUCSORGLEFT
 10
0.0
 20
0.0
 30
0.0
  9
$PUCSORGRIGHT
 10
0.0
 20
0.0
 30
0.0
  9
$PUCSORGFRONT
 10
0.0
 20
0.0
 30
0.0
  9
$PUCSORGBACK
 10
0.0
 20
0.0
 30
0.0
  9
$USERI1
 70
     0
  9
$USERI2
 70
     0
  9
$USERI3
 70
     0
  9
$USERI4
 70
     0
  9
$USERI5
 70
     0
  9
$USERR1
 40
0.0
  9
$USERR2
 40
0.0
  9
$USERR3
 40
0.0
  9
$USERR4
 40
0.0
  9
$USERR5
 40
0.0
  9
$WORLDVIEW
 70
     1
  9
$SHADEDGE
 70
     3
  9
$SHADEDIF
 70
    70
  9
$TILEMODE
 70
     1
  9
$MAXACTVP
 70
    64
  9
$PINSBASE
 10
0.0
 20
0.0
 30
0.0
  9
$PLIMCHECK
 70
     0
  9
$PEXTMIN
 10
0.0
 20
0.0
 30
0.0
  9
$PEXTMAX
 10
0.0
 20
0.0
 30
0.0
  9
$PLIMMIN
 10
0.0
 20
0.0
  9
$PLIMMAX
 10
12.0
 20
9.0
  9
$UNITMODE
 70
     0
  9
$VISRETAIN
 70
     1
  9
$PLINEGEN
 70
     0
  9
$PSLTSCALE
 70
     1
  9
$TREEDEPTH
 70
  3020
  9
$CMLSTYLE
  2
Standard
  9
$CMLJUST
 70
     0
  9
$CMLSCALE
 40
1.0
  9
$PROXYGRAPHICS
 70
     1
  9
$MEASUREMENT
 70
     0
  9
$CELWEIGHT
370
    -1
  9
$ENDCAPS
280
     0
  9
$JOINSTYLE
280
     0
  9
$LWDISPLAY
290
     0
  9
$INSUNITS
 70
     1
  9
$HYPERLINKBASE
  1

  9
$STYLESHEET
  1

  9
$XEDIT
290
     1
  9
$CEPSNTYPE
380
     0
  9
$PSTYLEMODE
290
     1
  9
$FINGERPRINTGUID
  2
{D6CA24D7-325A-4147-ADCD-94CBE9A0D27E}
  9
$VERSIONGUID
  2
{DCAEEEBD-FD58-4679-9339-02A1D086DF1E}
  9
$EXTNAMES
290
     1
  9
$PSVPSCALE
 40
0.0
  9
$OLESTARTUP
290
     0
  0
ENDSEC
  0
SECTION
  2
CLASSES
  0
CLASS
  1
ACDBDICTIONARYWDFLT
  2
AcDbDictionaryWithDefault
  3
ObjectDBX Classes
 90
        0
280
     0
281
     0
  0
CLASS
  1
ACDBPLACEHOLDER
  2
AcDbPlaceHolder
  3
ObjectDBX Classes
 90
        0
280
     0
281
     0
  0
CLASS
  1
LAYOUT
  2
AcDbLayout
  3
ObjectDBX Classes
 90
        0
280
     0
281
     0
  0
CLASS
  1
DICTIONARYVAR
  2
AcDbDictionaryVar
  3
ObjectDBX Classes
 90
        0
280
     0
281
     0
  0
CLASS
  1
TABLESTYLE
  2
AcDbTableStyle
  3
ObjectDBX Classes
 90
     4095
280
     0
281
     0
  0
CLASS
  1
MATERIAL
  2
AcDbMaterial
  3
ObjectDBX Classes
 90
     1153
280
     0
281
     0
  0
CLASS
  1
VISUALSTYLE
  2
AcDbVisualStyle
  3
ObjectDBX Classes
 90
     4095
280
     0
281
     0
  0
CLASS
  1
SCALE
  2
AcDbScale
  3
ObjectDBX Classes
 90
     1153
280
     0
281
     0
  0
CLASS
  1
MLEADERSTYLE
  2
AcDbMLeaderStyle
  3
ACDB_MLEADERSTYLE_CLASS
 90
     4095
280
     0
281
     0
  0
CLASS
  1
CELLSTYLEMAP
  2
AcDbCellStyleMap
  3
ObjectDBX Classes
 90
     1152
280
     0
281
     0
  0
ENDSEC
  0
SECTION
  2
TABLES
  0
TABLE
  2
VPORT
  5
8
102
{ACAD_XDICTIONARY
360
5EB
102
}
330
0
100
AcDbSymbolTable
 70
     1
  0
VPORT
  5
94
330
8
100
AcDbSymbolTableRecord
100
AcDbViewportTableRecord
  2
*Active
 70
     0
 10
0.0
 20
0.0
 11
1.0
 21
1.0
 12
260.3915496218548
 22
312.4562054194442
 13
0.0
 23
0.0
 14
0.5
 24
0.5
 15
0.5
 25
0.5
 16
0.0
 26
0.0
 36
1.0
 17
0.0
 27
0.0
 37
0.0
 40
588.5978624177149
 41
1.295527156549521
 42
50.0
 43
0.0
 44
0.0
 50
0.0
 51
0.0
 71
     0
 72
  1000
 73
     1
 74
     3
 75
     0
 76
     0
 77
     0
 78
     0
281
     0
 65
     1
110
0.0
120
0.0
130
0.0
111
1.0
121
0.0
131
0.0
112
0.0
122
1.0
132
0.0
 79
     0
146
0.0
1001
ACAD_NAV_VCDISPLAY
1070
     3
  0
ENDTAB
  0
TABLE
  2
LTYPE
  5
5
330
0
100
AcDbSymbolTable
 70
     1
  0
LTYPE
  5
14
330
5
100
AcDbSymbolTableRecord
100
AcDbLinetypeTableRecord
  2
ByBlock
 70
     0
  3

 72
    65
 73
     0
 40
0.0
  0
LTYPE
  5
15
330
5
100
AcDbSymbolTableRecord
100
AcDbLinetypeTableRecord
  2
ByLayer
 70
     0
  3

 72
    65
 73
     0
 40
0.0
  0
LTYPE
  5
16
330
5
100
AcDbSymbolTableRecord
100
AcDbLinetypeTableRecord
  2
Continuous
 70
     0
  3
Solid line
 72
    65
 73
     0
 40
0.0
  0
ENDTAB
  0
TABLE
  2
LAYER
  5
2
330
0
100
AcDbSymbolTable
 70
     3
  0
LAYER
  5
10
102
{ACAD_XDICTIONARY
360
E6
102
}
330
2
100
AcDbSymbolTableRecord
100
AcDbLayerTableRecord
  2
0
 70
     0
 62
     7
  6
Continuous
370
    -3
390
F
  0
LAYER
  5
16C
102
{ACAD_XDICTIONARY
360
5BB
102
}
330
2
100
AcDbSymbolTableRecord
100
AcDbLayerTableRecord
  2
QUOTE
 70
     0
 62
     7
  6
Continuous
370
    -3
390
F
1001
AcAecLayerStandard
1000

1000

  0
LAYER
  5
588
330
2
100
AcDbSymbolTableRecord
100
AcDbLayerTableRecord
  2
Defpoints
 70
     0
 62
     7
  6
Continuous
290
     0
370
    -3
390
F
  0
ENDTAB
  0
TABLE
  2
STYLE
  5
3
330
0
100
AcDbSymbolTable
 70
     1
  0
STYLE
  5
11
330
3
100
AcDbSymbolTableRecord
100
AcDbTextStyleTableRecord
  2
Standard
 70
     0
 40
0.0
 41
1.0
 50
0.0
 71
     0
 42
0.2
  3
txt.shx
  4

  0
ENDTAB
  0
TABLE
  2
VIEW
  5
6
330
0
100
AcDbSymbolTable
 70
     0
  0
ENDTAB
  0
TABLE
  2
UCS
  5
7
330
0
100
AcDbSymbolTable
 70
     0
  0
ENDTAB
  0
TABLE
  2
APPID
  5
9
330
0
100
AcDbSymbolTable
 70
    16
  0
APPID
  5
12
330
9
100
AcDbSymbolTableRecord
100
AcDbRegAppTableRecord
  2
ACAD
 70
     0
  0
APPID
  5
DD
330
9
100
AcDbSymbolTableRecord
100
AcDbRegAppTableRecord
  2
AcadAnnoPO
 70
     0
  0
APPID
  5
DE
330
9
100
AcDbSymbolTableRecord
100
AcDbRegAppTableRecord
  2
AcadAnnotative
 70
     0
  0
APPID
  5
DF
330
9
100
AcDbSymbolTableRecord
100
AcDbRegAppTableRecord
  2
ACAD_DSTYLE_DIMJAG
 70
     0
  0
APPID
  5
E0
330
9
100
AcDbSymbolTableRecord
100
AcDbRegAppTableRecord
  2
ACAD_DSTYLE_DIMTALN
 70
     0
  0
APPID
  5
107
330
9
100
AcDbSymbolTableRecord
100
AcDbRegAppTableRecord
  2
ACAD_MLEADERVER
 70
     0
  0
APPID
  5
16D
330
9
100
AcDbSymbolTableRecord
100
AcDbRegAppTableRecord
  2
VDEXTRAPARAM
 70
     0
  0
APPID
  5
16E
330
9
100
AcDbSymbolTableRecord
100
AcDbRegAppTableRecord
  2
VD_TEMPHATCH
 70
     0
  0
APPID
  5
16F
330
9
100
AcDbSymbolTableRecord
100
AcDbRegAppTableRecord
  2
AcAecLayerStandard
 70
     0
  0
APPID
  5
170
330
9
100
AcDbSymbolTableRecord
100
AcDbRegAppTableRecord
  2
VD_EX_PRINTER_DWG_STYLE_SHEET
 70
     0
  0
APPID
  5
171
330
9
100
AcDbSymbolTableRecord
100
AcDbRegAppTableRecord
  2
VD_EX_PRINTER_SIZEX
 70
     0
  0
APPID
  5
172
330
9
100
AcDbSymbolTableRecord
100
AcDbRegAppTableRecord
  2
VD_EX_PRINTER_AVSIZEX
 70
     0
  0
APPID
  5
173
330
9
100
AcDbSymbolTableRecord
100
AcDbRegAppTableRecord
  2
VD_EX_PRINTER_SIZEY
 70
     0
  0
APPID
  5
174
330
9
100
AcDbSymbolTableRecord
100
AcDbRegAppTableRecord
  2
VD_EX_PRINTER_AVSIZEY
 70
     0
  0
APPID
  5
5E0
330
9
100
AcDbSymbolTableRecord
100
AcDbRegAppTableRecord
  2
DCO15
 70
     0
  0
APPID
  5
5E2
330
9
100
AcDbSymbolTableRecord
100
AcDbRegAppTableRecord
  2
ACAD_NAV_VCDISPLAY
 70
     0
  0
ENDTAB
  0
TABLE
  2
DIMSTYLE
  5
A
330
0
100
AcDbSymbolTable
 70
     1
100
AcDbDimStyleTable
  0
DIMSTYLE
105
27
102
{ACAD_REACTORS
330
52F
330
530
102
}
330
A
100
AcDbSymbolTableRecord
100
AcDbDimStyleTableRecord
  2
Standard
 70
     0
178
     0
340
11
  0
ENDTAB
  0
TABLE
  2
BLOCK_RECORD
  5
1
330
0
100
AcDbSymbolTable
 70
     4
  0
BLOCK_RECORD
  5
1F
330
1
100
AcDbSymbolTableRecord
100
AcDbBlockTableRecord
  2
*Model_Space
340
22
  0
BLOCK_RECORD
  5
58
330
1
100
AcDbSymbolTableRecord
100
AcDbBlockTableRecord
  2
*Paper_Space
340
59
  0
BLOCK_RECORD
  5
5D
330
1
100
AcDbSymbolTableRecord
100
AcDbBlockTableRecord
  2
*Paper_Space0
340
5E
  0
BLOCK_RECORD
  5
150
330
1
100
AcDbSymbolTableRecord
100
AcDbBlockTableRecord
  2
IB_oriz_FUS
340
0
102
{BLKREFS
331
584
331
585
331
586
331
587
102
}
  0
BLOCK_RECORD
  5
589
330
1
100
AcDbSymbolTableRecord
100
AcDbBlockTableRecord
  2
*D4
340
0
  0
BLOCK_RECORD
  5
596
330
1
100
AcDbSymbolTableRecord
100
AcDbBlockTableRecord
  2
*D5
340
0
  0
ENDTAB
  0
ENDSEC
  0
SECTION
  2
BLOCKS
  0
BLOCK
  5
20
330
1F
100
AcDbEntity
  8
0
100
AcDbBlockBegin
  2
*Model_Space
 70
     0
 10
0.0
 20
0.0
 30
0.0
  3
*Model_Space
  1

  0
ENDBLK
  5
21
330
1F
100
AcDbEntity
  8
0
100
AcDbBlockEnd
  0
BLOCK
  5
5A
330
58
100
AcDbEntity
 67
     1
  8
0
100
AcDbBlockBegin
  2
*Paper_Space
 70
     0
 10
0.0
 20
0.0
 30
0.0
  3
*Paper_Space
  1

  0
ENDBLK
  5
5B
330
58
100
AcDbEntity
 67
     1
  8
0
100
AcDbBlockEnd
  0
BLOCK
  5
5F
330
5D
100
AcDbEntity
  8
0
100
AcDbBlockBegin
  2
*Paper_Space0
 70
     0
 10
0.0
 20
0.0
 30
0.0
  3
*Paper_Space0
  1

  0
ENDBLK
  5
60
330
5D
100
AcDbEntity
  8
0
100
AcDbBlockEnd
  0
BLOCK
  5
151
330
150
100
AcDbEntity
  8
0
100
AcDbBlockBegin
  2
IB_oriz_FUS
 70
     0
 10
0.0
 20
0.0
 30
0.0
  3
IB_oriz_FUS
  1

  0
ARC
  5
152
330
150
100
AcDbEntity
  8
0
100
AcDbCircle
 10
198.01842858
 20
147.61265445
 30
0.0
 40
9.713410699999997
100
AcDbArc
 50
0.5725651599999999
 51
89.76277327
  0
ARC
  5
153
330
150
100
AcDbEntity
  8
0
100
AcDbCircle
 10
198.11511968
 20
16.93298685
 30
0.0
 40
9.61623461
100
AcDbArc
 50
270.0
 51
0.0
  0
LINE
  5
154
330
150
100
AcDbEntity
  8
0
100
AcDbLine
 10
198.11511968
 20
157.32598189
 30
0.0
 11
61.37804365
 21
157.32598189
 31
0.0
  0
CIRCLE
  5
155
330
150
100
AcDbEntity
  8
0
100
AcDbCircle
 10
21.37091753
 20
16.93298685
 30
0.0
 40
3.49427842
  0
LINE
  5
156
330
150
100
AcDbEntity
  8
0
100
AcDbLine
 10
21.37091753
 20
157.32598189
 30
0.0
 11
61.37804365
 21
157.32598189
 31
0.0
  0
CIRCLE
  5
157
330
150
100
AcDbEntity
  8
0
100
AcDbCircle
 10
21.37091753
 20
147.70974728
 30
0.0
 40
3.49427842
  0
CIRCLE
  5
158
330
150
100
AcDbEntity
  8
0
100
AcDbCircle
 10
198.11511968
 20
16.93298685
 30
0.0
 40
3.49427842
  0
CIRCLE
  5
159
330
150
100
AcDbEntity
  8
0
100
AcDbCircle
 10
198.11511968
 20
147.70974728
 30
0.0
 40
3.49427842
  0
LINE
  5
15A
330
150
100
AcDbEntity
  8
0
100
AcDbLine
 10
11.75468292
 20
16.93298685
 30
0.0
 11
11.75468292
 21
147.70974728
 31
0.0
  0
ARC
  5
15B
330
150
100
AcDbEntity
  8
0
100
AcDbCircle
 10
21.37091753
 20
16.93298685
 30
0.0
 40
9.61623461
100
AcDbArc
 50
180.0
 51
270.0
  0
ARC
  5
15C
330
150
100
AcDbEntity
  8
0
100
AcDbCircle
 10
21.37091753
 20
147.70974728
 30
0.0
 40
9.61623461
100
AcDbArc
 50
90.0
 51
180.0
  0
LINE
  5
15D
330
150
100
AcDbEntity
  8
0
 62
     7
100
AcDbLine
 10
207.73135428
 20
16.93298685
 30
0.0
 11
207.73135428
 21
147.70972038
 31
0.0
  0
LINE
  5
15E
330
150
100
AcDbEntity
  8
0
 62
     7
100
AcDbLine
 10
21.37091753
 20
7.316752239999999
 30
0.0
 11
198.11511968
 21
7.316752239999999
 31
0.0
  0
ENDBLK
  5
15F
330
150
100
AcDbEntity
  8
0
100
AcDbBlockEnd
  0
BLOCK
  5
58A
330
589
100
AcDbEntity
  8
0
100
AcDbBlockBegin
  2
*D4
 70
     1
 10
0.0
 20
0.0
 30
0.0
  3
*D4
  1

  0
LINE
  5
5A3
330
589
100
AcDbEntity
  8
QUOTE
 62
     0
370
    -2
100
AcDbLine
 10
69.13746811148881
 20
603.9471408890566
 30
0.0
 11
29.90719836148893
 21
603.9471408890566
 31
0.0
  0
LINE
  5
5A4
330
589
100
AcDbEntity
  8
QUOTE
 62
     0
370
    -2
100
AcDbLine
 10
69.13746811148881
 20
43.94714088905661
 30
0.0
 11
29.9071983614888
 21
43.94714088905661
 31
0.0
  0
LINE
  5
5A5
330
589
100
AcDbEntity
  8
QUOTE
 62
     0
370
    -2
100
AcDbLine
 10
30.08719836148892
 20
588.9471408890566
 30
0.0
 11
30.08719836148887
 21
329.3352205990566
 31
0.0
  0
LINE
  5
5A6
330
589
100
AcDbEntity
  8
QUOTE
 62
     0
370
    -2
100
AcDbLine
 10
30.08719836148881
 20
58.94714088905661
 30
0.0
 11
30.08719836148886
 21
319.1552205990566
 31
0.0
  0
SOLID
  5
5A7
330
589
100
AcDbEntity
  8
QUOTE
 62
     0
100
AcDbTrace
 10
27.58719836148892
 20
588.9471408890566
 30
0.0
 11
32.58719836148892
 21
588.9471408890566
 31
0.0
 12
30.08719836148893
 22
603.9471408890566
 32
0.0
 13
30.08719836148893
 23
603.9471408890566
 33
0.0
  0
SOLID
  5
5A8
330
589
100
AcDbEntity
  8
QUOTE
 62
     0
100
AcDbTrace
 10
27.58719836148881
 20
58.94714088905661
 30
0.0
 11
32.5871983614888
 21
58.94714088905661
 31
0.0
 12
30.0871983614888
 22
43.94714088905661
 32
0.0
 13
30.0871983614888
 23
43.94714088905661
 33
0.0
  0
MTEXT
  5
5A9
330
589
100
AcDbEntity
  8
QUOTE
 62
     0
100
AcDbMText
 10
30.08719836148881
 20
324.2452205990566
 30
0.0
 40
10.0
 41
0.0
 71
     5
 72
     1
  1
\A1;560
 73
     1
 44
1.0
  0
POINT
  5
5AA
330
589
100
AcDbEntity
  8
Defpoints
 62
     0
100
AcDbPoint
 10
69.19996811148881
 20
603.9471408890566
 30
0.0
  0
POINT
  5
5AB
330
589
100
AcDbEntity
  8
Defpoints
 62
     0
100
AcDbPoint
 10
69.19996811148881
 20
43.94714088905661
 30
0.0
  0
POINT
  5
5AC
330
589
100
AcDbEntity
  8
Defpoints
 62
     0
100
AcDbPoint
 10
30.0871983614888
 20
43.94714088905661
 30
0.0
  0
ENDBLK
  5
58B
330
589
100
AcDbEntity
  8
0
100
AcDbBlockEnd
  0
BLOCK
  5
597
330
596
100
AcDbEntity
  8
0
100
AcDbBlockBegin
  2
*D5
 70
     1
 10
0.0
 20
0.0
 30
0.0
  3
*D5
  1

  0
LINE
  5
5AD
330
596
100
AcDbEntity
  8
QUOTE
 62
     0
370
    -2
100
AcDbLine
 10
503.1999681114888
 20
59.8822691690566
 30
0.0
 11
503.1999681114888
 21
25.80744889905659
 31
0.0
  0
LINE
  5
5AE
330
596
100
AcDbEntity
  8
QUOTE
 62
     0
370
    -2
100
AcDbLine
 10
53.19996811148882
 20
59.94713949905658
 30
0.0
 11
53.19996811148882
 21
25.80744889905659
 31
0.0
  0
LINE
  5
5AF
330
596
100
AcDbEntity
  8
QUOTE
 62
     0
370
    -2
100
AcDbLine
 10
488.1999681114888
 20
25.9874488990566
 30
0.0
 11
291.0154144114888
 21
25.9874488990566
 31
0.0
  0
LINE
  5
5B0
330
596
100
AcDbEntity
  8
QUOTE
 62
     0
370
    -2
100
AcDbLine
 10
68.19996811148881
 20
25.9874488990566
 30
0.0
 11
265.8354144114889
 21
25.9874488990566
 31
0.0
  0
SOLID
  5
5B1
330
596
100
AcDbEntity
  8
QUOTE
 62
     0
100
AcDbTrace
 10
488.1999681114888
 20
28.4874488990566
 30
0.0
 11
488.1999681114888
 21
23.4874488990566
 31
0.0
 12
503.1999681114888
 22
25.9874488990566
 32
0.0
 13
503.1999681114888
 23
25.9874488990566
 33
0.0
  0
SOLID
  5
5B2
330
596
100
AcDbEntity
  8
QUOTE
 62
     0
100
AcDbTrace
 10
68.19996811148881
 20
28.4874488990566
 30
0.0
 11
68.19996811148881
 21
23.4874488990566
 31
0.0
 12
53.19996811148882
 22
25.9874488990566
 32
0.0
 13
53.19996811148882
 23
25.9874488990566
 33
0.0
  0
MTEXT
  5
5B3
330
596
100
AcDbEntity
  8
QUOTE
 62
     0
100
AcDbMText
 10
278.4254144114889
 20
25.9874488990566
 30
0.0
 40
10.0
 41
0.0
 71
     5
 72
     1
  1
\A1;450
 73
     1
 44
1.0
  0
POINT
  5
5B4
330
596
100
AcDbEntity
  8
Defpoints
 62
     0
100
AcDbPoint
 10
503.1999681114888
 20
59.94476916905661
 30
0.0
  0
POINT
  5
5B5
330
596
100
AcDbEntity
  8
Defpoints
 62
     0
100
AcDbPoint
 10
53.19996811148882
 20
60.0096394990566
 30
0.0
  0
POINT
  5
5B6
330
596
100
AcDbEntity
  8
Defpoints
 62
     0
100
AcDbPoint
 10
53.19996811148882
 20
25.9874488990566
 30
0.0
  0
ENDBLK
  5
598
330
596
100
AcDbEntity
  8
0
100
AcDbBlockEnd
  0
ENDSEC
  0
SECTION
  2
ENTITIES
  0
LINE
  5
381
330
1F
100
AcDbEntity
  8
0
 62
   253
 48
0.001467
370
    35
100
AcDbLine
 10
84.6338511114888
 20
403.1711398890565
 30
0.0
 11
84.59236311148882
 21
403.1296658890566
 31
0.0
  0
LINE
  5
382
330
1F
100
AcDbEntity
  8
0
 62
   253
 48
0.001467
370
    35
100
AcDbLine
 10
82.64146611148881
 20
405.1635408890565
 30
0.0
 11
82.59996211148881
 21
405.1220368890565
 31
0.0
  0
ARC
  5
383
330
1F
100
AcDbEntity
  8
0
 62
   253
370
    35
100
AcDbCircle
 10
84.58894511148881
 20
405.1186498890565
 30
0.0
 40
1.988738999999999
100
AcDbArc
 50
179.9018549999999
 51
270.0981399999999
  0
LINE
  5
384
330
1F
100
AcDbEntity
  8
0
 62
   253
370
    35
100
AcDbLine
 10
84.59236311148882
 20
403.1296658890566
 30
0.0
 11
471.8075731114888
 21
403.1296658890566
 31
0.0
  0
ARC
  5
385
330
1F
100
AcDbEntity
  8
0
 62
   253
370
    35
100
AcDbCircle
 10
471.8109911114887
 20
405.1186498890565
 30
0.0
 40
1.988738999999999
100
AcDbArc
 50
269.901848
 51
0.0981429999999927
  0
LINE
  5
386
330
1F
100
AcDbEntity
  8
0
 62
   253
 48
0.003992
370
    35
100
AcDbLine
 10
178.0128041114888
 20
414.6567348890566
 30
0.0
 11
178.0309921114888
 21
414.8153658890565
 31
0.0
  0
LINE
  5
387
330
1F
100
AcDbEntity
  8
0
 62
   253
 48
0.004009
370
    35
100
AcDbLine
 10
378.3872241114888
 20
414.6560638890566
 30
0.0
 11
378.3689441114888
 21
414.8153658890565
 31
0.0
  0
LINE
  5
388
330
1F
100
AcDbEntity
  8
0
 62
   253
370
    35
100
AcDbLine
 10
198.8943651114888
 20
414.5511448890566
 30
0.0
 11
223.1999681114888
 21
414.5511448890566
 31
0.0
  0
LINE
  5
389
330
1F
100
AcDbEntity
  8
0
 62
   253
370
    35
100
AcDbLine
 10
153.1999681114888
 20
414.5511448890566
 30
0.0
 11
177.5055711114888
 21
414.5511448890566
 31
0.0
  0
LINE
  5
38A
330
1F
100
AcDbEntity
  8
0
 62
   253
370
    35
100
AcDbLine
 10
378.8943651114888
 20
414.5511448890566
 30
0.0
 11
403.1999681114887
 21
414.5511448890566
 31
0.0
  0
LINE
  5
38B
330
1F
100
AcDbEntity
  8
0
 62
   253
370
    35
100
AcDbLine
 10
333.1999681114888
 20
414.5511448890566
 30
0.0
 11
357.5055711114888
 21
414.5511448890566
 31
0.0
  0
ARC
  5
38C
330
1F
100
AcDbEntity
  8
0
 62
   253
370
    35
100
AcDbCircle
 10
145.1008471114888
 20
437.4678318890565
 30
0.0
 40
22.428446
100
AcDbArc
 50
241.649282
 51
242.9583559999999
  0
LINE
  5
38D
330
1F
100
AcDbEntity
  8
0
 62
   253
 48
0.005419
370
    35
100
AcDbLine
 10
134.4503191114888
 20
417.7294888890566
 30
0.0
 11
134.2587901114888
 21
417.8309908890565
 31
0.0
  0
ARC
  5
38E
330
1F
100
AcDbEntity
  8
0
 62
   253
370
    35
100
AcDbCircle
 10
231.2990891114888
 20
437.4678318890565
 30
0.0
 40
22.428442
100
AcDbArc
 50
297.0416379999999
 51
298.350719
  0
LINE
  5
38F
330
1F
100
AcDbEntity
  8
0
 62
   253
 48
0.005418
370
    35
100
AcDbLine
 10
241.9496321114888
 20
417.7294888890566
 30
0.0
 11
242.1411301114888
 21
417.8309908890565
 31
0.0
  0
ARC
  5
390
330
1F
100
AcDbEntity
  8
0
 62
   253
370
    35
100
AcDbCircle
 10
411.2990891114888
 20
437.4678318890565
 30
0.0
 40
22.428446
100
AcDbArc
 50
297.0416379999999
 51
298.350719
  0
LINE
  5
391
330
1F
100
AcDbEntity
  8
0
 62
   253
 48
0.005419
370
    35
100
AcDbLine
 10
421.9496021114888
 20
417.7294888890566
 30
0.0
 11
422.1411301114888
 21
417.8309908890565
 31
0.0
  0
LINE
  5
392
330
1F
100
AcDbEntity
  8
0
 62
   253
 48
0.005418
370
    35
100
AcDbLine
 10
314.4503041114888
 20
417.7294888890566
 30
0.0
 11
314.2588061114889
 21
417.8309908890565
 31
0.0
  0
ARC
  5
393
330
1F
100
AcDbEntity
  8
0
 62
   253
370
    35
100
AcDbCircle
 10
325.1008471114888
 20
437.4678318890565
 30
0.0
 40
22.428442
100
AcDbArc
 50
241.649282
 51
242.9583559999999
  0
LINE
  5
394
330
1F
100
AcDbEntity
  8
0
 62
   253
 48
0.4608090000000001
370
    35
100
AcDbLine
 10
82.59996211148881
 20
405.1220368890565
 30
0.0
 11
82.59996211148881
 21
423.5543788890566
 31
0.0
  0
LINE
  5
395
330
1F
100
AcDbEntity
  8
0
 62
   253
 48
0.4608090000000001
370
    35
100
AcDbLine
 10
473.8000041114887
 20
405.1220368890565
 30
0.0
 11
473.8000041114887
 21
423.5543788890566
 31
0.0
  0
LINE
  5
396
330
1F
100
AcDbEntity
  8
0
 62
   253
 48
0.1455
370
    35
100
AcDbLine
 10
153.1999681114888
 20
414.5512668890566
 30
0.0
 11
153.1999681114888
 21
420.3712738890565
 31
0.0
  0
LINE
  5
397
330
1F
100
AcDbEntity
  8
0
 62
   253
 48
0.074544
370
    35
100
AcDbLine
 10
153.1999681114888
 20
420.3712738890565
 30
0.0
 11
153.1999681114888
 21
423.3530248890565
 31
0.0
  0
LINE
  5
398
330
1F
100
AcDbEntity
  8
0
 62
   253
 48
0.1455
370
    35
100
AcDbLine
 10
223.1999681114888
 20
414.5512668890566
 30
0.0
 11
223.1999681114888
 21
420.3712738890565
 31
0.0
  0
LINE
  5
399
330
1F
100
AcDbEntity
  8
0
 62
   253
 48
0.074544
370
    35
100
AcDbLine
 10
223.1999681114888
 20
420.3712738890565
 30
0.0
 11
223.1999681114888
 21
423.3530248890565
 31
0.0
  0
LINE
  5
39A
330
1F
100
AcDbEntity
  8
0
 62
   253
 48
0.074544
370
    35
100
AcDbLine
 10
403.1999681114887
 20
420.3712738890565
 30
0.0
 11
403.1999681114887
 21
423.3530248890565
 31
0.0
  0
LINE
  5
39B
330
1F
100
AcDbEntity
  8
0
 62
   253
 48
0.1455
370
    35
100
AcDbLine
 10
403.1999681114887
 20
414.5512668890566
 30
0.0
 11
403.1999681114887
 21
420.3712738890565
 31
0.0
  0
LINE
  5
39C
330
1F
100
AcDbEntity
  8
0
 62
   253
 48
0.1455
370
    35
100
AcDbLine
 10
333.1999681114888
 20
414.5512668890566
 30
0.0
 11
333.1999681114888
 21
420.3712738890565
 31
0.0
  0
LINE
  5
39D
330
1F
100
AcDbEntity
  8
0
 62
   253
 48
0.074544
370
    35
100
AcDbLine
 10
333.1999681114888
 20
420.3712738890565
 30
0.0
 11
333.1999681114888
 21
423.3530248890565
 31
0.0
  0
LINE
  5
39E
330
1F
100
AcDbEntity
  8
0
 62
   253
 48
0.067465
370
    35
100
AcDbLine
 10
85.7959001114888
 20
424.0525478890566
 30
0.0
 11
83.0973071114888
 21
424.0525478890566
 31
0.0
  0
LINE
  5
39F
330
1F
100
AcDbEntity
  8
0
 62
   253
 48
0.013488
370
    35
100
AcDbLine
 10
85.7959001114888
 20
424.0525478890566
 30
0.0
 11
86.3354351114888
 21
424.0525478890566
 31
0.0
  0
LINE
  5
3A0
330
1F
100
AcDbEntity
  8
0
 62
   253
 48
0.024672
370
    35
100
AcDbLine
 10
87.32229811148882
 20
424.0525478890566
 30
0.0
 11
86.3354351114888
 21
424.0525478890566
 31
0.0
  0
LINE
  5
3A1
330
1F
100
AcDbEntity
  8
0
 62
   253
370
    35
100
AcDbLine
 10
87.32229811148882
 20
424.0525478890566
 30
0.0
 11
132.6999681114888
 21
424.0525478890566
 31
0.0
  0
LINE
  5
3A2
330
1F
100
AcDbEntity
  8
0
 62
   253
 48
0.093503
370
    35
100
AcDbLine
 10
133.1999681114888
 20
419.6205418890565
 30
0.0
 11
133.1999681114888
 21
423.3606538890565
 31
0.0
  0
LINE
  5
3A3
330
1F
100
AcDbEntity
  8
0
 62
   253
 48
0.004787
370
    35
100
AcDbLine
 10
133.1999681114888
 20
423.3606538890565
 30
0.0
 11
133.1999681114888
 21
423.5521208890565
 31
0.0
  0
LINE
  5
3A4
330
1F
100
AcDbEntity
  8
0
 62
   253
 48
0.004787
370
    35
100
AcDbLine
 10
243.1999681114888
 20
423.3606538890565
 30
0.0
 11
243.1999681114888
 21
423.5521208890565
 31
0.0
  0
LINE
  5
3A5
330
1F
100
AcDbEntity
  8
0
 62
   253
 48
0.093503
370
    35
100
AcDbLine
 10
243.1999681114888
 20
419.6205418890565
 30
0.0
 11
243.1999681114888
 21
423.3606538890565
 31
0.0
  0
LINE
  5
3A6
330
1F
100
AcDbEntity
  8
0
 62
   253
370
    35
100
AcDbLine
 10
423.6999681114888
 20
424.0525478890566
 30
0.0
 11
469.0776531114887
 21
424.0525478890566
 31
0.0
  0
LINE
  5
3A7
330
1F
100
AcDbEntity
  8
0
 62
   253
 48
0.024672
370
    35
100
AcDbLine
 10
470.0645311114888
 20
424.0525478890566
 30
0.0
 11
469.0776531114887
 21
424.0525478890566
 31
0.0
  0
LINE
  5
3A8
330
1F
100
AcDbEntity
  8
0
 62
   253
 48
0.013487
370
    35
100
AcDbLine
 10
470.0645311114888
 20
424.0525478890566
 30
0.0
 11
470.6040211114888
 21
424.0525478890566
 31
0.0
  0
LINE
  5
3A9
330
1F
100
AcDbEntity
  8
0
 62
   253
 48
0.067465
370
    35
100
AcDbLine
 10
473.3026291114888
 20
424.0525478890566
 30
0.0
 11
470.6040211114888
 21
424.0525478890566
 31
0.0
  0
LINE
  5
3AA
330
1F
100
AcDbEntity
  8
0
 62
   253
 48
0.004787
370
    35
100
AcDbLine
 10
423.1999681114888
 20
423.3606538890565
 30
0.0
 11
423.1999681114888
 21
423.5521208890565
 31
0.0
  0
LINE
  5
3AB
330
1F
100
AcDbEntity
  8
0
 62
   253
 48
0.093503
370
    35
100
AcDbLine
 10
423.1999681114888
 20
419.6205418890565
 30
0.0
 11
423.1999681114888
 21
423.3606538890565
 31
0.0
  0
LINE
  5
3AC
330
1F
100
AcDbEntity
  8
0
 62
   253
 48
0.093503
370
    35
100
AcDbLine
 10
313.1999681114888
 20
419.6205418890565
 30
0.0
 11
313.1999681114888
 21
423.3606538890565
 31
0.0
  0
LINE
  5
3AD
330
1F
100
AcDbEntity
  8
0
 62
   253
 48
0.004787
370
    35
100
AcDbLine
 10
313.1999681114888
 20
423.3606538890565
 30
0.0
 11
313.1999681114888
 21
423.5521208890565
 31
0.0
  0
LINE
  5
3AE
330
1F
100
AcDbEntity
  8
0
 62
   253
370
    35
100
AcDbLine
 10
243.6999681114888
 20
424.0525478890566
 30
0.0
 11
312.6999681114889
 21
424.0525478890566
 31
0.0
  0
LINE
  5
3AF
330
1F
100
AcDbEntity
  8
0
 62
   253
 48
0.011659
370
    35
100
AcDbLine
 10
223.1999681114888
 20
423.3530248890565
 30
0.0
 11
223.1999681114888
 21
423.8193938890566
 31
0.0
  0
LINE
  5
3B0
330
1F
100
AcDbEntity
  8
0
 62
   253
 48
0.011659
370
    35
100
AcDbLine
 10
153.1999681114888
 20
423.3530248890565
 30
0.0
 11
153.1999681114888
 21
423.8193938890566
 31
0.0
  0
LINE
  5
3B1
330
1F
100
AcDbEntity
  8
0
 62
   253
 48
0.011659
370
    35
100
AcDbLine
 10
403.1999681114887
 20
423.3530248890565
 30
0.0
 11
403.1999681114887
 21
423.8193938890566
 31
0.0
  0
LINE
  5
3B2
330
1F
100
AcDbEntity
  8
0
 62
   253
 48
0.011659
370
    35
100
AcDbLine
 10
333.1999681114888
 20
423.3530248890565
 30
0.0
 11
333.1999681114888
 21
423.8193938890566
 31
0.0
  0
ARC
  5
3B3
330
1F
100
AcDbEntity
  8
0
 62
   253
370
    35
100
AcDbCircle
 10
423.7002121114888
 20
423.5523648890565
 30
0.0
 40
0.5002290000000001
100
AcDbArc
 50
90.03028800000007
 51
180.030184
  0
ARC
  5
3B4
330
1F
100
AcDbEntity
  8
0
 62
   253
370
    35
100
AcDbCircle
 10
473.3031781114887
 20
423.5559048890565
 30
0.0
 40
0.4966640000000001
100
AcDbArc
 50
359.826825
 51
90.06193899999998
  0
ARC
  5
3B5
330
1F
100
AcDbEntity
  8
0
 62
   253
370
    35
100
AcDbCircle
 10
312.6996931114888
 20
423.5523648890565
 30
0.0
 40
0.5002290000000001
100
AcDbArc
 50
359.96983
 51
89.96970400000001
  0
ARC
  5
3B6
330
1F
100
AcDbEntity
  8
0
 62
   253
370
    35
100
AcDbCircle
 10
243.7002421114888
 20
423.5523648890565
 30
0.0
 40
0.5002290000000001
100
AcDbArc
 50
90.03028800000007
 51
180.030184
  0
ARC
  5
3B7
330
1F
100
AcDbEntity
  8
0
 62
   253
370
    35
100
AcDbCircle
 10
132.6997081114888
 20
423.5523648890565
 30
0.0
 40
0.5002290000000001
100
AcDbArc
 50
359.96983
 51
89.96970400000001
  0
ARC
  5
3B8
330
1F
100
AcDbEntity
  8
0
 62
   253
370
    35
100
AcDbCircle
 10
83.09677311148882
 20
423.5559048890565
 30
0.0
 40
0.4966640000000001
100
AcDbArc
 50
89.93806599999999
 51
180.1731809999999
  0
LINE
  5
3B9
330
1F
100
AcDbEntity
  8
0
 62
   253
 48
0.016769
370
    35
100
AcDbLine
 10
403.1999681114887
 20
414.5332608890566
 30
0.0
 11
403.1999681114887
 21
413.8624848890565
 31
0.0
  0
LINE
  5
3BA
330
1F
100
AcDbEntity
  8
0
 62
   253
 48
0.067903
370
    35
100
AcDbLine
 10
403.1999681114887
 20
411.1462978890566
 30
0.0
 11
403.1999681114887
 21
413.8624238890566
 31
0.0
  0
LINE
  5
3BB
330
1F
100
AcDbEntity
  8
0
 62
   253
 48
0.000447
370
    35
100
AcDbLine
 10
403.1999681114887
 20
414.5511448890566
 30
0.0
 11
403.1999681114887
 21
414.5332608890566
 31
0.0
  0
ARC
  5
3BC
330
1F
100
AcDbEntity
  8
0
 62
   253
370
    35
100
AcDbCircle
 10
422.3599411114888
 20
416.9096038890566
 30
0.0
 40
0.916916
100
AcDbArc
 50
102.862949
 51
116.5844169999999
  0
ARC
  5
3BD
330
1F
100
AcDbEntity
  8
0
 62
   253
370
    35
100
AcDbCircle
 10
422.4501511114888
 20
416.5799528890565
 30
0.0
 40
1.258637999999999
100
AcDbArc
 50
97.8635109999999
 51
103.525819
  0
LINE
  5
3BE
330
1F
100
AcDbEntity
  8
0
 62
   253
 48
0.007334
370
    35
100
AcDbLine
 10
422.2779101114888
 20
417.8267788890566
 30
0.0
 11
422.5685591114888
 21
417.8665738890566
 31
0.0
  0
LINE
  5
3BF
330
1F
100
AcDbEntity
  8
0
 62
   253
 48
0.000334
370
    35
100
AcDbLine
 10
422.5685591114888
 20
417.8665738890566
 30
0.0
 11
422.5817431114887
 21
417.8687108890564
 31
0.0
  0
LINE
  5
3C0
330
1F
100
AcDbEntity
  8
0
 62
   253
 48
0.002499
370
    35
100
AcDbLine
 10
403.1999681114887
 20
411.1462978890566
 30
0.0
 11
403.1999681114887
 21
411.0463228890565
 31
0.0
  0
LINE
  5
3C1
330
1F
100
AcDbEntity
  8
0
 62
   253
 48
0.001672
370
    35
100
AcDbLine
 10
422.6486371114888
 20
417.8691378890566
 30
0.0
 11
422.5817431114887
 21
417.8687108890564
 31
0.0
  0
LINE
  5
3C2
330
1F
100
AcDbEntity
  8
0
 62
   253
 48
0.067903
370
    35
100
AcDbLine
 10
333.1999681114888
 20
411.1462978890566
 30
0.0
 11
333.1999681114888
 21
413.8624238890566
 31
0.0
  0
LINE
  5
3C3
330
1F
100
AcDbEntity
  8
0
 62
   253
 48
0.016771
370
    35
100
AcDbLine
 10
333.1999681114888
 20
414.5332608890566
 30
0.0
 11
333.1999681114888
 21
413.8624238890566
 31
0.0
  0
LINE
  5
3C4
330
1F
100
AcDbEntity
  8
0
 62
   253
 48
0.000447
370
    35
100
AcDbLine
 10
333.1999681114888
 20
414.5511448890566
 30
0.0
 11
333.1999681114888
 21
414.5332608890566
 31
0.0
  0
ARC
  5
3C5
330
1F
100
AcDbEntity
  8
0
 62
   253
370
    35
100
AcDbCircle
 10
314.0400251114888
 20
416.9096038890566
 30
0.0
 40
0.916916
100
AcDbArc
 50
63.41558100000001
 51
77.13704899999992
  0
LINE
  5
3C6
330
1F
100
AcDbEntity
  8
0
 62
   253
 48
0.000335
370
    35
100
AcDbLine
 10
313.8313771114888
 20
417.8665738890566
 30
0.0
 11
313.8181621114889
 21
417.8687108890564
 31
0.0
  0
LINE
  5
3C7
330
1F
100
AcDbEntity
  8
0
 62
   253
 48
0.007334
370
    35
100
AcDbLine
 10
314.1220261114888
 20
417.8267788890566
 30
0.0
 11
313.8313771114888
 21
417.8665738890566
 31
0.0
  0
ARC
  5
3C8
330
1F
100
AcDbEntity
  8
0
 62
   253
370
    35
100
AcDbCircle
 10
313.9497851114888
 20
416.5797698890566
 30
0.0
 40
1.258839999999999
100
AcDbArc
 50
76.47481400000004
 51
82.13620800000002
  0
LINE
  5
3C9
330
1F
100
AcDbEntity
  8
0
 62
   253
 48
0.001672
370
    35
100
AcDbLine
 10
313.7512681114888
 20
417.8691378890566
 30
0.0
 11
313.8181621114889
 21
417.8687108890564
 31
0.0
  0
LINE
  5
3CA
330
1F
100
AcDbEntity
  8
0
 62
   253
 48
0.002499
370
    35
100
AcDbLine
 10
333.1999681114888
 20
411.1462978890566
 30
0.0
 11
333.1999681114888
 21
411.0463228890565
 31
0.0
  0
LINE
  5
3CB
330
1F
100
AcDbEntity
  8
0
 62
   253
 48
0.016771
370
    35
100
AcDbLine
 10
223.1999681114888
 20
414.5332608890566
 30
0.0
 11
223.1999681114888
 21
413.8624238890566
 31
0.0
  0
LINE
  5
3CC
330
1F
100
AcDbEntity
  8
0
 62
   253
 48
0.067903
370
    35
100
AcDbLine
 10
223.1999681114888
 20
411.1462978890566
 30
0.0
 11
223.1999681114888
 21
413.8624238890566
 31
0.0
  0
LINE
  5
3CD
330
1F
100
AcDbEntity
  8
0
 62
   253
 48
0.000447
370
    35
100
AcDbLine
 10
223.1999681114888
 20
414.5511448890566
 30
0.0
 11
223.1999681114888
 21
414.5332608890566
 31
0.0
  0
ARC
  5
3CE
330
1F
100
AcDbEntity
  8
0
 62
   253
370
    35
100
AcDbCircle
 10
242.3600631114888
 20
416.9094208890566
 30
0.0
 40
0.917123
100
AcDbArc
 50
102.869452
 51
116.5878319999999
  0
ARC
  5
3CF
330
1F
100
AcDbEntity
  8
0
 62
   253
370
    35
100
AcDbCircle
 10
242.4502421114888
 20
416.5798918890565
 30
0.0
 40
1.258703
100
AcDbArc
 50
97.86840799999997
 51
103.5304229999999
  0
LINE
  5
3D0
330
1F
100
AcDbEntity
  8
0
 62
   253
 48
0.007334
370
    35
100
AcDbLine
 10
242.2779101114888
 20
417.8267788890566
 30
0.0
 11
242.5685591114888
 21
417.8665738890566
 31
0.0
  0
LINE
  5
3D1
330
1F
100
AcDbEntity
  8
0
 62
   253
 48
0.000335
370
    35
100
AcDbLine
 10
242.5685591114888
 20
417.8665738890566
 30
0.0
 11
242.5817731114888
 21
417.8687108890564
 31
0.0
  0
LINE
  5
3D2
330
1F
100
AcDbEntity
  8
0
 62
   253
 48
0.002499
370
    35
100
AcDbLine
 10
223.1999681114888
 20
411.1462978890566
 30
0.0
 11
223.1999681114888
 21
411.0463228890565
 31
0.0
  0
LINE
  5
3D3
330
1F
100
AcDbEntity
  8
0
 62
   253
 48
0.001672
370
    35
100
AcDbLine
 10
242.6486681114888
 20
417.8691378890566
 30
0.0
 11
242.5817731114888
 21
417.8687108890564
 31
0.0
  0
LINE
  5
3D4
330
1F
100
AcDbEntity
  8
0
 62
   253
 48
0.067903
370
    35
100
AcDbLine
 10
153.1999681114888
 20
411.1462978890566
 30
0.0
 11
153.1999681114888
 21
413.8624238890566
 31
0.0
  0
LINE
  5
3D5
330
1F
100
AcDbEntity
  8
0
 62
   253
 48
0.016769
370
    35
100
AcDbLine
 10
153.1999681114888
 20
414.5332608890566
 30
0.0
 11
153.1999681114888
 21
413.8624848890565
 31
0.0
  0
LINE
  5
3D6
330
1F
100
AcDbEntity
  8
0
 62
   253
 48
0.000447
370
    35
100
AcDbLine
 10
153.1999681114888
 20
414.5511448890566
 30
0.0
 11
153.1999681114888
 21
414.5332608890566
 31
0.0
  0
ARC
  5
3D7
330
1F
100
AcDbEntity
  8
0
 62
   253
370
    35
100
AcDbCircle
 10
134.0400101114888
 20
416.9096038890566
 30
0.0
 40
0.916947
100
AcDbArc
 50
63.41582699999995
 51
77.13683700000007
  0
LINE
  5
3D8
330
1F
100
AcDbEntity
  8
0
 62
   253
 48
0.000334
370
    35
100
AcDbLine
 10
133.8181621114888
 20
417.8687108890564
 30
0.0
 11
133.8313611114888
 21
417.8665738890566
 31
0.0
  0
LINE
  5
3D9
330
1F
100
AcDbEntity
  8
0
 62
   253
 48
0.007334
370
    35
100
AcDbLine
 10
133.8313611114888
 20
417.8665738890566
 30
0.0
 11
134.1220111114888
 21
417.8267788890566
 31
0.0
  0
ARC
  5
3DA
330
1F
100
AcDbEntity
  8
0
 62
   253
370
    35
100
AcDbCircle
 10
133.9498001114888
 20
416.5799528890565
 30
0.0
 40
1.258636
100
AcDbArc
 50
76.47417899999995
 51
82.13649500000007
  0
LINE
  5
3DB
330
1F
100
AcDbEntity
  8
0
 62
   253
 48
0.002499
370
    35
100
AcDbLine
 10
153.1999681114888
 20
411.0463228890565
 30
0.0
 11
153.1999681114888
 21
411.1462978890566
 31
0.0
  0
LINE
  5
3DC
330
1F
100
AcDbEntity
  8
0
 62
   253
 48
0.001672
370
    35
100
AcDbLine
 10
133.8181621114888
 20
417.8687108890564
 30
0.0
 11
133.7512681114888
 21
417.8691378890566
 31
0.0
  0
ELLIPSE
  5
3DD
330
1F
100
AcDbEntity
  8
0
 62
   253
370
    35
100
AcDbEllipse
 10
375.3186811114888
 20
406.2810028890567
 30
0.0
 11
0.1416626
 21
-0.14117432
 31
0.0
210
0.0
220
0.0
230
1.0
 40
0.012362
 41
4.724709579999999
 42
6.295505907179586
  0
LINE
  5
3DE
330
1F
100
AcDbEntity
  8
0
 62
   253
 48
0.008305
370
    35
100
AcDbLine
 10
378.8943651114888
 20
414.5511448890566
 30
0.0
 11
378.5621811114888
 21
414.5522428890565
 31
0.0
  0
LINE
  5
3DF
330
1F
100
AcDbEntity
  8
0
 62
   253
 48
0.008305
370
    35
100
AcDbLine
 10
357.5055711114888
 20
414.5511448890566
 30
0.0
 11
357.8377551114888
 21
414.5522428890565
 31
0.0
  0
LINE
  5
3E0
330
1F
100
AcDbEntity
  8
0
 62
   253
 48
0.000035
370
    35
100
AcDbLine
 10
357.8377551114888
 20
414.5522428890565
 30
0.0
 11
357.8391581114888
 21
414.5523648890566
 31
0.0
  0
LINE
  5
3E1
330
1F
100
AcDbEntity
  8
0
 62
   253
370
    35
100
AcDbLine
 10
403.1999681114887
 20
411.0463228890565
 30
0.0
 11
378.3727891114888
 21
411.0463228890565
 31
0.0
  0
LINE
  5
3E2
330
1F
100
AcDbEntity
  8
0
 62
   253
370
    35
100
AcDbLine
 10
358.0271471114888
 20
411.0463228890565
 30
0.0
 11
333.1999681114888
 21
411.0463228890565
 31
0.0
  0
ELLIPSE
  5
3E3
330
1F
100
AcDbEntity
  8
0
 62
   253
370
    35
100
AcDbEllipse
 10
368.1999681114888
 20
413.3740818890565
 30
0.0
 11
10.25
 21
0.0
 31
0.0
210
0.0
220
0.0
230
1.0
 40
0.9998479999999998
 41
6.03768056
 42
6.273490269999999
  0
ELLIPSE
  5
3E4
330
1F
100
AcDbEntity
  8
0
 62
   253
370
    35
100
AcDbEllipse
 10
368.1999681114888
 20
413.3740818890565
 30
0.0
 11
10.25
 21
0.0
 31
0.0
210
0.0
220
0.0
230
1.0
 40
0.9998479999999998
 41
3.15128772
 42
3.387097429999999
  0
LINE
  5
3E5
330
1F
100
AcDbEntity
  8
0
 62
   253
 48
0.000475
370
    35
100
AcDbLine
 10
358.0360881114888
 20
414.7263768890566
 30
0.0
 11
358.0360881114888
 21
414.7073948890564
 31
0.0
  0
LINE
  5
3E6
330
1F
100
AcDbEntity
  8
0
 62
   253
 48
0.004067
370
    35
100
AcDbLine
 10
358.0360881114888
 20
414.7073948890564
 30
0.0
 11
358.0171981114888
 21
414.5458348890565
 31
0.0
  0
ELLIPSE
  5
3E7
330
1F
100
AcDbEntity
  8
0
 62
   253
370
    35
100
AcDbEllipse
 10
368.1999681114888
 20
413.3740818890565
 30
0.0
 11
10.25
 21
0.0
 31
0.0
210
0.0
220
0.0
230
1.0
 40
0.9998479999999998
 41
0.11459006
 42
3.027002589999999
  0
LINE
  5
3E8
330
1F
100
AcDbEntity
  8
0
 62
   253
 48
0.004067
370
    35
100
AcDbLine
 10
378.3827381114889
 20
414.5458348890565
 30
0.0
 11
378.3638471114888
 21
414.7073948890564
 31
0.0
  0
LINE
  5
3E9
330
1F
100
AcDbEntity
  8
0
 62
   253
 48
0.000475
370
    35
100
AcDbLine
 10
378.3638471114888
 20
414.7073948890564
 30
0.0
 11
378.3638471114888
 21
414.7263768890566
 31
0.0
  0
ARC
  5
3EA
330
1F
100
AcDbEntity
  8
0
 62
   253
370
    35
100
AcDbCircle
 10
361.1270611114889
 20
413.2771578890565
 30
0.0
 40
3.17682
100
AcDbArc
 50
170.726329
 51
180.0448829999998
  0
ARC
  5
3EB
330
1F
100
AcDbEntity
  8
0
 62
   253
370
    35
100
AcDbCircle
 10
375.2728741114888
 20
413.2771578890565
 30
0.0
 40
3.17682
100
AcDbArc
 50
359.9551139999999
 51
9.273671999999992
  0
LINE
  5
3EC
330
1F
100
AcDbEntity
  8
0
 62
   253
 48
0.001197
370
    35
100
AcDbLine
 10
358.0746931114888
 20
411.0518468890566
 30
0.0
 11
358.0271471114888
 21
411.0463228890565
 31
0.0
  0
LINE
  5
3ED
330
1F
100
AcDbEntity
  8
0
 62
   253
 48
0.001202
370
    35
100
AcDbLine
 10
378.3252421114888
 20
411.0518468890566
 30
0.0
 11
378.3730021114889
 21
411.0462918890566
 31
0.0
  0
LINE
  5
3EE
330
1F
100
AcDbEntity
  8
0
 62
   253
 48
0.008305
370
    35
100
AcDbLine
 10
198.8943651114888
 20
414.5511448890566
 30
0.0
 11
198.5621811114888
 21
414.5522428890565
 31
0.0
  0
LINE
  5
3EF
330
1F
100
AcDbEntity
  8
0
 62
   253
 48
0.000035
370
    35
100
AcDbLine
 10
198.5621811114888
 20
414.5522428890565
 30
0.0
 11
198.5607771114888
 21
414.5523648890566
 31
0.0
  0
LINE
  5
3F0
330
1F
100
AcDbEntity
  8
0
 62
   253
 48
0.008305
370
    35
100
AcDbLine
 10
177.5055711114888
 20
414.5511448890566
 30
0.0
 11
177.8377551114888
 21
414.5522428890565
 31
0.0
  0
LINE
  5
3F1
330
1F
100
AcDbEntity
  8
0
 62
   253
370
    35
100
AcDbLine
 10
223.1999681114888
 20
411.0463228890565
 30
0.0
 11
198.3727891114888
 21
411.0463228890565
 31
0.0
  0
LINE
  5
3F2
330
1F
100
AcDbEntity
  8
0
 62
   253
370
    35
100
AcDbLine
 10
153.1999681114888
 20
411.0463228890565
 30
0.0
 11
178.0271471114888
 21
411.0463228890565
 31
0.0
  0
ELLIPSE
  5
3F3
330
1F
100
AcDbEntity
  8
0
 62
   253
370
    35
100
AcDbEllipse
 10
188.1999681114888
 20
413.3740818890565
 30
0.0
 11
10.25
 21
0.0
 31
0.0
210
0.0
220
0.0
230
1.0
 40
0.9998479999999998
 41
6.03768057
 42
6.273490319999999
  0
ELLIPSE
  5
3F4
330
1F
100
AcDbEntity
  8
0
 62
   253
370
    35
100
AcDbEllipse
 10
188.1999681114888
 20
413.3740818890565
 30
0.0
 11
10.25
 21
0.0
 31
0.0
210
0.0
220
0.0
230
1.0
 40
0.9998479999999998
 41
3.15128777
 42
3.38709746
  0
LINE
  5
3F5
330
1F
100
AcDbEntity
  8
0
 62
   253
 48
0.000221
370
    35
100
AcDbLine
 10
178.0360271114888
 20
414.7264378890565
 30
0.0
 11
178.0346241114888
 21
414.7177098890566
 31
0.0
  0
LINE
  5
3F6
330
1F
100
AcDbEntity
  8
0
 62
   253
 48
0.000475
370
    35
100
AcDbLine
 10
178.0360881114888
 20
414.7073948890564
 30
0.0
 11
178.0360881114888
 21
414.7263768890566
 31
0.0
  0
ELLIPSE
  5
3F7
330
1F
100
AcDbEntity
  8
0
 62
   253
370
    35
100
AcDbEllipse
 10
188.1999681114888
 20
413.3740818890565
 30
0.0
 11
10.25
 21
0.0
 31
0.0
210
0.0
220
0.0
230
1.0
 40
0.9998479999999998
 41
0.11459006
 42
3.0270026
  0
LINE
  5
3F8
330
1F
100
AcDbEntity
  8
0
 62
   253
 48
0.004067
370
    35
100
AcDbLine
 10
198.3638471114888
 20
414.7073948890564
 30
0.0
 11
198.3827381114888
 21
414.5458348890565
 31
0.0
  0
LINE
  5
3F9
330
1F
100
AcDbEntity
  8
0
 62
   253
 48
0.000475
370
    35
100
AcDbLine
 10
198.3638471114888
 20
414.7263768890566
 30
0.0
 11
198.3638471114888
 21
414.7073948890564
 31
0.0
  0
LINE
  5
3FA
330
1F
100
AcDbEntity
  8
0
 62
   253
 48
0.000221
370
    35
100
AcDbLine
 10
198.3639081114888
 20
414.7264378890565
 30
0.0
 11
198.3653121114888
 21
414.7177098890566
 31
0.0
  0
ARC
  5
3FB
330
1F
100
AcDbEntity
  8
0
 62
   253
370
    35
100
AcDbCircle
 10
181.1279461114888
 20
413.2768528890566
 30
0.0
 40
3.177723999999999
100
AcDbArc
 50
170.723119
 51
180.0390229999998
  0
ARC
  5
3FC
330
1F
100
AcDbEntity
  8
0
 62
   253
370
    35
100
AcDbCircle
 10
195.2719891114888
 20
413.2768528890566
 30
0.0
 40
3.177725
100
AcDbArc
 50
359.9609769999998
 51
9.2768819999999
  0
LINE
  5
3FD
330
1F
100
AcDbEntity
  8
0
 62
   253
 48
0.001197
370
    35
100
AcDbLine
 10
198.3252421114888
 20
411.0518468890566
 30
0.0
 11
198.3727891114888
 21
411.0463228890565
 31
0.0
  0
LINE
  5
3FE
330
1F
100
AcDbEntity
  8
0
 62
   253
 48
0.001197
370
    35
100
AcDbLine
 10
178.0746931114888
 20
411.0518468890566
 30
0.0
 11
178.0271471114888
 21
411.0463228890565
 31
0.0
  0
LINE
  5
3FF
330
1F
100
AcDbEntity
  8
0
 62
   253
370
    35
100
AcDbLine
 10
198.8943651114888
 20
414.5512058890565
 30
0.0
 11
223.1999681114888
 21
414.5512058890565
 31
0.0
  0
LINE
  5
400
330
1F
100
AcDbEntity
  8
0
 62
   253
370
    35
100
AcDbLine
 10
153.1999681114888
 20
414.5512058890565
 30
0.0
 11
177.5055711114888
 21
414.5512058890565
 31
0.0
  0
LINE
  5
401
330
1F
100
AcDbEntity
  8
0
 62
   253
370
    35
100
AcDbLine
 10
378.8943651114888
 20
414.5512058890565
 30
0.0
 11
403.1999681114887
 21
414.5512058890565
 31
0.0
  0
LINE
  5
402
330
1F
100
AcDbEntity
  8
0
 62
   253
370
    35
100
AcDbLine
 10
333.1999681114888
 20
414.5512058890565
 30
0.0
 11
357.5055711114888
 21
414.5512058890565
 31
0.0
  0
LINE
  5
403
330
1F
100
AcDbEntity
  8
0
 62
   253
 48
0.000076
370
    35
100
AcDbLine
 10
134.9042221114888
 20
417.4912688890565
 30
0.0
 11
134.9014911114888
 21
417.4926118890565
 31
0.0
  0
LINE
  5
404
330
1F
100
AcDbEntity
  8
0
 62
   253
 48
0.000076
370
    35
100
AcDbLine
 10
421.4956831114887
 20
417.4912688890565
 30
0.0
 11
421.4984301114887
 21
417.4926118890565
 31
0.0
  0
LINE
  5
405
330
1F
100
AcDbEntity
  8
0
 62
   253
 48
0.000076
370
    35
100
AcDbLine
 10
314.9015061114889
 20
417.4926118890565
 30
0.0
 11
314.9042221114888
 21
417.4912688890565
 31
0.0
  0
ARC
  5
406
330
1F
100
AcDbEntity
  8
0
 62
   253
370
    35
100
AcDbCircle
 10
242.1522081114888
 20
466.6726048890565
 30
0.0
 40
42.69666299999999
100
AcDbArc
 50
270.2946310000001
 51
271.7693649999999
  0
ARC
  5
407
330
1F
100
AcDbEntity
  8
0
 62
   253
370
    35
100
AcDbCircle
 10
224.8335431114888
 20
2343.247982889057
 30
0.0
 40
1919.352284
100
AcDbArc
 50
270.2047669999999
 51
270.523552
  0
LINE
  5
408
330
1F
100
AcDbEntity
  8
0
 62
   253
370
    35
100
AcDbLine
 10
223.1999681114888
 20
423.8193938890566
 30
0.0
 11
192.7034471114888
 21
423.8193938890566
 31
0.0
  0
LINE
  5
409
330
1F
100
AcDbEntity
  8
0
 62
   253
370
    35
100
AcDbLine
 10
183.6964891114888
 20
423.8193938890566
 30
0.0
 11
153.1999681114888
 21
423.8193938890566
 31
0.0
  0
ARC
  5
40A
330
1F
100
AcDbEntity
  8
0
 62
   253
370
    35
100
AcDbCircle
 10
151.5663011114888
 20
2343.233578889057
 30
0.0
 40
1919.337717
100
AcDbArc
 50
269.4764499999999
 51
269.7952349999999
  0
ARC
  5
40B
330
1F
100
AcDbEntity
  8
0
 62
   253
370
    35
100
AcDbCircle
 10
134.2489491114888
 20
466.7477998890565
 30
0.0
 40
42.771846
100
AcDbArc
 50
268.233349
 51
269.704243
  0
ARC
  5
40C
330
1F
100
AcDbEntity
  8
0
 62
   253
370
    35
100
AcDbCircle
 10
422.1510181114888
 20
466.7470668890565
 30
0.0
 40
42.77110799999999
100
AcDbArc
 50
270.2957449999998
 51
271.7666669999999
  0
ARC
  5
40D
330
1F
100
AcDbEntity
  8
0
 62
   253
370
    35
100
AcDbCircle
 10
404.8336351114888
 20
2343.232357889057
 30
0.0
 40
1919.33666
100
AcDbArc
 50
270.2047669999999
 51
270.523552
  0
LINE
  5
40E
330
1F
100
AcDbEntity
  8
0
 62
   253
370
    35
100
AcDbLine
 10
403.1999681114887
 20
423.8193938890566
 30
0.0
 11
372.7034471114888
 21
423.8193938890566
 31
0.0
  0
LINE
  5
40F
330
1F
100
AcDbEntity
  8
0
 62
   253
370
    35
100
AcDbLine
 10
363.6964891114889
 20
423.8193938890566
 30
0.0
 11
333.1999681114888
 21
423.8193938890566
 31
0.0
  0
ARC
  5
410
330
1F
100
AcDbEntity
  8
0
 62
   253
370
    35
100
AcDbCircle
 10
331.5663621114889
 20
2343.244808889056
 30
0.0
 40
1919.349087
100
AcDbArc
 50
269.4764499999999
 51
269.7952349999999
  0
ARC
  5
411
330
1F
100
AcDbEntity
  8
0
 62
   253
370
    35
100
AcDbCircle
 10
314.2477281114889
 20
466.6733368890565
 30
0.0
 40
42.697396
100
AcDbArc
 50
268.230644
 51
269.7053499999999
  0
ARC
  5
412
330
1F
100
AcDbEntity
  8
0
 62
   253
370
    35
100
AcDbCircle
 10
371.2104661114888
 20
410.3758208890566
 30
0.0
 40
6.000426999999998
100
AcDbArc
 50
269.9990749999999
 51
315.0936339999999
  0
LINE
  5
413
330
1F
100
AcDbEntity
  8
0
 62
   253
 48
0.15052
370
    35
100
AcDbLine
 10
365.1895611114889
 20
404.3753938890565
 30
0.0
 11
371.2103741114888
 21
404.3753938890565
 31
0.0
  0
ARC
  5
414
330
1F
100
AcDbEntity
  8
0
 62
   253
370
    35
100
AcDbCircle
 10
365.1894701114888
 20
410.3758208890566
 30
0.0
 40
6.000426999999998
100
AcDbArc
 50
224.906371
 51
270.000933
  0
LINE
  5
415
330
1F
100
AcDbEntity
  8
0
 62
   253
 48
0.008381
370
    35
100
AcDbLine
 10
378.5591291114888
 20
414.5522428890565
 30
0.0
 11
378.8943651114888
 21
414.5512058890565
 31
0.0
  0
LINE
  5
416
330
1F
100
AcDbEntity
  8
0
 62
   253
 48
0.00834
370
    35
100
AcDbLine
 10
357.8391581114888
 20
414.5523648890566
 30
0.0
 11
357.5055711114888
 21
414.5512058890565
 31
0.0
  0
ARC
  5
417
330
1F
100
AcDbEntity
  8
0
 62
   253
370
    35
100
AcDbCircle
 10
368.1979841114888
 20
413.3743868890566
 30
0.0
 40
10.248067
100
AcDbArc
 50
194.0689139999999
 51
224.9059069999998
  0
ARC
  5
418
330
1F
100
AcDbEntity
  8
0
 62
   253
370
    35
100
AcDbCircle
 10
368.2019511114888
 20
413.3743868890566
 30
0.0
 40
10.248067
100
AcDbArc
 50
315.094098
 51
345.9310899999999
  0
ARC
  5
419
330
1F
100
AcDbEntity
  8
0
 62
   253
370
    35
100
AcDbCircle
 10
191.2104661114888
 20
410.3758208890566
 30
0.0
 40
6.000426999999998
100
AcDbArc
 50
269.9990749999999
 51
315.0936339999999
  0
LINE
  5
41A
330
1F
100
AcDbEntity
  8
0
 62
   253
 48
0.15052
370
    35
100
AcDbLine
 10
185.1895611114888
 20
404.3753938890565
 30
0.0
 11
191.2103741114888
 21
404.3753938890565
 31
0.0
  0
ARC
  5
41B
330
1F
100
AcDbEntity
  8
0
 62
   253
370
    35
100
AcDbCircle
 10
185.1894701114888
 20
410.3758208890566
 30
0.0
 40
6.000426999999998
100
AcDbArc
 50
224.906371
 51
270.000933
  0
LINE
  5
41C
330
1F
100
AcDbEntity
  8
0
 62
   253
 48
0.00834
370
    35
100
AcDbLine
 10
198.5607771114888
 20
414.5523648890566
 30
0.0
 11
198.8943651114888
 21
414.5512058890565
 31
0.0
  0
LINE
  5
41D
330
1F
100
AcDbEntity
  8
0
 62
   253
 48
0.008381
370
    35
100
AcDbLine
 10
177.8408061114888
 20
414.5522428890565
 30
0.0
 11
177.5055711114888
 21
414.5512058890565
 31
0.0
  0
ARC
  5
41E
330
1F
100
AcDbEntity
  8
0
 62
   253
370
    35
100
AcDbCircle
 10
188.1979841114888
 20
413.3743868890566
 30
0.0
 40
10.248067
100
AcDbArc
 50
194.0689139999999
 51
224.9059069999998
  0
ARC
  5
41F
330
1F
100
AcDbEntity
  8
0
 62
   253
370
    35
100
AcDbCircle
 10
188.2019511114888
 20
413.3743868890566
 30
0.0
 40
10.248067
100
AcDbArc
 50
315.094098
 51
345.9310909999999
  0
LINE
  5
420
330
1F
100
AcDbEntity
  8
0
 62
   253
370
    35
100
AcDbLine
 10
82.39996511148881
 20
428.3585178890565
 30
0.0
 11
82.39996511148881
 21
532.0747648890566
 31
0.0
  0
LINE
  5
421
330
1F
100
AcDbEntity
  8
0
 62
   253
370
    35
100
AcDbLine
 10
473.9999561114887
 20
532.0747648890566
 30
0.0
 11
473.9999561114887
 21
428.3585178890565
 31
0.0
  0
ARC
  5
422
330
1F
100
AcDbEntity
  8
0
 62
   253
370
    35
100
AcDbCircle
 10
472.0110031114887
 20
532.0781828890566
 30
0.0
 40
1.988738999999999
100
AcDbArc
 50
359.901857
 51
90.09815199999994
  0
LINE
  5
423
330
1F
100
AcDbEntity
  8
0
 62
   253
370
    35
100
AcDbLine
 10
472.0075851114887
 20
534.0671968890566
 30
0.0
 11
84.3923511114888
 21
534.0671968890566
 31
0.0
  0
ARC
  5
424
330
1F
100
AcDbEntity
  8
0
 62
   253
370
    35
100
AcDbCircle
 10
84.38894811148882
 20
532.0781828890566
 30
0.0
 40
1.988738999999999
100
AcDbArc
 50
89.90185299999995
 51
180.0981449999998
  0
ELLIPSE
  5
425
330
1F
100
AcDbEntity
  8
0
 62
   253
370
    35
100
AcDbEllipse
 10
82.39816411148881
 20
424.8652928890566
 30
0.0
 11
0.0
 21
-1.00030518
 31
0.0
210
0.0
220
0.0
230
1.0
 40
0.087476
 41
3.159042879999999
 42
3.606658729999999
  0
LINE
  5
426
330
1F
100
AcDbEntity
  8
0
 62
   253
 48
0.001729
370
    35
100
AcDbLine
 10
82.35891911148882
 20
425.7593358890566
 30
0.0
 11
82.3487411114888
 21
425.6909148890565
 31
0.0
  0
LINE
  5
427
330
1F
100
AcDbEntity
  8
0
 62
   253
 48
0.05415
370
    35
100
AcDbLine
 10
82.3487411114888
 20
425.6909148890565
 30
0.0
 11
82.3487411114888
 21
427.8569308890565
 31
0.0
  0
LINE
  5
428
330
1F
100
AcDbEntity
  8
0
 62
   253
 48
0.00021
370
    35
100
AcDbLine
 10
82.3487411114888
 20
427.8569308890565
 30
0.0
 11
82.3569811114888
 21
427.8585788890564
 31
0.0
  0
ELLIPSE
  5
429
330
1F
100
AcDbEntity
  8
0
 62
   253
370
    35
100
AcDbEllipse
 10
82.35621811148881
 20
428.3585178890565
 30
0.0
 11
0.0
 21
-0.5
 31
0.0
210
0.0
220
0.0
230
1.0
 40
0.087489
 41
0.01745329
 42
1.57079633
  0
ELLIPSE
  5
42A
330
1F
100
AcDbEntity
  8
0
 62
   253
370
    35
100
AcDbEllipse
 10
474.0437181114888
 20
428.3585178890565
 30
0.0
 11
0.0
 21
-0.5
 31
0.0
210
0.0
220
0.0
230
1.0
 40
0.087489
 41
4.71238898
 42
6.265732009999999
  0
LINE
  5
42B
330
1F
100
AcDbEntity
  8
0
 62
   253
 48
0.001729
370
    35
100
AcDbLine
 10
474.0410321114888
 20
425.7593358890566
 30
0.0
 11
474.0512251114888
 21
425.6909148890565
 31
0.0
  0
ELLIPSE
  5
42C
330
1F
100
AcDbEntity
  8
0
 62
   253
370
    35
100
AcDbEllipse
 10
474.0017871114888
 20
424.8654758890565
 30
0.0
 11
0.0
 21
-1.000122069999999
 31
0.0
210
0.0
220
0.0
230
1.0
 40
0.087483
 41
2.676486189999999
 42
3.1241407
  0
LINE
  5
42D
330
1F
100
AcDbEntity
  8
0
 62
   253
 48
0.000212
370
    35
100
AcDbLine
 10
474.0512251114888
 20
427.8569308890565
 30
0.0
 11
474.0429241114887
 21
427.8585788890564
 31
0.0
  0
LINE
  5
42E
330
1F
100
AcDbEntity
  8
0
 62
   253
 48
0.05415
370
    35
100
AcDbLine
 10
474.0512251114888
 20
425.6909148890565
 30
0.0
 11
474.0512251114888
 21
427.8569308890565
 31
0.0
  0
ELLIPSE
  5
42F
330
1F
100
AcDbEntity
  8
0
 62
   253
370
    35
100
AcDbEllipse
 10
82.89473111148881
 20
425.8654148890565
 30
0.0
 11
0.09783936
 21
-0.4903259300000001
 31
0.0
210
0.0
220
0.0
230
0.9999999999999998
 40
0.996044
 41
4.51622155
 42
6.0854968
  0
LINE
  5
430
330
1F
100
AcDbEntity
  8
0
 62
   253
 48
0.001589
370
    35
100
AcDbLine
 10
82.95706311148881
 20
425.3779268890567
 30
0.0
 11
82.89473111148881
 21
425.3655368890566
 31
0.0
  0
LINE
  5
431
330
1F
100
AcDbEntity
  8
0
 62
   253
 48
0.001588
370
    35
100
AcDbLine
 10
473.4428881114888
 20
425.3779268890567
 30
0.0
 11
473.5052051114888
 21
425.3655368890566
 31
0.0
  0
ELLIPSE
  5
432
330
1F
100
AcDbEntity
  8
0
 62
   253
370
    35
100
AcDbEllipse
 10
473.5052051114888
 20
425.8654148890565
 30
0.0
 11
0.09783936
 21
0.4903259300000001
 31
0.0
210
0.0
220
0.0
230
0.9999999999999998
 40
0.996044
 41
3.33928116
 42
4.90855641
  0
LINE
  5
433
330
1F
100
AcDbEntity
  8
0
 62
   253
370
    35
100
AcDbLine
 10
84.45135611148883
 20
425.4018528890566
 30
0.0
 11
132.6999681114888
 21
425.4018528890566
 31
0.0
  0
LINE
  5
434
330
1F
100
AcDbEntity
  8
0
 62
   253
 48
0.001736
370
    35
100
AcDbLine
 10
132.6999681114888
 20
425.3323948890566
 30
0.0
 11
132.6999681114888
 21
425.4018528890566
 31
0.0
  0
ARC
  5
435
330
1F
100
AcDbEntity
  8
0
 62
   253
370
    35
100
AcDbCircle
 10
152.6751571114888
 20
2521.409359889057
 30
0.0
 40
2096.199158
100
AcDbArc
 50
269.4901849999999
 51
270.014348
  0
LINE
  5
436
330
1F
100
AcDbEntity
  8
0
 62
   253
370
    35
100
AcDbLine
 10
153.1999681114888
 20
425.2098968890566
 30
0.0
 11
223.1999681114888
 21
425.2098968890566
 31
0.0
  0
ARC
  5
437
330
1F
100
AcDbEntity
  8
0
 62
   253
370
    35
100
AcDbCircle
 10
223.7265181114888
 20
2522.067562889057
 30
0.0
 40
2096.857247
100
AcDbArc
 50
269.9856130000001
 51
270.5096120000001
  0
LINE
  5
438
330
1F
100
AcDbEntity
  8
0
 62
   253
 48
0.001736
370
    35
100
AcDbLine
 10
243.6999681114888
 20
425.4018528890566
 30
0.0
 11
243.6999681114888
 21
425.3323948890566
 31
0.0
  0
LINE
  5
439
330
1F
100
AcDbEntity
  8
0
 62
   253
370
    35
100
AcDbLine
 10
243.6999681114888
 20
425.4018528890566
 30
0.0
 11
312.6999681114889
 21
425.4018528890566
 31
0.0
  0
LINE
  5
43A
330
1F
100
AcDbEntity
  8
0
 62
   253
 48
0.001736
370
    35
100
AcDbLine
 10
312.6999681114889
 20
425.4018528890566
 30
0.0
 11
312.6999681114889
 21
425.3323948890566
 31
0.0
  0
ARC
  5
43B
330
1F
100
AcDbEntity
  8
0
 62
   253
370
    35
100
AcDbCircle
 10
332.6737841114888
 20
2521.931332889057
 30
0.0
 40
2096.721102
100
AcDbArc
 50
269.4903490000001
 51
270.0143819999999
  0
LINE
  5
43C
330
1F
100
AcDbEntity
  8
0
 62
   253
370
    35
100
AcDbLine
 10
333.1999681114888
 20
425.2098968890566
 30
0.0
 11
403.1999681114887
 21
425.2098968890566
 31
0.0
  0
ARC
  5
43D
330
1F
100
AcDbEntity
  8
0
 62
   253
370
    35
100
AcDbCircle
 10
403.7261521114888
 20
2521.929623889056
 30
0.0
 40
2096.719374
100
AcDbArc
 50
269.9856200000001
 51
270.509653
  0
LINE
  5
43E
330
1F
100
AcDbEntity
  8
0
 62
   253
 48
0.001736
370
    35
100
AcDbLine
 10
423.6999681114888
 20
425.3323948890566
 30
0.0
 11
423.6999681114888
 21
425.4018528890566
 31
0.0
  0
LINE
  5
43F
330
1F
100
AcDbEntity
  8
0
 62
   253
370
    35
100
AcDbLine
 10
423.6999681114888
 20
425.4018528890566
 30
0.0
 11
471.9485641114888
 21
425.4018528890566
 31
0.0
  0
LINE
  5
440
330
1F
100
AcDbEntity
  8
0
 62
   253
 48
0.099519
370
    35
100
AcDbLine
 10
133.1999681114888
 20
429.8825658890567
 30
0.0
 11
133.1999681114888
 21
425.9017918890567
 31
0.0
  0
ARC
  5
441
330
1F
100
AcDbEntity
  8
0
 62
   253
370
    35
100
AcDbCircle
 10
135.2102981114888
 20
429.8875698890565
 30
0.0
 40
2.009978999999999
100
AcDbArc
 50
118.2594939999999
 51
180.141995
  0
ARC
  5
442
330
1F
100
AcDbEntity
  8
0
 62
   253
370
    35
100
AcDbCircle
 10
153.1957871114888
 20
396.2152678890566
 30
0.0
 40
40.184578
100
AcDbArc
 50
89.9940530000001
 51
118.115732
  0
LINE
  5
443
330
1F
100
AcDbEntity
  8
0
 62
   253
370
    35
100
AcDbLine
 10
153.1999681114888
 20
436.4000218890565
 30
0.0
 11
223.1999681114888
 21
436.4000218890565
 31
0.0
  0
ARC
  5
444
330
1F
100
AcDbEntity
  8
0
 62
   253
370
    35
100
AcDbCircle
 10
223.2041791114888
 20
396.2153898890566
 30
0.0
 40
40.18446599999999
100
AcDbArc
 50
61.88422500000003
 51
90.00599299999996
  0
ARC
  5
445
330
1F
100
AcDbEntity
  8
0
 62
   253
370
    35
100
AcDbCircle
 10
241.1896221114888
 20
429.8875698890565
 30
0.0
 40
2.009978999999999
100
AcDbArc
 50
359.85801
 51
61.74050500000006
  0
LINE
  5
446
330
1F
100
AcDbEntity
  8
0
 62
   253
 48
0.099519
370
    35
100
AcDbLine
 10
243.1999681114888
 20
429.8825658890567
 30
0.0
 11
243.1999681114888
 21
425.9017918890567
 31
0.0
  0
LINE
  5
447
330
1F
100
AcDbEntity
  8
0
 62
   253
 48
0.099519
370
    35
100
AcDbLine
 10
313.1999681114888
 20
429.8825658890567
 30
0.0
 11
313.1999681114888
 21
425.9017918890567
 31
0.0
  0
ARC
  5
448
330
1F
100
AcDbEntity
  8
0
 62
   253
370
    35
100
AcDbCircle
 10
315.2103131114889
 20
429.8875088890566
 30
0.0
 40
2.010003999999999
100
AcDbArc
 50
118.259179
 51
180.1409149999998
  0
ARC
  5
449
330
1F
100
AcDbEntity
  8
0
 62
   253
370
    35
100
AcDbCircle
 10
333.1957871114888
 20
396.2152678890566
 30
0.0
 40
40.184578
100
AcDbArc
 50
89.9940530000001
 51
118.115732
  0
LINE
  5
44A
330
1F
100
AcDbEntity
  8
0
 62
   253
370
    35
100
AcDbLine
 10
333.1999681114888
 20
436.4000218890565
 30
0.0
 11
403.1999681114887
 21
436.4000218890565
 31
0.0
  0
ARC
  5
44B
330
1F
100
AcDbEntity
  8
0
 62
   253
370
    35
100
AcDbCircle
 10
403.2041791114887
 20
396.2153898890566
 30
0.0
 40
40.18446599999999
100
AcDbArc
 50
61.88422500000003
 51
90.00599299999996
  0
ARC
  5
44C
330
1F
100
AcDbEntity
  8
0
 62
   253
370
    35
100
AcDbCircle
 10
421.1896531114888
 20
429.8875698890565
 30
0.0
 40
2.009978999999999
100
AcDbArc
 50
359.85801
 51
61.74050500000006
  0
LINE
  5
44D
330
1F
100
AcDbEntity
  8
0
 62
   253
 48
0.099519
370
    35
100
AcDbLine
 10
423.1999681114888
 20
429.8825658890567
 30
0.0
 11
423.1999681114888
 21
425.9017918890567
 31
0.0
  0
ELLIPSE
  5
44E
330
1F
100
AcDbEntity
  8
0
 62
   253
370
    35
100
AcDbEllipse
 10
132.6999681114888
 20
425.8323338890566
 30
0.0
 11
-0.5
 21
0.0
 31
0.0
210
0.0
220
0.0
230
1.0
 40
0.9998479999999998
 41
1.57079633
 42
3.14159265
  0
LINE
  5
44F
330
1F
100
AcDbEntity
  8
0
 62
   253
 48
0.001736
370
    35
100
AcDbLine
 10
133.1999681114888
 20
425.8323338890566
 30
0.0
 11
133.1999681114888
 21
425.9017918890567
 31
0.0
  0
ELLIPSE
  5
450
330
1F
100
AcDbEntity
  8
0
 62
   253
370
    35
100
AcDbEllipse
 10
132.6999681114888
 20
425.9017918890567
 30
0.0
 11
-0.5
 21
0.0
 31
0.0
210
0.0
220
0.0
230
1.0
 40
0.9998479999999998
 41
1.57079633
 42
3.14159265
  0
LINE
  5
451
330
1F
100
AcDbEntity
  8
0
 62
   253
 48
0.012173
370
    35
100
AcDbLine
 10
153.1999681114888
 20
425.2098968890566
 30
0.0
 11
153.1999681114888
 21
425.6968358890564
 31
0.0
  0
LINE
  5
452
330
1F
100
AcDbEntity
  8
0
 62
   253
 48
0.012173
370
    35
100
AcDbLine
 10
223.1999681114888
 20
425.2098968890566
 30
0.0
 11
223.1999681114888
 21
425.6968358890564
 31
0.0
  0
LINE
  5
453
330
1F
100
AcDbEntity
  8
0
 62
   253
 48
0.001736
370
    35
100
AcDbLine
 10
243.1999681114888
 20
425.9017918890567
 30
0.0
 11
243.1999681114888
 21
425.8323338890566
 31
0.0
  0
ELLIPSE
  5
454
330
1F
100
AcDbEntity
  8
0
 62
   253
370
    35
100
AcDbEllipse
 10
243.6999681114888
 20
425.9017918890567
 30
0.0
 11
-0.5
 21
0.0
 31
0.0
210
0.0
220
0.0
230
1.0
 40
0.9998479999999998
 41
0.0
 42
1.57079633
  0
LINE
  5
455
330
1F
100
AcDbEntity
  8
0
 62
   253
 48
0.001736
370
    35
100
AcDbLine
 10
313.1999681114888
 20
425.9017918890567
 30
0.0
 11
313.1999681114888
 21
425.8323338890566
 31
0.0
  0
ELLIPSE
  5
456
330
1F
100
AcDbEntity
  8
0
 62
   253
370
    35
100
AcDbEllipse
 10
312.6999681114889
 20
425.9017918890567
 30
0.0
 11
-0.5
 21
0.0
 31
0.0
210
0.0
220
0.0
230
1.0
 40
0.9998479999999998
 41
1.57079633
 42
3.14159265
  0
LINE
  5
457
330
1F
100
AcDbEntity
  8
0
 62
   253
 48
0.012173
370
    35
100
AcDbLine
 10
333.1999681114888
 20
425.2098968890566
 30
0.0
 11
333.1999681114888
 21
425.6968358890564
 31
0.0
  0
LINE
  5
458
330
1F
100
AcDbEntity
  8
0
 62
   253
 48
0.012173
370
    35
100
AcDbLine
 10
403.1999681114887
 20
425.2098968890566
 30
0.0
 11
403.1999681114887
 21
425.6968358890564
 31
0.0
  0
LINE
  5
459
330
1F
100
AcDbEntity
  8
0
 62
   253
 48
0.001736
370
    35
100
AcDbLine
 10
423.1999681114888
 20
425.8323338890566
 30
0.0
 11
423.1999681114888
 21
425.9017918890567
 31
0.0
  0
ELLIPSE
  5
45A
330
1F
100
AcDbEntity
  8
0
 62
   253
370
    35
100
AcDbEllipse
 10
423.6999681114888
 20
425.9017918890567
 30
0.0
 11
0.5
 21
0.0
 31
0.0
210
0.0
220
0.0
230
1.0
 40
0.9998479999999998
 41
3.14159265
 42
4.71238898
  0
LINE
  5
45B
330
1F
100
AcDbEntity
  8
0
 62
   253
 48
0.2675800000000001
370
    35
100
AcDbLine
 10
153.1999681114888
 20
425.6968358890564
 30
0.0
 11
153.1999681114888
 21
436.4000218890565
 31
0.0
  0
LINE
  5
45C
330
1F
100
AcDbEntity
  8
0
 62
   253
 48
0.2675800000000001
370
    35
100
AcDbLine
 10
223.1999681114888
 20
425.6968358890564
 30
0.0
 11
223.1999681114888
 21
436.4000218890565
 31
0.0
  0
LINE
  5
45D
330
1F
100
AcDbEntity
  8
0
 62
   253
 48
0.2675800000000001
370
    35
100
AcDbLine
 10
333.1999681114888
 20
425.6968358890564
 30
0.0
 11
333.1999681114888
 21
436.4000218890565
 31
0.0
  0
LINE
  5
45E
330
1F
100
AcDbEntity
  8
0
 62
   253
 48
0.2675800000000001
370
    35
100
AcDbLine
 10
403.1999681114887
 20
425.6968358890564
 30
0.0
 11
403.1999681114887
 21
436.4000218890565
 31
0.0
  0
LINE
  5
45F
330
1F
100
AcDbEntity
  8
0
 62
   253
 48
0.000185
370
    35
100
AcDbLine
 10
82.3573931114888
 20
424.8491788890565
 30
0.0
 11
82.35731611148881
 21
424.8565648890566
 31
0.0
  0
LINE
  5
460
330
1F
100
AcDbEntity
  8
0
 62
   253
370
    35
100
AcDbLine
 10
475.4912891114888
 20
535.1445888890566
 30
0.0
 11
475.4912891114888
 21
402.9557158890566
 31
0.0
  0
LINE
  5
461
330
1F
100
AcDbEntity
  8
0
 62
   253
370
    35
100
AcDbLine
 10
82.9085401114888
 20
400.9558078890566
 30
0.0
 11
473.4914111114887
 21
400.9558078890566
 31
0.0
  0
ARC
  5
462
330
1F
100
AcDbEntity
  8
0
 62
   253
370
    35
100
AcDbCircle
 10
473.4915331114888
 20
402.9555638890565
 30
0.0
 40
1.999774
100
AcDbArc
 50
269.9958449999999
 51
0.0041570000000082
  0
ARC
  5
463
330
1F
100
AcDbEntity
  8
0
 62
   253
370
    35
100
AcDbCircle
 10
473.4915331114888
 20
535.1447118890567
 30
0.0
 40
1.999774
100
AcDbArc
 50
359.995843
 51
90.00415500000004
  0
LINE
  5
464
330
1F
100
AcDbEntity
  8
0
 62
   253
370
    35
100
AcDbLine
 10
80.90861611148881
 20
535.1445888890566
 30
0.0
 11
80.90861611148881
 21
402.9557158890566
 31
0.0
  0
ARC
  5
465
330
1F
100
AcDbEntity
  8
0
 62
   253
370
    35
100
AcDbCircle
 10
82.90840311148881
 20
535.1447118890567
 30
0.0
 40
1.999774
100
AcDbArc
 50
89.99584300000001
 51
180.0041609999999
  0
ARC
  5
466
330
1F
100
AcDbEntity
  8
0
 62
   253
370
    35
100
AcDbCircle
 10
82.90840311148881
 20
402.9555638890565
 30
0.0
 40
1.999774
100
AcDbArc
 50
179.9958389999998
 51
270.004157
  0
LINE
  5
467
330
1F
100
AcDbEntity
  8
0
 62
   253
 48
0.000108
370
    35
100
AcDbLine
 10
466.2086351114887
 20
534.0702488890565
 30
0.0
 11
466.2116871114887
 21
534.0671968890566
 31
0.0
  0
LINE
  5
468
330
1F
100
AcDbEntity
  8
0
 62
   253
 48
0.000108
370
    35
100
AcDbLine
 10
464.1913011114887
 20
534.0702488890565
 30
0.0
 11
464.1882491114889
 21
534.0671968890566
 31
0.0
  0
LINE
  5
469
330
1F
100
AcDbEntity
  8
0
 62
   253
 48
0.000108
370
    35
100
AcDbLine
 10
326.7086351114888
 20
534.0702488890565
 30
0.0
 11
326.7116871114888
 21
534.0671968890566
 31
0.0
  0
LINE
  5
46A
330
1F
100
AcDbEntity
  8
0
 62
   253
 48
0.000108
370
    35
100
AcDbLine
 10
324.6913011114888
 20
534.0702488890565
 30
0.0
 11
324.6882491114889
 21
534.0671968890566
 31
0.0
  0
LINE
  5
46B
330
1F
100
AcDbEntity
  8
0
 62
   253
 48
0.000108
370
    35
100
AcDbLine
 10
231.7086351114888
 20
534.0702488890565
 30
0.0
 11
231.7116871114888
 21
534.0671968890566
 31
0.0
  0
LINE
  5
46C
330
1F
100
AcDbEntity
  8
0
 62
   253
 48
0.000108
370
    35
100
AcDbLine
 10
229.6913011114888
 20
534.0702488890565
 30
0.0
 11
229.6882491114888
 21
534.0671968890566
 31
0.0
  0
LINE
  5
46D
330
1F
100
AcDbEntity
  8
0
 62
   253
 48
0.000108
370
    35
100
AcDbLine
 10
92.2086351114888
 20
534.0702488890565
 30
0.0
 11
92.21170211148882
 21
534.0671968890566
 31
0.0
  0
LINE
  5
46E
330
1F
100
AcDbEntity
  8
0
 62
   253
 48
0.000108
370
    35
100
AcDbLine
 10
90.1913011114888
 20
534.0702488890565
 30
0.0
 11
90.1882341114888
 21
534.0671968890566
 31
0.0
  0
LINE
  5
46F
330
1F
100
AcDbEntity
  8
0
 62
     7
 48
0.018748
370
    35
100
AcDbLine
 10
487.1999681114888
 20
603.1392178890565
 30
0.0
 11
487.1999681114888
 21
603.8891568890566
 31
0.0
  0
LINE
  5
470
330
1F
100
AcDbEntity
  8
0
 62
     7
 48
0.018748
370
    35
100
AcDbLine
 10
69.19996811148881
 20
603.1392178890565
 30
0.0
 11
69.19996811148881
 21
603.8891568890566
 31
0.0
  0
LINE
  5
471
330
1F
100
AcDbEntity
  8
0
 62
     7
 48
0.00145
370
    35
100
AcDbLine
 10
69.19996811148881
 20
603.8891568890566
 30
0.0
 11
69.19996811148881
 21
603.9471408890566
 31
0.0
  0
LINE
  5
472
330
1F
100
AcDbEntity
  8
0
 62
     7
370
    35
100
AcDbLine
 10
487.1999681114888
 20
603.9471408890566
 30
0.0
 11
69.19996811148881
 21
603.9471408890566
 31
0.0
  0
LINE
  5
473
330
1F
100
AcDbEntity
  8
0
 62
     7
 48
0.00145
370
    35
100
AcDbLine
 10
487.1999681114888
 20
603.8891568890566
 30
0.0
 11
487.1999681114888
 21
603.9471408890566
 31
0.0
  0
LINE
  5
474
330
1F
100
AcDbEntity
  8
0
 62
     7
 48
0.00174
370
    35
100
AcDbLine
 10
54.49119711148881
 20
594.0953338890566
 30
0.0
 11
54.45263811148881
 21
594.1532558890566
 31
0.0
  0
ARC
  5
475
330
1F
100
AcDbEntity
  8
0
 62
     7
370
    35
100
AcDbCircle
 10
69.19996811148881
 20
587.9471408890566
 30
0.0
 40
16.0
100
AcDbArc
 50
90.0
 51
157.1770370000001
  0
LINE
  5
476
330
1F
100
AcDbEntity
  8
0
 62
     7
 48
0.054432
370
    35
100
AcDbLine
 10
57.47982911148881
 20
594.0741548890564
 30
0.0
 11
55.30258311148881
 21
594.0841038890567
 31
0.0
  0
LINE
  5
477
330
1F
100
AcDbEntity
  8
0
 62
     7
 48
0.049176
370
    35
100
AcDbLine
 10
69.19996811148881
 20
601.1721768890565
 30
0.0
 11
69.19996811148881
 21
603.1392178890565
 31
0.0
  0
LINE
  5
478
330
1F
100
AcDbEntity
  8
0
 62
   253
 48
0.050433
370
    35
100
AcDbLine
 10
464.1913011114887
 20
534.0702488890565
 30
0.0
 11
466.2086351114887
 21
534.0702488890565
 31
0.0
  0
LINE
  5
479
330
1F
100
AcDbEntity
  8
0
 62
   253
 48
0.050433
370
    35
100
AcDbLine
 10
90.1913011114888
 20
534.0702488890565
 30
0.0
 11
92.2086351114888
 21
534.0702488890565
 31
0.0
  0
LINE
  5
47A
330
1F
100
AcDbEntity
  8
0
 62
   253
 48
0.050433
370
    35
100
AcDbLine
 10
229.6913011114888
 20
534.0702488890565
 30
0.0
 11
231.7086351114888
 21
534.0702488890565
 31
0.0
  0
LINE
  5
47B
330
1F
100
AcDbEntity
  8
0
 62
   253
 48
0.050433
370
    35
100
AcDbLine
 10
324.6913011114888
 20
534.0702488890565
 30
0.0
 11
326.7086351114888
 21
534.0702488890565
 31
0.0
  0
LINE
  5
47C
330
1F
100
AcDbEntity
  8
0
 62
     7
 48
0.049176
370
    35
100
AcDbLine
 10
487.1999681114888
 20
601.1721768890565
 30
0.0
 11
487.1999681114888
 21
603.1392178890565
 31
0.0
  0
LINE
  5
47D
330
1F
100
AcDbEntity
  8
0
 62
     7
 48
0.054432
370
    35
100
AcDbLine
 10
501.0973681114887
 20
594.0841038890567
 30
0.0
 11
498.9201221114888
 21
594.0741548890564
 31
0.0
  0
ARC
  5
47E
330
1F
100
AcDbEntity
  8
0
 62
     7
370
    35
100
AcDbCircle
 10
487.1999681114888
 20
587.9471408890566
 30
0.0
 40
16.0
100
AcDbArc
 50
22.82296099999997
 51
90.0
  0
LINE
  5
47F
330
1F
100
AcDbEntity
  8
0
 62
     7
 48
0.001739
370
    35
100
AcDbLine
 10
501.9472821114887
 20
594.1532558890566
 30
0.0
 11
501.9087691114888
 21
594.0953338890566
 31
0.0
  0
LINE
  5
480
330
1F
100
AcDbEntity
  8
0
 62
     7
370
    35
100
AcDbLine
 10
53.19996811148882
 20
385.1533168890566
 30
0.0
 11
53.19996811148882
 21
581.7410248890565
 31
0.0
  0
LINE
  5
481
330
1F
100
AcDbEntity
  8
0
 62
     7
 48
0.00205
370
    35
100
AcDbLine
 10
53.19996811148882
 20
385.1533168890566
 30
0.0
 11
53.25793611148881
 21
385.0953338890566
 31
0.0
  0
LINE
  5
482
330
1F
100
AcDbEntity
  8
0
 62
     7
 48
0.002049
370
    35
100
AcDbLine
 10
53.19996811148882
 20
581.7410248890565
 30
0.0
 11
53.25793611148881
 21
581.7989468890567
 31
0.0
  0
LINE
  5
483
330
1F
100
AcDbEntity
  8
0
 62
     7
 48
0.049176
370
    35
100
AcDbLine
 10
55.97490111148881
 20
581.8201268890565
 30
0.0
 11
54.00787511148881
 21
581.8101778890565
 31
0.0
  0
LINE
  5
484
330
1F
100
AcDbEntity
  8
0
 62
     7
 48
0.049176
370
    35
100
AcDbLine
 10
55.97490111148881
 20
385.0741848890567
 30
0.0
 11
54.00787511148881
 21
385.0841038890566
 31
0.0
  0
LINE
  5
485
330
1F
100
AcDbEntity
  8
0
 62
     7
 48
0.018747
370
    35
100
AcDbLine
 10
69.19996811148881
 20
601.1721768890565
 30
0.0
 11
69.19996811148881
 21
600.4222988890566
 31
0.0
  0
ARC
  5
486
330
1F
100
AcDbEntity
  8
0
 62
     7
370
    35
100
AcDbCircle
 10
69.19996811148881
 20
587.9471408890566
 30
0.0
 40
12.475126
100
AcDbArc
 50
90.0
 51
150.6434969999999
  0
LINE
  5
487
330
1F
100
AcDbEntity
  8
0
 62
     7
 48
0.000981
370
    35
100
AcDbLine
 10
58.34665111148881
 20
594.0291108890566
 30
0.0
 11
58.32681411148882
 21
594.0629848890565
 31
0.0
  0
LINE
  5
488
330
1F
100
AcDbEntity
  8
0
 62
     7
370
    35
100
AcDbLine
 10
53.19996811148882
 20
66.1532868890566
 30
0.0
 11
53.19996811148882
 21
372.7409638890566
 31
0.0
  0
LINE
  5
489
330
1F
100
AcDbEntity
  8
0
 62
     7
 48
0.002049
370
    35
100
AcDbLine
 10
53.19996811148882
 20
66.1532868890566
 30
0.0
 11
53.25793611148881
 21
66.09533388905659
 31
0.0
  0
LINE
  5
48A
330
1F
100
AcDbEntity
  8
0
 62
     7
 48
0.00205
370
    35
100
AcDbLine
 10
53.19996811148882
 20
372.7409638890566
 30
0.0
 11
53.25793611148881
 21
372.7989468890567
 31
0.0
  0
LINE
  5
48B
330
1F
100
AcDbEntity
  8
0
 62
     7
 48
0.049176
370
    35
100
AcDbLine
 10
55.97490111148881
 20
372.8200958890566
 30
0.0
 11
54.00787511148881
 21
372.8101778890566
 31
0.0
  0
LINE
  5
48C
330
1F
100
AcDbEntity
  8
0
 62
     7
 48
0.049176
370
    35
100
AcDbLine
 10
55.97490111148881
 20
66.0741848890566
 30
0.0
 11
54.00787511148881
 21
66.08410388905659
 31
0.0
  0
LINE
  5
48D
330
1F
100
AcDbEntity
  8
0
 62
     7
 48
0.018747
370
    35
100
AcDbLine
 10
487.1999681114888
 20
601.1721768890565
 30
0.0
 11
487.1999681114888
 21
600.4222988890566
 31
0.0
  0
LINE
  5
48E
330
1F
100
AcDbEntity
  8
0
 62
     7
370
    35
100
AcDbLine
 10
487.1999681114888
 20
600.4222988890566
 30
0.0
 11
69.19996811148881
 21
600.4222988890566
 31
0.0
  0
LINE
  5
48F
330
1F
100
AcDbEntity
  8
0
 62
     7
 48
0.018748
370
    35
100
AcDbLine
 10
69.19996811148881
 20
44.7550628890566
 30
0.0
 11
69.19996811148881
 21
44.0051238890566
 31
0.0
  0
LINE
  5
490
330
1F
100
AcDbEntity
  8
0
 62
     7
 48
0.054432
370
    35
100
AcDbLine
 10
55.30258311148881
 20
53.8101778890566
 30
0.0
 11
57.47982911148881
 21
53.8200958890566
 31
0.0
  0
LINE
  5
491
330
1F
100
AcDbEntity
  8
0
 62
     7
 48
0.049175
370
    35
100
AcDbLine
 10
69.19996811148881
 20
46.7220738890566
 30
0.0
 11
69.19996811148881
 21
44.7550628890566
 31
0.0
  0
ARC
  5
492
330
1F
100
AcDbEntity
  8
0
 62
     7
370
    35
100
AcDbCircle
 10
487.1999681114888
 20
587.9471408890566
 30
0.0
 40
12.475126
100
AcDbArc
 50
29.35650800000008
 51
90.0
  0
LINE
  5
493
330
1F
100
AcDbEntity
  8
0
 62
     7
 48
0.000981
370
    35
100
AcDbLine
 10
498.0731371114887
 20
594.0629848890565
 30
0.0
 11
498.0533001114888
 21
594.0291108890566
 31
0.0
  0
LINE
  5
494
330
1F
100
AcDbEntity
  8
0
 62
     7
 48
0.049177
370
    35
100
AcDbLine
 10
500.4250041114887
 20
385.0741848890567
 30
0.0
 11
502.3920451114888
 21
385.0841038890566
 31
0.0
  0
LINE
  5
495
330
1F
100
AcDbEntity
  8
0
 62
     7
 48
0.049177
370
    35
100
AcDbLine
 10
500.4250041114887
 20
581.8201268890565
 30
0.0
 11
502.3920451114888
 21
581.8101778890565
 31
0.0
  0
LINE
  5
496
330
1F
100
AcDbEntity
  8
0
 62
     7
 48
0.002049
370
    35
100
AcDbLine
 10
503.1999681114888
 20
581.7410248890565
 30
0.0
 11
503.1419841114888
 21
581.7989468890567
 31
0.0
  0
LINE
  5
497
330
1F
100
AcDbEntity
  8
0
 62
     7
370
    35
100
AcDbLine
 10
503.1999681114888
 20
581.7410248890565
 30
0.0
 11
503.1999681114888
 21
385.1533168890566
 31
0.0
  0
LINE
  5
498
330
1F
100
AcDbEntity
  8
0
 62
     7
 48
0.00205
370
    35
100
AcDbLine
 10
503.1999681114888
 20
385.1533168890566
 30
0.0
 11
503.1419841114888
 21
385.0953338890566
 31
0.0
  0
LINE
  5
499
330
1F
100
AcDbEntity
  8
0
 62
     7
 48
0.018748
370
    35
100
AcDbLine
 10
487.1999681114888
 20
44.7550628890566
 30
0.0
 11
487.1999681114888
 21
44.0051238890566
 31
0.0
  0
LINE
  5
49A
330
1F
100
AcDbEntity
  8
0
 62
     7
 48
0.00145
370
    35
100
AcDbLine
 10
487.1999681114888
 20
44.0051238890566
 30
0.0
 11
487.1999681114888
 21
43.94714088905661
 31
0.0
  0
LINE
  5
49B
330
1F
100
AcDbEntity
  8
0
 62
     7
370
    35
100
AcDbLine
 10
69.19996811148881
 20
43.94714088905661
 30
0.0
 11
487.1999681114888
 21
43.94714088905661
 31
0.0
  0
LINE
  5
49C
330
1F
100
AcDbEntity
  8
0
 62
     7
 48
0.00145
370
    35
100
AcDbLine
 10
69.19996811148881
 20
44.0051238890566
 30
0.0
 11
69.19996811148881
 21
43.94714088905661
 31
0.0
  0
ARC
  5
49D
330
1F
100
AcDbEntity
  8
0
 62
     7
370
    35
100
AcDbCircle
 10
69.19996811148881
 20
59.9471408890566
 30
0.0
 40
16.0
100
AcDbArc
 50
202.8229629999999
 51
270.0
  0
LINE
  5
49E
330
1F
100
AcDbEntity
  8
0
 62
     7
 48
0.00174
370
    35
100
AcDbLine
 10
54.45263811148881
 20
53.7409938890566
 30
0.0
 11
54.49119711148881
 21
53.79894688905659
 31
0.0
  0
LINE
  5
49F
330
1F
100
AcDbEntity
  8
0
 62
     7
370
    35
100
AcDbLine
 10
56.72484011148881
 20
66.0629848890566
 30
0.0
 11
56.72484011148881
 21
372.8312958890566
 31
0.0
  0
LINE
  5
4A0
330
1F
100
AcDbEntity
  8
0
 62
     7
 48
0.001198
370
    35
100
AcDbLine
 10
56.75871411148881
 20
372.8651708890566
 30
0.0
 11
56.72484011148881
 21
372.8312958890566
 31
0.0
  0
LINE
  5
4A1
330
1F
100
AcDbEntity
  8
0
 62
     7
 48
0.001198
370
    35
100
AcDbLine
 10
56.75871411148881
 20
385.0291108890567
 30
0.0
 11
56.72484011148881
 21
385.0629848890566
 31
0.0
  0
LINE
  5
4A2
330
1F
100
AcDbEntity
  8
0
 62
     7
370
    35
100
AcDbLine
 10
56.72484011148881
 20
385.0629848890566
 30
0.0
 11
56.72484011148881
 21
581.8312958890565
 31
0.0
  0
LINE
  5
4A3
330
1F
100
AcDbEntity
  8
0
 62
     7
 48
0.001198
370
    35
100
AcDbLine
 10
56.75871411148881
 20
581.8651708890565
 30
0.0
 11
56.72484011148881
 21
581.8312958890565
 31
0.0
  0
LINE
  5
4A4
330
1F
100
AcDbEntity
  8
0
 62
     7
 48
0.000463
370
    35
100
AcDbLine
 10
56.76280411148881
 20
581.8471038890566
 30
0.0
 11
56.75871411148881
 21
581.8651708890565
 31
0.0
  0
LINE
  5
4A5
330
1F
100
AcDbEntity
  8
0
 62
     7
 48
0.000584
370
    35
100
AcDbLine
 10
58.36146711148881
 20
594.0471768890565
 30
0.0
 11
58.34665111148881
 21
594.0291108890566
 31
0.0
  0
LINE
  5
4A6
330
1F
100
AcDbEntity
  8
0
 62
     7
 48
0.001198
370
    35
100
AcDbLine
 10
56.75871411148881
 20
66.02911088905661
 30
0.0
 11
56.72484011148881
 21
66.0629848890566
 31
0.0
  0
LINE
  5
4A7
330
1F
100
AcDbEntity
  8
0
 62
     7
 48
0.000462
370
    35
100
AcDbLine
 10
56.76280411148881
 20
372.8471348890566
 30
0.0
 11
56.75871411148881
 21
372.8651708890566
 31
0.0
  0
LINE
  5
4A8
330
1F
100
AcDbEntity
  8
0
 62
     7
 48
0.000462
370
    35
100
AcDbLine
 10
56.76280411148881
 20
385.0471468890566
 30
0.0
 11
56.75871411148881
 21
385.0291108890567
 31
0.0
  0
LINE
  5
4A9
330
1F
100
AcDbEntity
  8
0
 62
   253
370
    35
100
AcDbLine
 10
82.9085401114888
 20
537.1445278890566
 30
0.0
 11
473.4914111114887
 21
537.1445278890566
 31
0.0
  0
LINE
  5
4AA
330
1F
100
AcDbEntity
  8
0
 62
     7
 48
0.049998
370
    13
100
AcDbLine
 10
59.09712411148881
 20
575.2498138890564
 30
0.0
 11
57.09720011148881
 21
575.2498138890564
 31
0.0
  0
LINE
  5
4AB
330
1F
100
AcDbEntity
  8
0
 62
     7
 48
0.049175
370
    35
100
AcDbLine
 10
487.1999681114888
 20
46.7220738890566
 30
0.0
 11
487.1999681114888
 21
44.7550628890566
 31
0.0
  0
ARC
  5
4AC
330
1F
100
AcDbEntity
  8
0
 62
     7
370
    35
100
AcDbCircle
 10
69.19996811148881
 20
59.9471408890566
 30
0.0
 40
12.475126
100
AcDbArc
 50
209.3565030000001
 51
270.0
  0
LINE
  5
4AD
330
1F
100
AcDbEntity
  8
0
 62
     7
 48
0.018748
370
    35
100
AcDbLine
 10
69.19996811148881
 20
46.7220738890566
 30
0.0
 11
69.19996811148881
 21
47.4720128890566
 31
0.0
  0
LINE
  5
4AE
330
1F
100
AcDbEntity
  8
0
 62
     7
 48
0.000981
370
    35
100
AcDbLine
 10
58.32681411148882
 20
53.8312958890566
 30
0.0
 11
58.34665111148881
 21
53.86517088905661
 31
0.0
  0
LINE
  5
4AF
330
1F
100
AcDbEntity
  8
0
 62
     7
 48
0.049177
370
    35
100
AcDbLine
 10
500.4250041114887
 20
372.8200958890566
 30
0.0
 11
502.3920451114888
 21
372.8101778890566
 31
0.0
  0
LINE
  5
4B0
330
1F
100
AcDbEntity
  8
0
 62
     7
 48
0.049177
370
    35
100
AcDbLine
 10
500.4250041114887
 20
66.0741848890566
 30
0.0
 11
502.3920451114888
 21
66.08410388905659
 31
0.0
  0
LINE
  5
4B1
330
1F
100
AcDbEntity
  8
0
 62
     7
 48
0.00205
370
    35
100
AcDbLine
 10
503.1999681114888
 20
372.7409638890566
 30
0.0
 11
503.1419841114888
 21
372.7989468890567
 31
0.0
  0
LINE
  5
4B2
330
1F
100
AcDbEntity
  8
0
 62
     7
370
    35
100
AcDbLine
 10
503.1999681114888
 20
372.7409638890566
 30
0.0
 11
503.1999681114888
 21
66.1532868890566
 31
0.0
  0
LINE
  5
4B3
330
1F
100
AcDbEntity
  8
0
 62
     7
 48
0.002049
370
    35
100
AcDbLine
 10
503.1999681114888
 20
66.1532868890566
 30
0.0
 11
503.1419841114888
 21
66.09533388905659
 31
0.0
  0
LINE
  5
4B4
330
1F
100
AcDbEntity
  8
0
 62
     7
370
    35
100
AcDbLine
 10
499.6751271114887
 20
372.8312958890566
 30
0.0
 11
499.6751271114887
 21
66.0629848890566
 31
0.0
  0
LINE
  5
4B5
330
1F
100
AcDbEntity
  8
0
 62
     7
 48
0.049998
370
    13
100
AcDbLine
 10
497.3028121114888
 20
575.2498138890564
 30
0.0
 11
499.3027511114887
 21
575.2498138890564
 31
0.0
  0
LINE
  5
4B6
330
1F
100
AcDbEntity
  8
0
 62
     7
 48
0.000584
370
    35
100
AcDbLine
 10
498.0384691114887
 20
594.0471768890565
 30
0.0
 11
498.0533001114888
 21
594.0291108890566
 31
0.0
  0
LINE
  5
4B7
330
1F
100
AcDbEntity
  8
0
 62
     7
 48
0.000463
370
    35
100
AcDbLine
 10
499.6371631114888
 20
581.8471038890566
 30
0.0
 11
499.6411911114888
 21
581.8651708890565
 31
0.0
  0
LINE
  5
4B8
330
1F
100
AcDbEntity
  8
0
 62
     7
 48
0.001199
370
    35
100
AcDbLine
 10
499.6411911114888
 20
581.8651708890565
 30
0.0
 11
499.6751271114887
 21
581.8312958890565
 31
0.0
  0
LINE
  5
4B9
330
1F
100
AcDbEntity
  8
0
 62
     7
370
    35
100
AcDbLine
 10
499.6751271114887
 20
581.8312958890565
 30
0.0
 11
499.6751271114887
 21
385.0629848890566
 31
0.0
  0
LINE
  5
4BA
330
1F
100
AcDbEntity
  8
0
 62
     7
 48
0.001199
370
    35
100
AcDbLine
 10
499.6411911114888
 20
385.0291108890567
 30
0.0
 11
499.6751271114887
 21
385.0629848890566
 31
0.0
  0
LINE
  5
4BB
330
1F
100
AcDbEntity
  8
0
 62
     7
 48
0.000462
370
    35
100
AcDbLine
 10
499.6371631114888
 20
385.0471468890566
 30
0.0
 11
499.6411911114888
 21
385.0291108890567
 31
0.0
  0
LINE
  5
4BC
330
1F
100
AcDbEntity
  8
0
 62
     7
 48
0.000462
370
    35
100
AcDbLine
 10
499.6371631114888
 20
372.8471348890566
 30
0.0
 11
499.6411911114888
 21
372.8651708890566
 31
0.0
  0
LINE
  5
4BD
330
1F
100
AcDbEntity
  8
0
 62
     7
 48
0.001199
370
    35
100
AcDbLine
 10
499.6411911114888
 20
372.8651708890566
 30
0.0
 11
499.6751271114887
 21
372.8312958890566
 31
0.0
  0
LINE
  5
4BE
330
1F
100
AcDbEntity
  8
0
 62
     7
 48
0.018748
370
    35
100
AcDbLine
 10
487.1999681114888
 20
46.7220738890566
 30
0.0
 11
487.1999681114888
 21
47.4720128890566
 31
0.0
  0
ARC
  5
4BF
330
1F
100
AcDbEntity
  8
0
 62
     7
370
    35
100
AcDbCircle
 10
487.1999681114888
 20
59.9471408890566
 30
0.0
 40
12.475126
100
AcDbArc
 50
270.0
 51
330.6434919999999
  0
LINE
  5
4C0
330
1F
100
AcDbEntity
  8
0
 62
     7
 48
0.054432
370
    35
100
AcDbLine
 10
498.9201221114888
 20
53.8200958890566
 30
0.0
 11
501.0973681114887
 21
53.8101778890566
 31
0.0
  0
LINE
  5
4C1
330
1F
100
AcDbEntity
  8
0
 62
     7
 48
0.00174
370
    35
100
AcDbLine
 10
501.9087691114888
 20
53.79894688905659
 30
0.0
 11
501.9472821114887
 21
53.7409938890566
 31
0.0
  0
ARC
  5
4C2
330
1F
100
AcDbEntity
  8
0
 62
     7
370
    35
100
AcDbCircle
 10
487.1999681114888
 20
59.9471408890566
 30
0.0
 40
16.0
100
AcDbArc
 50
270.0
 51
337.177039
  0
LINE
  5
4C3
330
1F
100
AcDbEntity
  8
0
 62
     7
 48
0.000584
370
    35
100
AcDbLine
 10
58.36146711148881
 20
53.8471348890566
 30
0.0
 11
58.34665111148881
 21
53.86517088905661
 31
0.0
  0
LINE
  5
4C4
330
1F
100
AcDbEntity
  8
0
 62
     7
 48
0.000462
370
    35
100
AcDbLine
 10
56.76280411148881
 20
66.04714688905659
 30
0.0
 11
56.75871411148881
 21
66.02911088905661
 31
0.0
  0
ARC
  5
4C5
330
1F
100
AcDbEntity
  8
0
 62
     7
370
    35
100
AcDbCircle
 10
472.6999681114888
 20
561.9471408890566
 30
0.0
 40
2.0
100
AcDbArc
 50
0.0
 51
90.0
  0
LINE
  5
4C6
330
1F
100
AcDbEntity
  8
0
 62
     7
370
    35
100
AcDbLine
 10
472.6999681114888
 20
563.9471408890566
 30
0.0
 11
429.6999681114888
 21
563.9471408890566
 31
0.0
  0
ARC
  5
4C7
330
1F
100
AcDbEntity
  8
0
 62
     7
370
    35
100
AcDbCircle
 10
429.6999681114888
 20
561.9471408890566
 30
0.0
 40
2.0
100
AcDbArc
 50
90.0
 51
180.0
  0
LINE
  5
4C8
330
1F
100
AcDbEntity
  8
0
 62
     7
 48
0.4
370
    35
100
AcDbLine
 10
427.6999681114888
 20
545.9471408890565
 30
0.0
 11
427.6999681114888
 21
561.9471408890566
 31
0.0
  0
ARC
  5
4C9
330
1F
100
AcDbEntity
  8
0
 62
     7
370
    35
100
AcDbCircle
 10
429.6999681114888
 20
545.9471408890565
 30
0.0
 40
2.0
100
AcDbArc
 50
180.0
 51
270.0
  0
LINE
  5
4CA
330
1F
100
AcDbEntity
  8
0
 62
     7
370
    35
100
AcDbLine
 10
429.6999681114888
 20
543.9471408890565
 30
0.0
 11
472.6999681114888
 21
543.9471408890565
 31
0.0
  0
ARC
  5
4CB
330
1F
100
AcDbEntity
  8
0
 62
     7
370
    35
100
AcDbCircle
 10
472.6999681114888
 20
545.9471408890565
 30
0.0
 40
2.0
100
AcDbArc
 50
270.0
 51
0.0
  0
LINE
  5
4CC
330
1F
100
AcDbEntity
  8
0
 62
     7
 48
0.4
370
    35
100
AcDbLine
 10
474.6999681114888
 20
561.9471408890566
 30
0.0
 11
474.6999681114888
 21
545.9471408890565
 31
0.0
  0
LINE
  5
4CD
330
1F
100
AcDbEntity
  8
0
 62
     7
 48
0.049998
370
    13
100
AcDbLine
 10
59.09712411148881
 20
72.6444518890566
 30
0.0
 11
57.09720011148881
 21
72.6444518890566
 31
0.0
  0
LINE
  5
4CE
330
1F
100
AcDbEntity
  8
0
 62
     7
 48
0.049998
370
    13
100
AcDbLine
 10
497.3028121114888
 20
72.6444518890566
 30
0.0
 11
499.3027511114887
 21
72.6444518890566
 31
0.0
  0
LINE
  5
4CF
330
1F
100
AcDbEntity
  8
0
 62
     7
370
    35
100
AcDbLine
 10
69.19996811148881
 20
47.4720128890566
 30
0.0
 11
487.1999681114888
 21
47.4720128890566
 31
0.0
  0
LINE
  5
4D0
330
1F
100
AcDbEntity
  8
0
 62
     7
 48
0.001199
370
    35
100
AcDbLine
 10
499.6411911114888
 20
66.02911088905661
 30
0.0
 11
499.6751271114887
 21
66.0629848890566
 31
0.0
  0
LINE
  5
4D1
330
1F
100
AcDbEntity
  8
0
 62
     7
 48
0.000462
370
    35
100
AcDbLine
 10
499.6371631114888
 20
66.04714688905659
 30
0.0
 11
499.6411911114888
 21
66.02911088905661
 31
0.0
  0
LINE
  5
4D2
330
1F
100
AcDbEntity
  8
0
 62
     7
 48
0.000584
370
    35
100
AcDbLine
 10
498.0384691114887
 20
53.8471348890566
 30
0.0
 11
498.0533001114888
 21
53.86517088905661
 31
0.0
  0
LINE
  5
4D3
330
1F
100
AcDbEntity
  8
0
 62
     7
 48
0.000981
370
    35
100
AcDbLine
 10
498.0533001114888
 20
53.86517088905661
 30
0.0
 11
498.0731371114887
 21
53.8312958890566
 31
0.0
  0
CIRCLE
  5
4D4
330
1F
100
AcDbEntity
  8
0
 62
     7
370
    35
100
AcDbCircle
 10
487.1999681114888
 20
59.9471408890566
 30
0.0
 40
9.113216
  0
CIRCLE
  5
4D5
330
1F
100
AcDbEntity
  8
0
 62
     7
370
    35
100
AcDbCircle
 10
69.19996811148881
 20
59.9471408890566
 30
0.0
 40
9.113216
  0
CIRCLE
  5
4D6
330
1F
100
AcDbEntity
  8
0
 62
     7
370
    35
100
AcDbCircle
 10
487.1999681114888
 20
378.9471408890566
 30
0.0
 40
9.113216
  0
CIRCLE
  5
4D7
330
1F
100
AcDbEntity
  8
0
 62
     7
370
    35
100
AcDbCircle
 10
69.19996811148881
 20
378.9471408890566
 30
0.0
 40
9.113216
  0
CIRCLE
  5
4D8
330
1F
100
AcDbEntity
  8
0
 62
     7
370
    35
100
AcDbCircle
 10
487.1999681114888
 20
587.9471408890566
 30
0.0
 40
9.113216
  0
CIRCLE
  5
4D9
330
1F
100
AcDbEntity
  8
0
 62
     7
370
    35
100
AcDbCircle
 10
69.19996811148881
 20
587.9471408890566
 30
0.0
 40
9.113216
  0
ARC
  5
4DA
330
1F
100
AcDbEntity
  8
0
 62
     7
370
    35
100
AcDbCircle
 10
489.0990161114888
 20
58.6323818890566
 30
0.0
 40
8.154378999999997
100
AcDbArc
 50
323.2013070000001
 51
359.6628329999999
  0
LINE
  5
4DB
330
1F
100
AcDbEntity
  8
0
 62
     7
 48
0.245
370
    35
100
AcDbLine
 10
487.1999681114888
 20
49.5436678890566
 30
0.0
 11
477.3999801114888
 21
49.5436678890566
 31
0.0
  0
ARC
  5
4DC
330
1F
100
AcDbEntity
  8
0
 62
     7
370
    35
100
AcDbCircle
 10
477.3994311114888
 20
50.1585968890566
 30
0.0
 40
0.614857
100
AcDbArc
 50
181.067267
 51
270.0483069999999
  0
ELLIPSE
  5
4DD
330
1F
100
AcDbEntity
  8
0
 62
     7
370
    35
100
AcDbEllipse
 10
476.8798991114888
 20
72.6444518890566
 30
0.0
 11
0.0
 21
-25.0
 31
0.0
210
0.0
220
0.0
230
1.0
 40
0.008727
 41
5.245125179999999
 42
5.831911869999999
  0
LINE
  5
4DE
330
1F
100
AcDbEntity
  8
0
 62
     7
 48
0.233821
370
    35
100
AcDbLine
 10
496.5528121114888
 20
70.48457088905658
 30
0.0
 11
487.1999681114888
 21
70.48457088905658
 31
0.0
  0
ARC
  5
4DF
330
1F
100
AcDbEntity
  8
0
 62
     7
370
    35
100
AcDbCircle
 10
496.5528121114888
 20
69.74782988905658
 30
0.0
 40
0.736725
100
AcDbArc
 50
359.9459729999999
 51
90.00434699999992
  0
ARC
  5
4E0
330
1F
100
AcDbEntity
  8
0
 62
     7
370
    35
100
AcDbCircle
 10
-1825.962202888511
 20
71.6367158890566
 30
0.0
 40
2323.25238
100
AcDbArc
 50
359.6781029999999
 51
359.9534000000002
  0
ARC
  5
4E1
330
1F
100
AcDbEntity
  8
0
 62
     7
370
    35
100
AcDbCircle
 10
496.5528121114888
 20
369.1471528890566
 30
0.0
 40
0.738243
100
AcDbArc
 50
270.0
 51
0.0
  0
LINE
  5
4E2
330
1F
100
AcDbEntity
  8
0
 62
     7
 48
0.233821
370
    35
100
AcDbLine
 10
496.5528121114888
 20
368.4089018890566
 30
0.0
 11
487.1999681114888
 21
368.4089018890566
 31
0.0
  0
ARC
  5
4E3
330
1F
100
AcDbEntity
  8
0
 62
     7
370
    35
100
AcDbCircle
 10
487.1999681114888
 20
378.9471408890566
 30
0.0
 40
10.538243
100
AcDbArc
 50
90.0
 51
270.0
  0
LINE
  5
4E4
330
1F
100
AcDbEntity
  8
0
 62
     7
 48
0.233821
370
    35
100
AcDbLine
 10
496.5528121114888
 20
389.4853788890566
 30
0.0
 11
487.1999681114888
 21
389.4853788890566
 31
0.0
  0
ARC
  5
4E5
330
1F
100
AcDbEntity
  8
0
 62
     7
370
    35
100
AcDbCircle
 10
496.5528121114888
 20
388.7471288890566
 30
0.0
 40
0.738243
100
AcDbArc
 50
0.0
 51
90.0
  0
LINE
  5
4E6
330
1F
100
AcDbEntity
  8
0
 62
     7
 48
0.489999
370
    35
100
AcDbLine
 10
497.2910931114888
 20
388.7471288890566
 30
0.0
 11
497.2910931114888
 21
369.1471528890566
 31
0.0
  0
ARC
  5
4E7
330
1F
100
AcDbEntity
  8
0
 62
     7
370
    35
100
AcDbCircle
 10
496.5528121114888
 20
578.1464208890565
 30
0.0
 40
0.736725
100
AcDbArc
 50
269.9956529999999
 51
0.0540269999999452
  0
LINE
  5
4E8
330
1F
100
AcDbEntity
  8
0
 62
     7
 48
0.233821
370
    35
100
AcDbLine
 10
496.5528121114888
 20
577.4097258890566
 30
0.0
 11
487.1999681114888
 21
577.4097258890566
 31
0.0
  0
ELLIPSE
  5
4E9
330
1F
100
AcDbEntity
  8
0
 62
     7
370
    35
100
AcDbEllipse
 10
476.8798991114888
 20
575.2498138890564
 30
0.0
 11
0.0
 21
-25.0
 31
0.0
210
0.0
220
0.0
230
1.0
 40
0.008727
 41
3.592866089999999
 42
4.179652779999999
  0
ARC
  5
4EA
330
1F
100
AcDbEntity
  8
0
 62
     7
370
    35
100
AcDbCircle
 10
477.3994311114888
 20
597.7356538890566
 30
0.0
 40
0.614857
100
AcDbArc
 50
89.95169300000003
 51
178.9327329999998
  0
LINE
  5
4EB
330
1F
100
AcDbEntity
  8
0
 62
     7
 48
0.245
370
    35
100
AcDbLine
 10
487.1999681114888
 20
598.3506438890566
 30
0.0
 11
477.3999801114888
 21
598.3506438890566
 31
0.0
  0
ARC
  5
4EC
330
1F
100
AcDbEntity
  8
0
 62
     7
370
    35
100
AcDbCircle
 10
489.0990161114888
 20
589.2618988890566
 30
0.0
 40
8.154378999999997
100
AcDbArc
 50
0.3371669999999039
 51
36.79869299999997
  0
ARC
  5
4ED
330
1F
100
AcDbEntity
  8
0
 62
     7
370
    35
100
AcDbCircle
 10
-1825.962202888511
 20
576.2575658890567
 30
0.0
 40
2323.25238
100
AcDbArc
 50
0.046599999999909
 51
0.321897000000079
  0
LINE
  5
4EE
330
1F
100
AcDbEntity
  8
0
 62
     7
370
    13
100
AcDbLine
 10
497.3028121114888
 20
575.2498138890564
 30
0.0
 11
59.09712411148881
 21
575.2498138890564
 31
0.0
  0
LINE
  5
4EF
330
1F
100
AcDbEntity
  8
0
 62
     7
 48
0.23382
370
    35
100
AcDbLine
 10
69.19996811148881
 20
577.4097258890566
 30
0.0
 11
59.84715411148881
 21
577.4097258890566
 31
0.0
  0
ARC
  5
4F0
330
1F
100
AcDbEntity
  8
0
 62
     7
370
    35
100
AcDbCircle
 10
59.84710811148881
 20
578.1464208890565
 30
0.0
 40
0.736725
100
AcDbArc
 50
179.9459779999999
 51
270.004341
  0
ARC
  5
4F1
330
1F
100
AcDbEntity
  8
0
 62
     7
370
    35
100
AcDbCircle
 10
2382.362016111489
 20
576.2575658890567
 30
0.0
 40
2323.25238
100
AcDbArc
 50
179.6780980000001
 51
179.9533959999998
  0
ARC
  5
4F2
330
1F
100
AcDbEntity
  8
0
 62
     7
370
    35
100
AcDbCircle
 10
67.30093511148881
 20
589.2618988890566
 30
0.0
 40
8.154378999999997
100
AcDbArc
 50
143.2013089999999
 51
179.6628399999998
  0
LINE
  5
4F3
330
1F
100
AcDbEntity
  8
0
 62
     7
 48
0.245
370
    35
100
AcDbLine
 10
78.9999711114888
 20
598.3506438890566
 30
0.0
 11
69.19996811148881
 21
598.3506438890566
 31
0.0
  0
ARC
  5
4F4
330
1F
100
AcDbEntity
  8
0
 62
     7
370
    35
100
AcDbCircle
 10
79.0004901114888
 20
597.7356538890566
 30
0.0
 40
0.614857
100
AcDbArc
 50
1.067268999999982
 51
90.04830600000004
  0
ELLIPSE
  5
4F5
330
1F
100
AcDbEntity
  8
0
 62
     7
370
    35
100
AcDbEllipse
 10
79.5200361114888
 20
575.2498138890564
 30
0.0
 11
0.0
 21
25.0
 31
0.0
210
0.0
220
0.0
230
1.0
 40
0.008727
 41
5.245125179999999
 42
5.831911869999999
  0
LINE
  5
4F6
330
1F
100
AcDbEntity
  8
0
 62
     7
370
    13
100
AcDbLine
 10
497.3028121114888
 20
72.6444518890566
 30
0.0
 11
59.09712411148881
 21
72.6444518890566
 31
0.0
  0
ARC
  5
4F7
330
1F
100
AcDbEntity
  8
0
 62
     7
370
    35
100
AcDbCircle
 10
59.84712411148881
 20
369.1471528890566
 30
0.0
 40
0.738243
100
AcDbArc
 50
180.0
 51
270.0
  0
LINE
  5
4F8
330
1F
100
AcDbEntity
  8
0
 62
     7
 48
0.489999
370
    35
100
AcDbLine
 10
59.10887311148881
 20
388.7471288890566
 30
0.0
 11
59.10887311148881
 21
369.1471528890566
 31
0.0
  0
ARC
  5
4F9
330
1F
100
AcDbEntity
  8
0
 62
     7
370
    35
100
AcDbCircle
 10
59.84712411148881
 20
388.7471288890566
 30
0.0
 40
0.738243
100
AcDbArc
 50
90.0
 51
180.0
  0
LINE
  5
4FA
330
1F
100
AcDbEntity
  8
0
 62
     7
 48
0.233821
370
    35
100
AcDbLine
 10
69.19996811148881
 20
389.4853788890566
 30
0.0
 11
59.84712411148881
 21
389.4853788890566
 31
0.0
  0
ARC
  5
4FB
330
1F
100
AcDbEntity
  8
0
 62
     7
370
    35
100
AcDbCircle
 10
69.19996811148881
 20
378.9471408890566
 30
0.0
 40
10.538243
100
AcDbArc
 50
270.0
 51
90.0
  0
LINE
  5
4FC
330
1F
100
AcDbEntity
  8
0
 62
     7
 48
0.233821
370
    35
100
AcDbLine
 10
69.19996811148881
 20
368.4089018890566
 30
0.0
 11
59.84712411148881
 21
368.4089018890566
 31
0.0
  0
ARC
  5
4FD
330
1F
100
AcDbEntity
  8
0
 62
     7
370
    35
100
AcDbCircle
 10
79.0004901114888
 20
50.1585968890566
 30
0.0
 40
0.614857
100
AcDbArc
 50
269.951694
 51
358.932731
  0
LINE
  5
4FE
330
1F
100
AcDbEntity
  8
0
 62
     7
 48
0.245
370
    35
100
AcDbLine
 10
78.9999711114888
 20
49.5436678890566
 30
0.0
 11
69.19996811148881
 21
49.5436678890566
 31
0.0
  0
ARC
  5
4FF
330
1F
100
AcDbEntity
  8
0
 62
     7
370
    35
100
AcDbCircle
 10
67.30093511148881
 20
58.6323818890566
 30
0.0
 40
8.154378999999997
100
AcDbArc
 50
180.33716
 51
216.7986910000001
  0
ARC
  5
500
330
1F
100
AcDbEntity
  8
0
 62
     7
370
    35
100
AcDbCircle
 10
2382.362016111489
 20
71.6367158890566
 30
0.0
 40
2323.25238
100
AcDbArc
 50
180.0466039999999
 51
180.321902
  0
ARC
  5
501
330
1F
100
AcDbEntity
  8
0
 62
     7
370
    35
100
AcDbCircle
 10
59.84710811148881
 20
69.74782988905658
 30
0.0
 40
0.736725
100
AcDbArc
 50
89.99565899999997
 51
180.0540219999998
  0
LINE
  5
502
330
1F
100
AcDbEntity
  8
0
 62
     7
 48
0.23382
370
    35
100
AcDbLine
 10
69.19996811148881
 20
70.48457088905658
 30
0.0
 11
59.84715411148881
 21
70.48457088905658
 31
0.0
  0
ELLIPSE
  5
503
330
1F
100
AcDbEntity
  8
0
 62
     7
370
    35
100
AcDbEllipse
 10
79.5200361114888
 20
72.6444518890566
 30
0.0
 11
0.0
 21
25.0
 31
0.0
210
0.0
220
0.0
230
1.0
 40
0.008727
 41
3.592866089999999
 42
4.179652779999999
  0
CIRCLE
  5
504
330
1F
100
AcDbEntity
  8
0
 62
     7
370
    35
100
AcDbCircle
 10
69.19996811148881
 20
378.9471408890566
 30
0.0
 40
4.883901999999999
  0
LINE
  5
505
330
1F
100
AcDbEntity
  8
0
 62
     7
 48
0.05
370
    35
100
AcDbLine
 10
73.69996811148881
 20
379.9471408890566
 30
0.0
 11
73.69996811148881
 21
377.9471408890566
 31
0.0
  0
LINE
  5
506
330
1F
100
AcDbEntity
  8
0
 62
     7
 48
0.225
370
    35
100
AcDbLine
 10
73.69996811148881
 20
379.9471408890566
 30
0.0
 11
64.69996811148881
 21
379.9471408890566
 31
0.0
  0
LINE
  5
507
330
1F
100
AcDbEntity
  8
0
 62
     7
 48
0.05
370
    35
100
AcDbLine
 10
64.69996811148881
 20
377.9471408890566
 30
0.0
 11
64.69996811148881
 21
379.9471408890566
 31
0.0
  0
LINE
  5
508
330
1F
100
AcDbEntity
  8
0
 62
     7
 48
0.225
370
    35
100
AcDbLine
 10
64.69996811148881
 20
377.9471408890566
 30
0.0
 11
73.69996811148881
 21
377.9471408890566
 31
0.0
  0
CIRCLE
  5
509
330
1F
100
AcDbEntity
  8
0
 62
     7
370
    35
100
AcDbCircle
 10
487.1999681114888
 20
378.9471408890566
 30
0.0
 40
4.883901999999999
  0
LINE
  5
50A
330
1F
100
AcDbEntity
  8
0
 62
     7
 48
0.05
370
    35
100
AcDbLine
 10
491.6999681114888
 20
379.9471408890566
 30
0.0
 11
491.6999681114888
 21
377.9471408890566
 31
0.0
  0
LINE
  5
50B
330
1F
100
AcDbEntity
  8
0
 62
     7
 48
0.225
370
    35
100
AcDbLine
 10
491.6999681114888
 20
379.9471408890566
 30
0.0
 11
482.6999681114888
 21
379.9471408890566
 31
0.0
  0
LINE
  5
50C
330
1F
100
AcDbEntity
  8
0
 62
     7
 48
0.05
370
    35
100
AcDbLine
 10
482.6999681114888
 20
377.9471408890566
 30
0.0
 11
482.6999681114888
 21
379.9471408890566
 31
0.0
  0
LINE
  5
50D
330
1F
100
AcDbEntity
  8
0
 62
     7
 48
0.225
370
    35
100
AcDbLine
 10
482.6999681114888
 20
377.9471408890566
 30
0.0
 11
491.6999681114888
 21
377.9471408890566
 31
0.0
  0
CIRCLE
  5
50E
330
1F
100
AcDbEntity
  8
0
 62
     7
370
    35
100
AcDbCircle
 10
69.19996811148881
 20
59.9471408890566
 30
0.0
 40
4.883901999999999
  0
LINE
  5
50F
330
1F
100
AcDbEntity
  8
0
 62
     7
 48
0.05
370
    35
100
AcDbLine
 10
73.69996811148881
 20
60.94714088905661
 30
0.0
 11
73.69996811148881
 21
58.94714088905661
 31
0.0
  0
LINE
  5
510
330
1F
100
AcDbEntity
  8
0
 62
     7
 48
0.225
370
    35
100
AcDbLine
 10
73.69996811148881
 20
60.94714088905661
 30
0.0
 11
64.69996811148881
 21
60.94714088905661
 31
0.0
  0
LINE
  5
511
330
1F
100
AcDbEntity
  8
0
 62
     7
 48
0.05
370
    35
100
AcDbLine
 10
64.69996811148881
 20
58.94714088905661
 30
0.0
 11
64.69996811148881
 21
60.94714088905661
 31
0.0
  0
LINE
  5
512
330
1F
100
AcDbEntity
  8
0
 62
     7
 48
0.225
370
    35
100
AcDbLine
 10
64.69996811148881
 20
58.94714088905661
 30
0.0
 11
73.69996811148881
 21
58.94714088905661
 31
0.0
  0
CIRCLE
  5
513
330
1F
100
AcDbEntity
  8
0
 62
     7
370
    35
100
AcDbCircle
 10
487.1999681114888
 20
59.9471408890566
 30
0.0
 40
4.883901999999999
  0
LINE
  5
514
330
1F
100
AcDbEntity
  8
0
 62
     7
 48
0.05
370
    35
100
AcDbLine
 10
491.6999681114888
 20
60.94714088905661
 30
0.0
 11
491.6999681114888
 21
58.94714088905661
 31
0.0
  0
LINE
  5
515
330
1F
100
AcDbEntity
  8
0
 62
     7
 48
0.225
370
    35
100
AcDbLine
 10
491.6999681114888
 20
60.94714088905661
 30
0.0
 11
482.6999681114888
 21
60.94714088905661
 31
0.0
  0
LINE
  5
516
330
1F
100
AcDbEntity
  8
0
 62
     7
 48
0.05
370
    35
100
AcDbLine
 10
482.6999681114888
 20
58.94714088905661
 30
0.0
 11
482.6999681114888
 21
60.94714088905661
 31
0.0
  0
LINE
  5
517
330
1F
100
AcDbEntity
  8
0
 62
     7
 48
0.225
370
    35
100
AcDbLine
 10
482.6999681114888
 20
58.94714088905661
 30
0.0
 11
491.6999681114888
 21
58.94714088905661
 31
0.0
  0
CIRCLE
  5
518
330
1F
100
AcDbEntity
  8
0
 62
     7
370
    35
100
AcDbCircle
 10
69.19996811148881
 20
587.9471408890566
 30
0.0
 40
4.883901999999999
  0
LINE
  5
519
330
1F
100
AcDbEntity
  8
0
 62
     7
 48
0.05
370
    35
100
AcDbLine
 10
73.69996811148881
 20
588.9471408890566
 30
0.0
 11
73.69996811148881
 21
586.9471408890566
 31
0.0
  0
LINE
  5
51A
330
1F
100
AcDbEntity
  8
0
 62
     7
 48
0.225
370
    35
100
AcDbLine
 10
73.69996811148881
 20
588.9471408890566
 30
0.0
 11
64.69996811148881
 21
588.9471408890566
 31
0.0
  0
LINE
  5
51B
330
1F
100
AcDbEntity
  8
0
 62
     7
 48
0.05
370
    35
100
AcDbLine
 10
64.69996811148881
 20
586.9471408890566
 30
0.0
 11
64.69996811148881
 21
588.9471408890566
 31
0.0
  0
LINE
  5
51C
330
1F
100
AcDbEntity
  8
0
 62
     7
 48
0.225
370
    35
100
AcDbLine
 10
64.69996811148881
 20
586.9471408890566
 30
0.0
 11
73.69996811148881
 21
586.9471408890566
 31
0.0
  0
CIRCLE
  5
51D
330
1F
100
AcDbEntity
  8
0
 62
     7
370
    35
100
AcDbCircle
 10
487.1999681114888
 20
587.9471408890566
 30
0.0
 40
4.883901999999999
  0
LINE
  5
51E
330
1F
100
AcDbEntity
  8
0
 62
     7
 48
0.05
370
    35
100
AcDbLine
 10
491.6999681114888
 20
588.9471408890566
 30
0.0
 11
491.6999681114888
 21
586.9471408890566
 31
0.0
  0
LINE
  5
51F
330
1F
100
AcDbEntity
  8
0
 62
     7
 48
0.225
370
    35
100
AcDbLine
 10
491.6999681114888
 20
588.9471408890566
 30
0.0
 11
482.6999681114888
 21
588.9471408890566
 31
0.0
  0
LINE
  5
520
330
1F
100
AcDbEntity
  8
0
 62
     7
 48
0.05
370
    35
100
AcDbLine
 10
482.6999681114888
 20
586.9471408890566
 30
0.0
 11
482.6999681114888
 21
588.9471408890566
 31
0.0
  0
LINE
  5
521
330
1F
100
AcDbEntity
  8
0
 62
     7
 48
0.225
370
    35
100
AcDbLine
 10
482.6999681114888
 20
586.9471408890566
 30
0.0
 11
491.6999681114888
 21
586.9471408890566
 31
0.0
  0
LINE
  5
522
330
1F
100
AcDbEntity
  8
0
 62
     7
370
    35
100
AcDbLine
 10
53.19996811148882
 20
59.9471408890566
 30
0.0
 11
53.19996811148882
 21
587.9471408890566
 31
0.0
  0
ARC
  5
523
330
1F
100
AcDbEntity
  8
0
 62
     7
370
    35
100
AcDbCircle
 10
69.19996811148881
 20
59.9471408890566
 30
0.0
 40
16.0
100
AcDbArc
 50
180.0
 51
202.8229629999999
  0
ARC
  5
524
330
1F
100
AcDbEntity
  8
0
 62
     7
370
    35
100
AcDbCircle
 10
487.1999681114888
 20
59.9471408890566
 30
0.0
 40
16.0
100
AcDbArc
 50
337.177039
 51
0.0
  0
LINE
  5
525
330
1F
100
AcDbEntity
  8
0
 62
     7
 48
0.155154
370
    35
100
AcDbLine
 10
503.1999681114888
 20
66.1532868890566
 30
0.0
 11
503.1999681114888
 21
59.9471408890566
 31
0.0
  0
LINE
  5
526
330
1F
100
AcDbEntity
  8
0
 62
     7
 48
0.310309
370
    35
100
AcDbLine
 10
503.1999681114888
 20
385.1533168890566
 30
0.0
 11
503.1999681114888
 21
372.7409638890566
 31
0.0
  0
LINE
  5
527
330
1F
100
AcDbEntity
  8
0
 62
     7
 48
0.155153
370
    35
100
AcDbLine
 10
503.1999681114888
 20
587.9471408890566
 30
0.0
 11
503.1999681114888
 21
581.7410248890565
 31
0.0
  0
ARC
  5
528
330
1F
100
AcDbEntity
  8
0
 62
     7
370
    35
100
AcDbCircle
 10
487.1999681114888
 20
587.9471408890566
 30
0.0
 40
16.0
100
AcDbArc
 50
0.0
 51
90.0
  0
LINE
  5
529
330
1F
100
AcDbEntity
  8
0
 62
     7
370
    35
100
AcDbLine
 10
487.1999681114888
 20
603.9471408890566
 30
0.0
 11
69.19996811148881
 21
603.9471408890566
 31
0.0
  0
ARC
  5
52A
330
1F
100
AcDbEntity
  8
0
 62
     7
370
    35
100
AcDbCircle
 10
69.19996811148881
 20
587.9471408890566
 30
0.0
 40
16.0
100
AcDbArc
 50
90.0
 51
180.0
  0
LINE
  5
52B
330
1F
100
AcDbEntity
  8
0
 62
     7
100
AcDbLine
 10
98.2017047014888
 20
511.4471408890565
 30
0.0
 11
458.2017047014887
 21
511.4471408890565
 31
0.0
  0
LINE
  5
52C
330
1F
100
AcDbEntity
  8
0
 62
     7
100
AcDbLine
 10
458.2017047014887
 20
511.4471408890565
 30
0.0
 11
458.2017047014887
 21
466.4471408890565
 31
0.0
  0
LINE
  5
52D
330
1F
100
AcDbEntity
  8
0
 62
     7
100
AcDbLine
 10
458.2017047014887
 20
466.4471408890565
 30
0.0
 11
98.2017047014888
 21
466.4471408890565
 31
0.0
  0
LINE
  5
52E
330
1F
100
AcDbEntity
  8
0
 62
     7
100
AcDbLine
 10
98.2017047014888
 20
466.4471408890565
 30
0.0
 11
98.2017047014888
 21
511.4471408890565
 31
0.0
  0
DIMENSION
  5
52F
330
1F
100
AcDbEntity
  8
QUOTE
 62
     7
100
AcDbDimension
  2
*D4
 10
30.0871983614888
 20
43.94714088905661
 30
0.0
 11
30.08719836148881
 21
324.2452205990566
 31
0.0
 70
   160
 71
     0
 42
560.0
  3
Standard
100
AcDbAlignedDimension
 13
69.19996811148881
 23
603.9471408890566
 33
0.0
 14
69.19996811148881
 24
43.94714088905661
 34
0.0
 50
90.0
100
AcDbRotatedDimension
1001
ACAD
1000
DSTYLE
1002
{
1070
    41
1040
15.0
1070
   140
1040
10.0
1070
    78
1070
     8
1070
   284
1070
     8
1002
}
  0
DIMENSION
  5
530
330
1F
100
AcDbEntity
  8
QUOTE
 62
     7
100
AcDbDimension
  2
*D5
 10
53.19996811148882
 20
25.9874488990566
 30
0.0
 11
278.4254144114889
 21
25.9874488990566
 31
0.0
 70
   160
 71
     0
 42
450.0
  3
Standard
100
AcDbAlignedDimension
 13
503.1999681114888
 23
59.94476916905661
 33
0.0
 14
53.19996811148882
 24
60.0096394990566
 34
0.0
100
AcDbRotatedDimension
1001
ACAD
1000
DSTYLE
1002
{
1070
    41
1040
15.0
1070
   140
1040
10.0
1070
    78
1070
     8
1070
   284
1070
     8
1002
}
  0
TEXT
  5
531
330
1F
100
AcDbEntity
  8
0
 62
     7
100
AcDbText
 10
84.0465959714888
 20
585.4238832590567
 30
0.0
 40
5.0
  1
GW68014N
 72
     1
 11
102.7965959714888
 21
585.4238832590567
 31
0.0
100
AcDbText
  0
LWPOLYLINE
  5
532
330
1F
100
AcDbEntity
  8
0
 62
   253
370
    35
100
AcDbPolyline
 90
        8
 70
     0
 43
0.0
 10
134.2587901114888
 20
417.8309908890565
 10
134.0079361114888
 20
417.9901088890566
 10
133.7846241114888
 20
418.1842618890565
 10
133.5938431114888
 20
418.4085048890565
 10
133.4072581114888
 20
418.7196628890566
 10
133.2787181114888
 20
419.0576138890565
 10
133.2108171114888
 20
419.4105808890565
 10
133.1999681114888
 20
419.6205418890565
  0
LWPOLYLINE
  5
533
330
1F
100
AcDbEntity
  8
0
 62
   253
370
    35
100
AcDbPolyline
 90
        9
 70
     0
 43
0.0
 10
242.1411301114888
 20
417.8309908890565
 10
242.3920151114888
 20
417.9901088890566
 10
242.6153431114888
 20
418.1843228890565
 10
242.8061081114888
 20
418.4085658890565
 10
242.9600691114888
 20
418.6551488890565
 10
243.0770121114888
 20
418.9201018890566
 10
243.1558091114888
 20
419.1978118890565
 10
243.1889201114888
 20
419.4086888890566
 10
243.1999681114888
 20
419.6205418890565
  0
LWPOLYLINE
  5
534
330
1F
100
AcDbEntity
  8
0
 62
   253
370
    35
100
AcDbPolyline
 90
        9
 70
     0
 43
0.0
 10
422.1411301114888
 20
417.8309908890565
 10
422.3920451114887
 20
417.9901088890566
 10
422.6153121114888
 20
418.1843228890565
 10
422.8061081114888
 20
418.4085658890565
 10
422.9600391114888
 20
418.6551488890565
 10
423.0769821114888
 20
418.9201018890566
 10
423.1558391114888
 20
419.1978118890565
 10
423.1889201114887
 20
419.4086888890566
 10
423.1999681114888
 20
419.6205418890565
  0
LWPOLYLINE
  5
535
330
1F
100
AcDbEntity
  8
0
 62
   253
370
    35
100
AcDbPolyline
 90
        8
 70
     0
 43
0.0
 10
314.2588061114889
 20
417.8309908890565
 10
314.0079211114888
 20
417.9901088890566
 10
313.7846241114888
 20
418.1842618890565
 10
313.5938281114889
 20
418.4085658890565
 10
313.4072431114888
 20
418.7196628890566
 10
313.2787031114887
 20
419.0576138890565
 10
313.2108321114888
 20
419.4105808890565
 10
313.1999681114888
 20
419.6205418890565
  0
LWPOLYLINE
  5
536
330
1F
100
AcDbEntity
  8
0
 62
   253
370
    35
100
AcDbPolyline
 90
       15
 70
     0
 43
0.0
 10
403.1999681114887
 20
411.0463228890565
 10
403.2762311114887
 20
411.0464138890566
 10
404.9572921114888
 20
411.0900238890565
 10
406.6253221114887
 20
411.2122768890565
 10
408.2860881114887
 20
411.4124118890566
 10
409.9339771114888
 20
411.6890838890565
 10
411.5654461114887
 20
412.0410128890566
 10
413.1794601114887
 20
412.4675868890565
 10
414.5350511114887
 20
412.8878758890565
 10
415.8825241114888
 20
413.3636448890566
 10
417.2108321114888
 20
413.8915378890565
 10
418.5158251114887
 20
414.4694188890566
 10
419.7932301114888
 20
415.0947238890565
 10
421.0415821114887
 20
415.7662328890565
 10
422.3639081114888
 20
416.5476048890566
  0
LWPOLYLINE
  5
537
330
1F
100
AcDbEntity
  8
0
 62
   253
370
    35
100
AcDbPolyline
 90
       12
 70
     0
 43
0.0
 10
422.3639081114888
 20
416.5476048890566
 10
422.5829631114887
 20
416.7225308890565
 10
422.7190111114888
 20
416.8771328890565
 10
422.9010791114887
 20
417.1602748890566
 10
422.9467331114888
 20
417.2563448890565
 10
423.0089281114888
 20
417.4453708890566
 10
423.0225391114888
 20
417.5805028890564
 10
423.0093551114888
 20
417.6674168890565
 10
422.9092571114888
 20
417.8057828890564
 10
422.8294231114888
 20
417.8442958890565
 10
422.7346971114887
 20
417.8646208890565
 10
422.6486371114888
 20
417.8691378890566
  0
LWPOLYLINE
  5
538
330
1F
100
AcDbEntity
  8
0
 62
   253
370
    35
100
AcDbPolyline
 90
       12
 70
     0
 43
0.0
 10
314.0360271114888
 20
416.5476048890566
 10
313.8144091114888
 20
416.7250948890566
 10
313.6783611114888
 20
416.8804898890566
 10
313.5518351114888
 20
417.0656708890565
 10
313.4515851114888
 20
417.2600068890565
 10
313.3902451114888
 20
417.4489108890566
 10
313.3775501114889
 20
417.5840428890565
 10
313.3918011114888
 20
417.6712618890566
 10
313.4875961114888
 20
417.8036468890566
 10
313.5408191114887
 20
417.8330048890566
 10
313.6233691114889
 20
417.8580288890565
 10
313.7512681114888
 20
417.8691378890566
  0
LWPOLYLINE
  5
539
330
1F
100
AcDbEntity
  8
0
 62
   253
370
    35
100
AcDbPolyline
 90
       16
 70
     0
 43
0.0
 10
333.1999681114888
 20
411.0463228890565
 10
331.7939311114888
 20
411.0742768890565
 10
330.3863391114888
 20
411.1582918890566
 10
328.9731001114889
 20
411.2990078890566
 10
327.5672771114888
 20
411.4954808890566
 10
326.1718921114888
 20
411.7467008890566
 10
324.7885911114888
 20
412.0520598890565
 10
323.4209761114888
 20
412.4102748890566
 10
322.0650801114888
 20
412.8221408890565
 10
320.7151961114888
 20
413.2900968890566
 10
319.3837451114888
 20
413.8104218890566
 10
318.0730151114888
 20
414.3820158890566
 10
316.7884691114888
 20
415.0020108890565
 10
315.5384081114888
 20
415.6655858890566
 10
314.3200541114889
 20
416.3733488890564
 10
314.0360271114888
 20
416.5476048890566
  0
LWPOLYLINE
  5
53A
330
1F
100
AcDbEntity
  8
0
 62
   253
370
    35
100
AcDbPolyline
 90
       15
 70
     0
 43
0.0
 10
223.1999681114888
 20
411.0463228890565
 10
223.2762311114888
 20
411.0464138890566
 10
224.9572921114888
 20
411.0900238890565
 10
226.6253221114888
 20
411.2122768890565
 10
228.2860881114888
 20
411.4124118890566
 10
229.9339771114888
 20
411.6890838890565
 10
231.5654461114888
 20
412.0410128890566
 10
233.1794601114888
 20
412.4675868890565
 10
234.5350511114888
 20
412.8878758890565
 10
235.8824931114888
 20
413.3636448890566
 10
237.2108631114888
 20
413.8915378890565
 10
238.5158551114888
 20
414.4694188890566
 10
239.7932301114888
 20
415.0947238890565
 10
241.0415821114888
 20
415.7662328890565
 10
242.3639081114888
 20
416.5476048890566
  0
LWPOLYLINE
  5
53B
330
1F
100
AcDbEntity
  8
0
 62
   253
370
    35
100
AcDbPolyline
 90
       12
 70
     0
 43
0.0
 10
242.3639081114888
 20
416.5476048890566
 10
242.5855271114888
 20
416.7250948890566
 10
242.7215741114888
 20
416.8804898890566
 10
242.8481001114888
 20
417.0656708890565
 10
242.9483501114888
 20
417.2600068890565
 10
243.0096911114888
 20
417.4489108890566
 10
243.0223861114888
 20
417.5840428890565
 10
243.0081341114888
 20
417.6712618890566
 10
242.9123401114888
 20
417.8036468890566
 10
242.8591171114888
 20
417.8330048890566
 10
242.7765671114888
 20
417.8580288890565
 10
242.6486681114888
 20
417.8691378890566
  0
LWPOLYLINE
  5
53C
330
1F
100
AcDbEntity
  8
0
 62
   253
370
    35
100
AcDbPolyline
 90
       17
 70
     0
 43
0.0
 10
134.0360431114888
 20
416.5476048890566
 10
134.7302411114888
 20
416.1279878890566
 10
135.9306961114888
 20
415.4507418890565
 10
137.1601731114888
 20
414.8163418890566
 10
138.4243331114888
 20
414.2228368890566
 10
139.7128311114888
 20
413.6762668890566
 10
141.0225691114888
 20
413.1784028890566
 10
142.3489091114888
 20
412.7311978890565
 10
143.6839771114888
 20
412.3369718890566
 10
145.0305041114888
 20
411.9945648890566
 10
146.3795941114888
 20
411.7057468890565
 10
147.7399611114888
 20
411.4683198890565
 10
149.1098951114888
 20
411.2829558890566
 10
150.1308761114888
 20
411.1795018890566
 10
151.1541461114888
 20
411.1055268890566
 10
152.1778731114888
 20
411.0610928890565
 10
153.1999681114888
 20
411.0463228890565
  0
LWPOLYLINE
  5
53D
330
1F
100
AcDbEntity
  8
0
 62
   253
370
    35
100
AcDbPolyline
 90
       12
 70
     0
 43
0.0
 10
134.0360431114888
 20
416.5476048890566
 10
133.8169421114888
 20
416.7225308890565
 10
133.6809251114888
 20
416.8771328890565
 10
133.4988721114888
 20
417.1602748890566
 10
133.4531721114888
 20
417.2563448890565
 10
133.3909931114888
 20
417.4453708890566
 10
133.3774281114888
 20
417.5805028890564
 10
133.3906111114888
 20
417.6674168890565
 10
133.4906781114888
 20
417.8057828890564
 10
133.5705121114888
 20
417.8442958890565
 10
133.6652241114888
 20
417.8646208890565
 10
133.7512681114888
 20
417.8691378890566
  0
LWPOLYLINE
  5
53E
330
1F
100
AcDbEntity
  8
0
 62
   253
370
    35
100
AcDbPolyline
 90
        4
 70
     0
 43
0.0
 10
358.0171981114888
 20
414.5458348890565
 10
358.0129871114888
 20
414.4331638890565
 10
358.0209821114888
 20
414.1889618890566
 10
357.9915631114888
 20
413.7891818890565
  0
LWPOLYLINE
  5
53F
330
1F
100
AcDbEntity
  8
0
 62
   253
370
    35
100
AcDbPolyline
 90
        4
 70
     0
 43
0.0
 10
378.4083721114888
 20
413.7891818890565
 10
378.3810901114888
 20
414.2636688890566
 10
378.3870711114888
 20
414.4567838890565
 10
378.3827381114889
 20
414.5458348890565
  0
LWPOLYLINE
  5
540
330
1F
100
AcDbEntity
  8
0
 62
   253
370
    35
100
AcDbPolyline
 90
        3
 70
     0
 43
0.0
 10
358.2220631114889
 20
411.0285618890566
 10
358.1478441114888
 20
411.0527928890566
 10
358.0746931114888
 20
411.0518468890566
  0
LWPOLYLINE
  5
541
330
1F
100
AcDbEntity
  8
0
 62
   253
370
    35
100
AcDbPolyline
 90
        3
 70
     0
 43
0.0
 10
378.1778731114888
 20
411.0285618890566
 10
378.2520921114888
 20
411.0527928890566
 10
378.3252421114888
 20
411.0518468890566
  0
LWPOLYLINE
  5
542
330
1F
100
AcDbEntity
  8
0
 62
   253
370
    35
100
AcDbPolyline
 90
        4
 70
     0
 43
0.0
 10
177.9915631114888
 20
413.7891818890565
 10
178.0188461114888
 20
414.2636688890566
 10
178.0128651114888
 20
414.4567838890565
 10
178.0171981114888
 20
414.5458348890565
  0
LWPOLYLINE
  5
543
330
1F
100
AcDbEntity
  8
0
 62
   253
370
    35
100
AcDbPolyline
 90
        4
 70
     0
 43
0.0
 10
198.3827381114888
 20
414.5458348890565
 10
198.3869491114888
 20
414.4331638890565
 10
198.3789531114888
 20
414.1889618890566
 10
198.4083721114888
 20
413.7891818890565
  0
LWPOLYLINE
  5
544
330
1F
100
AcDbEntity
  8
0
 62
   253
370
    35
100
AcDbPolyline
 90
        3
 70
     0
 43
0.0
 10
198.1778731114888
 20
411.0285618890566
 10
198.2520921114888
 20
411.0527928890566
 10
198.3252421114888
 20
411.0518468890566
  0
LWPOLYLINE
  5
545
330
1F
100
AcDbEntity
  8
0
 62
   253
370
    35
100
AcDbPolyline
 90
        3
 70
     0
 43
0.0
 10
178.2220631114888
 20
411.0285618890566
 10
178.1478441114888
 20
411.0527928890566
 10
178.0746931114888
 20
411.0518468890566
  0
LWPOLYLINE
  5
546
330
1F
100
AcDbEntity
  8
0
 62
   253
370
    35
100
AcDbPolyline
 90
       14
 70
     0
 43
0.0
 10
134.9042221114888
 20
417.4912688890565
 10
135.1657581114888
 20
417.3701748890565
 10
135.4856581114888
 20
417.2430998890566
 10
136.2482311114888
 20
416.9847988890565
 10
137.0840771114888
 20
416.7386448890566
 10
138.4665691114888
 20
416.3757908890565
 10
140.3515031114888
 20
415.9404878890565
 10
142.3448961114888
 20
415.5443698890565
 10
144.3398601114888
 20
415.2133758890565
 10
146.3370221114888
 20
414.9485448890564
 10
148.3598341114888
 20
414.7487758890566
 10
150.4174061114888
 20
414.6164518890565
 10
152.5023821114888
 20
414.5552948890566
 10
153.1999681114888
 20
414.5512058890565
  0
LWPOLYLINE
  5
547
330
1F
100
AcDbEntity
  8
0
 62
   253
370
    35
100
AcDbPolyline
 90
       14
 70
     0
 43
0.0
 10
421.4956831114887
 20
417.4912688890565
 10
421.2342091114887
 20
417.3701748890565
 10
420.9142621114888
 20
417.2430998890566
 10
420.1516891114888
 20
416.9847988890565
 10
419.3158741114888
 20
416.7386448890566
 10
417.9333661114887
 20
416.3757908890565
 10
416.0484181114887
 20
415.9404878890565
 10
414.0550401114888
 20
415.5443698890565
 10
412.0600751114888
 20
415.2133758890565
 10
410.0629131114888
 20
414.9485448890564
 10
408.0401171114888
 20
414.7487758890566
 10
405.9825301114888
 20
414.6164518890565
 10
403.8975391114888
 20
414.5552948890566
 10
403.1999681114887
 20
414.5512058890565
  0
LWPOLYLINE
  5
548
330
1F
100
AcDbEntity
  8
0
 62
   253
370
    35
100
AcDbPolyline
 90
       14
 70
     0
 43
0.0
 10
333.1999681114888
 20
414.5512058890565
 10
331.1093311114888
 20
414.5880098890565
 10
329.0411541114888
 20
414.6970188890565
 10
327.0070361114888
 20
414.8747528890567
 10
325.0034961114888
 20
415.1179778890566
 10
323.0102401114887
 20
415.4266328890566
 10
321.0144821114889
 20
415.8015108890565
 10
318.8730941114889
 20
416.2766698890566
 10
317.5701771114888
 20
416.6059538890565
 10
316.6605091114889
 20
416.8599828890567
 10
315.8533191114888
 20
417.1128508890565
 10
315.4856431114888
 20
417.2430998890566
 10
315.1657581114888
 20
417.3701748890565
 10
314.9042221114888
 20
417.4912688890565
  0
LWPOLYLINE
  5
549
330
1F
100
AcDbEntity
  8
0
 62
   253
370
    35
100
AcDbPolyline
 90
       14
 70
     0
 43
0.0
 10
223.1999681114888
 20
414.5512058890565
 10
225.2906051114888
 20
414.5880098890565
 10
227.3587811114888
 20
414.6970188890565
 10
229.3929001114888
 20
414.8747528890567
 10
231.3964401114888
 20
415.1179778890566
 10
233.3896961114888
 20
415.4266328890566
 10
235.3854541114888
 20
415.8015108890565
 10
237.5268421114888
 20
416.2766698890566
 10
238.8297591114888
 20
416.6059538890565
 10
239.7394271114888
 20
416.8599828890567
 10
240.5466171114888
 20
417.1128508890565
 10
240.9142931114888
 20
417.2430998890566
 10
241.2341781114888
 20
417.3701748890565
 10
241.4957141114888
 20
417.4912688890565
  0
LWPOLYLINE
  5
54A
330
1F
100
AcDbEntity
  8
0
 62
   253
370
    35
100
AcDbPolyline
 90
        4
 70
     0
 43
0.0
 10
231.6929491114888
 20
423.9078948890566
 10
228.5277271114888
 20
423.8713958890565
 10
224.2679611114888
 20
423.8219578890565
 10
223.1999681114888
 20
423.8193938890566
  0
LWPOLYLINE
  5
54B
330
1F
100
AcDbEntity
  8
0
 62
   253
370
    35
100
AcDbPolyline
 90
        6
 70
     0
 43
0.0
 10
183.6964891114888
 20
423.8193938890566
 10
185.1094531114888
 20
423.8437468890565
 10
187.3252121114888
 20
423.8974578890565
 10
189.5110331114888
 20
423.8903168890566
 10
191.7514511114888
 20
423.8319058890565
 10
192.7034471114888
 20
423.8193938890566
  0
LWPOLYLINE
  5
54C
330
1F
100
AcDbEntity
  8
0
 62
   253
370
    35
100
AcDbPolyline
 90
        4
 70
     0
 43
0.0
 10
153.1999681114888
 20
423.8193938890566
 10
149.2885761114888
 20
423.8501558890566
 10
145.7581041114888
 20
423.9002658890566
 10
144.7070021114888
 20
423.9078948890566
  0
LWPOLYLINE
  5
54D
330
1F
100
AcDbEntity
  8
0
 62
   253
370
    35
100
AcDbPolyline
 90
        4
 70
     0
 43
0.0
 10
403.1999681114887
 20
423.8193938890566
 10
407.1114671114887
 20
423.8502168890565
 10
410.6419231114888
 20
423.9002658890566
 10
411.6929491114888
 20
423.9078948890566
  0
LWPOLYLINE
  5
54E
330
1F
100
AcDbEntity
  8
0
 62
   253
370
    35
100
AcDbPolyline
 90
        6
 70
     0
 43
0.0
 10
372.7034471114888
 20
423.8193938890566
 10
371.2903611114888
 20
423.8437468890565
 10
369.0745411114888
 20
423.8974578890565
 10
366.8887191114889
 20
423.8903168890566
 10
364.6481791114888
 20
423.8319058890565
 10
363.6964891114889
 20
423.8193938890566
  0
LWPOLYLINE
  5
54F
330
1F
100
AcDbEntity
  8
0
 62
   253
370
    35
100
AcDbPolyline
 90
        4
 70
     0
 43
0.0
 10
324.7069871114888
 20
423.9078948890566
 10
327.8722091114888
 20
423.8713958890565
 10
332.1319441114888
 20
423.8219578890565
 10
333.1999681114888
 20
423.8193938890566
  0
LWPOLYLINE
  5
550
330
1F
100
AcDbEntity
  8
0
 62
   253
370
    35
100
AcDbPolyline
 90
        3
 70
     0
 43
0.0
 10
378.3651591114888
 20
414.7183198890566
 10
378.4290331114888
 20
414.6036958890566
 10
378.5607771114888
 20
414.5523648890566
  0
LWPOLYLINE
  5
551
330
1F
100
AcDbEntity
  8
0
 62
   253
370
    35
100
AcDbPolyline
 90
        3
 70
     0
 43
0.0
 10
358.0347761114888
 20
414.7183198890566
 10
357.9709031114888
 20
414.6036958890566
 10
357.8391581114888
 20
414.5523648890566
  0
LWPOLYLINE
  5
552
330
1F
100
AcDbEntity
  8
0
 62
   253
370
    35
100
AcDbPolyline
 90
        4
 70
     0
 43
0.0
 10
178.0347151114888
 20
414.7180148890566
 10
177.9708721114888
 20
414.6035738890565
 10
177.8864301114888
 20
414.5584688890566
 10
177.8391581114888
 20
414.5523648890566
  0
LWPOLYLINE
  5
553
330
1F
100
AcDbEntity
  8
0
 62
   253
370
    35
100
AcDbPolyline
 90
        4
 70
     0
 43
0.0
 10
198.3652211114888
 20
414.7180148890566
 10
198.4290631114888
 20
414.6035738890565
 10
198.5135051114888
 20
414.5584688890566
 10
198.5607771114888
 20
414.5523648890566
  0
LWPOLYLINE
  5
554
330
1F
100
AcDbEntity
  8
0
 62
   253
370
    35
100
AcDbPolyline
 90
        4
 70
     0
 43
0.0
 10
84.45135611148883
 20
425.4018528890566
 10
83.1543751114888
 20
425.3888518890565
 10
82.9920971114888
 20
425.3817108890565
 10
82.95706311148881
 20
425.3779268890567
  0
LWPOLYLINE
  5
555
330
1F
100
AcDbEntity
  8
0
 62
   253
370
    35
100
AcDbPolyline
 90
        7
 70
     0
 43
0.0
 10
132.6999681114888
 20
425.3323948890566
 10
132.7005021114888
 20
425.3314788890565
 10
132.7014631114888
 20
425.3308688890566
 10
132.7048351114888
 20
425.3296478890566
 10
132.7436691114888
 20
425.3242158890565
 10
132.8840191114888
 20
425.3158538890565
 10
134.0235001114888
 20
425.2936978890565
  0
LWPOLYLINE
  5
556
330
1F
100
AcDbEntity
  8
0
 62
   253
370
    35
100
AcDbPolyline
 90
        7
 70
     0
 43
0.0
 10
242.3764511114888
 20
425.2936978890565
 10
242.7630781114888
 20
425.2981538890566
 10
243.5910811114888
 20
425.3195768890566
 10
243.6878221114888
 20
425.3280608890565
 10
243.6962141114888
 20
425.3299528890566
 10
243.6986251114888
 20
425.3309298890566
 10
243.6999681114888
 20
425.3323948890566
  0
LWPOLYLINE
  5
557
330
1F
100
AcDbEntity
  8
0
 62
   253
370
    35
100
AcDbPolyline
 90
        6
 70
     0
 43
0.0
 10
312.6999681114889
 20
425.3323948890566
 10
312.7009441114889
 20
425.3311128890565
 10
312.7031721114888
 20
425.3301358890565
 10
312.7287151114888
 20
425.3257418890566
 10
313.1490341114889
 20
425.3073088890565
 10
314.0234851114889
 20
425.2936978890565
  0
LWPOLYLINE
  5
558
330
1F
100
AcDbEntity
  8
0
 62
   253
370
    35
100
AcDbPolyline
 90
        6
 70
     0
 43
0.0
 10
422.3764201114887
 20
425.2936978890565
 10
423.2276171114888
 20
425.3067598890567
 10
423.6645671114888
 20
425.3250088890566
 10
423.6960011114888
 20
425.3298918890565
 10
423.6987471114888
 20
425.3309908890566
 10
423.6999681114888
 20
425.3323948890566
  0
LWPOLYLINE
  5
559
330
1F
100
AcDbEntity
  8
0
 62
   253
370
    35
100
AcDbPolyline
 90
        4
 70
     0
 43
0.0
 10
471.9485641114888
 20
425.4018528890566
 10
473.2455611114887
 20
425.3888518890565
 10
473.4078541114889
 20
425.3817108890565
 10
473.4428881114888
 20
425.3779268890567
  0
LWPOLYLINE
  5
55A
330
1F
100
AcDbEntity
  8
0
 62
     7
370
    35
100
AcDbPolyline
 90
        5
 70
     0
 43
0.0
 10
55.30258311148881
 20
594.0841038890567
 10
54.70715511148881
 20
594.0889248890564
 10
54.49986411148881
 20
594.0940518890565
 10
54.49234111148881
 20
594.0949068890565
 10
54.49119711148881
 20
594.0953338890566
  0
LWPOLYLINE
  5
55B
330
1F
100
AcDbEntity
  8
0
 62
     7
370
    35
100
AcDbPolyline
 90
        5
 70
     0
 43
0.0
 10
501.0973681114887
 20
594.0841038890567
 10
501.6927661114888
 20
594.0889248890564
 10
501.9001021114887
 20
594.0940518890565
 10
501.9076091114888
 20
594.0949068890565
 10
501.9087691114888
 20
594.0953338890566
  0
LWPOLYLINE
  5
55C
330
1F
100
AcDbEntity
  8
0
 62
     7
370
    35
100
AcDbPolyline
 90
        4
 70
     0
 43
0.0
 10
53.25793611148881
 20
385.0953338890566
 10
53.26120111148881
 20
385.0945708890566
 10
53.28270111148881
 20
385.0930758890566
 10
54.00787511148881
 20
385.0841038890566
  0
LWPOLYLINE
  5
55D
330
1F
100
AcDbEntity
  8
0
 62
     7
370
    35
100
AcDbPolyline
 90
        4
 70
     0
 43
0.0
 10
53.25793611148881
 20
581.7989468890567
 10
53.26120111148881
 20
581.7997408890565
 10
53.28270111148881
 20
581.8012058890566
 10
54.00787511148881
 20
581.8101778890565
  0
LWPOLYLINE
  5
55E
330
1F
100
AcDbEntity
  8
0
 62
     7
370
    35
100
AcDbPolyline
 90
        5
 70
     0
 43
0.0
 10
58.32681411148882
 20
594.0629848890565
 10
58.32460211148881
 20
594.0635958890566
 10
58.30900711148881
 20
594.0647548890566
 10
58.17755311148881
 20
594.0682338890566
 10
57.47982911148881
 20
594.0741548890564
  0
LWPOLYLINE
  5
55F
330
1F
100
AcDbEntity
  8
0
 62
     7
370
    35
100
AcDbPolyline
 90
        4
 70
     0
 43
0.0
 10
53.25793611148881
 20
66.09533388905659
 10
53.26120111148881
 20
66.09457088905661
 10
53.28270111148881
 20
66.09307588905659
 10
54.00787511148881
 20
66.08410388905659
  0
LWPOLYLINE
  5
560
330
1F
100
AcDbEntity
  8
0
 62
     7
370
    35
100
AcDbPolyline
 90
        4
 70
     0
 43
0.0
 10
53.25793611148881
 20
372.7989468890567
 10
53.26120111148881
 20
372.7997098890566
 10
53.28270111148881
 20
372.8012058890566
 10
54.00787511148881
 20
372.8101778890566
  0
LWPOLYLINE
  5
561
330
1F
100
AcDbEntity
  8
0
 62
     7
370
    35
100
AcDbPolyline
 90
        5
 70
     0
 43
0.0
 10
55.30258311148881
 20
53.8101778890566
 10
54.70715511148881
 20
53.8053868890566
 10
54.49986411148881
 20
53.8002288890566
 10
54.49234111148881
 20
53.79937488905659
 10
54.49119711148881
 20
53.79894688905659
  0
LWPOLYLINE
  5
562
330
1F
100
AcDbEntity
  8
0
 62
     7
370
    35
100
AcDbPolyline
 90
        5
 70
     0
 43
0.0
 10
498.0731371114887
 20
594.0629848890565
 10
498.0753341114888
 20
594.0635958890566
 10
498.0908981114888
 20
594.0647548890566
 10
498.2223681114887
 20
594.0682338890566
 10
498.9201221114888
 20
594.0741548890564
  0
LWPOLYLINE
  5
563
330
1F
100
AcDbEntity
  8
0
 62
     7
370
    35
100
AcDbPolyline
 90
        4
 70
     0
 43
0.0
 10
503.1419841114888
 20
581.7989468890567
 10
503.1387501114887
 20
581.7997408890565
 10
503.1172651114887
 20
581.8012058890566
 10
502.3920451114888
 20
581.8101778890565
  0
LWPOLYLINE
  5
564
330
1F
100
AcDbEntity
  8
0
 62
     7
370
    35
100
AcDbPolyline
 90
        4
 70
     0
 43
0.0
 10
503.1419841114888
 20
385.0953338890566
 10
503.1387501114887
 20
385.0945708890566
 10
503.1172651114887
 20
385.0930758890566
 10
502.3920451114888
 20
385.0841038890566
  0
LWPOLYLINE
  5
565
330
1F
100
AcDbEntity
  8
0
 62
     7
370
    35
100
AcDbPolyline
 90
        4
 70
     0
 43
0.0
 10
55.97490111148881
 20
372.8200958890566
 10
56.70027311148881
 20
372.8290678890566
 10
56.72160511148881
 20
372.8305638890566
 10
56.72484011148881
 20
372.8312958890566
  0
LWPOLYLINE
  5
566
330
1F
100
AcDbEntity
  8
0
 62
     7
370
    35
100
AcDbPolyline
 90
        4
 70
     0
 43
0.0
 10
55.97490111148881
 20
66.0741848890566
 10
56.70027311148881
 20
66.06521288905661
 10
56.72160511148881
 20
66.06371788905659
 10
56.72484011148881
 20
66.0629848890566
  0
LWPOLYLINE
  5
567
330
1F
100
AcDbEntity
  8
0
 62
     7
370
    35
100
AcDbPolyline
 90
        4
 70
     0
 43
0.0
 10
55.97490111148881
 20
385.0741848890567
 10
56.70027311148881
 20
385.0652128890566
 10
56.72160511148881
 20
385.0637178890566
 10
56.72484011148881
 20
385.0629848890566
  0
LWPOLYLINE
  5
568
330
1F
100
AcDbEntity
  8
0
 62
     7
370
    35
100
AcDbPolyline
 90
        4
 70
     0
 43
0.0
 10
55.97490111148881
 20
581.8201268890565
 10
56.70027311148881
 20
581.8290378890566
 10
56.72160511148881
 20
581.8305638890566
 10
56.72484011148881
 20
581.8312958890565
  0
LWPOLYLINE
  5
569
330
1F
100
AcDbEntity
  8
0
 62
     7
370
    35
100
AcDbPolyline
 90
        8
 70
     0
 43
0.0
 10
56.81604111148882
 20
587.9471408890566
 10
56.81048711148881
 20
585.2352878890566
 10
56.79365711148881
 20
582.9764988890566
 10
56.77513311148882
 20
582.0129978890565
 10
56.76815911148882
 20
581.8782318890567
 10
56.76461911148881
 20
581.8507048890565
 10
56.76381111148881
 20
581.8482028890564
 10
56.76280411148881
 20
581.8471038890566
  0
LWPOLYLINE
  5
56A
330
1F
100
AcDbEntity
  8
0
 62
     7
370
    35
100
AcDbPolyline
 90
       13
 70
     0
 43
0.0
 10
58.36146711148881
 20
594.0471768890565
 10
58.36201611148881
 20
594.0461398890565
 10
58.36174111148881
 20
594.0443698890566
 10
58.35974311148881
 20
594.0381438890566
 10
58.32667711148881
 20
593.9672208890566
 10
58.03680611148881
 20
593.3751798890564
 10
57.70569011148881
 20
592.6067478890566
 10
57.53470011148881
 20
592.1480068890564
 10
57.32422011148881
 20
591.4932218890566
 10
57.13859711148881
 20
590.7819798890566
 10
56.9640361114888
 20
589.8734708890566
 10
56.85373111148881
 20
588.9213228890565
 10
56.81604111148882
 20
587.9471408890566
  0
LWPOLYLINE
  5
56B
330
1F
100
AcDbEntity
  8
0
 62
     7
370
    35
100
AcDbPolyline
 90
       14
 70
     0
 43
0.0
 10
56.76280411148881
 20
385.0471468890566
 10
56.76413111148881
 20
385.0452548890567
 10
56.7667711114888
 20
385.0301488890566
 10
56.77458311148881
 20
384.8959318890566
 10
56.79507611148881
 20
383.7976958890566
 10
56.8121661114888
 20
381.2280248890566
 10
56.81564511148881
 20
378.2097138890566
 10
56.80299511148881
 20
374.9481478890566
 10
56.78997911148881
 20
373.7018098890566
 10
56.77351511148881
 20
372.9718288890566
 10
56.76750311148881
 20
372.8709378890566
 10
56.76445111148881
 20
372.8500638890566
 10
56.76371911148881
 20
372.8480498890567
 10
56.76280411148881
 20
372.8471348890566
  0
LWPOLYLINE
  5
56C
330
1F
100
AcDbEntity
  8
0
 62
     7
370
    35
100
AcDbPolyline
 90
        5
 70
     0
 43
0.0
 10
58.32681411148882
 20
53.8312958890566
 10
58.32460211148881
 20
53.8306858890566
 10
58.30900711148881
 20
53.8294948890566
 10
58.17755311148881
 20
53.82604688905661
 10
57.47982911148881
 20
53.8200958890566
  0
LWPOLYLINE
  5
56D
330
1F
100
AcDbEntity
  8
0
 62
     7
370
    35
100
AcDbPolyline
 90
        4
 70
     0
 43
0.0
 10
503.1419841114888
 20
372.7989468890567
 10
503.1387501114887
 20
372.7997098890566
 10
503.1172651114887
 20
372.8012058890566
 10
502.3920451114888
 20
372.8101778890566
  0
LWPOLYLINE
  5
56E
330
1F
100
AcDbEntity
  8
0
 62
     7
370
    35
100
AcDbPolyline
 90
        4
 70
     0
 43
0.0
 10
503.1419841114888
 20
66.09533388905659
 10
503.1387501114887
 20
66.09457088905661
 10
503.1172651114887
 20
66.09307588905659
 10
502.3920451114888
 20
66.08410388905659
  0
LWPOLYLINE
  5
56F
330
1F
100
AcDbEntity
  8
0
 62
     7
370
    35
100
AcDbPolyline
 90
        4
 70
     0
 43
0.0
 10
500.4250041114887
 20
66.0741848890566
 10
499.6996631114888
 20
66.06521288905661
 10
499.6783001114888
 20
66.06371788905659
 10
499.6751271114887
 20
66.0629848890566
  0
LWPOLYLINE
  5
570
330
1F
100
AcDbEntity
  8
0
 62
     7
370
    35
100
AcDbPolyline
 90
        4
 70
     0
 43
0.0
 10
500.4250041114887
 20
372.8200958890566
 10
499.6996631114888
 20
372.8290678890566
 10
499.6783001114888
 20
372.8305638890566
 10
499.6751271114887
 20
372.8312958890566
  0
LWPOLYLINE
  5
571
330
1F
100
AcDbEntity
  8
0
 62
     7
370
    35
100
AcDbPolyline
 90
       13
 70
     0
 43
0.0
 10
498.0384691114887
 20
594.0471768890565
 10
498.0379191114888
 20
594.0461398890565
 10
498.0381641114888
 20
594.0443698890566
 10
498.0401781114887
 20
594.0381438890566
 10
498.0732591114888
 20
593.9672208890566
 10
498.3631151114888
 20
593.3751798890564
 10
498.6942311114887
 20
592.6067478890566
 10
498.8652511114887
 20
592.1480068890564
 10
499.0757001114888
 20
591.4932218890566
 10
499.2613081114888
 20
590.7819798890566
 10
499.4358691114888
 20
589.8734708890566
 10
499.5462201114888
 20
588.9213228890565
 10
499.5838791114888
 20
587.9471408890566
  0
LWPOLYLINE
  5
572
330
1F
100
AcDbEntity
  8
0
 62
     7
370
    35
100
AcDbPolyline
 90
        8
 70
     0
 43
0.0
 10
499.5838791114888
 20
587.9471408890566
 10
499.5894331114888
 20
585.2352878890566
 10
499.6062791114887
 20
582.9764988890566
 10
499.6248341114887
 20
582.0129978890565
 10
499.6317921114888
 20
581.8782318890567
 10
499.6353321114887
 20
581.8507048890565
 10
499.6361251114888
 20
581.8482028890564
 10
499.6371631114888
 20
581.8471038890566
  0
LWPOLYLINE
  5
573
330
1F
100
AcDbEntity
  8
0
 62
     7
370
    35
100
AcDbPolyline
 90
        4
 70
     0
 43
0.0
 10
500.4250041114887
 20
581.8201268890565
 10
499.6996631114888
 20
581.8290378890566
 10
499.6783001114888
 20
581.8305638890566
 10
499.6751271114887
 20
581.8312958890565
  0
LWPOLYLINE
  5
574
330
1F
100
AcDbEntity
  8
0
 62
     7
370
    35
100
AcDbPolyline
 90
        4
 70
     0
 43
0.0
 10
500.4250041114887
 20
385.0741848890567
 10
499.6996631114888
 20
385.0652128890566
 10
499.6783001114888
 20
385.0637178890566
 10
499.6751271114887
 20
385.0629848890566
  0
LWPOLYLINE
  5
575
330
1F
100
AcDbEntity
  8
0
 62
     7
370
    35
100
AcDbPolyline
 90
       14
 70
     0
 43
0.0
 10
499.6371631114888
 20
385.0471468890566
 10
499.6358201114888
 20
385.0452548890567
 10
499.6331341114888
 20
385.0301488890566
 10
499.6253221114888
 20
384.8959318890566
 10
499.6048751114888
 20
383.7976958890566
 10
499.5877851114888
 20
381.2280248890566
 10
499.5843061114888
 20
378.2097138890566
 10
499.5969401114888
 20
374.9481478890566
 10
499.6099411114888
 20
373.7018098890566
 10
499.6264201114887
 20
372.9718288890566
 10
499.6324021114888
 20
372.8709378890566
 10
499.6354541114888
 20
372.8500638890566
 10
499.6361861114888
 20
372.8480498890567
 10
499.6371631114888
 20
372.8471348890566
  0
LWPOLYLINE
  5
576
330
1F
100
AcDbEntity
  8
0
 62
     7
370
    35
100
AcDbPolyline
 90
        5
 70
     0
 43
0.0
 10
498.0731371114887
 20
53.8312958890566
 10
498.0753341114888
 20
53.8306858890566
 10
498.0908981114888
 20
53.8294948890566
 10
498.2223681114887
 20
53.82604688905661
 10
498.9201221114888
 20
53.8200958890566
  0
LWPOLYLINE
  5
577
330
1F
100
AcDbEntity
  8
0
 62
     7
370
    35
100
AcDbPolyline
 90
        5
 70
     0
 43
0.0
 10
501.0973681114887
 20
53.8101778890566
 10
501.6927661114888
 20
53.8053868890566
 10
501.9001021114887
 20
53.8002288890566
 10
501.9076091114888
 20
53.79937488905659
 10
501.9087691114888
 20
53.79894688905659
  0
LWPOLYLINE
  5
578
330
1F
100
AcDbEntity
  8
0
 62
     7
370
    35
100
AcDbPolyline
 90
       13
 70
     0
 43
0.0
 10
58.36146711148881
 20
53.8471348890566
 10
58.36201611148881
 20
53.8481418890566
 10
58.36174111148881
 20
53.84991188905661
 10
58.35974311148881
 20
53.8561068890566
 10
58.32667711148881
 20
53.92709088905659
 10
58.03680611148881
 20
54.51913188905661
 10
57.70569011148881
 20
55.28756388905661
 10
57.53470011148881
 20
55.7463048890566
 10
57.32422011148881
 20
56.4010898890566
 10
57.13859711148881
 20
57.1123018890566
 10
56.9640361114888
 20
58.02077988905661
 10
56.85373111148881
 20
58.9729588890566
 10
56.81604111148882
 20
59.9471408890566
  0
LWPOLYLINE
  5
579
330
1F
100
AcDbEntity
  8
0
 62
     7
370
    35
100
AcDbPolyline
 90
        8
 70
     0
 43
0.0
 10
56.81604111148882
 20
59.9471408890566
 10
56.81048711148881
 20
62.6589938890566
 10
56.79365711148881
 20
64.91778288905661
 10
56.77513311148882
 20
65.88125288905661
 10
56.76815911148882
 20
66.01607988905661
 10
56.76461911148881
 20
66.04357588905661
 10
56.76381111148881
 20
66.04604788905661
 10
56.76280411148881
 20
66.04714688905659
  0
LWPOLYLINE
  5
57A
330
1F
100
AcDbEntity
  8
0
 62
     7
370
    35
100
AcDbPolyline
 90
        8
 70
     0
 43
0.0
 10
499.5838791114888
 20
59.9471408890566
 10
499.5894331114888
 20
62.6589938890566
 10
499.6062791114887
 20
64.91778288905661
 10
499.6248341114887
 20
65.88125288905661
 10
499.6317921114888
 20
66.01607988905661
 10
499.6353321114887
 20
66.04357588905661
 10
499.6361251114888
 20
66.04604788905661
 10
499.6371631114888
 20
66.04714688905659
  0
LWPOLYLINE
  5
57B
330
1F
100
AcDbEntity
  8
0
 62
     7
370
    35
100
AcDbPolyline
 90
       13
 70
     0
 43
0.0
 10
498.0384691114887
 20
53.8471348890566
 10
498.0379191114888
 20
53.8481418890566
 10
498.0381641114888
 20
53.84991188905661
 10
498.0401781114887
 20
53.8561068890566
 10
498.0732591114888
 20
53.92709088905659
 10
498.3631151114888
 20
54.51913188905661
 10
498.6942311114887
 20
55.28756388905661
 10
498.8652511114887
 20
55.7463048890566
 10
499.0757001114888
 20
56.4010898890566
 10
499.2613081114888
 20
57.1123018890566
 10
499.4358691114888
 20
58.02077988905661
 10
499.5462201114888
 20
58.9729588890566
 10
499.5838791114888
 20
59.9471408890566
  0
LWPOLYLINE
  5
57C
330
1F
100
AcDbEntity
  8
0
 62
     7
370
    35
100
AcDbPolyline
 90
       15
 70
     0
 43
0.0
 10
487.1999681114888
 20
49.5436678890566
 10
488.0033741114888
 20
49.5740628890566
 10
488.7858441114888
 20
49.6627168890566
 10
489.5351121114888
 20
49.8037078890566
 10
490.2191941114888
 20
49.98232688905659
 10
490.8681201114887
 20
50.1982998890566
 10
491.4825001114888
 20
50.44738488905659
 10
491.9068771114888
 20
50.64666488905659
 10
492.3160571114888
 20
50.86141688905661
 10
492.7171801114887
 20
51.0950588890566
 10
493.1037151114887
 20
51.34368588905659
 10
493.8207561114888
 20
51.87316588905659
 10
494.4856731114888
 20
52.4574558890566
 10
495.0983441114888
 20
53.09548688905661
 10
495.6285571114888
 20
53.7478608890566
  0
LWPOLYLINE
  5
57D
330
1F
100
AcDbEntity
  8
0
 62
     7
370
    35
100
AcDbPolyline
 90
       20
 70
     0
 43
0.0
 10
476.6919721114887
 20
59.9471408890566
 10
476.7208421114887
 20
60.77920188905659
 10
476.8178881114888
 20
61.6193818890566
 10
476.9854291114888
 20
62.4611478890566
 10
477.2251141114887
 20
63.29735988905659
 10
477.5375531114888
 20
64.12041988905659
 10
477.9221971114887
 20
64.9224208890566
 10
478.3660441114887
 20
65.6772428890566
 10
478.8747731114888
 20
66.39690888905659
 10
479.4451461114888
 20
67.0746738890566
 10
480.0731981114888
 20
67.7042818890566
 10
480.7543501114889
 20
68.28007188905657
 10
481.4833541114888
 20
68.7970248890566
 10
482.2256031114887
 20
69.2351498890566
 10
483.0019091114888
 20
69.61132488905659
 10
483.8068401114887
 20
69.9227878890566
 10
484.6348431114888
 20
70.16730988905661
 10
485.4801801114888
 20
70.34316688905659
 10
486.3371751114888
 20
70.44915488905657
 10
487.1999681114888
 20
70.48457088905658
  0
LWPOLYLINE
  5
57E
330
1F
100
AcDbEntity
  8
0
 62
     7
370
    35
100
AcDbPolyline
 90
       20
 70
     0
 43
0.0
 10
476.6919721114887
 20
587.9471408890566
 10
476.7208421114887
 20
587.1150478890564
 10
476.8178881114888
 20
586.2748998890564
 10
476.9854291114888
 20
585.4331638890565
 10
477.2251141114887
 20
584.5969208890566
 10
477.5375531114888
 20
583.7738618890564
 10
477.9221971114887
 20
582.9718598890566
 10
478.3660441114887
 20
582.2170378890564
 10
478.8747731114888
 20
581.4973728890565
 10
479.4451461114888
 20
580.8196378890565
 10
480.0731981114888
 20
580.1899998890566
 10
480.7543501114889
 20
579.6141938890567
 10
481.4833541114888
 20
579.0972258890566
 10
482.2256031114887
 20
578.6591158890566
 10
483.0019091114888
 20
578.2829558890564
 10
483.8068401114887
 20
577.9714938890564
 10
484.6348431114888
 20
577.7269868890564
 10
485.4801801114888
 20
577.5510838890566
 10
486.3371751114888
 20
577.4451268890565
 10
487.1999681114888
 20
577.4097258890566
  0
LWPOLYLINE
  5
57F
330
1F
100
AcDbEntity
  8
0
 62
     7
370
    35
100
AcDbPolyline
 90
       15
 70
     0
 43
0.0
 10
487.1999681114888
 20
598.3506438890566
 10
488.0033741114888
 20
598.3202488890566
 10
488.7858441114888
 20
598.2315648890565
 10
489.5351121114888
 20
598.0905728890566
 10
490.2191941114888
 20
597.9119228890564
 10
490.8681201114887
 20
597.6959808890565
 10
491.4825001114888
 20
597.4468968890565
 10
491.9068771114888
 20
597.2476168890566
 10
492.3160571114888
 20
597.0328948890566
 10
492.7171801114887
 20
596.7992528890564
 10
493.1037151114887
 20
596.5505948890565
 10
493.8207561114888
 20
596.0211148890564
 10
494.4856731114888
 20
595.4368258890566
 10
495.0983441114888
 20
594.7987638890564
 10
495.6285571114888
 20
594.1464208890566
  0
LWPOLYLINE
  5
580
330
1F
100
AcDbEntity
  8
0
 62
     7
370
    35
100
AcDbPolyline
 90
       15
 70
     0
 43
0.0
 10
69.19996811148881
 20
598.3506438890566
 10
68.39653211148881
 20
598.3202488890566
 10
67.61409111148882
 20
598.2315648890565
 10
66.86480911148881
 20
598.0905728890566
 10
66.1807721114888
 20
597.9119228890564
 10
65.53180111148882
 20
597.6959808890565
 10
64.9174211114888
 20
597.4468968890565
 10
64.49304311148882
 20
597.2476168890566
 10
64.08386411148881
 20
597.0328948890566
 10
63.68274111148881
 20
596.7992528890564
 10
63.29619011148881
 20
596.5505948890565
 10
62.57914911148881
 20
596.0211148890564
 10
61.91426211148881
 20
595.4368258890566
 10
61.30160711148882
 20
594.7987638890564
 10
60.77136411148881
 20
594.1464208890566
  0
LWPOLYLINE
  5
581
330
1F
100
AcDbEntity
  8
0
 62
     7
370
    35
100
AcDbPolyline
 90
       20
 70
     0
 43
0.0
 10
79.70797911148881
 20
587.9471408890566
 10
79.6790941114888
 20
587.1150478890564
 10
79.5820481114888
 20
586.2748998890564
 10
79.4144761114888
 20
585.4331638890565
 10
79.17482111148881
 20
584.5969208890566
 10
78.8624131114888
 20
583.7738618890564
 10
78.47770811148881
 20
582.9718598890566
 10
78.03389111148881
 20
582.2170378890564
 10
77.5251631114888
 20
581.4973728890565
 10
76.9547901114888
 20
580.8196378890565
 10
76.3267231114888
 20
580.1899998890566
 10
75.64560111148882
 20
579.6141938890567
 10
74.91655111148881
 20
579.0972258890566
 10
74.1743331114888
 20
578.6591158890566
 10
73.39805711148881
 20
578.2829558890564
 10
72.59312611148881
 20
577.9714938890564
 10
71.7651231114888
 20
577.7269868890564
 10
70.9197401114888
 20
577.5510838890566
 10
70.06274611148882
 20
577.4451268890565
 10
69.19996811148881
 20
577.4097258890566
  0
LWPOLYLINE
  5
582
330
1F
100
AcDbEntity
  8
0
 62
     7
370
    35
100
AcDbPolyline
 90
       15
 70
     0
 43
0.0
 10
69.19996811148881
 20
49.5436678890566
 10
68.39653211148881
 20
49.5740628890566
 10
67.61409111148882
 20
49.6627168890566
 10
66.86480911148881
 20
49.8037078890566
 10
66.1807721114888
 20
49.98232688905659
 10
65.53180111148882
 20
50.1982998890566
 10
64.9174211114888
 20
50.44738488905659
 10
64.49304311148882
 20
50.64666488905659
 10
64.08386411148881
 20
50.86141688905661
 10
63.68274111148881
 20
51.0950588890566
 10
63.29619011148881
 20
51.34368588905659
 10
62.57914911148881
 20
51.87316588905659
 10
61.91426211148881
 20
52.4574558890566
 10
61.30160711148882
 20
53.09548688905661
 10
60.77136411148881
 20
53.7478608890566
  0
LWPOLYLINE
  5
583
330
1F
100
AcDbEntity
  8
0
 62
     7
370
    35
100
AcDbPolyline
 90
       20
 70
     0
 43
0.0
 10
79.70797911148881
 20
59.9471408890566
 10
79.6790941114888
 20
60.77920188905659
 10
79.5820481114888
 20
61.6193818890566
 10
79.4144761114888
 20
62.4611478890566
 10
79.17482111148881
 20
63.29735988905659
 10
78.8624131114888
 20
64.12041988905659
 10
78.47770811148881
 20
64.9224208890566
 10
78.03389111148881
 20
65.6772428890566
 10
77.5251631114888
 20
66.39690888905659
 10
76.9547901114888
 20
67.0746738890566
 10
76.3267231114888
 20
67.7042818890566
 10
75.64560111148882
 20
68.28007188905657
 10
74.91655111148881
 20
68.7970248890566
 10
74.1743331114888
 20
69.2351498890566
 10
73.39805711148881
 20
69.61132488905659
 10
72.59312611148881
 20
69.9227878890566
 10
71.7651231114888
 20
70.16730988905661
 10
70.9197401114888
 20
70.34316688905659
 10
70.06274611148882
 20
70.44915488905657
 10
69.19996811148881
 20
70.48457088905658
  0
INSERT
  5
584
330
1F
100
AcDbEntity
  8
0
 62
    56
100
AcDbBlockReference
  2
IB_oriz_FUS
 10
68.2879051014888
 20
221.1540062290566
 30
0.0
  0
INSERT
  5
585
330
1F
100
AcDbEntity
  8
0
 62
    56
100
AcDbBlockReference
  2
IB_oriz_FUS
 10
269.2828551014888
 20
221.1540062290566
 30
0.0
  0
INSERT
  5
586
330
1F
100
AcDbEntity
  8
0
 62
    56
100
AcDbBlockReference
  2
IB_oriz_FUS
 10
68.2879051014888
 20
68.1680062290566
 30
0.0
  0
INSERT
  5
587
330
1F
100
AcDbEntity
  8
0
 62
    56
100
AcDbBlockReference
  2
IB_oriz_FUS
 10
269.2828551014888
 20
68.1680062290566
 30
0.0
  0
ENDSEC
  0
SECTION
  2
OBJECTS
  0
DICTIONARY
  5
C
330
0
100
AcDbDictionary
281
     1
  3
ACAD_CIP_PREVIOUS_PRODUCT_INFO
350
5DD
  3
ACAD_COLOR
350
73
  3
ACAD_GROUP
350
D
  3
ACAD_LAYOUT
350
1A
  3
ACAD_MATERIAL
350
72
  3
ACAD_MLEADERSTYLE
350
D7
  3
ACAD_MLINESTYLE
350
17
  3
ACAD_PLOTSETTINGS
350
19
  3
ACAD_PLOTSTYLENAME
350
E
  3
ACAD_SCALELIST
350
B6
  3
ACAD_TABLESTYLE
350
86
  3
ACAD_VISUALSTYLE
350
99
  3
ACDBHEADERROUNDTRIPXREC
350
5E7
  3
AcDbVariableDictionary
350
66
  3
ASE_INDEX_DICTIONARY
350
5DF
  3
DWGPROPS
350
5EA
  0
DICTIONARY
  5
5EB
330
8
100
AcDbDictionary
280
     1
281
     1
  3
ACAD_XREC_ROUNDTRIP
360
5EC
  0
DICTIONARY
  5
E6
330
10
100
AcDbDictionary
280
     1
281
     1
  3
ADSK_XREC_LAYER_RECONCILED
360
5BA
  0
DICTIONARY
  5
5BB
330
16C
100
AcDbDictionary
280
     1
281
     1
  3
ADSK_XREC_LAYER_RECONCILED
360
5BC
  0
XRECORD
  5
5DD
102
{ACAD_REACTORS
330
C
102
}
330
C
100
AcDbXrecord
280
     1
300
ACD
300
2012
300
ACD_F_S
  0
DICTIONARY
  5
73
102
{ACAD_REACTORS
330
C
102
}
330
C
100
AcDbDictionary
281
     1
  0
DICTIONARY
  5
D
102
{ACAD_REACTORS
330
C
102
}
330
C
100
AcDbDictionary
281
     1
  0
DICTIONARY
  5
1A
102
{ACAD_REACTORS
330
C
102
}
330
C
100
AcDbDictionary
281
     1
  3
Layout1
350
59
  3
Layout2
350
5E
  3
Model
350
22
  0
DICTIONARY
  5
72
102
{ACAD_REACTORS
330
C
102
}
330
C
100
AcDbDictionary
281
     1
  3
ByBlock
350
97
  3
ByLayer
350
96
  3
Global
350
98
  0
DICTIONARY
  5
D7
102
{ACAD_REACTORS
330
C
102
}
330
C
100
AcDbDictionary
281
     1
  3
Standard
350
D8
  0
DICTIONARY
  5
17
102
{ACAD_REACTORS
330
C
102
}
330
C
100
AcDbDictionary
281
     1
  3
Standard
350
18
  0
DICTIONARY
  5
19
102
{ACAD_REACTORS
330
C
102
}
330
C
100
AcDbDictionary
281
     1
  0
ACDBDICTIONARYWDFLT
  5
E
102
{ACAD_REACTORS
330
C
102
}
330
C
100
AcDbDictionary
281
     1
  3
Normal
350
F
100
AcDbDictionaryWithDefault
340
F
  0
DICTIONARY
  5
B6
102
{ACAD_REACTORS
330
C
102
}
330
C
100
AcDbDictionary
281
     1
  3
A0
350
B7
  3
A1
350
124
  3
A2
350
125
  3
A3
350
126
  3
A4
350
127
  3
A5
350
128
  3
A6
350
129
  3
A7
350
12A
  3
A8
350
12B
  3
A9
350
12C
  3
B0
350
12D
  3
B1
350
12E
  3
B2
350
12F
  3
B3
350
130
  3
B4
350
131
  3
B5
350
132
  3
B6
350
133
  3
B7
350
134
  3
B8
350
135
  3
B9
350
136
  3
C0
350
137
  3
C1
350
138
  3
C2
350
139
  3
C3
350
13A
  3
C4
350
13B
  3
C5
350
13C
  3
C6
350
13D
  3
C7
350
13E
  3
C8
350
13F
  3
C9
350
140
  3
D0
350
141
  3
D1
350
142
  3
D2
350
143
  0
DICTIONARY
  5
86
102
{ACAD_REACTORS
330
C
102
}
330
C
100
AcDbDictionary
281
     1
  3
Standard
350
87
  0
DICTIONARY
  5
99
102
{ACAD_REACTORS
330
C
102
}
330
C
100
AcDbDictionary
281
     1
  3
2dWireframe
350
9F
  3
3D Hidden
350
A1
  3
3dWireframe
350
A0
  3
Basic
350
9E
  3
Brighten
350
A5
  3
ColorChange
350
A9
  3
Conceptual
350
A2
  3
Dim
350
A4
  3
EdgeColorOff
350
5DB
  3
Facepattern
350
A8
  3
Flat
350
9A
  3
FlatWithEdges
350
9B
  3
Gouraud
350
9C
  3
GouraudWithEdges
350
9D
  3
Hidden
350
5D3
  3
JitterOff
350
5D9
  3
Linepattern
350
A7
  3
OverhangOff
350
5DA
  3
Realistic
350
A3
  3
Shaded
350
5D8
  3
Shaded with edges
350
5D7
  3
Shades of Gray
350
5D4
  3
Sketchy
350
5D5
  3
Thicken
350
A6
  3
Wireframe
350
5D2
  3
X-Ray
350
5D6
  0
DICTIONARY
  5
5E7
102
{ACAD_REACTORS
330
C
102
}
330
C
100
AcDbDictionary
281
     1
  3
COLORDICT
350
5E8
  3
MATERIALDICT
350
5E9
  0
DICTIONARY
  5
66
102
{ACAD_REACTORS
330
C
102
}
330
C
100
AcDbDictionary
281
     1
  3
CANNOSCALE
350
F0
  3
CMLEADERSTYLE
350
EF
  3
CTABLESTYLE
350
89
  3
DIMASSOC
350
67
  3
HIDETEXT
350
6B
  3
INDEXCTL
350
5C0
  3
LAYEREVAL
350
5E3
  3
LAYERNOTIFY
350
5E4
  3
LIGHTINGUNITS
350
5BE
  3
MSLTSCALE
350
5BD
  3
SORTENTS
350
5BF
  0
DICTIONARY
  5
5DF
102
{ACAD_REACTORS
330
C
102
}
330
C
100
AcDbDictionary
281
     1
  3
ASEBlockHierarchyIndexRecord
350
5E1
1001
DCO15
1040
1791102349.593
  0
XRECORD
  5
5EA
102
{ACAD_REACTORS
330
C
102
}
330
C
100
AcDbXrecord
280
     1
  1
DWGPROPS COOKIE
  2

  3

  4

  6

  7

  8
acae2
  9

300
=
301
=
302
=
303
=
304
=
305
=
306
=
307
=
308
=
309
=
 40
0.0
 41
2455511.319595926
 42
2460150.585374329
  1

 90
        0
  0
XRECORD
  5
5EC
102
{ACAD_REACTORS
330
5EB
102
}
330
5EB
100
AcDbXrecord
280
     1
102
VTR_0.000_0.000_1.000_1.000_VISUALSTYLE
340
9F
102
VTR_0.000_0.000_1.000_1.000_GRIDDISPLAY
 70
     3
102
VTR_0.000_0.000_1.000_1.000_GRIDMAJOR
 70
     5
102
VTR_0.000_0.000_1.000_1.000_DEFAULTLIGHTING
280
     1
102
VTR_0.000_0.000_1.000_1.000_DEFAULTLIGHTINGTYPE
 70
     1
102
VTR_0.000_0.000_1.000_1.000_BRIGHTNESS
141
0.0
102
VTR_0.000_0.000_1.000_1.000_CONTRAST
142
0.0
  0
XRECORD
  5
5BA
102
{ACAD_REACTORS
330
E6
102
}
330
E6
100
AcDbXrecord
280
     1
290
     1
  0
XRECORD
  5
5BC
102
{ACAD_REACTORS
330
5BB
102
}
330
5BB
100
AcDbXrecord
280
     1
290
     1
  0
LAYOUT
  5
59
102
{ACAD_REACTORS
330
1A
102
}
330
1A
100
AcDbPlotSettings
  1

  2
None
  4

  6

 40
0.0
 41
0.0
 42
0.0
 43
0.0
 44
0.0
 45
0.0
 46
0.0
 47
0.0
 48
0.0
 49
0.0
140
0.0
141
0.0
142
1.0
143
1.0
 70
   688
 72
     0
 73
     0
 74
     5
  7

 75
    16
147
1.0
148
0.0
149
0.0
100
AcDbLayout
  1
Layout1
 70
     1
 71
     1
 10
0.0
 20
0.0
 11
12.0
 21
9.0
 12
0.0
 22
0.0
 32
0.0
 14
0.0
 24
0.0
 34
0.0
 15
0.0
 25
0.0
 35
0.0
146
0.0
 13
0.0
 23
0.0
 33
0.0
 16
1.0
 26
0.0
 36
0.0
 17
0.0
 27
1.0
 37
0.0
 76
     0
330
58
  0
LAYOUT
  5
5E
102
{ACAD_REACTORS
330
1A
102
}
330
1A
100
AcDbPlotSettings
  1

  2
None
  4

  6

 40
0.0
 41
0.0
 42
0.0
 43
0.0
 44
0.0
 45
0.0
 46
0.0
 47
0.0
 48
0.0
 49
0.0
140
0.0
141
0.0
142
1.0
143
1.0
 70
   688
 72
     0
 73
     0
 74
     5
  7

 75
    16
147
1.0
148
0.0
149
0.0
100
AcDbLayout
  1
Layout2
 70
     1
 71
     2
 10
0.0
 20
0.0
 11
12.0
 21
9.0
 12
0.0
 22
0.0
 32
0.0
 14
0.0
 24
0.0
 34
0.0
 15
0.0
 25
0.0
 35
0.0
146
0.0
 13
0.0
 23
0.0
 33
0.0
 16
1.0
 26
0.0
 36
0.0
 17
0.0
 27
1.0
 37
0.0
 76
     0
330
5D
  0
LAYOUT
  5
22
102
{ACAD_REACTORS
330
1A
102
}
330
1A
100
AcDbPlotSettings
  1

  2
none_device
  4
ANSI_A_(8.50_x_11.00_Inches)
  6

 40
6.349999904632567
 41
19.04999923706055
 42
6.350006103515625
 43
19.04998779296875
 44
215.8999938964844
 45
279.3999938964844
 46
0.0
 47
0.0
 48
0.0
 49
0.0
140
0.0
141
0.0
142
1.0
143
2.584895464708373
 70
 11952
 72
     0
 73
     1
 74
     0
  7

 75
     0
147
0.3868628397755418
148
0.0
149
0.0
100
AcDbLayout
  1
Model
 70
     1
 71
     0
 10
0.0
 20
0.0
 11
12.0
 21
9.0
 12
0.0
 22
0.0
 32
0.0
 14
0.0
 24
0.0
 34
0.0
 15
0.0
 25
0.0
 35
0.0
146
0.0
 13
0.0
 23
0.0
 33
0.0
 16
1.0
 26
0.0
 36
0.0
 17
0.0
 27
1.0
 37
0.0
 76
     0
330
1F
331
94
  0
MATERIAL
  5
97
102
{ACAD_REACTORS
330
72
102
}
102
{ACAD_XDICTIONARY
360
5CC
102
}
330
72
100
AcDbMaterial
  1
ByBlock
 73
     2
 78
     2
172
     2
176
     2
270
     2
274
     2
  0
MATERIAL
  5
96
102
{ACAD_REACTORS
330
72
102
}
102
{ACAD_XDICTIONARY
360
5CA
102
}
330
72
100
AcDbMaterial
  1
ByLayer
 73
     2
 78
     2
172
     2
176
     2
270
     2
274
     2
  0
MATERIAL
  5
98
102
{ACAD_REACTORS
330
72
102
}
102
{ACAD_XDICTIONARY
360
110
102
}
330
72
100
AcDbMaterial
  1
Global
 73
     2
 43
0.0208000000566244
 43
0.0
 43
0.0
 43
0.0
 43
0.0
 43
0.0208000000566244
 43
0.0
 43
0.0
 43
0.0
 43
0.0
 43
1.0
 43
0.0
 43
0.0
 43
0.0
 43
0.0
 43
1.0
 78
     2
172
     2
 49
0.0208000000566244
 49
0.0
 49
0.0
 49
0.0
 49
0.0
 49
0.0208000000566244
 49
0.0
 49
0.0
 49
0.0
 49
0.0
 49
1.0
 49
0.0
 49
0.0
 49
0.0
 49
0.0
 49
1.0
176
     2
142
0.0208000000566244
142
0.0
142
0.0
142
0.0
142
0.0
142
0.0208000000566244
142
0.0
142
0.0
142
0.0
142
0.0
142
1.0
142
0.0
142
0.0
142
0.0
142
0.0
142
1.0
270
     2
144
0.0208000000566244
144
0.0
144
0.0
144
0.0
144
0.0
144
0.0208000000566244
144
0.0
144
0.0
144
0.0
144
0.0
144
1.0
144
0.0
144
0.0
144
0.0
144
0.0
144
1.0
274
     2
1001
ACAD
1070
    -1
1070
     3
1070
     0
1000

1071
        0
1070
     0
  0
MLEADERSTYLE
  5
D8
102
{ACAD_REACTORS
330
D7
102
}
102
{ACAD_XDICTIONARY
360
5ED
102
}
330
D7
100
AcDbMLeaderStyle
170
     2
171
     1
172
     0
 90
        2
 40
0.0
 41
0.0
173
     1
 91
-1056964608
340
14
 92
       -2
290
     1
 42
0.09
291
     1
 43
0.36
  3
Standard
341
0
 44
0.18
300

342
11
174
     1
178
     1
175
     1
176
     0
 93
-1056964608
 45
0.18
292
     0
297
     0
 46
0.18
343
0
 94
-1056964608
 47
1.0
 49
1.0
140
1.0
293
     1
141
0.0
294
     1
177
     0
142
1.0
295
     0
296
     0
143
0.125
1001
ACAD_MLEADERVER
1070
     2
  0
MLINESTYLE
  5
18
102
{ACAD_REACTORS
330
17
102
}
330
17
100
AcDbMlineStyle
  2
STANDARD
 70
     0
  3

 62
   256
 51
90.0
 52
90.0
 71
     2
 49
0.5
 62
   256
  6
BYLAYER
 49
-0.5
 62
   256
  6
BYLAYER
  0
ACDBPLACEHOLDER
  5
F
102
{ACAD_REACTORS
330
E
102
}
330
E
  0
SCALE
  5
B7
102
{ACAD_REACTORS
330
B6
102
}
330
B6
100
AcDbScale
 70
     0
300
1:1
140
1.0
141
1.0
290
     1
  0
SCALE
  5
124
102
{ACAD_REACTORS
330
B6
102
}
330
B6
100
AcDbScale
 70
     0
300
1:2
140
1.0
141
2.0
290
     0
  0
SCALE
  5
125
102
{ACAD_REACTORS
330
B6
102
}
330
B6
100
AcDbScale
 70
     0
300
1:4
140
1.0
141
4.0
290
     0
  0
SCALE
  5
126
102
{ACAD_REACTORS
330
B6
102
}
330
B6
100
AcDbScale
 70
     0
300
1:5
140
1.0
141
5.0
290
     0
  0
SCALE
  5
127
102
{ACAD_REACTORS
330
B6
102
}
330
B6
100
AcDbScale
 70
     0
300
1:8
140
1.0
141
8.0
290
     0
  0
SCALE
  5
128
102
{ACAD_REACTORS
330
B6
102
}
330
B6
100
AcDbScale
 70
     0
300
1:10
140
1.0
141
10.0
290
     0
  0
SCALE
  5
129
102
{ACAD_REACTORS
330
B6
102
}
330
B6
100
AcDbScale
 70
     0
300
1:16
140
1.0
141
16.0
290
     0
  0
SCALE
  5
12A
102
{ACAD_REACTORS
330
B6
102
}
330
B6
100
AcDbScale
 70
     0
300
1:20
140
1.0
141
20.0
290
     0
  0
SCALE
  5
12B
102
{ACAD_REACTORS
330
B6
102
}
330
B6
100
AcDbScale
 70
     0
300
1:30
140
1.0
141
30.0
290
     0
  0
SCALE
  5
12C
102
{ACAD_REACTORS
330
B6
102
}
330
B6
100
AcDbScale
 70
     0
300
1:40
140
1.0
141
40.0
290
     0
  0
SCALE
  5
12D
102
{ACAD_REACTORS
330
B6
102
}
330
B6
100
AcDbScale
 70
     0
300
1:50
140
1.0
141
50.0
290
     0
  0
SCALE
  5
12E
102
{ACAD_REACTORS
330
B6
102
}
330
B6
100
AcDbScale
 70
     0
300
1:100
140
1.0
141
100.0
290
     0
  0
SCALE
  5
12F
102
{ACAD_REACTORS
330
B6
102
}
330
B6
100
AcDbScale
 70
     0
300
2:1
140
2.0
141
1.0
290
     0
  0
SCALE
  5
130
102
{ACAD_REACTORS
330
B6
102
}
330
B6
100
AcDbScale
 70
     0
300
4:1
140
4.0
141
1.0
290
     0
  0
SCALE
  5
131
102
{ACAD_REACTORS
330
B6
102
}
330
B6
100
AcDbScale
 70
     0
300
8:1
140
8.0
141
1.0
290
     0
  0
SCALE
  5
132
102
{ACAD_REACTORS
330
B6
102
}
330
B6
100
AcDbScale
 70
     0
300
10:1
140
10.0
141
1.0
290
     0
  0
SCALE
  5
133
102
{ACAD_REACTORS
330
B6
102
}
330
B6
100
AcDbScale
 70
     0
300
100:1
140
100.0
141
1.0
290
     0
  0
SCALE
  5
134
102
{ACAD_REACTORS
330
B6
102
}
330
B6
100
AcDbScale
 70
     0
300
1/128" = 1'-0"
140
0.0078125
141
12.0
290
     0
  0
SCALE
  5
135
102
{ACAD_REACTORS
330
B6
102
}
330
B6
100
AcDbScale
 70
     0
300
1/64" = 1'-0"
140
0.015625
141
12.0
290
     0
  0
SCALE
  5
136
102
{ACAD_REACTORS
330
B6
102
}
330
B6
100
AcDbScale
 70
     0
300
1/32" = 1'-0"
140
0.03125
141
12.0
290
     0
  0
SCALE
  5
137
102
{ACAD_REACTORS
330
B6
102
}
330
B6
100
AcDbScale
 70
     0
300
1/16" = 1'-0"
140
0.0625
141
12.0
290
     0
  0
SCALE
  5
138
102
{ACAD_REACTORS
330
B6
102
}
330
B6
100
AcDbScale
 70
     0
300
3/32" = 1'-0"
140
0.09375
141
12.0
290
     0
  0
SCALE
  5
139
102
{ACAD_REACTORS
330
B6
102
}
330
B6
100
AcDbScale
 70
     0
300
1/8" = 1'-0"
140
0.125
141
12.0
290
     0
  0
SCALE
  5
13A
102
{ACAD_REACTORS
330
B6
102
}
330
B6
100
AcDbScale
 70
     0
300
3/16" = 1'-0"
140
0.1875
141
12.0
290
     0
  0
SCALE
  5
13B
102
{ACAD_REACTORS
330
B6
102
}
330
B6
100
AcDbScale
 70
     0
300
1/4" = 1'-0"
140
0.25
141
12.0
290
     0
  0
SCALE
  5
13C
102
{ACAD_REACTORS
330
B6
102
}
330
B6
100
AcDbScale
 70
     0
300
3/8" = 1'-0"
140
0.375
141
12.0
290
     0
  0
SCALE
  5
13D
102
{ACAD_REACTORS
330
B6
102
}
330
B6
100
AcDbScale
 70
     0
300
1/2" = 1'-0"
140
0.5
141
12.0
290
     0
  0
SCALE
  5
13E
102
{ACAD_REACTORS
330
B6
102
}
330
B6
100
AcDbScale
 70
     0
300
3/4" = 1'-0"
140
0.75
141
12.0
290
     0
  0
SCALE
  5
13F
102
{ACAD_REACTORS
330
B6
102
}
330
B6
100
AcDbScale
 70
     0
300
1" = 1'-0"
140
1.0
141
12.0
290
     0
  0
SCALE
  5
140
102
{ACAD_REACTORS
330
B6
102
}
330
B6
100
AcDbScale
 70
     0
300
1-1/2" = 1'-0"
140
1.5
141
12.0
290
     0
  0
SCALE
  5
141
102
{ACAD_REACTORS
330
B6
102
}
330
B6
100
AcDbScale
 70
     0
300
3" = 1'-0"
140
3.0
141
12.0
290
     0
  0
SCALE
  5
142
102
{ACAD_REACTORS
330
B6
102
}
330
B6
100
AcDbScale
 70
     0
300
6" = 1'-0"
140
6.0
141
12.0
290
     0
  0
SCALE
  5
143
102
{ACAD_REACTORS
330
B6
102
}
330
B6
100
AcDbScale
 70
     0
300
1'-0" = 1'-0"
140
12.0
141
12.0
290
     0
  0
TABLESTYLE
  5
87
102
{ACAD_REACTORS
330
86
102
}
330
86
100
AcDbTableStyle
  3
Standard
 70
     0
 71
     0
 40
0.06
 41
0.06
280
     0
281
     0
  7
Standard
140
0.18
170
     2
 62
     0
 63
   257
283
     0
274
    -2
284
     1
 64
     0
275
    -2
285
     1
 65
     0
276
    -2
286
     1
 66
     0
277
    -2
287
     1
 67
     0
278
    -2
288
     1
 68
     0
279
    -2
289
     1
 69
     0
  7
Standard
140
0.25
170
     5
 62
     0
 63
   257
283
     0
274
    -2
284
     1
 64
     0
275
    -2
285
     1
 65
     0
276
    -2
286
     1
 66
     0
277
    -2
287
     1
 67
     0
278
    -2
288
     1
 68
     0
279
    -2
289
     1
 69
     0
  7
Standard
140
0.18
170
     5
 62
     0
 63
   257
283
     0
274
    -2
284
     1
 64
     0
275
    -2
285
     1
 65
     0
276
    -2
286
     1
 66
     0
277
    -2
287
     1
 67
     0
278
    -2
288
     1
 68
     0
279
    -2
289
     1
 69
     0
  0
VISUALSTYLE
  5
9F
102
{ACAD_REACTORS
330
99
102
}
102
{ACAD_XDICTIONARY
360
5EF
102
}
330
99
100
AcDbVisualStyle
  2

 70
     4
 71
     0
 72
     2
 73
     1
 90
        0
 40
0.6
 41
30.0
 62
     5
 63
     7
 74
     1
 91
        4
 64
     7
 65
   257
 75
     1
175
     1
 42
1.0
 92
        0
 66
   257
 43
1.0
 76
     1
 77
     6
 78
     2
 67
     7
 79
     5
170
     0
171
     0
290
     0
174
     0
 93
        1
 44
0.0
173
     0
291
     0
 45
0.0
1001
ACAD
1000
AcDbSavedByObjectVersion
1070
     0
  0
VISUALSTYLE
  5
A1
102
{ACAD_REACTORS
330
99
102
}
102
{ACAD_XDICTIONARY
360
5F1
102
}
330
99
100
AcDbVisualStyle
  2

 70
     6
 71
     1
 72
     2
 73
     2
 90
        0
 40
0.6
 41
30.0
 62
     5
 63
     7
 74
     2
 91
        2
 64
     7
 65
   257
 75
     2
175
     1
 42
40.0
 92
        0
 66
   257
 43
1.0
 76
     1
 77
     6
 78
     2
 67
     7
 79
     3
170
     0
171
     0
290
     0
174
     0
 93
        1
 44
0.0
173
     0
291
     0
 45
0.0
1001
ACAD
1000
AcDbSavedByObjectVersion
1070
     0
  0
VISUALSTYLE
  5
A0
102
{ACAD_REACTORS
330
99
102
}
102
{ACAD_XDICTIONARY
360
5F3
102
}
330
99
100
AcDbVisualStyle
  2

 70
     5
 71
     0
 72
     2
 73
     1
 90
        0
 40
0.6
 41
30.0
 62
     5
 63
     7
 74
     1
 91
        4
 64
     7
 65
   257
 75
     1
175
     1
 42
1.0
 92
        0
 66
   257
 43
1.0
 76
     1
 77
     6
 78
     2
 67
     7
 79
     5
170
     0
171
     0
290
     0
174
     0
 93
        1
 44
0.0
173
     0
291
     0
 45
0.0
1001
ACAD
1000
AcDbSavedByObjectVersion
1070
     0
  0
VISUALSTYLE
  5
9E
102
{ACAD_REACTORS
330
99
102
}
102
{ACAD_XDICTIONARY
360
5F5
102
}
330
99
100
AcDbVisualStyle
  2

 70
     7
 71
     1
 72
     0
 73
     1
 90
        0
 40
0.6
 41
30.0
 62
     5
 63
     7
 74
     0
 91
        4
 64
     7
 65
   257
 75
     1
175
     1
 42
1.0
 92
        8
 66
     7
 43
1.0
 76
     1
 77
     6
 78
     2
 67
     7
 79
     5
170
     0
171
     0
290
     0
174
     0
 93
        1
 44
0.0
173
     0
291
     1
 45
0.0
1001
ACAD
1000
AcDbSavedByObjectVersion
1070
     0
  0
VISUALSTYLE
  5
A5
102
{ACAD_REACTORS
330
99
102
}
102
{ACAD_XDICTIONARY
360
5F7
102
}
330
99
100
AcDbVisualStyle
  2

 70
    12
 71
     2
 72
     2
 73
     1
 90
        0
 40
0.6
 41
30.0
 62
     5
 63
     7
 74
     1
 91
        4
 64
     7
 65
   257
 75
     1
175
     1
 42
1.0
 92
        8
 66
     7
 43
1.0
 76
     1
 77
     6
 78
     2
 67
     7
 79
     5
170
     0
171
     0
290
     0
174
     0
 93
        1
 44
50.0
173
     0
291
     1
 45
0.0
1001
ACAD
1000
AcDbSavedByObjectVersion
1070
     0
  0
VISUALSTYLE
  5
A9
102
{ACAD_REACTORS
330
99
102
}
102
{ACAD_XDICTIONARY
360
5F9
102
}
330
99
100
AcDbVisualStyle
  2

 70
    16
 71
     2
 72
     2
 73
     3
 90
        0
 40
0.6
 41
30.0
 62
     5
 63
     8
 74
     1
 91
        4
 64
     7
 65
   257
 75
     1
175
     1
 42
1.0
 92
        8
 66
     8
 43
1.0
 76
     1
 77
     6
 78
     2
 67
     7
 79
     5
170
     0
171
     0
290
     0
174
     0
 93
        1
 44
0.0
173
     0
291
     1
 45
0.0
1001
ACAD
1000
AcDbSavedByObjectVersion
1070
     0
  0
VISUALSTYLE
  5
A2
102
{ACAD_REACTORS
330
99
102
}
102
{ACAD_XDICTIONARY
360
5FB
102
}
330
99
100
AcDbVisualStyle
  2

 70
     9
 71
     3
 72
     2
 73
     1
 90
        0
 40
0.6
 41
30.0
 62
     5
 63
     7
 74
     2
 91
        2
 64
     7
 65
   257
 75
     1
175
     1
 42
40.0
 92
        8
 66
     7
 43
1.0
 76
     1
 77
     6
 78
     2
 67
     7
 79
     3
170
     0
171
     0
290
     0
174
     0
 93
        1
 44
0.0
173
     0
291
     0
 45
0.0
1001
ACAD
1000
AcDbSavedByObjectVersion
1070
     0
  0
VISUALSTYLE
  5
A4
102
{ACAD_REACTORS
330
99
102
}
102
{ACAD_XDICTIONARY
360
5FD
102
}
330
99
100
AcDbVisualStyle
  2

 70
    11
 71
     2
 72
     2
 73
     1
 90
        0
 40
0.6
 41
30.0
 62
     5
 63
     7
 74
     1
 91
        4
 64
     7
 65
   257
 75
     1
175
     1
 42
1.0
 92
        8
 66
     7
 43
1.0
 76
     1
 77
     6
 78
     2
 67
     7
 79
     5
170
     0
171
     0
290
     0
174
     0
 93
        1
 44
-50.0
173
     0
291
     1
 45
0.0
1001
ACAD
1000
AcDbSavedByObjectVersion
1070
     0
  0
VISUALSTYLE
  5
5DB
102
{ACAD_REACTORS
330
99
102
}
102
{ACAD_XDICTIONARY
360
5FF
102
}
330
99
100
AcDbVisualStyle
  2
EdgeColorOff
 70
    22
 71
     2
 72
     2
 73
     0
 90
        0
 40
0.6
 41
30.0
 62
     5
 63
     7
 74
     1
 91
        4
 64
     7
 65
   257
 75
     1
175
     1
 42
1.0
 92
        8
 66
     7
 43
1.0
 76
     1
 77
     6
 78
     2
 67
     7
 79
     5
170
     0
171
     0
290
     0
174
     0
 93
        1
 44
0.0
173
     0
291
     1
 45
0.0
1001
ACAD
1000
AcDbSavedByObjectVersion
1070
     0
  0
VISUALSTYLE
  5
A8
102
{ACAD_REACTORS
330
99
102
}
102
{ACAD_XDICTIONARY
360
601
102
}
330
99
100
AcDbVisualStyle
  2

 70
    15
 71
     2
 72
     2
 73
     1
 90
        0
 40
0.6
 41
30.0
 62
     5
 63
     7
 74
     1
 91
        4
 64
     7
 65
   257
 75
     1
175
     1
 42
1.0
 92
        8
 66
     7
 43
1.0
 76
     1
 77
     6
 78
     2
 67
     7
 79
     5
170
     0
171
     0
290
     0
174
     0
 93
        1
 44
0.0
173
     0
291
     1
 45
0.0
1001
ACAD
1000
AcDbSavedByObjectVersion
1070
     0
  0
VISUALSTYLE
  5
9A
102
{ACAD_REACTORS
330
99
102
}
102
{ACAD_XDICTIONARY
360
603
102
}
330
99
100
AcDbVisualStyle
  2

 70
     0
 71
     2
 72
     1
 73
     1
 90
        2
 40
0.6
 41
30.0
 62
     5
 63
     7
 74
     0
 91
        4
 64
     7
 65
   257
 75
     1
175
     1
 42
1.0
 92
        8
 66
     7
 43
1.0
 76
     1
 77
     6
 78
     2
 67
     7
 79
     5
170
     0
171
     0
290
     0
174
     0
 93
        1
 44
0.0
173
     0
291
     1
 45
0.0
1001
ACAD
1000
AcDbSavedByObjectVersion
1070
     0
  0
VISUALSTYLE
  5
9B
102
{ACAD_REACTORS
330
99
102
}
102
{ACAD_XDICTIONARY
360
605
102
}
330
99
100
AcDbVisualStyle
  2

 70
     1
 71
     2
 72
     1
 73
     1
 90
        2
 40
0.6
 41
30.0
 62
     5
 63
     7
 74
     1
 91
        4
 64
     7
 65
   257
 75
     1
175
     1
 42
1.0
 92
        0
 66
   257
 43
1.0
 76
     1
 77
     6
 78
     2
 67
     7
 79
     5
170
     0
171
     0
290
     0
174
     0
 93
        1
 44
0.0
173
     0
291
     1
 45
0.0
1001
ACAD
1000
AcDbSavedByObjectVersion
1070
     0
  0
VISUALSTYLE
  5
9C
102
{ACAD_REACTORS
330
99
102
}
102
{ACAD_XDICTIONARY
360
607
102
}
330
99
100
AcDbVisualStyle
  2

 70
     2
 71
     2
 72
     2
 73
     1
 90
        2
 40
0.6
 41
30.0
 62
     5
 63
     7
 74
     0
 91
        4
 64
     7
 65
   257
 75
     1
175
     1
 42
1.0
 92
        0
 66
     7
 43
1.0
 76
     1
 77
     6
 78
     2
 67
     7
 79
     5
170
     0
171
     0
290
     0
174
     0
 93
        1
 44
0.0
173
     0
291
     1
 45
0.0
1001
ACAD
1000
AcDbSavedByObjectVersion
1070
     0
  0
VISUALSTYLE
  5
9D
102
{ACAD_REACTORS
330
99
102
}
102
{ACAD_XDICTIONARY
360
609
102
}
330
99
100
AcDbVisualStyle
  2

 70
     3
 71
     2
 72
     2
 73
     1
 90
        2
 40
0.6
 41
30.0
 62
     5
 63
     7
 74
     1
 91
        4
 64
     7
 65
   257
 75
     1
175
     1
 42
1.0
 92
        0
 66
   257
 43
1.0
 76
     1
 77
     6
 78
     2
 67
     7
 79
     5
170
     0
171
     0
290
     0
174
     0
 93
        1
 44
0.0
173
     0
291
     1
 45
0.0
1001
ACAD
1000
AcDbSavedByObjectVersion
1070
     0
  0
VISUALSTYLE
  5
5D3
102
{ACAD_REACTORS
330
99
102
}
102
{ACAD_XDICTIONARY
360
60B
102
}
330
99
100
AcDbVisualStyle
  2
Hidden
 70
     6
 71
     1
 72
     2
 73
     2
 90
        0
 40
0.6
 41
30.0
 62
     5
 63
     7
 74
     2
 91
        2
 64
     7
 65
   257
 75
     2
175
     1
 42
40.0
 92
        0
 66
   257
 43
1.0
 76
     1
 77
     6
 78
     2
 67
     7
 79
     3
170
     0
171
     0
290
     0
174
     0
 93
        1
 44
0.0
173
     0
291
     0
 45
0.0
1001
ACAD
1000
AcDbSavedByObjectVersion
1070
     0
  0
VISUALSTYLE
  5
5D9
102
{ACAD_REACTORS
330
99
102
}
102
{ACAD_XDICTIONARY
360
60D
102
}
330
99
100
AcDbVisualStyle
  2
JitterOff
 70
    20
 71
     2
 72
     2
 73
     0
 90
        0
 40
0.6
 41
30.0
 62
     5
 63
     7
 74
     1
 91
        4
 64
     7
 65
   257
 75
     1
175
     1
 42
1.0
 92
       10
 66
     7
 43
1.0
 76
     1
 77
     6
 78
     2
 67
     7
 79
     5
170
     0
171
     0
290
     0
174
     0
 93
        1
 44
0.0
173
     0
291
     1
 45
0.0
1001
ACAD
1000
AcDbSavedByObjectVersion
1070
     0
  0
VISUALSTYLE
  5
A7
102
{ACAD_REACTORS
330
99
102
}
102
{ACAD_XDICTIONARY
360
60F
102
}
330
99
100
AcDbVisualStyle
  2

 70
    14
 71
     2
 72
     2
 73
     1
 90
        0
 40
0.6
 41
30.0
 62
     5
 63
     7
 74
     1
 91
        4
 64
     7
 65
   257
 75
     7
175
     7
 42
1.0
 92
        8
 66
     7
 43
1.0
 76
     1
 77
     6
 78
     2
 67
     7
 79
     5
170
     0
171
     0
290
     0
174
     0
 93
        1
 44
0.0
173
     0
291
     1
 45
0.0
1001
ACAD
1000
AcDbSavedByObjectVersion
1070
     0
  0
VISUALSTYLE
  5
5DA
102
{ACAD_REACTORS
330
99
102
}
102
{ACAD_XDICTIONARY
360
611
102
}
330
99
100
AcDbVisualStyle
  2
OverhangOff
 70
    21
 71
     2
 72
     2
 73
     0
 90
        0
 40
0.6
 41
30.0
 62
     5
 63
     7
 74
     1
 91
        4
 64
     7
 65
   257
 75
     1
175
     1
 42
1.0
 92
        9
 66
     7
 43
1.0
 76
     1
 77
     6
 78
     2
 67
     7
 79
     5
170
     0
171
     0
290
     0
174
     0
 93
        1
 44
0.0
173
     0
291
     1
 45
0.0
1001
ACAD
1000
AcDbSavedByObjectVersion
1070
     0
  0
VISUALSTYLE
  5
A3
102
{ACAD_REACTORS
330
99
102
}
102
{ACAD_XDICTIONARY
360
613
102
}
330
99
100
AcDbVisualStyle
  2

 70
     8
 71
     2
 72
     2
 73
     1
 90
        0
 40
0.6
 41
30.0
 62
     5
 63
     7
 74
     1
 91
        0
 64
     7
 65
   257
 75
     1
175
     1
 42
1.0
 92
        8
 66
     8
 43
1.0
 76
     1
 77
     6
 78
     2
 67
     7
 79
     5
170
     0
171
     0
290
     0
174
     0
 93
       13
 44
0.0
173
     0
291
     0
 45
0.0
1001
ACAD
1000
AcDbSavedByObjectVersion
1070
     0
  0
VISUALSTYLE
  5
5D8
102
{ACAD_REACTORS
330
99
102
}
102
{ACAD_XDICTIONARY
360
615
102
}
330
99
100
AcDbVisualStyle
  2
Shaded
 70
    27
 71
     2
 72
     2
 73
     1
 90
        2
 40
0.6
 41
30.0
 62
     5
 63
     7
 74
     0
 91
        4
 64
     7
 65
   257
 75
     1
175
     1
 42
1.0
 92
        8
 66
   257
 43
1.0
 76
     1
 77
     6
 78
     2
 67
     8
 79
     3
170
     0
171
     0
290
     0
174
     0
 93
        5
 44
0.0
173
     0
291
     0
 45
0.0
1001
ACAD
1000
AcDbSavedByObjectVersion
1070
     0
  0
VISUALSTYLE
  5
5D7
102
{ACAD_REACTORS
330
99
102
}
102
{ACAD_XDICTIONARY
360
617
102
}
330
99
100
AcDbVisualStyle
  2
Shaded with edges
 70
    26
 71
     2
 72
     2
 73
     1
 90
        2
 40
0.6
 41
30.0
 62
     5
 63
     7
 74
     1
 91
       10
 64
     7
 65
   257
 75
     2
175
     1
 42
1.0
 92
        8
 66
   257
 43
1.0
 76
     1
 77
     6
 78
     2
 67
     7
 79
     3
170
     0
171
     0
290
     0
174
     0
 93
        5
 44
0.0
173
     0
291
     0
 45
0.0
1001
ACAD
1000
AcDbSavedByObjectVersion
1070
     0
  0
VISUALSTYLE
  5
5D4
102
{ACAD_REACTORS
330
99
102
}
102
{ACAD_XDICTIONARY
360
619
102
}
330
99
100
AcDbVisualStyle
  2
Shades of Gray
 70
    23
 71
     2
 72
     2
 73
     3
 90
        0
 40
0.6
 41
30.0
 62
     5
 63
     7
 74
     2
 91
        2
 64
     7
 65
     7
 75
     1
175
     1
 42
40.0
 92
        8
 66
     7
 43
1.0
 76
     1
 77
     6
 78
     2
 67
     7
 79
     3
170
     0
171
     0
290
     0
174
     0
 93
        1
 44
0.0
173
     0
291
     0
 45
0.0
1001
ACAD
1000
AcDbSavedByObjectVersion
1070
     0
  0
VISUALSTYLE
  5
5D5
102
{ACAD_REACTORS
330
99
102
}
102
{ACAD_XDICTIONARY
360
61B
102
}
330
99
100
AcDbVisualStyle
  2
Sketchy
 70
    24
 71
     1
 72
     2
 73
     2
 90
        0
 40
0.6
 41
30.0
 62
     5
 63
     7
 74
     2
 91
        2
 64
     7
 65
     7
 75
     1
175
     1
 42
40.0
 92
       11
 66
     7
 43
1.0
 76
     1
 77
     6
 78
     2
 67
     7
 79
     6
170
     0
171
     0
290
     0
174
     0
 93
        1
 44
0.0
173
     0
291
     0
 45
0.0
1001
ACAD
1000
AcDbSavedByObjectVersion
1070
     0
  0
VISUALSTYLE
  5
A6
102
{ACAD_REACTORS
330
99
102
}
102
{ACAD_XDICTIONARY
360
61D
102
}
330
99
100
AcDbVisualStyle
  2

 70
    13
 71
     2
 72
     2
 73
     1
 90
        0
 40
0.6
 41
30.0
 62
     5
 63
     7
 74
     1
 91
        4
 64
     7
 65
   257
 75
     1
175
     1
 42
1.0
 92
       12
 66
     7
 43
1.0
 76
     1
 77
     6
 78
     2
 67
     7
 79
     5
170
     0
171
     0
290
     0
174
     0
 93
        1
 44
0.0
173
     0
291
     1
 45
0.0
1001
ACAD
1000
AcDbSavedByObjectVersion
1070
     0
  0
VISUALSTYLE
  5
5D2
102
{ACAD_REACTORS
330
99
102
}
102
{ACAD_XDICTIONARY
360
61F
102
}
330
99
100
AcDbVisualStyle
  2
Wireframe
 70
     5
 71
     0
 72
     2
 73
     0
 90
        0
 40
0.6
 41
30.0
 62
     5
 63
     7
 74
     1
 91
        4
 64
     7
 65
   257
 75
     1
175
     1
 42
1.0
 92
        0
 66
   257
 43
1.0
 76
     1
 77
     6
 78
     2
 67
     7
 79
     3
170
     0
171
     0
290
     0
174
     0
 93
        1
 44
0.0
173
     0
291
     0
 45
0.0
1001
ACAD
1000
AcDbSavedByObjectVersion
1070
     0
  0
VISUALSTYLE
  5
5D6
102
{ACAD_REACTORS
330
99
102
}
102
{ACAD_XDICTIONARY
360
621
102
}
330
99
100
AcDbVisualStyle
  2
X-Ray
 70
    25
 71
     2
 72
     2
 73
     1
 90
        1
 40
0.5
 41
30.0
 62
     5
 63
     7
 74
     1
 91
        0
 64
     7
 65
   257
 75
     1
175
     1
 42
1.0
 92
        8
 66
     7
 43
1.0
 76
     1
 77
     6
 78
     2
 67
     7
 79
     3
170
     0
171
     0
290
     0
174
     0
 93
       13
 44
0.0
173
     0
291
     0
 45
0.0
1001
ACAD
1000
AcDbSavedByObjectVersion
1070
     0
  0
XRECORD
  5
5E8
102
{ACAD_REACTORS
330
5E7
102
}
330
5E7
100
AcDbXrecord
280
     1
340
73
  0
XRECORD
  5
5E9
102
{ACAD_REACTORS
330
5E7
102
}
330
5E7
100
AcDbXrecord
280
     1
340
72
  0
DICTIONARYVAR
  5
F0
102
{ACAD_REACTORS
330
66
102
}
330
66
100
DictionaryVariables
280
     0
  1
1:1
  0
DICTIONARYVAR
  5
EF
102
{ACAD_REACTORS
330
66
102
}
330
66
100
DictionaryVariables
280
     0
  1
Standard
  0
DICTIONARYVAR
  5
89
102
{ACAD_REACTORS
330
66
102
}
330
66
100
DictionaryVariables
280
     0
  1
Standard
  0
DICTIONARYVAR
  5
67
102
{ACAD_REACTORS
330
66
102
}
330
66
100
DictionaryVariables
280
     0
  1
2
  0
DICTIONARYVAR
  5
6B
102
{ACAD_REACTORS
330
66
102
}
330
66
100
DictionaryVariables
280
     0
  1
1
  0
DICTIONARYVAR
  5
5C0
102
{ACAD_REACTORS
330
66
102
}
330
66
100
DictionaryVariables
280
     0
  1
0
  0
DICTIONARYVAR
  5
5E3
102
{ACAD_REACTORS
330
66
102
}
330
66
100
DictionaryVariables
280
     0
  1
1
  0
DICTIONARYVAR
  5
5E4
102
{ACAD_REACTORS
330
66
102
}
330
66
100
DictionaryVariables
280
     0
  1
15
  0
DICTIONARYVAR
  5
5BE
102
{ACAD_REACTORS
330
66
102
}
330
66
100
DictionaryVariables
280
     0
  1
2
  0
DICTIONARYVAR
  5
5BD
102
{ACAD_REACTORS
330
66
102
}
330
66
100
DictionaryVariables
280
     0
  1
1
  0
DICTIONARYVAR
  5
5BF
102
{ACAD_REACTORS
330
66
102
}
330
66
100
DictionaryVariables
280
     0
  1
127
  0
XRECORD
  5
5E1
102
{ACAD_REACTORS
330
5DF
102
}
330
5DF
100
AcDbXrecord
280
     1
330
584
330
585
330
586
330
587
  0
DICTIONARY
  5
5CC
330
97
100
AcDbDictionary
280
     1
281
     1
  3
ACAD_XREC_ROUNDTRIP
360
5CD
  0
DICTIONARY
  5
5CA
330
96
100
AcDbDictionary
280
     1
281
     1
  3
ACAD_XREC_ROUNDTRIP
360
5CB
  0
DICTIONARY
  5
110
330
98
100
AcDbDictionary
280
     1
281
     1
  3
ACAD_XREC_ROUNDTRIP
360
5CE
  0
DICTIONARY
  5
5ED
330
D8
100
AcDbDictionary
280
     1
281
     1
  3
ACAD_XREC_ROUNDTRIP
360
5EE
  0
DICTIONARY
  5
5EF
330
9F
100
AcDbDictionary
280
     1
281
     1
  3
ACAD_XREC_ROUNDTRIP
360
5F0
  0
DICTIONARY
  5
5F1
330
A1
100
AcDbDictionary
280
     1
281
     1
  3
ACAD_XREC_ROUNDTRIP
360
5F2
  0
DICTIONARY
  5
5F3
330
A0
100
AcDbDictionary
280
     1
281
     1
  3
ACAD_XREC_ROUNDTRIP
360
5F4
  0
DICTIONARY
  5
5F5
330
9E
100
AcDbDictionary
280
     1
281
     1
  3
ACAD_XREC_ROUNDTRIP
360
5F6
  0
DICTIONARY
  5
5F7
330
A5
100
AcDbDictionary
280
     1
281
     1
  3
ACAD_XREC_ROUNDTRIP
360
5F8
  0
DICTIONARY
  5
5F9
330
A9
100
AcDbDictionary
280
     1
281
     1
  3
ACAD_XREC_ROUNDTRIP
360
5FA
  0
DICTIONARY
  5
5FB
330
A2
100
AcDbDictionary
280
     1
281
     1
  3
ACAD_XREC_ROUNDTRIP
360
5FC
  0
DICTIONARY
  5
5FD
330
A4
100
AcDbDictionary
280
     1
281
     1
  3
ACAD_XREC_ROUNDTRIP
360
5FE
  0
DICTIONARY
  5
5FF
330
5DB
100
AcDbDictionary
280
     1
281
     1
  3
ACAD_XREC_ROUNDTRIP
360
600
  0
DICTIONARY
  5
601
330
A8
100
AcDbDictionary
280
     1
281
     1
  3
ACAD_XREC_ROUNDTRIP
360
602
  0
DICTIONARY
  5
603
330
9A
100
AcDbDictionary
280
     1
281
     1
  3
ACAD_XREC_ROUNDTRIP
360
604
  0
DICTIONARY
  5
605
330
9B
100
AcDbDictionary
280
     1
281
     1
  3
ACAD_XREC_ROUNDTRIP
360
606
  0
DICTIONARY
  5
607
330
9C
100
AcDbDictionary
280
     1
281
     1
  3
ACAD_XREC_ROUNDTRIP
360
608
  0
DICTIONARY
  5
609
330
9D
100
AcDbDictionary
280
     1
281
     1
  3
ACAD_XREC_ROUNDTRIP
360
60A
  0
DICTIONARY
  5
60B
330
5D3
100
AcDbDictionary
280
     1
281
     1
  3
ACAD_XREC_ROUNDTRIP
360
60C
  0
DICTIONARY
  5
60D
330
5D9
100
AcDbDictionary
280
     1
281
     1
  3
ACAD_XREC_ROUNDTRIP
360
60E
  0
DICTIONARY
  5
60F
330
A7
100
AcDbDictionary
280
     1
281
     1
  3
ACAD_XREC_ROUNDTRIP
360
610
  0
DICTIONARY
  5
611
330
5DA
100
AcDbDictionary
280
     1
281
     1
  3
ACAD_XREC_ROUNDTRIP
360
612
  0
DICTIONARY
  5
613
330
A3
100
AcDbDictionary
280
     1
281
     1
  3
ACAD_XREC_ROUNDTRIP
360
614
  0
DICTIONARY
  5
615
330
5D8
100
AcDbDictionary
280
     1
281
     1
  3
ACAD_XREC_ROUNDTRIP
360
616
  0
DICTIONARY
  5
617
330
5D7
100
AcDbDictionary
280
     1
281
     1
  3
ACAD_XREC_ROUNDTRIP
360
618
  0
DICTIONARY
  5
619
330
5D4
100
AcDbDictionary
280
     1
281
     1
  3
ACAD_XREC_ROUNDTRIP
360
61A
  0
DICTIONARY
  5
61B
330
5D5
100
AcDbDictionary
280
     1
281
     1
  3
ACAD_XREC_ROUNDTRIP
360
61C
  0
DICTIONARY
  5
61D
330
A6
100
AcDbDictionary
280
     1
281
     1
  3
ACAD_XREC_ROUNDTRIP
360
61E
  0
DICTIONARY
  5
61F
330
5D2
100
AcDbDictionary
280
     1
281
     1
  3
ACAD_XREC_ROUNDTRIP
360
620
  0
DICTIONARY
  5
621
330
5D6
100
AcDbDictionary
280
     1
281
     1
  3
ACAD_XREC_ROUNDTRIP
360
622
  0
XRECORD
  5
5CD
102
{ACAD_REACTORS
330
5CC
102
}
330
5CC
100
AcDbXrecord
280
     1
102
MATERIAL
148
0.0
149
0.0
149
0.0
 93
        0
 94
      127
282
     0
 72
     1
 77
     1
171
     1
175
     1
179
     1
273
     0
  0
XRECORD
  5
5CB
102
{ACAD_REACTORS
330
5CA
102
}
330
5CA
100
AcDbXrecord
280
     1
102
MATERIAL
148
0.0
149
0.0
149
0.0
 93
        0
 94
      127
282
     0
 72
     1
 77
     1
171
     1
175
     1
179
     1
273
     0
  0
XRECORD
  5
5CE
102
{ACAD_REACTORS
330
110
102
}
330
110
100
AcDbXrecord
280
     1
102
MATERIAL
148
0.0
149
0.0
149
0.0
 93
        0
 94
      127
282
     0
 72
     1
 77
     1
171
     1
175
     1
179
     1
273
     0
  0
XRECORD
  5
5EE
102
{ACAD_REACTORS
330
5ED
102
}
330
5ED
100
AcDbXrecord
280
     1
102
ACAD_ROUNDTRIP_2010_MLEADER_STYLE
  0
XRECORD
  5
5F0
102
{ACAD_REACTORS
330
5EF
102
}
330
5EF
100
AcDbXrecord
280
     1
102
RTVSPropertyOp0
 70
     1
102
RTVSPropertyOp1
 70
     1
102
RTVSPropertyOp2
 70
     1
102
RTVSPropertyOp3
 70
     1
102
RTVSPropertyOp4
 70
     1
102
RTVSPropertyOp5
 70
     1
102
RTVSPropertyOp6
 70
     1
102
RTVSPropertyOp7
 70
     1
102
RTVSPropertyOp8
 70
     1
102
RTVSPropertyOp9
 70
     1
102
RTVSPropertyOp10
 70
     1
102
RTVSPropertyOp11
 70
     1
102
RTVSPropertyOp12
 70
     1
102
RTVSPropertyOp13
 70
     1
102
RTVSPropertyOp14
 70
     1
102
RTVSPropertyOp15
 70
     1
102
RTVSPropertyOp16
 70
     1
102
RTVSPropertyOp17
 70
     1
102
RTVSPropertyOp18
 70
     1
102
RTVSPropertyOp19
 70
     1
102
RTVSPropertyOp20
 70
     1
102
RTVSPropertyOp21
 70
     1
102
RTVSPropertyOp22
 70
     1
102
RTVSPropertyOp23
 70
     1
102
RTVSPropertyOp24
 70
     1
102
RTVSPropertyOp25
 70
     1
102
RTVSPropertyOp26
 70
     1
102
RTVSPropertyOp27
 70
     1
102
RTVSPropertyOp28
 70
     1
102
RTVSPropertyOp29
 70
     1
102
RTVSPropertyOp30
 70
     1
102
RTVSPropertyOp31
 70
     1
102
RTVSPropertyOp32
 70
     1
102
RTVSPropertyOp33
 70
     1
102
RTVSPropertyOp34
 70
     1
102
RTVSPropertyOp35
 70
     1
102
RTVSPropertyOp36
 70
     1
102
RTVSPropertyOp37
 70
     1
102
RTVSPropertyOp38
 70
     1
102
RTVSPropertyOp39
 70
     1
102
RTVSPropertyOp40
 70
     1
102
RTVSPropertyOp41
 70
     1
102
RTVSPropertyOp42
 70
     1
102
RTVSPropertyOp43
 70
     1
102
RTVSPropertyOp44
 70
     1
102
RTVSPropertyOp45
 70
     1
102
RTVSPropertyOp46
 70
     1
102
RTVSPropertyOp47
 70
     1
102
RTVSPropertyOp48
 70
     1
102
RTVSPropertyOp49
 70
     1
102
RTVSPropertyOp50
 70
     1
102
RTVSPropertyOp51
 70
     0
102
RTVSPropertyOp52
 70
     0
102
RTVSPropertyOp53
 70
     1
102
RTVSPropertyOp54
 70
     1
102
RTVSPropertyOp55
 70
     1
102
RTVSPropertyOp56
 70
     1
102
RTVSPropertyOp57
 70
     1
102
RTVSPost2010Prop28
280
     1
102
RTVSPost2010PropOp28
 70
     1
102
RTVSPost2010Prop29
280
     1
102
RTVSPost2010PropOp29
 70
     1
102
RTVSPost2010Prop30
280
     0
102
RTVSPost2010PropOp30
 70
     1
102
RTVSPost2010Prop31
280
     0
102
RTVSPost2010PropOp31
 70
     1
102
RTVSPost2010Prop32
280
     0
102
RTVSPost2010PropOp32
 70
     1
102
RTVSPost2010Prop33
280
     0
102
RTVSPost2010PropOp33
 70
     1
102
RTVSPost2010Prop34
280
     0
102
RTVSPost2010PropOp34
 70
     1
102
RTVSPost2010Prop35
280
     0
102
RTVSPost2010PropOp35
 70
     1
102
RTVSPost2010Prop36
280
     0
102
RTVSPost2010PropOp36
 70
     1
102
RTVSPost2010Prop37
 90
       50
102
RTVSPost2010PropOp37
 70
     1
102
RTVSPost2010Prop38
140
0.0
102
RTVSPost2010PropOp38
 70
     1
102
RTVSPost2010Prop39
140
1.0
102
RTVSPost2010PropOp39
 70
     1
102
RTVSPost2010Prop40
 90
        0
102
RTVSPost2010PropOp40
 70
     1
102
RTVSPost2010Prop41ColorIndex
 90
       18
102
RTVSPost2010Prop41ColorRGB
 90
        0
102
RTVSPost2010PropOp41
 70
     1
102
RTVSPost2010Prop42
 90
       50
102
RTVSPost2010PropOp42
 70
     1
102
RTVSPost2010Prop43
 90
        3
102
RTVSPost2010PropOp43
 70
     1
102
RTVSPost2010Prop44ColorIndex
 90
        5
102
RTVSPost2010Prop44ColorRGB
 90
      255
102
RTVSPost2010PropOp44
 70
     1
102
RTVSPost2010Prop45
280
     0
102
RTVSPost2010PropOp45
 70
     1
102
RTVSPost2010Prop46
 90
       50
102
RTVSPost2010PropOp46
 70
     1
102
RTVSPost2010Prop47
 90
       50
102
RTVSPost2010PropOp47
 70
     1
102
RTVSPost2010Prop48
 90
       50
102
RTVSPost2010PropOp48
 70
     1
102
RTVSPost2010Prop49
280
     0
102
RTVSPost2010PropOp49
 70
     1
102
RTVSPost2010Prop50
 90
       50
102
RTVSPost2010PropOp50
 70
     1
102
RTVSPost2010Prop51ColorIndex
 90
      256
102
RTVSPost2010Prop51ColorRGB
 90
-16777216
102
RTVSPost2010PropOp51
 70
     0
102
RTVSPost2010Prop52
140
1.0
102
RTVSPost2010PropOp52
 70
     0
102
RTVSPost2010Prop53
 90
        2
102
RTVSPost2010PropOp53
 70
     1
102
RTVSPost2010Prop54
  1
strokes_ogs.tif
102
RTVSPost2010PropOp54
 70
     1
102
RTVSPost2010Prop55
280
     0
102
RTVSPost2010PropOp55
 70
     1
102
RTVSPost2010Prop56
140
1.0
102
RTVSPost2010PropOp56
 70
     1
102
RTVSPost2010Prop57
140
1.0
102
RTVSPost2010PropOp57
 70
     1
  0
XRECORD
  5
5F2
102
{ACAD_REACTORS
330
5F1
102
}
330
5F1
100
AcDbXrecord
280
     1
102
RTVSPropertyOp0
 70
     1
102
RTVSPropertyOp1
 70
     1
102
RTVSPropertyOp2
 70
     1
102
RTVSPropertyOp3
 70
     1
102
RTVSPropertyOp4
 70
     1
102
RTVSPropertyOp5
 70
     1
102
RTVSPropertyOp6
 70
     1
102
RTVSPropertyOp7
 70
     1
102
RTVSPropertyOp8
 70
     1
102
RTVSPropertyOp9
 70
     1
102
RTVSPropertyOp10
 70
     1
102
RTVSPropertyOp11
 70
     1
102
RTVSPropertyOp12
 70
     1
102
RTVSPropertyOp13
 70
     1
102
RTVSPropertyOp14
 70
     1
102
RTVSPropertyOp15
 70
     1
102
RTVSPropertyOp16
 70
     1
102
RTVSPropertyOp17
 70
     1
102
RTVSPropertyOp18
 70
     1
102
RTVSPropertyOp19
 70
     1
102
RTVSPropertyOp20
 70
     1
102
RTVSPropertyOp21
 70
     1
102
RTVSPropertyOp22
 70
     1
102
RTVSPropertyOp23
 70
     1
102
RTVSPropertyOp24
 70
     1
102
RTVSPropertyOp25
 70
     1
102
RTVSPropertyOp26
 70
     1
102
RTVSPropertyOp27
 70
     1
102
RTVSPropertyOp28
 70
     1
102
RTVSPropertyOp29
 70
     1
102
RTVSPropertyOp30
 70
     1
102
RTVSPropertyOp31
 70
     1
102
RTVSPropertyOp32
 70
     1
102
RTVSPropertyOp33
 70
     1
102
RTVSPropertyOp34
 70
     1
102
RTVSPropertyOp35
 70
     1
102
RTVSPropertyOp36
 70
     1
102
RTVSPropertyOp37
 70
     1
102
RTVSPropertyOp38
 70
     1
102
RTVSPropertyOp39
 70
     1
102
RTVSPropertyOp40
 70
     1
102
RTVSPropertyOp41
 70
     1
102
RTVSPropertyOp42
 70
     1
102
RTVSPropertyOp43
 70
     1
102
RTVSPropertyOp44
 70
     1
102
RTVSPropertyOp45
 70
     1
102
RTVSPropertyOp46
 70
     1
102
RTVSPropertyOp47
 70
     1
102
RTVSPropertyOp48
 70
     1
102
RTVSPropertyOp49
 70
     1
102
RTVSPropertyOp50
 70
     1
102
RTVSPropertyOp51
 70
     0
102
RTVSPropertyOp52
 70
     0
102
RTVSPropertyOp53
 70
     1
102
RTVSPropertyOp54
 70
     1
102
RTVSPropertyOp55
 70
     1
102
RTVSPropertyOp56
 70
     1
102
RTVSPropertyOp57
 70
     1
102
RTVSPost2010Prop28
280
     0
102
RTVSPost2010PropOp28
 70
     1
102
RTVSPost2010Prop29
280
     1
102
RTVSPost2010PropOp29
 70
     1
102
RTVSPost2010Prop30
280
     1
102
RTVSPost2010PropOp30
 70
     1
102
RTVSPost2010Prop31
280
     0
102
RTVSPost2010PropOp31
 70
     1
102
RTVSPost2010Prop32
280
     0
102
RTVSPost2010PropOp32
 70
     1
102
RTVSPost2010Prop33
280
     0
102
RTVSPost2010PropOp33
 70
     1
102
RTVSPost2010Prop34
280
     0
102
RTVSPost2010PropOp34
 70
     1
102
RTVSPost2010Prop35
280
     0
102
RTVSPost2010PropOp35
 70
     1
102
RTVSPost2010Prop36
280
     0
102
RTVSPost2010PropOp36
 70
     1
102
RTVSPost2010Prop37
 90
       50
102
RTVSPost2010PropOp37
 70
     1
102
RTVSPost2010Prop38
140
0.0
102
RTVSPost2010PropOp38
 70
     1
102
RTVSPost2010Prop39
140
1.0
102
RTVSPost2010PropOp39
 70
     1
102
RTVSPost2010Prop40
 90
        0
102
RTVSPost2010PropOp40
 70
     1
102
RTVSPost2010Prop41ColorIndex
 90
       18
102
RTVSPost2010Prop41ColorRGB
 90
        0
102
RTVSPost2010PropOp41
 70
     1
102
RTVSPost2010Prop42
 90
       50
102
RTVSPost2010PropOp42
 70
     1
102
RTVSPost2010Prop43
 90
        3
102
RTVSPost2010PropOp43
 70
     1
102
RTVSPost2010Prop44ColorIndex
 90
        5
102
RTVSPost2010Prop44ColorRGB
 90
      255
102
RTVSPost2010PropOp44
 70
     1
102
RTVSPost2010Prop45
280
     0
102
RTVSPost2010PropOp45
 70
     1
102
RTVSPost2010Prop46
 90
       50
102
RTVSPost2010PropOp46
 70
     1
102
RTVSPost2010Prop47
 90
       50
102
RTVSPost2010PropOp47
 70
     1
102
RTVSPost2010Prop48
 90
       50
102
RTVSPost2010PropOp48
 70
     1
102
RTVSPost2010Prop49
280
     0
102
RTVSPost2010PropOp49
 70
     1
102
RTVSPost2010Prop50
 90
       50
102
RTVSPost2010PropOp50
 70
     1
102
RTVSPost2010Prop51ColorIndex
 90
      256
102
RTVSPost2010Prop51ColorRGB
 90
-16777216
102
RTVSPost2010PropOp51
 70
     0
102
RTVSPost2010Prop52
140
1.0
102
RTVSPost2010PropOp52
 70
     0
102
RTVSPost2010Prop53
 90
        2
102
RTVSPost2010PropOp53
 70
     1
102
RTVSPost2010Prop54
  1
strokes_ogs.tif
102
RTVSPost2010PropOp54
 70
     1
102
RTVSPost2010Prop55
280
     0
102
RTVSPost2010PropOp55
 70
     1
102
RTVSPost2010Prop56
140
1.0
102
RTVSPost2010PropOp56
 70
     1
102
RTVSPost2010Prop57
140
1.0
102
RTVSPost2010PropOp57
 70
     1
  0
XRECORD
  5
5F4
102
{ACAD_REACTORS
330
5F3
102
}
330
5F3
100
AcDbXrecord
280
     1
102
RTVSPropertyOp0
 70
     1
102
RTVSPropertyOp1
 70
     1
102
RTVSPropertyOp2
 70
     1
102
RTVSPropertyOp3
 70
     1
102
RTVSPropertyOp4
 70
     1
102
RTVSPropertyOp5
 70
     1
102
RTVSPropertyOp6
 70
     1
102
RTVSPropertyOp7
 70
     1
102
RTVSPropertyOp8
 70
     1
102
RTVSPropertyOp9
 70
     1
102
RTVSPropertyOp10
 70
     1
102
RTVSPropertyOp11
 70
     1
102
RTVSPropertyOp12
 70
     1
102
RTVSPropertyOp13
 70
     1
102
RTVSPropertyOp14
 70
     1
102
RTVSPropertyOp15
 70
     1
102
RTVSPropertyOp16
 70
     1
102
RTVSPropertyOp17
 70
     1
102
RTVSPropertyOp18
 70
     1
102
RTVSPropertyOp19
 70
     1
102
RTVSPropertyOp20
 70
     1
102
RTVSPropertyOp21
 70
     1
102
RTVSPropertyOp22
 70
     1
102
RTVSPropertyOp23
 70
     1
102
RTVSPropertyOp24
 70
     1
102
RTVSPropertyOp25
 70
     1
102
RTVSPropertyOp26
 70
     1
102
RTVSPropertyOp27
 70
     1
102
RTVSPropertyOp28
 70
     1
102
RTVSPropertyOp29
 70
     1
102
RTVSPropertyOp30
 70
     1
102
RTVSPropertyOp31
 70
     1
102
RTVSPropertyOp32
 70
     1
102
RTVSPropertyOp33
 70
     1
102
RTVSPropertyOp34
 70
     1
102
RTVSPropertyOp35
 70
     1
102
RTVSPropertyOp36
 70
     1
102
RTVSPropertyOp37
 70
     1
102
RTVSPropertyOp38
 70
     1
102
RTVSPropertyOp39
 70
     1
102
RTVSPropertyOp40
 70
     1
102
RTVSPropertyOp41
 70
     1
102
RTVSPropertyOp42
 70
     1
102
RTVSPropertyOp43
 70
     1
102
RTVSPropertyOp44
 70
     1
102
RTVSPropertyOp45
 70
     1
102
RTVSPropertyOp46
 70
     1
102
RTVSPropertyOp47
 70
     1
102
RTVSPropertyOp48
 70
     1
102
RTVSPropertyOp49
 70
     1
102
RTVSPropertyOp50
 70
     1
102
RTVSPropertyOp51
 70
     0
102
RTVSPropertyOp52
 70
     0
102
RTVSPropertyOp53
 70
     1
102
RTVSPropertyOp54
 70
     1
102
RTVSPropertyOp55
 70
     1
102
RTVSPropertyOp56
 70
     1
102
RTVSPropertyOp57
 70
     1
102
RTVSPost2010Prop28
280
     0
102
RTVSPost2010PropOp28
 70
     1
102
RTVSPost2010Prop29
280
     1
102
RTVSPost2010PropOp29
 70
     1
102
RTVSPost2010Prop30
280
     1
102
RTVSPost2010PropOp30
 70
     1
102
RTVSPost2010Prop31
280
     0
102
RTVSPost2010PropOp31
 70
     1
102
RTVSPost2010Prop32
280
     0
102
RTVSPost2010PropOp32
 70
     1
102
RTVSPost2010Prop33
280
     0
102
RTVSPost2010PropOp33
 70
     1
102
RTVSPost2010Prop34
280
     0
102
RTVSPost2010PropOp34
 70
     1
102
RTVSPost2010Prop35
280
     0
102
RTVSPost2010PropOp35
 70
     1
102
RTVSPost2010Prop36
280
     0
102
RTVSPost2010PropOp36
 70
     1
102
RTVSPost2010Prop37
 90
       50
102
RTVSPost2010PropOp37
 70
     1
102
RTVSPost2010Prop38
140
0.0
102
RTVSPost2010PropOp38
 70
     1
102
RTVSPost2010Prop39
140
1.0
102
RTVSPost2010PropOp39
 70
     1
102
RTVSPost2010Prop40
 90
        0
102
RTVSPost2010PropOp40
 70
     1
102
RTVSPost2010Prop41ColorIndex
 90
       18
102
RTVSPost2010Prop41ColorRGB
 90
        0
102
RTVSPost2010PropOp41
 70
     1
102
RTVSPost2010Prop42
 90
       50
102
RTVSPost2010PropOp42
 70
     1
102
RTVSPost2010Prop43
 90
        3
102
RTVSPost2010PropOp43
 70
     1
102
RTVSPost2010Prop44ColorIndex
 90
        5
102
RTVSPost2010Prop44ColorRGB
 90
      255
102
RTVSPost2010PropOp44
 70
     1
102
RTVSPost2010Prop45
280
     0
102
RTVSPost2010PropOp45
 70
     1
102
RTVSPost2010Prop46
 90
       50
102
RTVSPost2010PropOp46
 70
     1
102
RTVSPost2010Prop47
 90
       50
102
RTVSPost2010PropOp47
 70
     1
102
RTVSPost2010Prop48
 90
       50
102
RTVSPost2010PropOp48
 70
     1
102
RTVSPost2010Prop49
280
     0
102
RTVSPost2010PropOp49
 70
     1
102
RTVSPost2010Prop50
 90
       50
102
RTVSPost2010PropOp50
 70
     1
102
RTVSPost2010Prop51ColorIndex
 90
      256
102
RTVSPost2010Prop51ColorRGB
 90
-16777216
102
RTVSPost2010PropOp51
 70
     0
102
RTVSPost2010Prop52
140
1.0
102
RTVSPost2010PropOp52
 70
     0
102
RTVSPost2010Prop53
 90
        2
102
RTVSPost2010PropOp53
 70
     1
102
RTVSPost2010Prop54
  1
strokes_ogs.tif
102
RTVSPost2010PropOp54
 70
     1
102
RTVSPost2010Prop55
280
     0
102
RTVSPost2010PropOp55
 70
     1
102
RTVSPost2010Prop56
140
1.0
102
RTVSPost2010PropOp56
 70
     1
102
RTVSPost2010Prop57
140
1.0
102
RTVSPost2010PropOp57
 70
     1
  0
XRECORD
  5
5F6
102
{ACAD_REACTORS
330
5F5
102
}
330
5F5
100
AcDbXrecord
280
     1
102
RTVSPropertyOp0
 70
     1
102
RTVSPropertyOp1
 70
     1
102
RTVSPropertyOp2
 70
     1
102
RTVSPropertyOp3
 70
     1
102
RTVSPropertyOp4
 70
     1
102
RTVSPropertyOp5
 70
     1
102
RTVSPropertyOp6
 70
     1
102
RTVSPropertyOp7
 70
     1
102
RTVSPropertyOp8
 70
     1
102
RTVSPropertyOp9
 70
     1
102
RTVSPropertyOp10
 70
     1
102
RTVSPropertyOp11
 70
     1
102
RTVSPropertyOp12
 70
     1
102
RTVSPropertyOp13
 70
     1
102
RTVSPropertyOp14
 70
     1
102
RTVSPropertyOp15
 70
     1
102
RTVSPropertyOp16
 70
     1
102
RTVSPropertyOp17
 70
     1
102
RTVSPropertyOp18
 70
     1
102
RTVSPropertyOp19
 70
     1
102
RTVSPropertyOp20
 70
     1
102
RTVSPropertyOp21
 70
     1
102
RTVSPropertyOp22
 70
     1
102
RTVSPropertyOp23
 70
     1
102
RTVSPropertyOp24
 70
     1
102
RTVSPropertyOp25
 70
     1
102
RTVSPropertyOp26
 70
     1
102
RTVSPropertyOp27
 70
     1
102
RTVSPropertyOp28
 70
     1
102
RTVSPropertyOp29
 70
     1
102
RTVSPropertyOp30
 70
     1
102
RTVSPropertyOp31
 70
     1
102
RTVSPropertyOp32
 70
     1
102
RTVSPropertyOp33
 70
     1
102
RTVSPropertyOp34
 70
     1
102
RTVSPropertyOp35
 70
     1
102
RTVSPropertyOp36
 70
     1
102
RTVSPropertyOp37
 70
     1
102
RTVSPropertyOp38
 70
     1
102
RTVSPropertyOp39
 70
     1
102
RTVSPropertyOp40
 70
     1
102
RTVSPropertyOp41
 70
     1
102
RTVSPropertyOp42
 70
     1
102
RTVSPropertyOp43
 70
     1
102
RTVSPropertyOp44
 70
     1
102
RTVSPropertyOp45
 70
     1
102
RTVSPropertyOp46
 70
     1
102
RTVSPropertyOp47
 70
     1
102
RTVSPropertyOp48
 70
     1
102
RTVSPropertyOp49
 70
     1
102
RTVSPropertyOp50
 70
     1
102
RTVSPropertyOp51
 70
     0
102
RTVSPropertyOp52
 70
     0
102
RTVSPropertyOp53
 70
     1
102
RTVSPropertyOp54
 70
     1
102
RTVSPropertyOp55
 70
     1
102
RTVSPropertyOp56
 70
     1
102
RTVSPropertyOp57
 70
     1
102
RTVSPost2010Prop28
280
     0
102
RTVSPost2010PropOp28
 70
     1
102
RTVSPost2010Prop29
280
     1
102
RTVSPost2010PropOp29
 70
     1
102
RTVSPost2010Prop30
280
     1
102
RTVSPost2010PropOp30
 70
     1
102
RTVSPost2010Prop31
280
     0
102
RTVSPost2010PropOp31
 70
     1
102
RTVSPost2010Prop32
280
     0
102
RTVSPost2010PropOp32
 70
     1
102
RTVSPost2010Prop33
280
     0
102
RTVSPost2010PropOp33
 70
     1
102
RTVSPost2010Prop34
280
     0
102
RTVSPost2010PropOp34
 70
     1
102
RTVSPost2010Prop35
280
     0
102
RTVSPost2010PropOp35
 70
     1
102
RTVSPost2010Prop36
280
     0
102
RTVSPost2010PropOp36
 70
     1
102
RTVSPost2010Prop37
 90
       50
102
RTVSPost2010PropOp37
 70
     1
102
RTVSPost2010Prop38
140
0.0
102
RTVSPost2010PropOp38
 70
     1
102
RTVSPost2010Prop39
140
1.0
102
RTVSPost2010PropOp39
 70
     1
102
RTVSPost2010Prop40
 90
        0
102
RTVSPost2010PropOp40
 70
     1
102
RTVSPost2010Prop41ColorIndex
 90
       18
102
RTVSPost2010Prop41ColorRGB
 90
        0
102
RTVSPost2010PropOp41
 70
     1
102
RTVSPost2010Prop42
 90
       50
102
RTVSPost2010PropOp42
 70
     1
102
RTVSPost2010Prop43
 90
        3
102
RTVSPost2010PropOp43
 70
     1
102
RTVSPost2010Prop44ColorIndex
 90
        5
102
RTVSPost2010Prop44ColorRGB
 90
      255
102
RTVSPost2010PropOp44
 70
     1
102
RTVSPost2010Prop45
280
     0
102
RTVSPost2010PropOp45
 70
     1
102
RTVSPost2010Prop46
 90
       50
102
RTVSPost2010PropOp46
 70
     1
102
RTVSPost2010Prop47
 90
       50
102
RTVSPost2010PropOp47
 70
     1
102
RTVSPost2010Prop48
 90
       50
102
RTVSPost2010PropOp48
 70
     1
102
RTVSPost2010Prop49
280
     0
102
RTVSPost2010PropOp49
 70
     1
102
RTVSPost2010Prop50
 90
       50
102
RTVSPost2010PropOp50
 70
     1
102
RTVSPost2010Prop51ColorIndex
 90
      256
102
RTVSPost2010Prop51ColorRGB
 90
-16777216
102
RTVSPost2010PropOp51
 70
     0
102
RTVSPost2010Prop52
140
1.0
102
RTVSPost2010PropOp52
 70
     0
102
RTVSPost2010Prop53
 90
        2
102
RTVSPost2010PropOp53
 70
     1
102
RTVSPost2010Prop54
  1
strokes_ogs.tif
102
RTVSPost2010PropOp54
 70
     1
102
RTVSPost2010Prop55
280
     0
102
RTVSPost2010PropOp55
 70
     1
102
RTVSPost2010Prop56
140
1.0
102
RTVSPost2010PropOp56
 70
     1
102
RTVSPost2010Prop57
140
1.0
102
RTVSPost2010PropOp57
 70
     1
  0
XRECORD
  5
5F8
102
{ACAD_REACTORS
330
5F7
102
}
330
5F7
100
AcDbXrecord
280
     1
102
RTVSPropertyOp0
 70
     1
102
RTVSPropertyOp1
 70
     1
102
RTVSPropertyOp2
 70
     1
102
RTVSPropertyOp3
 70
     1
102
RTVSPropertyOp4
 70
     1
102
RTVSPropertyOp5
 70
     1
102
RTVSPropertyOp6
 70
     1
102
RTVSPropertyOp7
 70
     1
102
RTVSPropertyOp8
 70
     1
102
RTVSPropertyOp9
 70
     1
102
RTVSPropertyOp10
 70
     1
102
RTVSPropertyOp11
 70
     1
102
RTVSPropertyOp12
 70
     1
102
RTVSPropertyOp13
 70
     1
102
RTVSPropertyOp14
 70
     1
102
RTVSPropertyOp15
 70
     1
102
RTVSPropertyOp16
 70
     1
102
RTVSPropertyOp17
 70
     1
102
RTVSPropertyOp18
 70
     1
102
RTVSPropertyOp19
 70
     1
102
RTVSPropertyOp20
 70
     1
102
RTVSPropertyOp21
 70
     1
102
RTVSPropertyOp22
 70
     1
102
RTVSPropertyOp23
 70
     1
102
RTVSPropertyOp24
 70
     1
102
RTVSPropertyOp25
 70
     1
102
RTVSPropertyOp26
 70
     1
102
RTVSPropertyOp27
 70
     1
102
RTVSPropertyOp28
 70
     1
102
RTVSPropertyOp29
 70
     1
102
RTVSPropertyOp30
 70
     1
102
RTVSPropertyOp31
 70
     1
102
RTVSPropertyOp32
 70
     1
102
RTVSPropertyOp33
 70
     1
102
RTVSPropertyOp34
 70
     1
102
RTVSPropertyOp35
 70
     1
102
RTVSPropertyOp36
 70
     1
102
RTVSPropertyOp37
 70
     1
102
RTVSPropertyOp38
 70
     1
102
RTVSPropertyOp39
 70
     1
102
RTVSPropertyOp40
 70
     1
102
RTVSPropertyOp41
 70
     1
102
RTVSPropertyOp42
 70
     1
102
RTVSPropertyOp43
 70
     1
102
RTVSPropertyOp44
 70
     1
102
RTVSPropertyOp45
 70
     1
102
RTVSPropertyOp46
 70
     1
102
RTVSPropertyOp47
 70
     1
102
RTVSPropertyOp48
 70
     1
102
RTVSPropertyOp49
 70
     1
102
RTVSPropertyOp50
 70
     1
102
RTVSPropertyOp51
 70
     0
102
RTVSPropertyOp52
 70
     0
102
RTVSPropertyOp53
 70
     1
102
RTVSPropertyOp54
 70
     1
102
RTVSPropertyOp55
 70
     1
102
RTVSPropertyOp56
 70
     1
102
RTVSPropertyOp57
 70
     1
102
RTVSPost2010Prop28
280
     0
102
RTVSPost2010PropOp28
 70
     1
102
RTVSPost2010Prop29
280
     1
102
RTVSPost2010PropOp29
 70
     1
102
RTVSPost2010Prop30
280
     1
102
RTVSPost2010PropOp30
 70
     1
102
RTVSPost2010Prop31
280
     0
102
RTVSPost2010PropOp31
 70
     1
102
RTVSPost2010Prop32
280
     0
102
RTVSPost2010PropOp32
 70
     1
102
RTVSPost2010Prop33
280
     0
102
RTVSPost2010PropOp33
 70
     1
102
RTVSPost2010Prop34
280
     0
102
RTVSPost2010PropOp34
 70
     1
102
RTVSPost2010Prop35
280
     0
102
RTVSPost2010PropOp35
 70
     1
102
RTVSPost2010Prop36
280
     0
102
RTVSPost2010PropOp36
 70
     1
102
RTVSPost2010Prop37
 90
       50
102
RTVSPost2010PropOp37
 70
     1
102
RTVSPost2010Prop38
140
0.0
102
RTVSPost2010PropOp38
 70
     1
102
RTVSPost2010Prop39
140
1.0
102
RTVSPost2010PropOp39
 70
     1
102
RTVSPost2010Prop40
 90
        0
102
RTVSPost2010PropOp40
 70
     1
102
RTVSPost2010Prop41ColorIndex
 90
       18
102
RTVSPost2010Prop41ColorRGB
 90
        0
102
RTVSPost2010PropOp41
 70
     1
102
RTVSPost2010Prop42
 90
       50
102
RTVSPost2010PropOp42
 70
     1
102
RTVSPost2010Prop43
 90
        3
102
RTVSPost2010PropOp43
 70
     1
102
RTVSPost2010Prop44ColorIndex
 90
        5
102
RTVSPost2010Prop44ColorRGB
 90
      255
102
RTVSPost2010PropOp44
 70
     1
102
RTVSPost2010Prop45
280
     0
102
RTVSPost2010PropOp45
 70
     1
102
RTVSPost2010Prop46
 90
       50
102
RTVSPost2010PropOp46
 70
     1
102
RTVSPost2010Prop47
 90
       50
102
RTVSPost2010PropOp47
 70
     1
102
RTVSPost2010Prop48
 90
       50
102
RTVSPost2010PropOp48
 70
     1
102
RTVSPost2010Prop49
280
     0
102
RTVSPost2010PropOp49
 70
     1
102
RTVSPost2010Prop50
 90
       50
102
RTVSPost2010PropOp50
 70
     1
102
RTVSPost2010Prop51ColorIndex
 90
      256
102
RTVSPost2010Prop51ColorRGB
 90
-16777216
102
RTVSPost2010PropOp51
 70
     0
102
RTVSPost2010Prop52
140
1.0
102
RTVSPost2010PropOp52
 70
     0
102
RTVSPost2010Prop53
 90
        2
102
RTVSPost2010PropOp53
 70
     1
102
RTVSPost2010Prop54
  1
strokes_ogs.tif
102
RTVSPost2010PropOp54
 70
     1
102
RTVSPost2010Prop55
280
     0
102
RTVSPost2010PropOp55
 70
     1
102
RTVSPost2010Prop56
140
1.0
102
RTVSPost2010PropOp56
 70
     1
102
RTVSPost2010Prop57
140
1.0
102
RTVSPost2010PropOp57
 70
     1
  0
XRECORD
  5
5FA
102
{ACAD_REACTORS
330
5F9
102
}
330
5F9
100
AcDbXrecord
280
     1
102
RTVSPropertyOp0
 70
     1
102
RTVSPropertyOp1
 70
     1
102
RTVSPropertyOp2
 70
     1
102
RTVSPropertyOp3
 70
     1
102
RTVSPropertyOp4
 70
     1
102
RTVSPropertyOp5
 70
     1
102
RTVSPropertyOp6
 70
     1
102
RTVSPropertyOp7
 70
     1
102
RTVSPropertyOp8
 70
     1
102
RTVSPropertyOp9
 70
     1
102
RTVSPropertyOp10
 70
     1
102
RTVSPropertyOp11
 70
     1
102
RTVSPropertyOp12
 70
     1
102
RTVSPropertyOp13
 70
     1
102
RTVSPropertyOp14
 70
     1
102
RTVSPropertyOp15
 70
     1
102
RTVSPropertyOp16
 70
     1
102
RTVSPropertyOp17
 70
     1
102
RTVSPropertyOp18
 70
     1
102
RTVSPropertyOp19
 70
     1
102
RTVSPropertyOp20
 70
     1
102
RTVSPropertyOp21
 70
     1
102
RTVSPropertyOp22
 70
     1
102
RTVSPropertyOp23
 70
     1
102
RTVSPropertyOp24
 70
     1
102
RTVSPropertyOp25
 70
     1
102
RTVSPropertyOp26
 70
     1
102
RTVSPropertyOp27
 70
     1
102
RTVSPropertyOp28
 70
     1
102
RTVSPropertyOp29
 70
     1
102
RTVSPropertyOp30
 70
     1
102
RTVSPropertyOp31
 70
     1
102
RTVSPropertyOp32
 70
     1
102
RTVSPropertyOp33
 70
     1
102
RTVSPropertyOp34
 70
     1
102
RTVSPropertyOp35
 70
     1
102
RTVSPropertyOp36
 70
     1
102
RTVSPropertyOp37
 70
     1
102
RTVSPropertyOp38
 70
     1
102
RTVSPropertyOp39
 70
     1
102
RTVSPropertyOp40
 70
     1
102
RTVSPropertyOp41
 70
     1
102
RTVSPropertyOp42
 70
     1
102
RTVSPropertyOp43
 70
     1
102
RTVSPropertyOp44
 70
     1
102
RTVSPropertyOp45
 70
     1
102
RTVSPropertyOp46
 70
     1
102
RTVSPropertyOp47
 70
     1
102
RTVSPropertyOp48
 70
     1
102
RTVSPropertyOp49
 70
     1
102
RTVSPropertyOp50
 70
     1
102
RTVSPropertyOp51
 70
     0
102
RTVSPropertyOp52
 70
     0
102
RTVSPropertyOp53
 70
     1
102
RTVSPropertyOp54
 70
     1
102
RTVSPropertyOp55
 70
     1
102
RTVSPropertyOp56
 70
     1
102
RTVSPropertyOp57
 70
     1
102
RTVSPost2010Prop28
280
     0
102
RTVSPost2010PropOp28
 70
     1
102
RTVSPost2010Prop29
280
     1
102
RTVSPost2010PropOp29
 70
     1
102
RTVSPost2010Prop30
280
     1
102
RTVSPost2010PropOp30
 70
     1
102
RTVSPost2010Prop31
280
     0
102
RTVSPost2010PropOp31
 70
     1
102
RTVSPost2010Prop32
280
     0
102
RTVSPost2010PropOp32
 70
     1
102
RTVSPost2010Prop33
280
     0
102
RTVSPost2010PropOp33
 70
     1
102
RTVSPost2010Prop34
280
     0
102
RTVSPost2010PropOp34
 70
     1
102
RTVSPost2010Prop35
280
     0
102
RTVSPost2010PropOp35
 70
     1
102
RTVSPost2010Prop36
280
     0
102
RTVSPost2010PropOp36
 70
     1
102
RTVSPost2010Prop37
 90
       50
102
RTVSPost2010PropOp37
 70
     1
102
RTVSPost2010Prop38
140
0.0
102
RTVSPost2010PropOp38
 70
     1
102
RTVSPost2010Prop39
140
1.0
102
RTVSPost2010PropOp39
 70
     1
102
RTVSPost2010Prop40
 90
        0
102
RTVSPost2010PropOp40
 70
     1
102
RTVSPost2010Prop41ColorIndex
 90
       18
102
RTVSPost2010Prop41ColorRGB
 90
        0
102
RTVSPost2010PropOp41
 70
     1
102
RTVSPost2010Prop42
 90
       50
102
RTVSPost2010PropOp42
 70
     1
102
RTVSPost2010Prop43
 90
        3
102
RTVSPost2010PropOp43
 70
     1
102
RTVSPost2010Prop44ColorIndex
 90
        5
102
RTVSPost2010Prop44ColorRGB
 90
      255
102
RTVSPost2010PropOp44
 70
     1
102
RTVSPost2010Prop45
280
     0
102
RTVSPost2010PropOp45
 70
     1
102
RTVSPost2010Prop46
 90
       50
102
RTVSPost2010PropOp46
 70
     1
102
RTVSPost2010Prop47
 90
       50
102
RTVSPost2010PropOp47
 70
     1
102
RTVSPost2010Prop48
 90
       50
102
RTVSPost2010PropOp48
 70
     1
102
RTVSPost2010Prop49
280
     0
102
RTVSPost2010PropOp49
 70
     1
102
RTVSPost2010Prop50
 90
       50
102
RTVSPost2010PropOp50
 70
     1
102
RTVSPost2010Prop51ColorIndex
 90
      256
102
RTVSPost2010Prop51ColorRGB
 90
-16777216
102
RTVSPost2010PropOp51
 70
     0
102
RTVSPost2010Prop52
140
1.0
102
RTVSPost2010PropOp52
 70
     0
102
RTVSPost2010Prop53
 90
        2
102
RTVSPost2010PropOp53
 70
     1
102
RTVSPost2010Prop54
  1
strokes_ogs.tif
102
RTVSPost2010PropOp54
 70
     1
102
RTVSPost2010Prop55
280
     0
102
RTVSPost2010PropOp55
 70
     1
102
RTVSPost2010Prop56
140
1.0
102
RTVSPost2010PropOp56
 70
     1
102
RTVSPost2010Prop57
140
1.0
102
RTVSPost2010PropOp57
 70
     1
  0
XRECORD
  5
5FC
102
{ACAD_REACTORS
330
5FB
102
}
330
5FB
100
AcDbXrecord
280
     1
102
RTVSPropertyOp0
 70
     1
102
RTVSPropertyOp1
 70
     1
102
RTVSPropertyOp2
 70
     1
102
RTVSPropertyOp3
 70
     1
102
RTVSPropertyOp4
 70
     1
102
RTVSPropertyOp5
 70
     1
102
RTVSPropertyOp6
 70
     1
102
RTVSPropertyOp7
 70
     1
102
RTVSPropertyOp8
 70
     1
102
RTVSPropertyOp9
 70
     1
102
RTVSPropertyOp10
 70
     1
102
RTVSPropertyOp11
 70
     1
102
RTVSPropertyOp12
 70
     1
102
RTVSPropertyOp13
 70
     1
102
RTVSPropertyOp14
 70
     1
102
RTVSPropertyOp15
 70
     1
102
RTVSPropertyOp16
 70
     1
102
RTVSPropertyOp17
 70
     1
102
RTVSPropertyOp18
 70
     1
102
RTVSPropertyOp19
 70
     1
102
RTVSPropertyOp20
 70
     1
102
RTVSPropertyOp21
 70
     1
102
RTVSPropertyOp22
 70
     1
102
RTVSPropertyOp23
 70
     1
102
RTVSPropertyOp24
 70
     1
102
RTVSPropertyOp25
 70
     1
102
RTVSPropertyOp26
 70
     1
102
RTVSPropertyOp27
 70
     1
102
RTVSPropertyOp28
 70
     1
102
RTVSPropertyOp29
 70
     1
102
RTVSPropertyOp30
 70
     1
102
RTVSPropertyOp31
 70
     1
102
RTVSPropertyOp32
 70
     1
102
RTVSPropertyOp33
 70
     1
102
RTVSPropertyOp34
 70
     1
102
RTVSPropertyOp35
 70
     1
102
RTVSPropertyOp36
 70
     1
102
RTVSPropertyOp37
 70
     1
102
RTVSPropertyOp38
 70
     1
102
RTVSPropertyOp39
 70
     1
102
RTVSPropertyOp40
 70
     1
102
RTVSPropertyOp41
 70
     1
102
RTVSPropertyOp42
 70
     1
102
RTVSPropertyOp43
 70
     1
102
RTVSPropertyOp44
 70
     1
102
RTVSPropertyOp45
 70
     1
102
RTVSPropertyOp46
 70
     1
102
RTVSPropertyOp47
 70
     1
102
RTVSPropertyOp48
 70
     1
102
RTVSPropertyOp49
 70
     1
102
RTVSPropertyOp50
 70
     1
102
RTVSPropertyOp51
 70
     0
102
RTVSPropertyOp52
 70
     0
102
RTVSPropertyOp53
 70
     1
102
RTVSPropertyOp54
 70
     1
102
RTVSPropertyOp55
 70
     1
102
RTVSPropertyOp56
 70
     1
102
RTVSPropertyOp57
 70
     1
102
RTVSPost2010Prop28
280
     0
102
RTVSPost2010PropOp28
 70
     1
102
RTVSPost2010Prop29
280
     1
102
RTVSPost2010PropOp29
 70
     1
102
RTVSPost2010Prop30
280
     1
102
RTVSPost2010PropOp30
 70
     1
102
RTVSPost2010Prop31
280
     0
102
RTVSPost2010PropOp31
 70
     1
102
RTVSPost2010Prop32
280
     0
102
RTVSPost2010PropOp32
 70
     1
102
RTVSPost2010Prop33
280
     0
102
RTVSPost2010PropOp33
 70
     1
102
RTVSPost2010Prop34
280
     0
102
RTVSPost2010PropOp34
 70
     1
102
RTVSPost2010Prop35
280
     0
102
RTVSPost2010PropOp35
 70
     1
102
RTVSPost2010Prop36
280
     0
102
RTVSPost2010PropOp36
 70
     1
102
RTVSPost2010Prop37
 90
       50
102
RTVSPost2010PropOp37
 70
     1
102
RTVSPost2010Prop38
140
0.0
102
RTVSPost2010PropOp38
 70
     1
102
RTVSPost2010Prop39
140
1.0
102
RTVSPost2010PropOp39
 70
     1
102
RTVSPost2010Prop40
 90
        0
102
RTVSPost2010PropOp40
 70
     1
102
RTVSPost2010Prop41ColorIndex
 90
       18
102
RTVSPost2010Prop41ColorRGB
 90
        0
102
RTVSPost2010PropOp41
 70
     1
102
RTVSPost2010Prop42
 90
       50
102
RTVSPost2010PropOp42
 70
     1
102
RTVSPost2010Prop43
 90
        3
102
RTVSPost2010PropOp43
 70
     1
102
RTVSPost2010Prop44ColorIndex
 90
        5
102
RTVSPost2010Prop44ColorRGB
 90
      255
102
RTVSPost2010PropOp44
 70
     1
102
RTVSPost2010Prop45
280
     0
102
RTVSPost2010PropOp45
 70
     1
102
RTVSPost2010Prop46
 90
       50
102
RTVSPost2010PropOp46
 70
     1
102
RTVSPost2010Prop47
 90
       50
102
RTVSPost2010PropOp47
 70
     1
102
RTVSPost2010Prop48
 90
       50
102
RTVSPost2010PropOp48
 70
     1
102
RTVSPost2010Prop49
280
     0
102
RTVSPost2010PropOp49
 70
     1
102
RTVSPost2010Prop50
 90
       50
102
RTVSPost2010PropOp50
 70
     1
102
RTVSPost2010Prop51ColorIndex
 90
      256
102
RTVSPost2010Prop51ColorRGB
 90
-16777216
102
RTVSPost2010PropOp51
 70
     0
102
RTVSPost2010Prop52
140
1.0
102
RTVSPost2010PropOp52
 70
     0
102
RTVSPost2010Prop53
 90
        2
102
RTVSPost2010PropOp53
 70
     1
102
RTVSPost2010Prop54
  1
strokes_ogs.tif
102
RTVSPost2010PropOp54
 70
     1
102
RTVSPost2010Prop55
280
     0
102
RTVSPost2010PropOp55
 70
     1
102
RTVSPost2010Prop56
140
1.0
102
RTVSPost2010PropOp56
 70
     1
102
RTVSPost2010Prop57
140
1.0
102
RTVSPost2010PropOp57
 70
     1
  0
XRECORD
  5
5FE
102
{ACAD_REACTORS
330
5FD
102
}
330
5FD
100
AcDbXrecord
280
     1
102
RTVSPropertyOp0
 70
     1
102
RTVSPropertyOp1
 70
     1
102
RTVSPropertyOp2
 70
     1
102
RTVSPropertyOp3
 70
     1
102
RTVSPropertyOp4
 70
     1
102
RTVSPropertyOp5
 70
     1
102
RTVSPropertyOp6
 70
     1
102
RTVSPropertyOp7
 70
     1
102
RTVSPropertyOp8
 70
     1
102
RTVSPropertyOp9
 70
     1
102
RTVSPropertyOp10
 70
     1
102
RTVSPropertyOp11
 70
     1
102
RTVSPropertyOp12
 70
     1
102
RTVSPropertyOp13
 70
     1
102
RTVSPropertyOp14
 70
     1
102
RTVSPropertyOp15
 70
     1
102
RTVSPropertyOp16
 70
     1
102
RTVSPropertyOp17
 70
     1
102
RTVSPropertyOp18
 70
     1
102
RTVSPropertyOp19
 70
     1
102
RTVSPropertyOp20
 70
     1
102
RTVSPropertyOp21
 70
     1
102
RTVSPropertyOp22
 70
     1
102
RTVSPropertyOp23
 70
     1
102
RTVSPropertyOp24
 70
     1
102
RTVSPropertyOp25
 70
     1
102
RTVSPropertyOp26
 70
     1
102
RTVSPropertyOp27
 70
     1
102
RTVSPropertyOp28
 70
     1
102
RTVSPropertyOp29
 70
     1
102
RTVSPropertyOp30
 70
     1
102
RTVSPropertyOp31
 70
     1
102
RTVSPropertyOp32
 70
     1
102
RTVSPropertyOp33
 70
     1
102
RTVSPropertyOp34
 70
     1
102
RTVSPropertyOp35
 70
     1
102
RTVSPropertyOp36
 70
     1
102
RTVSPropertyOp37
 70
     1
102
RTVSPropertyOp38
 70
     1
102
RTVSPropertyOp39
 70
     1
102
RTVSPropertyOp40
 70
     1
102
RTVSPropertyOp41
 70
     1
102
RTVSPropertyOp42
 70
     1
102
RTVSPropertyOp43
 70
     1
102
RTVSPropertyOp44
 70
     1
102
RTVSPropertyOp45
 70
     1
102
RTVSPropertyOp46
 70
     1
102
RTVSPropertyOp47
 70
     1
102
RTVSPropertyOp48
 70
     1
102
RTVSPropertyOp49
 70
     1
102
RTVSPropertyOp50
 70
     1
102
RTVSPropertyOp51
 70
     0
102
RTVSPropertyOp52
 70
     0
102
RTVSPropertyOp53
 70
     1
102
RTVSPropertyOp54
 70
     1
102
RTVSPropertyOp55
 70
     1
102
RTVSPropertyOp56
 70
     1
102
RTVSPropertyOp57
 70
     1
102
RTVSPost2010Prop28
280
     0
102
RTVSPost2010PropOp28
 70
     1
102
RTVSPost2010Prop29
280
     1
102
RTVSPost2010PropOp29
 70
     1
102
RTVSPost2010Prop30
280
     1
102
RTVSPost2010PropOp30
 70
     1
102
RTVSPost2010Prop31
280
     0
102
RTVSPost2010PropOp31
 70
     1
102
RTVSPost2010Prop32
280
     0
102
RTVSPost2010PropOp32
 70
     1
102
RTVSPost2010Prop33
280
     0
102
RTVSPost2010PropOp33
 70
     1
102
RTVSPost2010Prop34
280
     0
102
RTVSPost2010PropOp34
 70
     1
102
RTVSPost2010Prop35
280
     0
102
RTVSPost2010PropOp35
 70
     1
102
RTVSPost2010Prop36
280
     0
102
RTVSPost2010PropOp36
 70
     1
102
RTVSPost2010Prop37
 90
       50
102
RTVSPost2010PropOp37
 70
     1
102
RTVSPost2010Prop38
140
0.0
102
RTVSPost2010PropOp38
 70
     1
102
RTVSPost2010Prop39
140
1.0
102
RTVSPost2010PropOp39
 70
     1
102
RTVSPost2010Prop40
 90
        0
102
RTVSPost2010PropOp40
 70
     1
102
RTVSPost2010Prop41ColorIndex
 90
       18
102
RTVSPost2010Prop41ColorRGB
 90
        0
102
RTVSPost2010PropOp41
 70
     1
102
RTVSPost2010Prop42
 90
       50
102
RTVSPost2010PropOp42
 70
     1
102
RTVSPost2010Prop43
 90
        3
102
RTVSPost2010PropOp43
 70
     1
102
RTVSPost2010Prop44ColorIndex
 90
        5
102
RTVSPost2010Prop44ColorRGB
 90
      255
102
RTVSPost2010PropOp44
 70
     1
102
RTVSPost2010Prop45
280
     0
102
RTVSPost2010PropOp45
 70
     1
102
RTVSPost2010Prop46
 90
       50
102
RTVSPost2010PropOp46
 70
     1
102
RTVSPost2010Prop47
 90
       50
102
RTVSPost2010PropOp47
 70
     1
102
RTVSPost2010Prop48
 90
       50
102
RTVSPost2010PropOp48
 70
     1
102
RTVSPost2010Prop49
280
     0
102
RTVSPost2010PropOp49
 70
     1
102
RTVSPost2010Prop50
 90
       50
102
RTVSPost2010PropOp50
 70
     1
102
RTVSPost2010Prop51ColorIndex
 90
      256
102
RTVSPost2010Prop51ColorRGB
 90
-16777216
102
RTVSPost2010PropOp51
 70
     0
102
RTVSPost2010Prop52
140
1.0
102
RTVSPost2010PropOp52
 70
     0
102
RTVSPost2010Prop53
 90
        2
102
RTVSPost2010PropOp53
 70
     1
102
RTVSPost2010Prop54
  1
strokes_ogs.tif
102
RTVSPost2010PropOp54
 70
     1
102
RTVSPost2010Prop55
280
     0
102
RTVSPost2010PropOp55
 70
     1
102
RTVSPost2010Prop56
140
1.0
102
RTVSPost2010PropOp56
 70
     1
102
RTVSPost2010Prop57
140
1.0
102
RTVSPost2010PropOp57
 70
     1
  0
XRECORD
  5
600
102
{ACAD_REACTORS
330
5FF
102
}
330
5FF
100
AcDbXrecord
280
     1
102
RTVSPropertyOp0
 70
     0
102
RTVSPropertyOp1
 70
     0
102
RTVSPropertyOp2
 70
     0
102
RTVSPropertyOp3
 70
     0
102
RTVSPropertyOp4
 70
     0
102
RTVSPropertyOp5
 70
     0
102
RTVSPropertyOp6
 70
     0
102
RTVSPropertyOp7
 70
     0
102
RTVSPropertyOp8
 70
     0
102
RTVSPropertyOp9
 70
     0
102
RTVSPropertyOp10
 70
     0
102
RTVSPropertyOp11
 70
     0
102
RTVSPropertyOp12
 70
     0
102
RTVSPropertyOp13
 70
     0
102
RTVSPropertyOp14
 70
     2
102
RTVSPropertyOp15
 70
     0
102
RTVSPropertyOp16
 70
     0
102
RTVSPropertyOp17
 70
     0
102
RTVSPropertyOp18
 70
     0
102
RTVSPropertyOp19
 70
     0
102
RTVSPropertyOp20
 70
     0
102
RTVSPropertyOp21
 70
     0
102
RTVSPropertyOp22
 70
     0
102
RTVSPropertyOp23
 70
     0
102
RTVSPropertyOp24
 70
     0
102
RTVSPropertyOp25
 70
     0
102
RTVSPropertyOp26
 70
     0
102
RTVSPropertyOp27
 70
     0
102
RTVSPropertyOp28
 70
     1
102
RTVSPropertyOp29
 70
     1
102
RTVSPropertyOp30
 70
     1
102
RTVSPropertyOp31
 70
     1
102
RTVSPropertyOp32
 70
     1
102
RTVSPropertyOp33
 70
     1
102
RTVSPropertyOp34
 70
     1
102
RTVSPropertyOp35
 70
     1
102
RTVSPropertyOp36
 70
     1
102
RTVSPropertyOp37
 70
     1
102
RTVSPropertyOp38
 70
     1
102
RTVSPropertyOp39
 70
     1
102
RTVSPropertyOp40
 70
     1
102
RTVSPropertyOp41
 70
     1
102
RTVSPropertyOp42
 70
     1
102
RTVSPropertyOp43
 70
     1
102
RTVSPropertyOp44
 70
     1
102
RTVSPropertyOp45
 70
     1
102
RTVSPropertyOp46
 70
     1
102
RTVSPropertyOp47
 70
     1
102
RTVSPropertyOp48
 70
     1
102
RTVSPropertyOp49
 70
     1
102
RTVSPropertyOp50
 70
     1
102
RTVSPropertyOp51
 70
     0
102
RTVSPropertyOp52
 70
     0
102
RTVSPropertyOp53
 70
     1
102
RTVSPropertyOp54
 70
     1
102
RTVSPropertyOp55
 70
     1
102
RTVSPropertyOp56
 70
     1
102
RTVSPropertyOp57
 70
     1
102
RTVSPost2010Prop28
280
     0
102
RTVSPost2010PropOp28
 70
     1
102
RTVSPost2010Prop29
280
     1
102
RTVSPost2010PropOp29
 70
     1
102
RTVSPost2010Prop30
280
     1
102
RTVSPost2010PropOp30
 70
     1
102
RTVSPost2010Prop31
280
     0
102
RTVSPost2010PropOp31
 70
     1
102
RTVSPost2010Prop32
280
     0
102
RTVSPost2010PropOp32
 70
     1
102
RTVSPost2010Prop33
280
     0
102
RTVSPost2010PropOp33
 70
     1
102
RTVSPost2010Prop34
280
     0
102
RTVSPost2010PropOp34
 70
     1
102
RTVSPost2010Prop35
280
     0
102
RTVSPost2010PropOp35
 70
     1
102
RTVSPost2010Prop36
280
     0
102
RTVSPost2010PropOp36
 70
     1
102
RTVSPost2010Prop37
 90
       50
102
RTVSPost2010PropOp37
 70
     1
102
RTVSPost2010Prop38
140
0.0
102
RTVSPost2010PropOp38
 70
     1
102
RTVSPost2010Prop39
140
1.0
102
RTVSPost2010PropOp39
 70
     1
102
RTVSPost2010Prop40
 90
        0
102
RTVSPost2010PropOp40
 70
     1
102
RTVSPost2010Prop41ColorIndex
 90
       18
102
RTVSPost2010Prop41ColorRGB
 90
        0
102
RTVSPost2010PropOp41
 70
     1
102
RTVSPost2010Prop42
 90
       50
102
RTVSPost2010PropOp42
 70
     1
102
RTVSPost2010Prop43
 90
        3
102
RTVSPost2010PropOp43
 70
     1
102
RTVSPost2010Prop44ColorIndex
 90
        5
102
RTVSPost2010Prop44ColorRGB
 90
      255
102
RTVSPost2010PropOp44
 70
     1
102
RTVSPost2010Prop45
280
     0
102
RTVSPost2010PropOp45
 70
     1
102
RTVSPost2010Prop46
 90
       50
102
RTVSPost2010PropOp46
 70
     1
102
RTVSPost2010Prop47
 90
       50
102
RTVSPost2010PropOp47
 70
     1
102
RTVSPost2010Prop48
 90
       50
102
RTVSPost2010PropOp48
 70
     1
102
RTVSPost2010Prop49
280
     0
102
RTVSPost2010PropOp49
 70
     1
102
RTVSPost2010Prop50
 90
       50
102
RTVSPost2010PropOp50
 70
     1
102
RTVSPost2010Prop51ColorIndex
 90
      256
102
RTVSPost2010Prop51ColorRGB
 90
-16777216
102
RTVSPost2010PropOp51
 70
     0
102
RTVSPost2010Prop52
140
1.0
102
RTVSPost2010PropOp52
 70
     0
102
RTVSPost2010Prop53
 90
        2
102
RTVSPost2010PropOp53
 70
     1
102
RTVSPost2010Prop54
  1
strokes_ogs.tif
102
RTVSPost2010PropOp54
 70
     1
102
RTVSPost2010Prop55
280
     0
102
RTVSPost2010PropOp55
 70
     1
102
RTVSPost2010Prop56
140
1.0
102
RTVSPost2010PropOp56
 70
     1
102
RTVSPost2010Prop57
140
1.0
102
RTVSPost2010PropOp57
 70
     1
  0
XRECORD
  5
602
102
{ACAD_REACTORS
330
601
102
}
330
601
100
AcDbXrecord
280
     1
102
RTVSPropertyOp0
 70
     1
102
RTVSPropertyOp1
 70
     1
102
RTVSPropertyOp2
 70
     1
102
RTVSPropertyOp3
 70
     1
102
RTVSPropertyOp4
 70
     1
102
RTVSPropertyOp5
 70
     1
102
RTVSPropertyOp6
 70
     1
102
RTVSPropertyOp7
 70
     1
102
RTVSPropertyOp8
 70
     1
102
RTVSPropertyOp9
 70
     1
102
RTVSPropertyOp10
 70
     1
102
RTVSPropertyOp11
 70
     1
102
RTVSPropertyOp12
 70
     1
102
RTVSPropertyOp13
 70
     1
102
RTVSPropertyOp14
 70
     1
102
RTVSPropertyOp15
 70
     1
102
RTVSPropertyOp16
 70
     1
102
RTVSPropertyOp17
 70
     1
102
RTVSPropertyOp18
 70
     1
102
RTVSPropertyOp19
 70
     1
102
RTVSPropertyOp20
 70
     1
102
RTVSPropertyOp21
 70
     1
102
RTVSPropertyOp22
 70
     1
102
RTVSPropertyOp23
 70
     1
102
RTVSPropertyOp24
 70
     1
102
RTVSPropertyOp25
 70
     1
102
RTVSPropertyOp26
 70
     1
102
RTVSPropertyOp27
 70
     1
102
RTVSPropertyOp28
 70
     1
102
RTVSPropertyOp29
 70
     1
102
RTVSPropertyOp30
 70
     1
102
RTVSPropertyOp31
 70
     1
102
RTVSPropertyOp32
 70
     1
102
RTVSPropertyOp33
 70
     1
102
RTVSPropertyOp34
 70
     1
102
RTVSPropertyOp35
 70
     1
102
RTVSPropertyOp36
 70
     1
102
RTVSPropertyOp37
 70
     1
102
RTVSPropertyOp38
 70
     1
102
RTVSPropertyOp39
 70
     1
102
RTVSPropertyOp40
 70
     1
102
RTVSPropertyOp41
 70
     1
102
RTVSPropertyOp42
 70
     1
102
RTVSPropertyOp43
 70
     1
102
RTVSPropertyOp44
 70
     1
102
RTVSPropertyOp45
 70
     1
102
RTVSPropertyOp46
 70
     1
102
RTVSPropertyOp47
 70
     1
102
RTVSPropertyOp48
 70
     1
102
RTVSPropertyOp49
 70
     1
102
RTVSPropertyOp50
 70
     1
102
RTVSPropertyOp51
 70
     0
102
RTVSPropertyOp52
 70
     0
102
RTVSPropertyOp53
 70
     1
102
RTVSPropertyOp54
 70
     1
102
RTVSPropertyOp55
 70
     1
102
RTVSPropertyOp56
 70
     1
102
RTVSPropertyOp57
 70
     1
102
RTVSPost2010Prop28
280
     0
102
RTVSPost2010PropOp28
 70
     1
102
RTVSPost2010Prop29
280
     1
102
RTVSPost2010PropOp29
 70
     1
102
RTVSPost2010Prop30
280
     1
102
RTVSPost2010PropOp30
 70
     1
102
RTVSPost2010Prop31
280
     0
102
RTVSPost2010PropOp31
 70
     1
102
RTVSPost2010Prop32
280
     0
102
RTVSPost2010PropOp32
 70
     1
102
RTVSPost2010Prop33
280
     0
102
RTVSPost2010PropOp33
 70
     1
102
RTVSPost2010Prop34
280
     0
102
RTVSPost2010PropOp34
 70
     1
102
RTVSPost2010Prop35
280
     0
102
RTVSPost2010PropOp35
 70
     1
102
RTVSPost2010Prop36
280
     0
102
RTVSPost2010PropOp36
 70
     1
102
RTVSPost2010Prop37
 90
       50
102
RTVSPost2010PropOp37
 70
     1
102
RTVSPost2010Prop38
140
0.0
102
RTVSPost2010PropOp38
 70
     1
102
RTVSPost2010Prop39
140
1.0
102
RTVSPost2010PropOp39
 70
     1
102
RTVSPost2010Prop40
 90
        0
102
RTVSPost2010PropOp40
 70
     1
102
RTVSPost2010Prop41ColorIndex
 90
       18
102
RTVSPost2010Prop41ColorRGB
 90
        0
102
RTVSPost2010PropOp41
 70
     1
102
RTVSPost2010Prop42
 90
       50
102
RTVSPost2010PropOp42
 70
     1
102
RTVSPost2010Prop43
 90
        3
102
RTVSPost2010PropOp43
 70
     1
102
RTVSPost2010Prop44ColorIndex
 90
        5
102
RTVSPost2010Prop44ColorRGB
 90
      255
102
RTVSPost2010PropOp44
 70
     1
102
RTVSPost2010Prop45
280
     0
102
RTVSPost2010PropOp45
 70
     1
102
RTVSPost2010Prop46
 90
       50
102
RTVSPost2010PropOp46
 70
     1
102
RTVSPost2010Prop47
 90
       50
102
RTVSPost2010PropOp47
 70
     1
102
RTVSPost2010Prop48
 90
       50
102
RTVSPost2010PropOp48
 70
     1
102
RTVSPost2010Prop49
280
     0
102
RTVSPost2010PropOp49
 70
     1
102
RTVSPost2010Prop50
 90
       50
102
RTVSPost2010PropOp50
 70
     1
102
RTVSPost2010Prop51ColorIndex
 90
      256
102
RTVSPost2010Prop51ColorRGB
 90
-16777216
102
RTVSPost2010PropOp51
 70
     0
102
RTVSPost2010Prop52
140
1.0
102
RTVSPost2010PropOp52
 70
     0
102
RTVSPost2010Prop53
 90
        2
102
RTVSPost2010PropOp53
 70
     1
102
RTVSPost2010Prop54
  1
strokes_ogs.tif
102
RTVSPost2010PropOp54
 70
     1
102
RTVSPost2010Prop55
280
     0
102
RTVSPost2010PropOp55
 70
     1
102
RTVSPost2010Prop56
140
1.0
102
RTVSPost2010PropOp56
 70
     1
102
RTVSPost2010Prop57
140
1.0
102
RTVSPost2010PropOp57
 70
     1
  0
XRECORD
  5
604
102
{ACAD_REACTORS
330
603
102
}
330
603
100
AcDbXrecord
280
     1
102
RTVSPropertyOp0
 70
     1
102
RTVSPropertyOp1
 70
     1
102
RTVSPropertyOp2
 70
     1
102
RTVSPropertyOp3
 70
     1
102
RTVSPropertyOp4
 70
     1
102
RTVSPropertyOp5
 70
     1
102
RTVSPropertyOp6
 70
     1
102
RTVSPropertyOp7
 70
     1
102
RTVSPropertyOp8
 70
     1
102
RTVSPropertyOp9
 70
     1
102
RTVSPropertyOp10
 70
     1
102
RTVSPropertyOp11
 70
     1
102
RTVSPropertyOp12
 70
     1
102
RTVSPropertyOp13
 70
     1
102
RTVSPropertyOp14
 70
     1
102
RTVSPropertyOp15
 70
     1
102
RTVSPropertyOp16
 70
     1
102
RTVSPropertyOp17
 70
     1
102
RTVSPropertyOp18
 70
     1
102
RTVSPropertyOp19
 70
     1
102
RTVSPropertyOp20
 70
     1
102
RTVSPropertyOp21
 70
     1
102
RTVSPropertyOp22
 70
     1
102
RTVSPropertyOp23
 70
     1
102
RTVSPropertyOp24
 70
     1
102
RTVSPropertyOp25
 70
     1
102
RTVSPropertyOp26
 70
     1
102
RTVSPropertyOp27
 70
     1
102
RTVSPropertyOp28
 70
     1
102
RTVSPropertyOp29
 70
     1
102
RTVSPropertyOp30
 70
     1
102
RTVSPropertyOp31
 70
     1
102
RTVSPropertyOp32
 70
     1
102
RTVSPropertyOp33
 70
     1
102
RTVSPropertyOp34
 70
     1
102
RTVSPropertyOp35
 70
     1
102
RTVSPropertyOp36
 70
     1
102
RTVSPropertyOp37
 70
     1
102
RTVSPropertyOp38
 70
     1
102
RTVSPropertyOp39
 70
     1
102
RTVSPropertyOp40
 70
     1
102
RTVSPropertyOp41
 70
     1
102
RTVSPropertyOp42
 70
     1
102
RTVSPropertyOp43
 70
     1
102
RTVSPropertyOp44
 70
     1
102
RTVSPropertyOp45
 70
     1
102
RTVSPropertyOp46
 70
     1
102
RTVSPropertyOp47
 70
     1
102
RTVSPropertyOp48
 70
     1
102
RTVSPropertyOp49
 70
     1
102
RTVSPropertyOp50
 70
     1
102
RTVSPropertyOp51
 70
     0
102
RTVSPropertyOp52
 70
     0
102
RTVSPropertyOp53
 70
     1
102
RTVSPropertyOp54
 70
     1
102
RTVSPropertyOp55
 70
     1
102
RTVSPropertyOp56
 70
     1
102
RTVSPropertyOp57
 70
     1
102
RTVSPost2010Prop28
280
     0
102
RTVSPost2010PropOp28
 70
     1
102
RTVSPost2010Prop29
280
     1
102
RTVSPost2010PropOp29
 70
     1
102
RTVSPost2010Prop30
280
     1
102
RTVSPost2010PropOp30
 70
     1
102
RTVSPost2010Prop31
280
     0
102
RTVSPost2010PropOp31
 70
     1
102
RTVSPost2010Prop32
280
     0
102
RTVSPost2010PropOp32
 70
     1
102
RTVSPost2010Prop33
280
     0
102
RTVSPost2010PropOp33
 70
     1
102
RTVSPost2010Prop34
280
     0
102
RTVSPost2010PropOp34
 70
     1
102
RTVSPost2010Prop35
280
     0
102
RTVSPost2010PropOp35
 70
     1
102
RTVSPost2010Prop36
280
     0
102
RTVSPost2010PropOp36
 70
     1
102
RTVSPost2010Prop37
 90
       50
102
RTVSPost2010PropOp37
 70
     1
102
RTVSPost2010Prop38
140
0.0
102
RTVSPost2010PropOp38
 70
     1
102
RTVSPost2010Prop39
140
1.0
102
RTVSPost2010PropOp39
 70
     1
102
RTVSPost2010Prop40
 90
        0
102
RTVSPost2010PropOp40
 70
     1
102
RTVSPost2010Prop41ColorIndex
 90
       18
102
RTVSPost2010Prop41ColorRGB
 90
        0
102
RTVSPost2010PropOp41
 70
     1
102
RTVSPost2010Prop42
 90
       50
102
RTVSPost2010PropOp42
 70
     1
102
RTVSPost2010Prop43
 90
        3
102
RTVSPost2010PropOp43
 70
     1
102
RTVSPost2010Prop44ColorIndex
 90
        5
102
RTVSPost2010Prop44ColorRGB
 90
      255
102
RTVSPost2010PropOp44
 70
     1
102
RTVSPost2010Prop45
280
     0
102
RTVSPost2010PropOp45
 70
     1
102
RTVSPost2010Prop46
 90
       50
102
RTVSPost2010PropOp46
 70
     1
102
RTVSPost2010Prop47
 90
       50
102
RTVSPost2010PropOp47
 70
     1
102
RTVSPost2010Prop48
 90
       50
102
RTVSPost2010PropOp48
 70
     1
102
RTVSPost2010Prop49
280
     0
102
RTVSPost2010PropOp49
 70
     1
102
RTVSPost2010Prop50
 90
       50
102
RTVSPost2010PropOp50
 70
     1
102
RTVSPost2010Prop51ColorIndex
 90
      256
102
RTVSPost2010Prop51ColorRGB
 90
-16777216
102
RTVSPost2010PropOp51
 70
     0
102
RTVSPost2010Prop52
140
1.0
102
RTVSPost2010PropOp52
 70
     0
102
RTVSPost2010Prop53
 90
        2
102
RTVSPost2010PropOp53
 70
     1
102
RTVSPost2010Prop54
  1
strokes_ogs.tif
102
RTVSPost2010PropOp54
 70
     1
102
RTVSPost2010Prop55
280
     0
102
RTVSPost2010PropOp55
 70
     1
102
RTVSPost2010Prop56
140
1.0
102
RTVSPost2010PropOp56
 70
     1
102
RTVSPost2010Prop57
140
1.0
102
RTVSPost2010PropOp57
 70
     1
  0
XRECORD
  5
606
102
{ACAD_REACTORS
330
605
102
}
330
605
100
AcDbXrecord
280
     1
102
RTVSPropertyOp0
 70
     1
102
RTVSPropertyOp1
 70
     1
102
RTVSPropertyOp2
 70
     1
102
RTVSPropertyOp3
 70
     1
102
RTVSPropertyOp4
 70
     1
102
RTVSPropertyOp5
 70
     1
102
RTVSPropertyOp6
 70
     1
102
RTVSPropertyOp7
 70
     1
102
RTVSPropertyOp8
 70
     1
102
RTVSPropertyOp9
 70
     1
102
RTVSPropertyOp10
 70
     1
102
RTVSPropertyOp11
 70
     1
102
RTVSPropertyOp12
 70
     1
102
RTVSPropertyOp13
 70
     1
102
RTVSPropertyOp14
 70
     1
102
RTVSPropertyOp15
 70
     1
102
RTVSPropertyOp16
 70
     1
102
RTVSPropertyOp17
 70
     1
102
RTVSPropertyOp18
 70
     1
102
RTVSPropertyOp19
 70
     1
102
RTVSPropertyOp20
 70
     1
102
RTVSPropertyOp21
 70
     1
102
RTVSPropertyOp22
 70
     1
102
RTVSPropertyOp23
 70
     1
102
RTVSPropertyOp24
 70
     1
102
RTVSPropertyOp25
 70
     1
102
RTVSPropertyOp26
 70
     1
102
RTVSPropertyOp27
 70
     1
102
RTVSPropertyOp28
 70
     1
102
RTVSPropertyOp29
 70
     1
102
RTVSPropertyOp30
 70
     1
102
RTVSPropertyOp31
 70
     1
102
RTVSPropertyOp32
 70
     1
102
RTVSPropertyOp33
 70
     1
102
RTVSPropertyOp34
 70
     1
102
RTVSPropertyOp35
 70
     1
102
RTVSPropertyOp36
 70
     1
102
RTVSPropertyOp37
 70
     1
102
RTVSPropertyOp38
 70
     1
102
RTVSPropertyOp39
 70
     1
102
RTVSPropertyOp40
 70
     1
102
RTVSPropertyOp41
 70
     1
102
RTVSPropertyOp42
 70
     1
102
RTVSPropertyOp43
 70
     1
102
RTVSPropertyOp44
 70
     1
102
RTVSPropertyOp45
 70
     1
102
RTVSPropertyOp46
 70
     1
102
RTVSPropertyOp47
 70
     1
102
RTVSPropertyOp48
 70
     1
102
RTVSPropertyOp49
 70
     1
102
RTVSPropertyOp50
 70
     1
102
RTVSPropertyOp51
 70
     0
102
RTVSPropertyOp52
 70
     0
102
RTVSPropertyOp53
 70
     1
102
RTVSPropertyOp54
 70
     1
102
RTVSPropertyOp55
 70
     1
102
RTVSPropertyOp56
 70
     1
102
RTVSPropertyOp57
 70
     1
102
RTVSPost2010Prop28
280
     0
102
RTVSPost2010PropOp28
 70
     1
102
RTVSPost2010Prop29
280
     1
102
RTVSPost2010PropOp29
 70
     1
102
RTVSPost2010Prop30
280
     1
102
RTVSPost2010PropOp30
 70
     1
102
RTVSPost2010Prop31
280
     0
102
RTVSPost2010PropOp31
 70
     1
102
RTVSPost2010Prop32
280
     0
102
RTVSPost2010PropOp32
 70
     1
102
RTVSPost2010Prop33
280
     0
102
RTVSPost2010PropOp33
 70
     1
102
RTVSPost2010Prop34
280
     0
102
RTVSPost2010PropOp34
 70
     1
102
RTVSPost2010Prop35
280
     0
102
RTVSPost2010PropOp35
 70
     1
102
RTVSPost2010Prop36
280
     0
102
RTVSPost2010PropOp36
 70
     1
102
RTVSPost2010Prop37
 90
       50
102
RTVSPost2010PropOp37
 70
     1
102
RTVSPost2010Prop38
140
0.0
102
RTVSPost2010PropOp38
 70
     1
102
RTVSPost2010Prop39
140
1.0
102
RTVSPost2010PropOp39
 70
     1
102
RTVSPost2010Prop40
 90
        0
102
RTVSPost2010PropOp40
 70
     1
102
RTVSPost2010Prop41ColorIndex
 90
       18
102
RTVSPost2010Prop41ColorRGB
 90
        0
102
RTVSPost2010PropOp41
 70
     1
102
RTVSPost2010Prop42
 90
       50
102
RTVSPost2010PropOp42
 70
     1
102
RTVSPost2010Prop43
 90
        3
102
RTVSPost2010PropOp43
 70
     1
102
RTVSPost2010Prop44ColorIndex
 90
        5
102
RTVSPost2010Prop44ColorRGB
 90
      255
102
RTVSPost2010PropOp44
 70
     1
102
RTVSPost2010Prop45
280
     0
102
RTVSPost2010PropOp45
 70
     1
102
RTVSPost2010Prop46
 90
       50
102
RTVSPost2010PropOp46
 70
     1
102
RTVSPost2010Prop47
 90
       50
102
RTVSPost2010PropOp47
 70
     1
102
RTVSPost2010Prop48
 90
       50
102
RTVSPost2010PropOp48
 70
     1
102
RTVSPost2010Prop49
280
     0
102
RTVSPost2010PropOp49
 70
     1
102
RTVSPost2010Prop50
 90
       50
102
RTVSPost2010PropOp50
 70
     1
102
RTVSPost2010Prop51ColorIndex
 90
      256
102
RTVSPost2010Prop51ColorRGB
 90
-16777216
102
RTVSPost2010PropOp51
 70
     0
102
RTVSPost2010Prop52
140
1.0
102
RTVSPost2010PropOp52
 70
     0
102
RTVSPost2010Prop53
 90
        2
102
RTVSPost2010PropOp53
 70
     1
102
RTVSPost2010Prop54
  1
strokes_ogs.tif
102
RTVSPost2010PropOp54
 70
     1
102
RTVSPost2010Prop55
280
     0
102
RTVSPost2010PropOp55
 70
     1
102
RTVSPost2010Prop56
140
1.0
102
RTVSPost2010PropOp56
 70
     1
102
RTVSPost2010Prop57
140
1.0
102
RTVSPost2010PropOp57
 70
     1
  0
XRECORD
  5
608
102
{ACAD_REACTORS
330
607
102
}
330
607
100
AcDbXrecord
280
     1
102
RTVSPropertyOp0
 70
     1
102
RTVSPropertyOp1
 70
     1
102
RTVSPropertyOp2
 70
     1
102
RTVSPropertyOp3
 70
     1
102
RTVSPropertyOp4
 70
     1
102
RTVSPropertyOp5
 70
     1
102
RTVSPropertyOp6
 70
     1
102
RTVSPropertyOp7
 70
     1
102
RTVSPropertyOp8
 70
     1
102
RTVSPropertyOp9
 70
     1
102
RTVSPropertyOp10
 70
     1
102
RTVSPropertyOp11
 70
     1
102
RTVSPropertyOp12
 70
     1
102
RTVSPropertyOp13
 70
     1
102
RTVSPropertyOp14
 70
     1
102
RTVSPropertyOp15
 70
     1
102
RTVSPropertyOp16
 70
     1
102
RTVSPropertyOp17
 70
     1
102
RTVSPropertyOp18
 70
     1
102
RTVSPropertyOp19
 70
     1
102
RTVSPropertyOp20
 70
     1
102
RTVSPropertyOp21
 70
     1
102
RTVSPropertyOp22
 70
     1
102
RTVSPropertyOp23
 70
     1
102
RTVSPropertyOp24
 70
     1
102
RTVSPropertyOp25
 70
     1
102
RTVSPropertyOp26
 70
     1
102
RTVSPropertyOp27
 70
     1
102
RTVSPropertyOp28
 70
     1
102
RTVSPropertyOp29
 70
     1
102
RTVSPropertyOp30
 70
     1
102
RTVSPropertyOp31
 70
     1
102
RTVSPropertyOp32
 70
     1
102
RTVSPropertyOp33
 70
     1
102
RTVSPropertyOp34
 70
     1
102
RTVSPropertyOp35
 70
     1
102
RTVSPropertyOp36
 70
     1
102
RTVSPropertyOp37
 70
     1
102
RTVSPropertyOp38
 70
     1
102
RTVSPropertyOp39
 70
     1
102
RTVSPropertyOp40
 70
     1
102
RTVSPropertyOp41
 70
     1
102
RTVSPropertyOp42
 70
     1
102
RTVSPropertyOp43
 70
     1
102
RTVSPropertyOp44
 70
     1
102
RTVSPropertyOp45
 70
     1
102
RTVSPropertyOp46
 70
     1
102
RTVSPropertyOp47
 70
     1
102
RTVSPropertyOp48
 70
     1
102
RTVSPropertyOp49
 70
     1
102
RTVSPropertyOp50
 70
     1
102
RTVSPropertyOp51
 70
     0
102
RTVSPropertyOp52
 70
     0
102
RTVSPropertyOp53
 70
     1
102
RTVSPropertyOp54
 70
     1
102
RTVSPropertyOp55
 70
     1
102
RTVSPropertyOp56
 70
     1
102
RTVSPropertyOp57
 70
     1
102
RTVSPost2010Prop28
280
     0
102
RTVSPost2010PropOp28
 70
     1
102
RTVSPost2010Prop29
280
     1
102
RTVSPost2010PropOp29
 70
     1
102
RTVSPost2010Prop30
280
     1
102
RTVSPost2010PropOp30
 70
     1
102
RTVSPost2010Prop31
280
     0
102
RTVSPost2010PropOp31
 70
     1
102
RTVSPost2010Prop32
280
     0
102
RTVSPost2010PropOp32
 70
     1
102
RTVSPost2010Prop33
280
     0
102
RTVSPost2010PropOp33
 70
     1
102
RTVSPost2010Prop34
280
     0
102
RTVSPost2010PropOp34
 70
     1
102
RTVSPost2010Prop35
280
     0
102
RTVSPost2010PropOp35
 70
     1
102
RTVSPost2010Prop36
280
     0
102
RTVSPost2010PropOp36
 70
     1
102
RTVSPost2010Prop37
 90
       50
102
RTVSPost2010PropOp37
 70
     1
102
RTVSPost2010Prop38
140
0.0
102
RTVSPost2010PropOp38
 70
     1
102
RTVSPost2010Prop39
140
1.0
102
RTVSPost2010PropOp39
 70
     1
102
RTVSPost2010Prop40
 90
        0
102
RTVSPost2010PropOp40
 70
     1
102
RTVSPost2010Prop41ColorIndex
 90
       18
102
RTVSPost2010Prop41ColorRGB
 90
        0
102
RTVSPost2010PropOp41
 70
     1
102
RTVSPost2010Prop42
 90
       50
102
RTVSPost2010PropOp42
 70
     1
102
RTVSPost2010Prop43
 90
        3
102
RTVSPost2010PropOp43
 70
     1
102
RTVSPost2010Prop44ColorIndex
 90
        5
102
RTVSPost2010Prop44ColorRGB
 90
      255
102
RTVSPost2010PropOp44
 70
     1
102
RTVSPost2010Prop45
280
     0
102
RTVSPost2010PropOp45
 70
     1
102
RTVSPost2010Prop46
 90
       50
102
RTVSPost2010PropOp46
 70
     1
102
RTVSPost2010Prop47
 90
       50
102
RTVSPost2010PropOp47
 70
     1
102
RTVSPost2010Prop48
 90
       50
102
RTVSPost2010PropOp48
 70
     1
102
RTVSPost2010Prop49
280
     0
102
RTVSPost2010PropOp49
 70
     1
102
RTVSPost2010Prop50
 90
       50
102
RTVSPost2010PropOp50
 70
     1
102
RTVSPost2010Prop51ColorIndex
 90
      256
102
RTVSPost2010Prop51ColorRGB
 90
-16777216
102
RTVSPost2010PropOp51
 70
     0
102
RTVSPost2010Prop52
140
1.0
102
RTVSPost2010PropOp52
 70
     0
102
RTVSPost2010Prop53
 90
        2
102
RTVSPost2010PropOp53
 70
     1
102
RTVSPost2010Prop54
  1
strokes_ogs.tif
102
RTVSPost2010PropOp54
 70
     1
102
RTVSPost2010Prop55
280
     0
102
RTVSPost2010PropOp55
 70
     1
102
RTVSPost2010Prop56
140
1.0
102
RTVSPost2010PropOp56
 70
     1
102
RTVSPost2010Prop57
140
1.0
102
RTVSPost2010PropOp57
 70
     1
  0
XRECORD
  5
60A
102
{ACAD_REACTORS
330
609
102
}
330
609
100
AcDbXrecord
280
     1
102
RTVSPropertyOp0
 70
     1
102
RTVSPropertyOp1
 70
     1
102
RTVSPropertyOp2
 70
     1
102
RTVSPropertyOp3
 70
     1
102
RTVSPropertyOp4
 70
     1
102
RTVSPropertyOp5
 70
     1
102
RTVSPropertyOp6
 70
     1
102
RTVSPropertyOp7
 70
     1
102
RTVSPropertyOp8
 70
     1
102
RTVSPropertyOp9
 70
     1
102
RTVSPropertyOp10
 70
     1
102
RTVSPropertyOp11
 70
     1
102
RTVSPropertyOp12
 70
     1
102
RTVSPropertyOp13
 70
     1
102
RTVSPropertyOp14
 70
     1
102
RTVSPropertyOp15
 70
     1
102
RTVSPropertyOp16
 70
     1
102
RTVSPropertyOp17
 70
     1
102
RTVSPropertyOp18
 70
     1
102
RTVSPropertyOp19
 70
     1
102
RTVSPropertyOp20
 70
     1
102
RTVSPropertyOp21
 70
     1
102
RTVSPropertyOp22
 70
     1
102
RTVSPropertyOp23
 70
     1
102
RTVSPropertyOp24
 70
     1
102
RTVSPropertyOp25
 70
     1
102
RTVSPropertyOp26
 70
     1
102
RTVSPropertyOp27
 70
     1
102
RTVSPropertyOp28
 70
     1
102
RTVSPropertyOp29
 70
     1
102
RTVSPropertyOp30
 70
     1
102
RTVSPropertyOp31
 70
     1
102
RTVSPropertyOp32
 70
     1
102
RTVSPropertyOp33
 70
     1
102
RTVSPropertyOp34
 70
     1
102
RTVSPropertyOp35
 70
     1
102
RTVSPropertyOp36
 70
     1
102
RTVSPropertyOp37
 70
     1
102
RTVSPropertyOp38
 70
     1
102
RTVSPropertyOp39
 70
     1
102
RTVSPropertyOp40
 70
     1
102
RTVSPropertyOp41
 70
     1
102
RTVSPropertyOp42
 70
     1
102
RTVSPropertyOp43
 70
     1
102
RTVSPropertyOp44
 70
     1
102
RTVSPropertyOp45
 70
     1
102
RTVSPropertyOp46
 70
     1
102
RTVSPropertyOp47
 70
     1
102
RTVSPropertyOp48
 70
     1
102
RTVSPropertyOp49
 70
     1
102
RTVSPropertyOp50
 70
     1
102
RTVSPropertyOp51
 70
     0
102
RTVSPropertyOp52
 70
     0
102
RTVSPropertyOp53
 70
     1
102
RTVSPropertyOp54
 70
     1
102
RTVSPropertyOp55
 70
     1
102
RTVSPropertyOp56
 70
     1
102
RTVSPropertyOp57
 70
     1
102
RTVSPost2010Prop28
280
     0
102
RTVSPost2010PropOp28
 70
     1
102
RTVSPost2010Prop29
280
     1
102
RTVSPost2010PropOp29
 70
     1
102
RTVSPost2010Prop30
280
     1
102
RTVSPost2010PropOp30
 70
     1
102
RTVSPost2010Prop31
280
     0
102
RTVSPost2010PropOp31
 70
     1
102
RTVSPost2010Prop32
280
     0
102
RTVSPost2010PropOp32
 70
     1
102
RTVSPost2010Prop33
280
     0
102
RTVSPost2010PropOp33
 70
     1
102
RTVSPost2010Prop34
280
     0
102
RTVSPost2010PropOp34
 70
     1
102
RTVSPost2010Prop35
280
     0
102
RTVSPost2010PropOp35
 70
     1
102
RTVSPost2010Prop36
280
     0
102
RTVSPost2010PropOp36
 70
     1
102
RTVSPost2010Prop37
 90
       50
102
RTVSPost2010PropOp37
 70
     1
102
RTVSPost2010Prop38
140
0.0
102
RTVSPost2010PropOp38
 70
     1
102
RTVSPost2010Prop39
140
1.0
102
RTVSPost2010PropOp39
 70
     1
102
RTVSPost2010Prop40
 90
        0
102
RTVSPost2010PropOp40
 70
     1
102
RTVSPost2010Prop41ColorIndex
 90
       18
102
RTVSPost2010Prop41ColorRGB
 90
        0
102
RTVSPost2010PropOp41
 70
     1
102
RTVSPost2010Prop42
 90
       50
102
RTVSPost2010PropOp42
 70
     1
102
RTVSPost2010Prop43
 90
        3
102
RTVSPost2010PropOp43
 70
     1
102
RTVSPost2010Prop44ColorIndex
 90
        5
102
RTVSPost2010Prop44ColorRGB
 90
      255
102
RTVSPost2010PropOp44
 70
     1
102
RTVSPost2010Prop45
280
     0
102
RTVSPost2010PropOp45
 70
     1
102
RTVSPost2010Prop46
 90
       50
102
RTVSPost2010PropOp46
 70
     1
102
RTVSPost2010Prop47
 90
       50
102
RTVSPost2010PropOp47
 70
     1
102
RTVSPost2010Prop48
 90
       50
102
RTVSPost2010PropOp48
 70
     1
102
RTVSPost2010Prop49
280
     0
102
RTVSPost2010PropOp49
 70
     1
102
RTVSPost2010Prop50
 90
       50
102
RTVSPost2010PropOp50
 70
     1
102
RTVSPost2010Prop51ColorIndex
 90
      256
102
RTVSPost2010Prop51ColorRGB
 90
-16777216
102
RTVSPost2010PropOp51
 70
     0
102
RTVSPost2010Prop52
140
1.0
102
RTVSPost2010PropOp52
 70
     0
102
RTVSPost2010Prop53
 90
        2
102
RTVSPost2010PropOp53
 70
     1
102
RTVSPost2010Prop54
  1
strokes_ogs.tif
102
RTVSPost2010PropOp54
 70
     1
102
RTVSPost2010Prop55
280
     0
102
RTVSPost2010PropOp55
 70
     1
102
RTVSPost2010Prop56
140
1.0
102
RTVSPost2010PropOp56
 70
     1
102
RTVSPost2010Prop57
140
1.0
102
RTVSPost2010PropOp57
 70
     1
  0
XRECORD
  5
60C
102
{ACAD_REACTORS
330
60B
102
}
330
60B
100
AcDbXrecord
280
     1
102
RTVSPropertyOp0
 70
     1
102
RTVSPropertyOp1
 70
     1
102
RTVSPropertyOp2
 70
     1
102
RTVSPropertyOp3
 70
     1
102
RTVSPropertyOp4
 70
     1
102
RTVSPropertyOp5
 70
     1
102
RTVSPropertyOp6
 70
     1
102
RTVSPropertyOp7
 70
     1
102
RTVSPropertyOp8
 70
     1
102
RTVSPropertyOp9
 70
     1
102
RTVSPropertyOp10
 70
     1
102
RTVSPropertyOp11
 70
     1
102
RTVSPropertyOp12
 70
     1
102
RTVSPropertyOp13
 70
     1
102
RTVSPropertyOp14
 70
     1
102
RTVSPropertyOp15
 70
     1
102
RTVSPropertyOp16
 70
     1
102
RTVSPropertyOp17
 70
     1
102
RTVSPropertyOp18
 70
     1
102
RTVSPropertyOp19
 70
     1
102
RTVSPropertyOp20
 70
     1
102
RTVSPropertyOp21
 70
     1
102
RTVSPropertyOp22
 70
     1
102
RTVSPropertyOp23
 70
     1
102
RTVSPropertyOp24
 70
     1
102
RTVSPropertyOp25
 70
     1
102
RTVSPropertyOp26
 70
     1
102
RTVSPropertyOp27
 70
     1
102
RTVSPropertyOp28
 70
     1
102
RTVSPropertyOp29
 70
     1
102
RTVSPropertyOp30
 70
     1
102
RTVSPropertyOp31
 70
     1
102
RTVSPropertyOp32
 70
     1
102
RTVSPropertyOp33
 70
     1
102
RTVSPropertyOp34
 70
     1
102
RTVSPropertyOp35
 70
     1
102
RTVSPropertyOp36
 70
     1
102
RTVSPropertyOp37
 70
     1
102
RTVSPropertyOp38
 70
     1
102
RTVSPropertyOp39
 70
     1
102
RTVSPropertyOp40
 70
     1
102
RTVSPropertyOp41
 70
     1
102
RTVSPropertyOp42
 70
     1
102
RTVSPropertyOp43
 70
     1
102
RTVSPropertyOp44
 70
     1
102
RTVSPropertyOp45
 70
     1
102
RTVSPropertyOp46
 70
     1
102
RTVSPropertyOp47
 70
     1
102
RTVSPropertyOp48
 70
     1
102
RTVSPropertyOp49
 70
     1
102
RTVSPropertyOp50
 70
     1
102
RTVSPropertyOp51
 70
     0
102
RTVSPropertyOp52
 70
     0
102
RTVSPropertyOp53
 70
     1
102
RTVSPropertyOp54
 70
     1
102
RTVSPropertyOp55
 70
     1
102
RTVSPropertyOp56
 70
     1
102
RTVSPropertyOp57
 70
     1
102
RTVSPost2010Prop28
280
     0
102
RTVSPost2010PropOp28
 70
     1
102
RTVSPost2010Prop29
280
     1
102
RTVSPost2010PropOp29
 70
     1
102
RTVSPost2010Prop30
280
     1
102
RTVSPost2010PropOp30
 70
     1
102
RTVSPost2010Prop31
280
     0
102
RTVSPost2010PropOp31
 70
     1
102
RTVSPost2010Prop32
280
     0
102
RTVSPost2010PropOp32
 70
     1
102
RTVSPost2010Prop33
280
     0
102
RTVSPost2010PropOp33
 70
     1
102
RTVSPost2010Prop34
280
     0
102
RTVSPost2010PropOp34
 70
     1
102
RTVSPost2010Prop35
280
     0
102
RTVSPost2010PropOp35
 70
     1
102
RTVSPost2010Prop36
280
     0
102
RTVSPost2010PropOp36
 70
     1
102
RTVSPost2010Prop37
 90
       50
102
RTVSPost2010PropOp37
 70
     1
102
RTVSPost2010Prop38
140
0.0
102
RTVSPost2010PropOp38
 70
     1
102
RTVSPost2010Prop39
140
1.0
102
RTVSPost2010PropOp39
 70
     1
102
RTVSPost2010Prop40
 90
        0
102
RTVSPost2010PropOp40
 70
     1
102
RTVSPost2010Prop41ColorIndex
 90
       18
102
RTVSPost2010Prop41ColorRGB
 90
        0
102
RTVSPost2010PropOp41
 70
     1
102
RTVSPost2010Prop42
 90
       50
102
RTVSPost2010PropOp42
 70
     1
102
RTVSPost2010Prop43
 90
        3
102
RTVSPost2010PropOp43
 70
     1
102
RTVSPost2010Prop44ColorIndex
 90
        5
102
RTVSPost2010Prop44ColorRGB
 90
      255
102
RTVSPost2010PropOp44
 70
     1
102
RTVSPost2010Prop45
280
     0
102
RTVSPost2010PropOp45
 70
     1
102
RTVSPost2010Prop46
 90
       50
102
RTVSPost2010PropOp46
 70
     1
102
RTVSPost2010Prop47
 90
       50
102
RTVSPost2010PropOp47
 70
     1
102
RTVSPost2010Prop48
 90
       50
102
RTVSPost2010PropOp48
 70
     1
102
RTVSPost2010Prop49
280
     0
102
RTVSPost2010PropOp49
 70
     1
102
RTVSPost2010Prop50
 90
       50
102
RTVSPost2010PropOp50
 70
     1
102
RTVSPost2010Prop51ColorIndex
 90
      256
102
RTVSPost2010Prop51ColorRGB
 90
-16777216
102
RTVSPost2010PropOp51
 70
     0
102
RTVSPost2010Prop52
140
1.0
102
RTVSPost2010PropOp52
 70
     0
102
RTVSPost2010Prop53
 90
        2
102
RTVSPost2010PropOp53
 70
     1
102
RTVSPost2010Prop54
  1
strokes_ogs.tif
102
RTVSPost2010PropOp54
 70
     1
102
RTVSPost2010Prop55
280
     0
102
RTVSPost2010PropOp55
 70
     1
102
RTVSPost2010Prop56
140
1.0
102
RTVSPost2010PropOp56
 70
     1
102
RTVSPost2010Prop57
140
1.0
102
RTVSPost2010PropOp57
 70
     1
  0
XRECORD
  5
60E
102
{ACAD_REACTORS
330
60D
102
}
330
60D
100
AcDbXrecord
280
     1
102
RTVSPropertyOp0
 70
     0
102
RTVSPropertyOp1
 70
     0
102
RTVSPropertyOp2
 70
     0
102
RTVSPropertyOp3
 70
     0
102
RTVSPropertyOp4
 70
     0
102
RTVSPropertyOp5
 70
     0
102
RTVSPropertyOp6
 70
     0
102
RTVSPropertyOp7
 70
     0
102
RTVSPropertyOp8
 70
     0
102
RTVSPropertyOp9
 70
     0
102
RTVSPropertyOp10
 70
     0
102
RTVSPropertyOp11
 70
     0
102
RTVSPropertyOp12
 70
     0
102
RTVSPropertyOp13
 70
     0
102
RTVSPropertyOp14
 70
     2
102
RTVSPropertyOp15
 70
     0
102
RTVSPropertyOp16
 70
     0
102
RTVSPropertyOp17
 70
     0
102
RTVSPropertyOp18
 70
     0
102
RTVSPropertyOp19
 70
     0
102
RTVSPropertyOp20
 70
     0
102
RTVSPropertyOp21
 70
     0
102
RTVSPropertyOp22
 70
     0
102
RTVSPropertyOp23
 70
     0
102
RTVSPropertyOp24
 70
     0
102
RTVSPropertyOp25
 70
     0
102
RTVSPropertyOp26
 70
     0
102
RTVSPropertyOp27
 70
     0
102
RTVSPropertyOp28
 70
     1
102
RTVSPropertyOp29
 70
     1
102
RTVSPropertyOp30
 70
     1
102
RTVSPropertyOp31
 70
     1
102
RTVSPropertyOp32
 70
     1
102
RTVSPropertyOp33
 70
     1
102
RTVSPropertyOp34
 70
     1
102
RTVSPropertyOp35
 70
     1
102
RTVSPropertyOp36
 70
     1
102
RTVSPropertyOp37
 70
     1
102
RTVSPropertyOp38
 70
     1
102
RTVSPropertyOp39
 70
     1
102
RTVSPropertyOp40
 70
     1
102
RTVSPropertyOp41
 70
     1
102
RTVSPropertyOp42
 70
     1
102
RTVSPropertyOp43
 70
     1
102
RTVSPropertyOp44
 70
     1
102
RTVSPropertyOp45
 70
     1
102
RTVSPropertyOp46
 70
     1
102
RTVSPropertyOp47
 70
     1
102
RTVSPropertyOp48
 70
     1
102
RTVSPropertyOp49
 70
     1
102
RTVSPropertyOp50
 70
     1
102
RTVSPropertyOp51
 70
     0
102
RTVSPropertyOp52
 70
     0
102
RTVSPropertyOp53
 70
     1
102
RTVSPropertyOp54
 70
     1
102
RTVSPropertyOp55
 70
     1
102
RTVSPropertyOp56
 70
     1
102
RTVSPropertyOp57
 70
     1
102
RTVSPost2010Prop28
280
     0
102
RTVSPost2010PropOp28
 70
     1
102
RTVSPost2010Prop29
280
     1
102
RTVSPost2010PropOp29
 70
     1
102
RTVSPost2010Prop30
280
     1
102
RTVSPost2010PropOp30
 70
     1
102
RTVSPost2010Prop31
280
     0
102
RTVSPost2010PropOp31
 70
     1
102
RTVSPost2010Prop32
280
     0
102
RTVSPost2010PropOp32
 70
     1
102
RTVSPost2010Prop33
280
     0
102
RTVSPost2010PropOp33
 70
     1
102
RTVSPost2010Prop34
280
     0
102
RTVSPost2010PropOp34
 70
     1
102
RTVSPost2010Prop35
280
     0
102
RTVSPost2010PropOp35
 70
     1
102
RTVSPost2010Prop36
280
     0
102
RTVSPost2010PropOp36
 70
     1
102
RTVSPost2010Prop37
 90
       50
102
RTVSPost2010PropOp37
 70
     1
102
RTVSPost2010Prop38
140
0.0
102
RTVSPost2010PropOp38
 70
     1
102
RTVSPost2010Prop39
140
1.0
102
RTVSPost2010PropOp39
 70
     1
102
RTVSPost2010Prop40
 90
        0
102
RTVSPost2010PropOp40
 70
     1
102
RTVSPost2010Prop41ColorIndex
 90
       18
102
RTVSPost2010Prop41ColorRGB
 90
        0
102
RTVSPost2010PropOp41
 70
     1
102
RTVSPost2010Prop42
 90
       50
102
RTVSPost2010PropOp42
 70
     1
102
RTVSPost2010Prop43
 90
        3
102
RTVSPost2010PropOp43
 70
     1
102
RTVSPost2010Prop44ColorIndex
 90
        5
102
RTVSPost2010Prop44ColorRGB
 90
      255
102
RTVSPost2010PropOp44
 70
     1
102
RTVSPost2010Prop45
280
     0
102
RTVSPost2010PropOp45
 70
     1
102
RTVSPost2010Prop46
 90
       50
102
RTVSPost2010PropOp46
 70
     1
102
RTVSPost2010Prop47
 90
       50
102
RTVSPost2010PropOp47
 70
     1
102
RTVSPost2010Prop48
 90
       50
102
RTVSPost2010PropOp48
 70
     1
102
RTVSPost2010Prop49
280
     0
102
RTVSPost2010PropOp49
 70
     1
102
RTVSPost2010Prop50
 90
       50
102
RTVSPost2010PropOp50
 70
     1
102
RTVSPost2010Prop51ColorIndex
 90
      256
102
RTVSPost2010Prop51ColorRGB
 90
-16777216
102
RTVSPost2010PropOp51
 70
     0
102
RTVSPost2010Prop52
140
1.0
102
RTVSPost2010PropOp52
 70
     0
102
RTVSPost2010Prop53
 90
        2
102
RTVSPost2010PropOp53
 70
     1
102
RTVSPost2010Prop54
  1
strokes_ogs.tif
102
RTVSPost2010PropOp54
 70
     1
102
RTVSPost2010Prop55
280
     0
102
RTVSPost2010PropOp55
 70
     1
102
RTVSPost2010Prop56
140
1.0
102
RTVSPost2010PropOp56
 70
     1
102
RTVSPost2010Prop57
140
1.0
102
RTVSPost2010PropOp57
 70
     1
  0
XRECORD
  5
610
102
{ACAD_REACTORS
330
60F
102
}
330
60F
100
AcDbXrecord
280
     1
102
RTVSPropertyOp0
 70
     1
102
RTVSPropertyOp1
 70
     1
102
RTVSPropertyOp2
 70
     1
102
RTVSPropertyOp3
 70
     1
102
RTVSPropertyOp4
 70
     1
102
RTVSPropertyOp5
 70
     1
102
RTVSPropertyOp6
 70
     1
102
RTVSPropertyOp7
 70
     1
102
RTVSPropertyOp8
 70
     1
102
RTVSPropertyOp9
 70
     1
102
RTVSPropertyOp10
 70
     1
102
RTVSPropertyOp11
 70
     1
102
RTVSPropertyOp12
 70
     1
102
RTVSPropertyOp13
 70
     1
102
RTVSPropertyOp14
 70
     1
102
RTVSPropertyOp15
 70
     1
102
RTVSPropertyOp16
 70
     1
102
RTVSPropertyOp17
 70
     1
102
RTVSPropertyOp18
 70
     1
102
RTVSPropertyOp19
 70
     1
102
RTVSPropertyOp20
 70
     1
102
RTVSPropertyOp21
 70
     1
102
RTVSPropertyOp22
 70
     1
102
RTVSPropertyOp23
 70
     1
102
RTVSPropertyOp24
 70
     1
102
RTVSPropertyOp25
 70
     1
102
RTVSPropertyOp26
 70
     1
102
RTVSPropertyOp27
 70
     1
102
RTVSPropertyOp28
 70
     1
102
RTVSPropertyOp29
 70
     1
102
RTVSPropertyOp30
 70
     1
102
RTVSPropertyOp31
 70
     1
102
RTVSPropertyOp32
 70
     1
102
RTVSPropertyOp33
 70
     1
102
RTVSPropertyOp34
 70
     1
102
RTVSPropertyOp35
 70
     1
102
RTVSPropertyOp36
 70
     1
102
RTVSPropertyOp37
 70
     1
102
RTVSPropertyOp38
 70
     1
102
RTVSPropertyOp39
 70
     1
102
RTVSPropertyOp40
 70
     1
102
RTVSPropertyOp41
 70
     1
102
RTVSPropertyOp42
 70
     1
102
RTVSPropertyOp43
 70
     1
102
RTVSPropertyOp44
 70
     1
102
RTVSPropertyOp45
 70
     1
102
RTVSPropertyOp46
 70
     1
102
RTVSPropertyOp47
 70
     1
102
RTVSPropertyOp48
 70
     1
102
RTVSPropertyOp49
 70
     1
102
RTVSPropertyOp50
 70
     1
102
RTVSPropertyOp51
 70
     0
102
RTVSPropertyOp52
 70
     0
102
RTVSPropertyOp53
 70
     1
102
RTVSPropertyOp54
 70
     1
102
RTVSPropertyOp55
 70
     1
102
RTVSPropertyOp56
 70
     1
102
RTVSPropertyOp57
 70
     1
102
RTVSPost2010Prop28
280
     0
102
RTVSPost2010PropOp28
 70
     1
102
RTVSPost2010Prop29
280
     1
102
RTVSPost2010PropOp29
 70
     1
102
RTVSPost2010Prop30
280
     1
102
RTVSPost2010PropOp30
 70
     1
102
RTVSPost2010Prop31
280
     0
102
RTVSPost2010PropOp31
 70
     1
102
RTVSPost2010Prop32
280
     0
102
RTVSPost2010PropOp32
 70
     1
102
RTVSPost2010Prop33
280
     0
102
RTVSPost2010PropOp33
 70
     1
102
RTVSPost2010Prop34
280
     0
102
RTVSPost2010PropOp34
 70
     1
102
RTVSPost2010Prop35
280
     0
102
RTVSPost2010PropOp35
 70
     1
102
RTVSPost2010Prop36
280
     0
102
RTVSPost2010PropOp36
 70
     1
102
RTVSPost2010Prop37
 90
       50
102
RTVSPost2010PropOp37
 70
     1
102
RTVSPost2010Prop38
140
0.0
102
RTVSPost2010PropOp38
 70
     1
102
RTVSPost2010Prop39
140
1.0
102
RTVSPost2010PropOp39
 70
     1
102
RTVSPost2010Prop40
 90
        0
102
RTVSPost2010PropOp40
 70
     1
102
RTVSPost2010Prop41ColorIndex
 90
       18
102
RTVSPost2010Prop41ColorRGB
 90
        0
102
RTVSPost2010PropOp41
 70
     1
102
RTVSPost2010Prop42
 90
       50
102
RTVSPost2010PropOp42
 70
     1
102
RTVSPost2010Prop43
 90
        3
102
RTVSPost2010PropOp43
 70
     1
102
RTVSPost2010Prop44ColorIndex
 90
        5
102
RTVSPost2010Prop44ColorRGB
 90
      255
102
RTVSPost2010PropOp44
 70
     1
102
RTVSPost2010Prop45
280
     0
102
RTVSPost2010PropOp45
 70
     1
102
RTVSPost2010Prop46
 90
       50
102
RTVSPost2010PropOp46
 70
     1
102
RTVSPost2010Prop47
 90
       50
102
RTVSPost2010PropOp47
 70
     1
102
RTVSPost2010Prop48
 90
       50
102
RTVSPost2010PropOp48
 70
     1
102
RTVSPost2010Prop49
280
     0
102
RTVSPost2010PropOp49
 70
     1
102
RTVSPost2010Prop50
 90
       50
102
RTVSPost2010PropOp50
 70
     1
102
RTVSPost2010Prop51ColorIndex
 90
      256
102
RTVSPost2010Prop51ColorRGB
 90
-16777216
102
RTVSPost2010PropOp51
 70
     0
102
RTVSPost2010Prop52
140
1.0
102
RTVSPost2010PropOp52
 70
     0
102
RTVSPost2010Prop53
 90
        2
102
RTVSPost2010PropOp53
 70
     1
102
RTVSPost2010Prop54
  1
strokes_ogs.tif
102
RTVSPost2010PropOp54
 70
     1
102
RTVSPost2010Prop55
280
     0
102
RTVSPost2010PropOp55
 70
     1
102
RTVSPost2010Prop56
140
1.0
102
RTVSPost2010PropOp56
 70
     1
102
RTVSPost2010Prop57
140
1.0
102
RTVSPost2010PropOp57
 70
     1
  0
XRECORD
  5
612
102
{ACAD_REACTORS
330
611
102
}
330
611
100
AcDbXrecord
280
     1
102
RTVSPropertyOp0
 70
     0
102
RTVSPropertyOp1
 70
     0
102
RTVSPropertyOp2
 70
     0
102
RTVSPropertyOp3
 70
     0
102
RTVSPropertyOp4
 70
     0
102
RTVSPropertyOp5
 70
     0
102
RTVSPropertyOp6
 70
     0
102
RTVSPropertyOp7
 70
     0
102
RTVSPropertyOp8
 70
     0
102
RTVSPropertyOp9
 70
     0
102
RTVSPropertyOp10
 70
     0
102
RTVSPropertyOp11
 70
     0
102
RTVSPropertyOp12
 70
     0
102
RTVSPropertyOp13
 70
     0
102
RTVSPropertyOp14
 70
     2
102
RTVSPropertyOp15
 70
     0
102
RTVSPropertyOp16
 70
     0
102
RTVSPropertyOp17
 70
     0
102
RTVSPropertyOp18
 70
     0
102
RTVSPropertyOp19
 70
     0
102
RTVSPropertyOp20
 70
     0
102
RTVSPropertyOp21
 70
     0
102
RTVSPropertyOp22
 70
     0
102
RTVSPropertyOp23
 70
     0
102
RTVSPropertyOp24
 70
     0
102
RTVSPropertyOp25
 70
     0
102
RTVSPropertyOp26
 70
     0
102
RTVSPropertyOp27
 70
     0
102
RTVSPropertyOp28
 70
     1
102
RTVSPropertyOp29
 70
     1
102
RTVSPropertyOp30
 70
     1
102
RTVSPropertyOp31
 70
     1
102
RTVSPropertyOp32
 70
     1
102
RTVSPropertyOp33
 70
     1
102
RTVSPropertyOp34
 70
     1
102
RTVSPropertyOp35
 70
     1
102
RTVSPropertyOp36
 70
     1
102
RTVSPropertyOp37
 70
     1
102
RTVSPropertyOp38
 70
     1
102
RTVSPropertyOp39
 70
     1
102
RTVSPropertyOp40
 70
     1
102
RTVSPropertyOp41
 70
     1
102
RTVSPropertyOp42
 70
     1
102
RTVSPropertyOp43
 70
     1
102
RTVSPropertyOp44
 70
     1
102
RTVSPropertyOp45
 70
     1
102
RTVSPropertyOp46
 70
     1
102
RTVSPropertyOp47
 70
     1
102
RTVSPropertyOp48
 70
     1
102
RTVSPropertyOp49
 70
     1
102
RTVSPropertyOp50
 70
     1
102
RTVSPropertyOp51
 70
     0
102
RTVSPropertyOp52
 70
     0
102
RTVSPropertyOp53
 70
     1
102
RTVSPropertyOp54
 70
     1
102
RTVSPropertyOp55
 70
     1
102
RTVSPropertyOp56
 70
     1
102
RTVSPropertyOp57
 70
     1
102
RTVSPost2010Prop28
280
     0
102
RTVSPost2010PropOp28
 70
     1
102
RTVSPost2010Prop29
280
     1
102
RTVSPost2010PropOp29
 70
     1
102
RTVSPost2010Prop30
280
     1
102
RTVSPost2010PropOp30
 70
     1
102
RTVSPost2010Prop31
280
     0
102
RTVSPost2010PropOp31
 70
     1
102
RTVSPost2010Prop32
280
     0
102
RTVSPost2010PropOp32
 70
     1
102
RTVSPost2010Prop33
280
     0
102
RTVSPost2010PropOp33
 70
     1
102
RTVSPost2010Prop34
280
     0
102
RTVSPost2010PropOp34
 70
     1
102
RTVSPost2010Prop35
280
     0
102
RTVSPost2010PropOp35
 70
     1
102
RTVSPost2010Prop36
280
     0
102
RTVSPost2010PropOp36
 70
     1
102
RTVSPost2010Prop37
 90
       50
102
RTVSPost2010PropOp37
 70
     1
102
RTVSPost2010Prop38
140
0.0
102
RTVSPost2010PropOp38
 70
     1
102
RTVSPost2010Prop39
140
1.0
102
RTVSPost2010PropOp39
 70
     1
102
RTVSPost2010Prop40
 90
        0
102
RTVSPost2010PropOp40
 70
     1
102
RTVSPost2010Prop41ColorIndex
 90
       18
102
RTVSPost2010Prop41ColorRGB
 90
        0
102
RTVSPost2010PropOp41
 70
     1
102
RTVSPost2010Prop42
 90
       50
102
RTVSPost2010PropOp42
 70
     1
102
RTVSPost2010Prop43
 90
        3
102
RTVSPost2010PropOp43
 70
     1
102
RTVSPost2010Prop44ColorIndex
 90
        5
102
RTVSPost2010Prop44ColorRGB
 90
      255
102
RTVSPost2010PropOp44
 70
     1
102
RTVSPost2010Prop45
280
     0
102
RTVSPost2010PropOp45
 70
     1
102
RTVSPost2010Prop46
 90
       50
102
RTVSPost2010PropOp46
 70
     1
102
RTVSPost2010Prop47
 90
       50
102
RTVSPost2010PropOp47
 70
     1
102
RTVSPost2010Prop48
 90
       50
102
RTVSPost2010PropOp48
 70
     1
102
RTVSPost2010Prop49
280
     0
102
RTVSPost2010PropOp49
 70
     1
102
RTVSPost2010Prop50
 90
       50
102
RTVSPost2010PropOp50
 70
     1
102
RTVSPost2010Prop51ColorIndex
 90
      256
102
RTVSPost2010Prop51ColorRGB
 90
-16777216
102
RTVSPost2010PropOp51
 70
     0
102
RTVSPost2010Prop52
140
1.0
102
RTVSPost2010PropOp52
 70
     0
102
RTVSPost2010Prop53
 90
        2
102
RTVSPost2010PropOp53
 70
     1
102
RTVSPost2010Prop54
  1
strokes_ogs.tif
102
RTVSPost2010PropOp54
 70
     1
102
RTVSPost2010Prop55
280
     0
102
RTVSPost2010PropOp55
 70
     1
102
RTVSPost2010Prop56
140
1.0
102
RTVSPost2010PropOp56
 70
     1
102
RTVSPost2010Prop57
140
1.0
102
RTVSPost2010PropOp57
 70
     1
  0
XRECORD
  5
614
102
{ACAD_REACTORS
330
613
102
}
330
613
100
AcDbXrecord
280
     1
102
RTVSPropertyOp0
 70
     1
102
RTVSPropertyOp1
 70
     1
102
RTVSPropertyOp2
 70
     1
102
RTVSPropertyOp3
 70
     1
102
RTVSPropertyOp4
 70
     1
102
RTVSPropertyOp5
 70
     1
102
RTVSPropertyOp6
 70
     1
102
RTVSPropertyOp7
 70
     1
102
RTVSPropertyOp8
 70
     1
102
RTVSPropertyOp9
 70
     1
102
RTVSPropertyOp10
 70
     1
102
RTVSPropertyOp11
 70
     1
102
RTVSPropertyOp12
 70
     1
102
RTVSPropertyOp13
 70
     1
102
RTVSPropertyOp14
 70
     1
102
RTVSPropertyOp15
 70
     1
102
RTVSPropertyOp16
 70
     1
102
RTVSPropertyOp17
 70
     1
102
RTVSPropertyOp18
 70
     1
102
RTVSPropertyOp19
 70
     1
102
RTVSPropertyOp20
 70
     1
102
RTVSPropertyOp21
 70
     1
102
RTVSPropertyOp22
 70
     1
102
RTVSPropertyOp23
 70
     1
102
RTVSPropertyOp24
 70
     1
102
RTVSPropertyOp25
 70
     1
102
RTVSPropertyOp26
 70
     1
102
RTVSPropertyOp27
 70
     1
102
RTVSPropertyOp28
 70
     1
102
RTVSPropertyOp29
 70
     1
102
RTVSPropertyOp30
 70
     1
102
RTVSPropertyOp31
 70
     1
102
RTVSPropertyOp32
 70
     1
102
RTVSPropertyOp33
 70
     1
102
RTVSPropertyOp34
 70
     1
102
RTVSPropertyOp35
 70
     1
102
RTVSPropertyOp36
 70
     1
102
RTVSPropertyOp37
 70
     1
102
RTVSPropertyOp38
 70
     1
102
RTVSPropertyOp39
 70
     1
102
RTVSPropertyOp40
 70
     1
102
RTVSPropertyOp41
 70
     1
102
RTVSPropertyOp42
 70
     1
102
RTVSPropertyOp43
 70
     1
102
RTVSPropertyOp44
 70
     1
102
RTVSPropertyOp45
 70
     1
102
RTVSPropertyOp46
 70
     1
102
RTVSPropertyOp47
 70
     1
102
RTVSPropertyOp48
 70
     1
102
RTVSPropertyOp49
 70
     1
102
RTVSPropertyOp50
 70
     1
102
RTVSPropertyOp51
 70
     0
102
RTVSPropertyOp52
 70
     0
102
RTVSPropertyOp53
 70
     1
102
RTVSPropertyOp54
 70
     1
102
RTVSPropertyOp55
 70
     1
102
RTVSPropertyOp56
 70
     1
102
RTVSPropertyOp57
 70
     1
102
RTVSPost2010Prop28
280
     0
102
RTVSPost2010PropOp28
 70
     1
102
RTVSPost2010Prop29
280
     1
102
RTVSPost2010PropOp29
 70
     1
102
RTVSPost2010Prop30
280
     1
102
RTVSPost2010PropOp30
 70
     1
102
RTVSPost2010Prop31
280
     0
102
RTVSPost2010PropOp31
 70
     1
102
RTVSPost2010Prop32
280
     0
102
RTVSPost2010PropOp32
 70
     1
102
RTVSPost2010Prop33
280
     0
102
RTVSPost2010PropOp33
 70
     1
102
RTVSPost2010Prop34
280
     0
102
RTVSPost2010PropOp34
 70
     1
102
RTVSPost2010Prop35
280
     0
102
RTVSPost2010PropOp35
 70
     1
102
RTVSPost2010Prop36
280
     0
102
RTVSPost2010PropOp36
 70
     1
102
RTVSPost2010Prop37
 90
       50
102
RTVSPost2010PropOp37
 70
     1
102
RTVSPost2010Prop38
140
0.0
102
RTVSPost2010PropOp38
 70
     1
102
RTVSPost2010Prop39
140
1.0
102
RTVSPost2010PropOp39
 70
     1
102
RTVSPost2010Prop40
 90
        0
102
RTVSPost2010PropOp40
 70
     1
102
RTVSPost2010Prop41ColorIndex
 90
       18
102
RTVSPost2010Prop41ColorRGB
 90
        0
102
RTVSPost2010PropOp41
 70
     1
102
RTVSPost2010Prop42
 90
       50
102
RTVSPost2010PropOp42
 70
     1
102
RTVSPost2010Prop43
 90
        3
102
RTVSPost2010PropOp43
 70
     1
102
RTVSPost2010Prop44ColorIndex
 90
        5
102
RTVSPost2010Prop44ColorRGB
 90
      255
102
RTVSPost2010PropOp44
 70
     1
102
RTVSPost2010Prop45
280
     0
102
RTVSPost2010PropOp45
 70
     1
102
RTVSPost2010Prop46
 90
       50
102
RTVSPost2010PropOp46
 70
     1
102
RTVSPost2010Prop47
 90
       50
102
RTVSPost2010PropOp47
 70
     1
102
RTVSPost2010Prop48
 90
       50
102
RTVSPost2010PropOp48
 70
     1
102
RTVSPost2010Prop49
280
     0
102
RTVSPost2010PropOp49
 70
     1
102
RTVSPost2010Prop50
 90
       50
102
RTVSPost2010PropOp50
 70
     1
102
RTVSPost2010Prop51ColorIndex
 90
      256
102
RTVSPost2010Prop51ColorRGB
 90
-16777216
102
RTVSPost2010PropOp51
 70
     0
102
RTVSPost2010Prop52
140
1.0
102
RTVSPost2010PropOp52
 70
     0
102
RTVSPost2010Prop53
 90
        2
102
RTVSPost2010PropOp53
 70
     1
102
RTVSPost2010Prop54
  1
strokes_ogs.tif
102
RTVSPost2010PropOp54
 70
     1
102
RTVSPost2010Prop55
280
     0
102
RTVSPost2010PropOp55
 70
     1
102
RTVSPost2010Prop56
140
1.0
102
RTVSPost2010PropOp56
 70
     1
102
RTVSPost2010Prop57
140
1.0
102
RTVSPost2010PropOp57
 70
     1
  0
XRECORD
  5
616
102
{ACAD_REACTORS
330
615
102
}
330
615
100
AcDbXrecord
280
     1
102
RTVSPropertyOp0
 70
     1
102
RTVSPropertyOp1
 70
     1
102
RTVSPropertyOp2
 70
     1
102
RTVSPropertyOp3
 70
     1
102
RTVSPropertyOp4
 70
     1
102
RTVSPropertyOp5
 70
     1
102
RTVSPropertyOp6
 70
     1
102
RTVSPropertyOp7
 70
     1
102
RTVSPropertyOp8
 70
     1
102
RTVSPropertyOp9
 70
     1
102
RTVSPropertyOp10
 70
     1
102
RTVSPropertyOp11
 70
     1
102
RTVSPropertyOp12
 70
     1
102
RTVSPropertyOp13
 70
     1
102
RTVSPropertyOp14
 70
     1
102
RTVSPropertyOp15
 70
     1
102
RTVSPropertyOp16
 70
     1
102
RTVSPropertyOp17
 70
     1
102
RTVSPropertyOp18
 70
     1
102
RTVSPropertyOp19
 70
     1
102
RTVSPropertyOp20
 70
     1
102
RTVSPropertyOp21
 70
     1
102
RTVSPropertyOp22
 70
     1
102
RTVSPropertyOp23
 70
     1
102
RTVSPropertyOp24
 70
     1
102
RTVSPropertyOp25
 70
     1
102
RTVSPropertyOp26
 70
     1
102
RTVSPropertyOp27
 70
     1
102
RTVSPropertyOp28
 70
     1
102
RTVSPropertyOp29
 70
     1
102
RTVSPropertyOp30
 70
     1
102
RTVSPropertyOp31
 70
     1
102
RTVSPropertyOp32
 70
     1
102
RTVSPropertyOp33
 70
     1
102
RTVSPropertyOp34
 70
     1
102
RTVSPropertyOp35
 70
     1
102
RTVSPropertyOp36
 70
     1
102
RTVSPropertyOp37
 70
     1
102
RTVSPropertyOp38
 70
     1
102
RTVSPropertyOp39
 70
     1
102
RTVSPropertyOp40
 70
     1
102
RTVSPropertyOp41
 70
     1
102
RTVSPropertyOp42
 70
     1
102
RTVSPropertyOp43
 70
     1
102
RTVSPropertyOp44
 70
     1
102
RTVSPropertyOp45
 70
     1
102
RTVSPropertyOp46
 70
     1
102
RTVSPropertyOp47
 70
     1
102
RTVSPropertyOp48
 70
     1
102
RTVSPropertyOp49
 70
     1
102
RTVSPropertyOp50
 70
     1
102
RTVSPropertyOp51
 70
     0
102
RTVSPropertyOp52
 70
     0
102
RTVSPropertyOp53
 70
     1
102
RTVSPropertyOp54
 70
     1
102
RTVSPropertyOp55
 70
     1
102
RTVSPropertyOp56
 70
     1
102
RTVSPropertyOp57
 70
     1
102
RTVSPost2010Prop28
280
     0
102
RTVSPost2010PropOp28
 70
     1
102
RTVSPost2010Prop29
280
     1
102
RTVSPost2010PropOp29
 70
     1
102
RTVSPost2010Prop30
280
     1
102
RTVSPost2010PropOp30
 70
     1
102
RTVSPost2010Prop31
280
     0
102
RTVSPost2010PropOp31
 70
     1
102
RTVSPost2010Prop32
280
     0
102
RTVSPost2010PropOp32
 70
     1
102
RTVSPost2010Prop33
280
     0
102
RTVSPost2010PropOp33
 70
     1
102
RTVSPost2010Prop34
280
     0
102
RTVSPost2010PropOp34
 70
     1
102
RTVSPost2010Prop35
280
     0
102
RTVSPost2010PropOp35
 70
     1
102
RTVSPost2010Prop36
280
     0
102
RTVSPost2010PropOp36
 70
     1
102
RTVSPost2010Prop37
 90
       50
102
RTVSPost2010PropOp37
 70
     1
102
RTVSPost2010Prop38
140
0.0
102
RTVSPost2010PropOp38
 70
     1
102
RTVSPost2010Prop39
140
1.0
102
RTVSPost2010PropOp39
 70
     1
102
RTVSPost2010Prop40
 90
        0
102
RTVSPost2010PropOp40
 70
     1
102
RTVSPost2010Prop41ColorIndex
 90
       18
102
RTVSPost2010Prop41ColorRGB
 90
        0
102
RTVSPost2010PropOp41
 70
     1
102
RTVSPost2010Prop42
 90
       50
102
RTVSPost2010PropOp42
 70
     1
102
RTVSPost2010Prop43
 90
        3
102
RTVSPost2010PropOp43
 70
     1
102
RTVSPost2010Prop44ColorIndex
 90
        5
102
RTVSPost2010Prop44ColorRGB
 90
      255
102
RTVSPost2010PropOp44
 70
     1
102
RTVSPost2010Prop45
280
     0
102
RTVSPost2010PropOp45
 70
     1
102
RTVSPost2010Prop46
 90
       50
102
RTVSPost2010PropOp46
 70
     1
102
RTVSPost2010Prop47
 90
       50
102
RTVSPost2010PropOp47
 70
     1
102
RTVSPost2010Prop48
 90
       50
102
RTVSPost2010PropOp48
 70
     1
102
RTVSPost2010Prop49
280
     0
102
RTVSPost2010PropOp49
 70
     1
102
RTVSPost2010Prop50
 90
       50
102
RTVSPost2010PropOp50
 70
     1
102
RTVSPost2010Prop51ColorIndex
 90
      256
102
RTVSPost2010Prop51ColorRGB
 90
-16777216
102
RTVSPost2010PropOp51
 70
     0
102
RTVSPost2010Prop52
140
1.0
102
RTVSPost2010PropOp52
 70
     0
102
RTVSPost2010Prop53
 90
        2
102
RTVSPost2010PropOp53
 70
     1
102
RTVSPost2010Prop54
  1
strokes_ogs.tif
102
RTVSPost2010PropOp54
 70
     1
102
RTVSPost2010Prop55
280
     0
102
RTVSPost2010PropOp55
 70
     1
102
RTVSPost2010Prop56
140
1.0
102
RTVSPost2010PropOp56
 70
     1
102
RTVSPost2010Prop57
140
1.0
102
RTVSPost2010PropOp57
 70
     1
  0
XRECORD
  5
618
102
{ACAD_REACTORS
330
617
102
}
330
617
100
AcDbXrecord
280
     1
102
RTVSPropertyOp0
 70
     1
102
RTVSPropertyOp1
 70
     1
102
RTVSPropertyOp2
 70
     1
102
RTVSPropertyOp3
 70
     1
102
RTVSPropertyOp4
 70
     1
102
RTVSPropertyOp5
 70
     1
102
RTVSPropertyOp6
 70
     1
102
RTVSPropertyOp7
 70
     1
102
RTVSPropertyOp8
 70
     1
102
RTVSPropertyOp9
 70
     1
102
RTVSPropertyOp10
 70
     1
102
RTVSPropertyOp11
 70
     1
102
RTVSPropertyOp12
 70
     1
102
RTVSPropertyOp13
 70
     1
102
RTVSPropertyOp14
 70
     1
102
RTVSPropertyOp15
 70
     1
102
RTVSPropertyOp16
 70
     1
102
RTVSPropertyOp17
 70
     1
102
RTVSPropertyOp18
 70
     1
102
RTVSPropertyOp19
 70
     1
102
RTVSPropertyOp20
 70
     1
102
RTVSPropertyOp21
 70
     1
102
RTVSPropertyOp22
 70
     1
102
RTVSPropertyOp23
 70
     1
102
RTVSPropertyOp24
 70
     1
102
RTVSPropertyOp25
 70
     1
102
RTVSPropertyOp26
 70
     1
102
RTVSPropertyOp27
 70
     1
102
RTVSPropertyOp28
 70
     1
102
RTVSPropertyOp29
 70
     1
102
RTVSPropertyOp30
 70
     1
102
RTVSPropertyOp31
 70
     1
102
RTVSPropertyOp32
 70
     1
102
RTVSPropertyOp33
 70
     1
102
RTVSPropertyOp34
 70
     1
102
RTVSPropertyOp35
 70
     1
102
RTVSPropertyOp36
 70
     1
102
RTVSPropertyOp37
 70
     1
102
RTVSPropertyOp38
 70
     1
102
RTVSPropertyOp39
 70
     1
102
RTVSPropertyOp40
 70
     1
102
RTVSPropertyOp41
 70
     1
102
RTVSPropertyOp42
 70
     1
102
RTVSPropertyOp43
 70
     1
102
RTVSPropertyOp44
 70
     1
102
RTVSPropertyOp45
 70
     1
102
RTVSPropertyOp46
 70
     1
102
RTVSPropertyOp47
 70
     1
102
RTVSPropertyOp48
 70
     1
102
RTVSPropertyOp49
 70
     1
102
RTVSPropertyOp50
 70
     1
102
RTVSPropertyOp51
 70
     0
102
RTVSPropertyOp52
 70
     0
102
RTVSPropertyOp53
 70
     1
102
RTVSPropertyOp54
 70
     1
102
RTVSPropertyOp55
 70
     1
102
RTVSPropertyOp56
 70
     1
102
RTVSPropertyOp57
 70
     1
102
RTVSPost2010Prop28
280
     0
102
RTVSPost2010PropOp28
 70
     1
102
RTVSPost2010Prop29
280
     1
102
RTVSPost2010PropOp29
 70
     1
102
RTVSPost2010Prop30
280
     1
102
RTVSPost2010PropOp30
 70
     1
102
RTVSPost2010Prop31
280
     0
102
RTVSPost2010PropOp31
 70
     1
102
RTVSPost2010Prop32
280
     0
102
RTVSPost2010PropOp32
 70
     1
102
RTVSPost2010Prop33
280
     0
102
RTVSPost2010PropOp33
 70
     1
102
RTVSPost2010Prop34
280
     0
102
RTVSPost2010PropOp34
 70
     1
102
RTVSPost2010Prop35
280
     0
102
RTVSPost2010PropOp35
 70
     1
102
RTVSPost2010Prop36
280
     0
102
RTVSPost2010PropOp36
 70
     1
102
RTVSPost2010Prop37
 90
       50
102
RTVSPost2010PropOp37
 70
     1
102
RTVSPost2010Prop38
140
0.0
102
RTVSPost2010PropOp38
 70
     1
102
RTVSPost2010Prop39
140
1.0
102
RTVSPost2010PropOp39
 70
     1
102
RTVSPost2010Prop40
 90
        0
102
RTVSPost2010PropOp40
 70
     1
102
RTVSPost2010Prop41ColorIndex
 90
       18
102
RTVSPost2010Prop41ColorRGB
 90
        0
102
RTVSPost2010PropOp41
 70
     1
102
RTVSPost2010Prop42
 90
       50
102
RTVSPost2010PropOp42
 70
     1
102
RTVSPost2010Prop43
 90
        3
102
RTVSPost2010PropOp43
 70
     1
102
RTVSPost2010Prop44ColorIndex
 90
        5
102
RTVSPost2010Prop44ColorRGB
 90
      255
102
RTVSPost2010PropOp44
 70
     1
102
RTVSPost2010Prop45
280
     0
102
RTVSPost2010PropOp45
 70
     1
102
RTVSPost2010Prop46
 90
       50
102
RTVSPost2010PropOp46
 70
     1
102
RTVSPost2010Prop47
 90
       50
102
RTVSPost2010PropOp47
 70
     1
102
RTVSPost2010Prop48
 90
       50
102
RTVSPost2010PropOp48
 70
     1
102
RTVSPost2010Prop49
280
     0
102
RTVSPost2010PropOp49
 70
     1
102
RTVSPost2010Prop50
 90
       50
102
RTVSPost2010PropOp50
 70
     1
102
RTVSPost2010Prop51ColorIndex
 90
      256
102
RTVSPost2010Prop51ColorRGB
 90
-16777216
102
RTVSPost2010PropOp51
 70
     0
102
RTVSPost2010Prop52
140
1.0
102
RTVSPost2010PropOp52
 70
     0
102
RTVSPost2010Prop53
 90
        2
102
RTVSPost2010PropOp53
 70
     1
102
RTVSPost2010Prop54
  1
strokes_ogs.tif
102
RTVSPost2010PropOp54
 70
     1
102
RTVSPost2010Prop55
280
     0
102
RTVSPost2010PropOp55
 70
     1
102
RTVSPost2010Prop56
140
1.0
102
RTVSPost2010PropOp56
 70
     1
102
RTVSPost2010Prop57
140
1.0
102
RTVSPost2010PropOp57
 70
     1
  0
XRECORD
  5
61A
102
{ACAD_REACTORS
330
619
102
}
330
619
100
AcDbXrecord
280
     1
102
RTVSPropertyOp0
 70
     1
102
RTVSPropertyOp1
 70
     1
102
RTVSPropertyOp2
 70
     1
102
RTVSPropertyOp3
 70
     1
102
RTVSPropertyOp4
 70
     1
102
RTVSPropertyOp5
 70
     1
102
RTVSPropertyOp6
 70
     1
102
RTVSPropertyOp7
 70
     1
102
RTVSPropertyOp8
 70
     1
102
RTVSPropertyOp9
 70
     1
102
RTVSPropertyOp10
 70
     1
102
RTVSPropertyOp11
 70
     1
102
RTVSPropertyOp12
 70
     1
102
RTVSPropertyOp13
 70
     1
102
RTVSPropertyOp14
 70
     1
102
RTVSPropertyOp15
 70
     1
102
RTVSPropertyOp16
 70
     1
102
RTVSPropertyOp17
 70
     1
102
RTVSPropertyOp18
 70
     1
102
RTVSPropertyOp19
 70
     1
102
RTVSPropertyOp20
 70
     1
102
RTVSPropertyOp21
 70
     1
102
RTVSPropertyOp22
 70
     1
102
RTVSPropertyOp23
 70
     1
102
RTVSPropertyOp24
 70
     1
102
RTVSPropertyOp25
 70
     1
102
RTVSPropertyOp26
 70
     1
102
RTVSPropertyOp27
 70
     1
102
RTVSPropertyOp28
 70
     1
102
RTVSPropertyOp29
 70
     1
102
RTVSPropertyOp30
 70
     1
102
RTVSPropertyOp31
 70
     1
102
RTVSPropertyOp32
 70
     1
102
RTVSPropertyOp33
 70
     1
102
RTVSPropertyOp34
 70
     1
102
RTVSPropertyOp35
 70
     1
102
RTVSPropertyOp36
 70
     1
102
RTVSPropertyOp37
 70
     1
102
RTVSPropertyOp38
 70
     1
102
RTVSPropertyOp39
 70
     1
102
RTVSPropertyOp40
 70
     1
102
RTVSPropertyOp41
 70
     1
102
RTVSPropertyOp42
 70
     1
102
RTVSPropertyOp43
 70
     1
102
RTVSPropertyOp44
 70
     1
102
RTVSPropertyOp45
 70
     1
102
RTVSPropertyOp46
 70
     1
102
RTVSPropertyOp47
 70
     1
102
RTVSPropertyOp48
 70
     1
102
RTVSPropertyOp49
 70
     1
102
RTVSPropertyOp50
 70
     1
102
RTVSPropertyOp51
 70
     0
102
RTVSPropertyOp52
 70
     0
102
RTVSPropertyOp53
 70
     1
102
RTVSPropertyOp54
 70
     1
102
RTVSPropertyOp55
 70
     1
102
RTVSPropertyOp56
 70
     1
102
RTVSPropertyOp57
 70
     1
102
RTVSPost2010Prop28
280
     0
102
RTVSPost2010PropOp28
 70
     1
102
RTVSPost2010Prop29
280
     1
102
RTVSPost2010PropOp29
 70
     1
102
RTVSPost2010Prop30
280
     1
102
RTVSPost2010PropOp30
 70
     1
102
RTVSPost2010Prop31
280
     0
102
RTVSPost2010PropOp31
 70
     1
102
RTVSPost2010Prop32
280
     0
102
RTVSPost2010PropOp32
 70
     1
102
RTVSPost2010Prop33
280
     0
102
RTVSPost2010PropOp33
 70
     1
102
RTVSPost2010Prop34
280
     0
102
RTVSPost2010PropOp34
 70
     1
102
RTVSPost2010Prop35
280
     0
102
RTVSPost2010PropOp35
 70
     1
102
RTVSPost2010Prop36
280
     0
102
RTVSPost2010PropOp36
 70
     1
102
RTVSPost2010Prop37
 90
       50
102
RTVSPost2010PropOp37
 70
     1
102
RTVSPost2010Prop38
140
0.0
102
RTVSPost2010PropOp38
 70
     1
102
RTVSPost2010Prop39
140
1.0
102
RTVSPost2010PropOp39
 70
     1
102
RTVSPost2010Prop40
 90
        0
102
RTVSPost2010PropOp40
 70
     1
102
RTVSPost2010Prop41ColorIndex
 90
       18
102
RTVSPost2010Prop41ColorRGB
 90
        0
102
RTVSPost2010PropOp41
 70
     1
102
RTVSPost2010Prop42
 90
       50
102
RTVSPost2010PropOp42
 70
     1
102
RTVSPost2010Prop43
 90
        3
102
RTVSPost2010PropOp43
 70
     1
102
RTVSPost2010Prop44ColorIndex
 90
        5
102
RTVSPost2010Prop44ColorRGB
 90
      255
102
RTVSPost2010PropOp44
 70
     1
102
RTVSPost2010Prop45
280
     0
102
RTVSPost2010PropOp45
 70
     1
102
RTVSPost2010Prop46
 90
       50
102
RTVSPost2010PropOp46
 70
     1
102
RTVSPost2010Prop47
 90
       50
102
RTVSPost2010PropOp47
 70
     1
102
RTVSPost2010Prop48
 90
       50
102
RTVSPost2010PropOp48
 70
     1
102
RTVSPost2010Prop49
280
     0
102
RTVSPost2010PropOp49
 70
     1
102
RTVSPost2010Prop50
 90
       50
102
RTVSPost2010PropOp50
 70
     1
102
RTVSPost2010Prop51ColorIndex
 90
      256
102
RTVSPost2010Prop51ColorRGB
 90
-16777216
102
RTVSPost2010PropOp51
 70
     0
102
RTVSPost2010Prop52
140
1.0
102
RTVSPost2010PropOp52
 70
     0
102
RTVSPost2010Prop53
 90
        2
102
RTVSPost2010PropOp53
 70
     1
102
RTVSPost2010Prop54
  1
strokes_ogs.tif
102
RTVSPost2010PropOp54
 70
     1
102
RTVSPost2010Prop55
280
     0
102
RTVSPost2010PropOp55
 70
     1
102
RTVSPost2010Prop56
140
1.0
102
RTVSPost2010PropOp56
 70
     1
102
RTVSPost2010Prop57
140
1.0
102
RTVSPost2010PropOp57
 70
     1
  0
XRECORD
  5
61C
102
{ACAD_REACTORS
330
61B
102
}
330
61B
100
AcDbXrecord
280
     1
102
RTVSPropertyOp0
 70
     1
102
RTVSPropertyOp1
 70
     1
102
RTVSPropertyOp2
 70
     1
102
RTVSPropertyOp3
 70
     1
102
RTVSPropertyOp4
 70
     1
102
RTVSPropertyOp5
 70
     1
102
RTVSPropertyOp6
 70
     1
102
RTVSPropertyOp7
 70
     1
102
RTVSPropertyOp8
 70
     1
102
RTVSPropertyOp9
 70
     1
102
RTVSPropertyOp10
 70
     1
102
RTVSPropertyOp11
 70
     1
102
RTVSPropertyOp12
 70
     1
102
RTVSPropertyOp13
 70
     1
102
RTVSPropertyOp14
 70
     1
102
RTVSPropertyOp15
 70
     1
102
RTVSPropertyOp16
 70
     1
102
RTVSPropertyOp17
 70
     1
102
RTVSPropertyOp18
 70
     1
102
RTVSPropertyOp19
 70
     1
102
RTVSPropertyOp20
 70
     1
102
RTVSPropertyOp21
 70
     1
102
RTVSPropertyOp22
 70
     1
102
RTVSPropertyOp23
 70
     1
102
RTVSPropertyOp24
 70
     1
102
RTVSPropertyOp25
 70
     1
102
RTVSPropertyOp26
 70
     1
102
RTVSPropertyOp27
 70
     1
102
RTVSPropertyOp28
 70
     1
102
RTVSPropertyOp29
 70
     1
102
RTVSPropertyOp30
 70
     1
102
RTVSPropertyOp31
 70
     1
102
RTVSPropertyOp32
 70
     1
102
RTVSPropertyOp33
 70
     1
102
RTVSPropertyOp34
 70
     1
102
RTVSPropertyOp35
 70
     1
102
RTVSPropertyOp36
 70
     1
102
RTVSPropertyOp37
 70
     1
102
RTVSPropertyOp38
 70
     1
102
RTVSPropertyOp39
 70
     1
102
RTVSPropertyOp40
 70
     1
102
RTVSPropertyOp41
 70
     1
102
RTVSPropertyOp42
 70
     1
102
RTVSPropertyOp43
 70
     1
102
RTVSPropertyOp44
 70
     1
102
RTVSPropertyOp45
 70
     1
102
RTVSPropertyOp46
 70
     1
102
RTVSPropertyOp47
 70
     1
102
RTVSPropertyOp48
 70
     1
102
RTVSPropertyOp49
 70
     1
102
RTVSPropertyOp50
 70
     1
102
RTVSPropertyOp51
 70
     0
102
RTVSPropertyOp52
 70
     0
102
RTVSPropertyOp53
 70
     1
102
RTVSPropertyOp54
 70
     1
102
RTVSPropertyOp55
 70
     1
102
RTVSPropertyOp56
 70
     1
102
RTVSPropertyOp57
 70
     1
102
RTVSPost2010Prop28
280
     0
102
RTVSPost2010PropOp28
 70
     1
102
RTVSPost2010Prop29
280
     1
102
RTVSPost2010PropOp29
 70
     1
102
RTVSPost2010Prop30
280
     1
102
RTVSPost2010PropOp30
 70
     1
102
RTVSPost2010Prop31
280
     0
102
RTVSPost2010PropOp31
 70
     1
102
RTVSPost2010Prop32
280
     0
102
RTVSPost2010PropOp32
 70
     1
102
RTVSPost2010Prop33
280
     0
102
RTVSPost2010PropOp33
 70
     1
102
RTVSPost2010Prop34
280
     0
102
RTVSPost2010PropOp34
 70
     1
102
RTVSPost2010Prop35
280
     0
102
RTVSPost2010PropOp35
 70
     1
102
RTVSPost2010Prop36
280
     0
102
RTVSPost2010PropOp36
 70
     1
102
RTVSPost2010Prop37
 90
       50
102
RTVSPost2010PropOp37
 70
     1
102
RTVSPost2010Prop38
140
0.0
102
RTVSPost2010PropOp38
 70
     1
102
RTVSPost2010Prop39
140
1.0
102
RTVSPost2010PropOp39
 70
     1
102
RTVSPost2010Prop40
 90
        0
102
RTVSPost2010PropOp40
 70
     1
102
RTVSPost2010Prop41ColorIndex
 90
       18
102
RTVSPost2010Prop41ColorRGB
 90
        0
102
RTVSPost2010PropOp41
 70
     1
102
RTVSPost2010Prop42
 90
       50
102
RTVSPost2010PropOp42
 70
     1
102
RTVSPost2010Prop43
 90
        3
102
RTVSPost2010PropOp43
 70
     1
102
RTVSPost2010Prop44ColorIndex
 90
        5
102
RTVSPost2010Prop44ColorRGB
 90
      255
102
RTVSPost2010PropOp44
 70
     1
102
RTVSPost2010Prop45
280
     0
102
RTVSPost2010PropOp45
 70
     1
102
RTVSPost2010Prop46
 90
       50
102
RTVSPost2010PropOp46
 70
     1
102
RTVSPost2010Prop47
 90
       50
102
RTVSPost2010PropOp47
 70
     1
102
RTVSPost2010Prop48
 90
       50
102
RTVSPost2010PropOp48
 70
     1
102
RTVSPost2010Prop49
280
     0
102
RTVSPost2010PropOp49
 70
     1
102
RTVSPost2010Prop50
 90
       50
102
RTVSPost2010PropOp50
 70
     1
102
RTVSPost2010Prop51ColorIndex
 90
      256
102
RTVSPost2010Prop51ColorRGB
 90
-16777216
102
RTVSPost2010PropOp51
 70
     0
102
RTVSPost2010Prop52
140
1.0
102
RTVSPost2010PropOp52
 70
     0
102
RTVSPost2010Prop53
 90
        2
102
RTVSPost2010PropOp53
 70
     1
102
RTVSPost2010Prop54
  1
strokes_ogs.tif
102
RTVSPost2010PropOp54
 70
     1
102
RTVSPost2010Prop55
280
     0
102
RTVSPost2010PropOp55
 70
     1
102
RTVSPost2010Prop56
140
1.0
102
RTVSPost2010PropOp56
 70
     1
102
RTVSPost2010Prop57
140
1.0
102
RTVSPost2010PropOp57
 70
     1
  0
XRECORD
  5
61E
102
{ACAD_REACTORS
330
61D
102
}
330
61D
100
AcDbXrecord
280
     1
102
RTVSPropertyOp0
 70
     1
102
RTVSPropertyOp1
 70
     1
102
RTVSPropertyOp2
 70
     1
102
RTVSPropertyOp3
 70
     1
102
RTVSPropertyOp4
 70
     1
102
RTVSPropertyOp5
 70
     1
102
RTVSPropertyOp6
 70
     1
102
RTVSPropertyOp7
 70
     1
102
RTVSPropertyOp8
 70
     1
102
RTVSPropertyOp9
 70
     1
102
RTVSPropertyOp10
 70
     1
102
RTVSPropertyOp11
 70
     1
102
RTVSPropertyOp12
 70
     1
102
RTVSPropertyOp13
 70
     1
102
RTVSPropertyOp14
 70
     1
102
RTVSPropertyOp15
 70
     1
102
RTVSPropertyOp16
 70
     1
102
RTVSPropertyOp17
 70
     1
102
RTVSPropertyOp18
 70
     1
102
RTVSPropertyOp19
 70
     1
102
RTVSPropertyOp20
 70
     1
102
RTVSPropertyOp21
 70
     1
102
RTVSPropertyOp22
 70
     1
102
RTVSPropertyOp23
 70
     1
102
RTVSPropertyOp24
 70
     1
102
RTVSPropertyOp25
 70
     1
102
RTVSPropertyOp26
 70
     1
102
RTVSPropertyOp27
 70
     1
102
RTVSPropertyOp28
 70
     1
102
RTVSPropertyOp29
 70
     1
102
RTVSPropertyOp30
 70
     1
102
RTVSPropertyOp31
 70
     1
102
RTVSPropertyOp32
 70
     1
102
RTVSPropertyOp33
 70
     1
102
RTVSPropertyOp34
 70
     1
102
RTVSPropertyOp35
 70
     1
102
RTVSPropertyOp36
 70
     1
102
RTVSPropertyOp37
 70
     1
102
RTVSPropertyOp38
 70
     1
102
RTVSPropertyOp39
 70
     1
102
RTVSPropertyOp40
 70
     1
102
RTVSPropertyOp41
 70
     1
102
RTVSPropertyOp42
 70
     1
102
RTVSPropertyOp43
 70
     1
102
RTVSPropertyOp44
 70
     1
102
RTVSPropertyOp45
 70
     1
102
RTVSPropertyOp46
 70
     1
102
RTVSPropertyOp47
 70
     1
102
RTVSPropertyOp48
 70
     1
102
RTVSPropertyOp49
 70
     1
102
RTVSPropertyOp50
 70
     1
102
RTVSPropertyOp51
 70
     0
102
RTVSPropertyOp52
 70
     0
102
RTVSPropertyOp53
 70
     1
102
RTVSPropertyOp54
 70
     1
102
RTVSPropertyOp55
 70
     1
102
RTVSPropertyOp56
 70
     1
102
RTVSPropertyOp57
 70
     1
102
RTVSPost2010Prop28
280
     0
102
RTVSPost2010PropOp28
 70
     1
102
RTVSPost2010Prop29
280
     1
102
RTVSPost2010PropOp29
 70
     1
102
RTVSPost2010Prop30
280
     1
102
RTVSPost2010PropOp30
 70
     1
102
RTVSPost2010Prop31
280
     0
102
RTVSPost2010PropOp31
 70
     1
102
RTVSPost2010Prop32
280
     0
102
RTVSPost2010PropOp32
 70
     1
102
RTVSPost2010Prop33
280
     0
102
RTVSPost2010PropOp33
 70
     1
102
RTVSPost2010Prop34
280
     0
102
RTVSPost2010PropOp34
 70
     1
102
RTVSPost2010Prop35
280
     0
102
RTVSPost2010PropOp35
 70
     1
102
RTVSPost2010Prop36
280
     0
102
RTVSPost2010PropOp36
 70
     1
102
RTVSPost2010Prop37
 90
       50
102
RTVSPost2010PropOp37
 70
     1
102
RTVSPost2010Prop38
140
0.0
102
RTVSPost2010PropOp38
 70
     1
102
RTVSPost2010Prop39
140
1.0
102
RTVSPost2010PropOp39
 70
     1
102
RTVSPost2010Prop40
 90
        0
102
RTVSPost2010PropOp40
 70
     1
102
RTVSPost2010Prop41ColorIndex
 90
       18
102
RTVSPost2010Prop41ColorRGB
 90
        0
102
RTVSPost2010PropOp41
 70
     1
102
RTVSPost2010Prop42
 90
       50
102
RTVSPost2010PropOp42
 70
     1
102
RTVSPost2010Prop43
 90
        3
102
RTVSPost2010PropOp43
 70
     1
102
RTVSPost2010Prop44ColorIndex
 90
        5
102
RTVSPost2010Prop44ColorRGB
 90
      255
102
RTVSPost2010PropOp44
 70
     1
102
RTVSPost2010Prop45
280
     0
102
RTVSPost2010PropOp45
 70
     1
102
RTVSPost2010Prop46
 90
       50
102
RTVSPost2010PropOp46
 70
     1
102
RTVSPost2010Prop47
 90
       50
102
RTVSPost2010PropOp47
 70
     1
102
RTVSPost2010Prop48
 90
       50
102
RTVSPost2010PropOp48
 70
     1
102
RTVSPost2010Prop49
280
     0
102
RTVSPost2010PropOp49
 70
     1
102
RTVSPost2010Prop50
 90
       50
102
RTVSPost2010PropOp50
 70
     1
102
RTVSPost2010Prop51ColorIndex
 90
      256
102
RTVSPost2010Prop51ColorRGB
 90
-16777216
102
RTVSPost2010PropOp51
 70
     0
102
RTVSPost2010Prop52
140
1.0
102
RTVSPost2010PropOp52
 70
     0
102
RTVSPost2010Prop53
 90
        2
102
RTVSPost2010PropOp53
 70
     1
102
RTVSPost2010Prop54
  1
strokes_ogs.tif
102
RTVSPost2010PropOp54
 70
     1
102
RTVSPost2010Prop55
280
     0
102
RTVSPost2010PropOp55
 70
     1
102
RTVSPost2010Prop56
140
1.0
102
RTVSPost2010PropOp56
 70
     1
102
RTVSPost2010Prop57
140
1.0
102
RTVSPost2010PropOp57
 70
     1
  0
XRECORD
  5
620
102
{ACAD_REACTORS
330
61F
102
}
330
61F
100
AcDbXrecord
280
     1
102
RTVSPropertyOp0
 70
     1
102
RTVSPropertyOp1
 70
     1
102
RTVSPropertyOp2
 70
     1
102
RTVSPropertyOp3
 70
     1
102
RTVSPropertyOp4
 70
     1
102
RTVSPropertyOp5
 70
     1
102
RTVSPropertyOp6
 70
     1
102
RTVSPropertyOp7
 70
     1
102
RTVSPropertyOp8
 70
     1
102
RTVSPropertyOp9
 70
     1
102
RTVSPropertyOp10
 70
     1
102
RTVSPropertyOp11
 70
     1
102
RTVSPropertyOp12
 70
     1
102
RTVSPropertyOp13
 70
     1
102
RTVSPropertyOp14
 70
     1
102
RTVSPropertyOp15
 70
     1
102
RTVSPropertyOp16
 70
     1
102
RTVSPropertyOp17
 70
     1
102
RTVSPropertyOp18
 70
     1
102
RTVSPropertyOp19
 70
     1
102
RTVSPropertyOp20
 70
     1
102
RTVSPropertyOp21
 70
     1
102
RTVSPropertyOp22
 70
     1
102
RTVSPropertyOp23
 70
     1
102
RTVSPropertyOp24
 70
     1
102
RTVSPropertyOp25
 70
     1
102
RTVSPropertyOp26
 70
     1
102
RTVSPropertyOp27
 70
     1
102
RTVSPropertyOp28
 70
     1
102
RTVSPropertyOp29
 70
     1
102
RTVSPropertyOp30
 70
     1
102
RTVSPropertyOp31
 70
     1
102
RTVSPropertyOp32
 70
     1
102
RTVSPropertyOp33
 70
     1
102
RTVSPropertyOp34
 70
     1
102
RTVSPropertyOp35
 70
     1
102
RTVSPropertyOp36
 70
     1
102
RTVSPropertyOp37
 70
     1
102
RTVSPropertyOp38
 70
     1
102
RTVSPropertyOp39
 70
     1
102
RTVSPropertyOp40
 70
     1
102
RTVSPropertyOp41
 70
     1
102
RTVSPropertyOp42
 70
     1
102
RTVSPropertyOp43
 70
     1
102
RTVSPropertyOp44
 70
     1
102
RTVSPropertyOp45
 70
     1
102
RTVSPropertyOp46
 70
     1
102
RTVSPropertyOp47
 70
     1
102
RTVSPropertyOp48
 70
     1
102
RTVSPropertyOp49
 70
     1
102
RTVSPropertyOp50
 70
     1
102
RTVSPropertyOp51
 70
     0
102
RTVSPropertyOp52
 70
     0
102
RTVSPropertyOp53
 70
     1
102
RTVSPropertyOp54
 70
     1
102
RTVSPropertyOp55
 70
     1
102
RTVSPropertyOp56
 70
     1
102
RTVSPropertyOp57
 70
     1
102
RTVSPost2010Prop28
280
     0
102
RTVSPost2010PropOp28
 70
     1
102
RTVSPost2010Prop29
280
     1
102
RTVSPost2010PropOp29
 70
     1
102
RTVSPost2010Prop30
280
     1
102
RTVSPost2010PropOp30
 70
     1
102
RTVSPost2010Prop31
280
     0
102
RTVSPost2010PropOp31
 70
     1
102
RTVSPost2010Prop32
280
     0
102
RTVSPost2010PropOp32
 70
     1
102
RTVSPost2010Prop33
280
     0
102
RTVSPost2010PropOp33
 70
     1
102
RTVSPost2010Prop34
280
     0
102
RTVSPost2010PropOp34
 70
     1
102
RTVSPost2010Prop35
280
     0
102
RTVSPost2010PropOp35
 70
     1
102
RTVSPost2010Prop36
280
     0
102
RTVSPost2010PropOp36
 70
     1
102
RTVSPost2010Prop37
 90
       50
102
RTVSPost2010PropOp37
 70
     1
102
RTVSPost2010Prop38
140
0.0
102
RTVSPost2010PropOp38
 70
     1
102
RTVSPost2010Prop39
140
1.0
102
RTVSPost2010PropOp39
 70
     1
102
RTVSPost2010Prop40
 90
        0
102
RTVSPost2010PropOp40
 70
     1
102
RTVSPost2010Prop41ColorIndex
 90
       18
102
RTVSPost2010Prop41ColorRGB
 90
        0
102
RTVSPost2010PropOp41
 70
     1
102
RTVSPost2010Prop42
 90
       50
102
RTVSPost2010PropOp42
 70
     1
102
RTVSPost2010Prop43
 90
        3
102
RTVSPost2010PropOp43
 70
     1
102
RTVSPost2010Prop44ColorIndex
 90
        5
102
RTVSPost2010Prop44ColorRGB
 90
      255
102
RTVSPost2010PropOp44
 70
     1
102
RTVSPost2010Prop45
280
     0
102
RTVSPost2010PropOp45
 70
     1
102
RTVSPost2010Prop46
 90
       50
102
RTVSPost2010PropOp46
 70
     1
102
RTVSPost2010Prop47
 90
       50
102
RTVSPost2010PropOp47
 70
     1
102
RTVSPost2010Prop48
 90
       50
102
RTVSPost2010PropOp48
 70
     1
102
RTVSPost2010Prop49
280
     0
102
RTVSPost2010PropOp49
 70
     1
102
RTVSPost2010Prop50
 90
       50
102
RTVSPost2010PropOp50
 70
     1
102
RTVSPost2010Prop51ColorIndex
 90
      256
102
RTVSPost2010Prop51ColorRGB
 90
-16777216
102
RTVSPost2010PropOp51
 70
     0
102
RTVSPost2010Prop52
140
1.0
102
RTVSPost2010PropOp52
 70
     0
102
RTVSPost2010Prop53
 90
        2
102
RTVSPost2010PropOp53
 70
     1
102
RTVSPost2010Prop54
  1
strokes_ogs.tif
102
RTVSPost2010PropOp54
 70
     1
102
RTVSPost2010Prop55
280
     0
102
RTVSPost2010PropOp55
 70
     1
102
RTVSPost2010Prop56
140
1.0
102
RTVSPost2010PropOp56
 70
     1
102
RTVSPost2010Prop57
140
1.0
102
RTVSPost2010PropOp57
 70
     1
  0
XRECORD
  5
622
102
{ACAD_REACTORS
330
621
102
}
330
621
100
AcDbXrecord
280
     1
102
RTVSPropertyOp0
 70
     1
102
RTVSPropertyOp1
 70
     1
102
RTVSPropertyOp2
 70
     1
102
RTVSPropertyOp3
 70
     1
102
RTVSPropertyOp4
 70
     1
102
RTVSPropertyOp5
 70
     1
102
RTVSPropertyOp6
 70
     1
102
RTVSPropertyOp7
 70
     1
102
RTVSPropertyOp8
 70
     1
102
RTVSPropertyOp9
 70
     1
102
RTVSPropertyOp10
 70
     1
102
RTVSPropertyOp11
 70
     1
102
RTVSPropertyOp12
 70
     1
102
RTVSPropertyOp13
 70
     1
102
RTVSPropertyOp14
 70
     1
102
RTVSPropertyOp15
 70
     1
102
RTVSPropertyOp16
 70
     1
102
RTVSPropertyOp17
 70
     1
102
RTVSPropertyOp18
 70
     1
102
RTVSPropertyOp19
 70
     1
102
RTVSPropertyOp20
 70
     1
102
RTVSPropertyOp21
 70
     1
102
RTVSPropertyOp22
 70
     1
102
RTVSPropertyOp23
 70
     1
102
RTVSPropertyOp24
 70
     1
102
RTVSPropertyOp25
 70
     1
102
RTVSPropertyOp26
 70
     1
102
RTVSPropertyOp27
 70
     1
102
RTVSPropertyOp28
 70
     1
102
RTVSPropertyOp29
 70
     1
102
RTVSPropertyOp30
 70
     1
102
RTVSPropertyOp31
 70
     1
102
RTVSPropertyOp32
 70
     1
102
RTVSPropertyOp33
 70
     1
102
RTVSPropertyOp34
 70
     1
102
RTVSPropertyOp35
 70
     1
102
RTVSPropertyOp36
 70
     1
102
RTVSPropertyOp37
 70
     1
102
RTVSPropertyOp38
 70
     1
102
RTVSPropertyOp39
 70
     1
102
RTVSPropertyOp40
 70
     1
102
RTVSPropertyOp41
 70
     1
102
RTVSPropertyOp42
 70
     1
102
RTVSPropertyOp43
 70
     1
102
RTVSPropertyOp44
 70
     1
102
RTVSPropertyOp45
 70
     1
102
RTVSPropertyOp46
 70
     1
102
RTVSPropertyOp47
 70
     1
102
RTVSPropertyOp48
 70
     1
102
RTVSPropertyOp49
 70
     1
102
RTVSPropertyOp50
 70
     1
102
RTVSPropertyOp51
 70
     0
102
RTVSPropertyOp52
 70
     0
102
RTVSPropertyOp53
 70
     1
102
RTVSPropertyOp54
 70
     1
102
RTVSPropertyOp55
 70
     1
102
RTVSPropertyOp56
 70
     1
102
RTVSPropertyOp57
 70
     1
102
RTVSPost2010Prop28
280
     0
102
RTVSPost2010PropOp28
 70
     1
102
RTVSPost2010Prop29
280
     1
102
RTVSPost2010PropOp29
 70
     1
102
RTVSPost2010Prop30
280
     1
102
RTVSPost2010PropOp30
 70
     1
102
RTVSPost2010Prop31
280
     0
102
RTVSPost2010PropOp31
 70
     1
102
RTVSPost2010Prop32
280
     0
102
RTVSPost2010PropOp32
 70
     1
102
RTVSPost2010Prop33
280
     0
102
RTVSPost2010PropOp33
 70
     1
102
RTVSPost2010Prop34
280
     0
102
RTVSPost2010PropOp34
 70
     1
102
RTVSPost2010Prop35
280
     0
102
RTVSPost2010PropOp35
 70
     1
102
RTVSPost2010Prop36
280
     0
102
RTVSPost2010PropOp36
 70
     1
102
RTVSPost2010Prop37
 90
       50
102
RTVSPost2010PropOp37
 70
     1
102
RTVSPost2010Prop38
140
0.0
102
RTVSPost2010PropOp38
 70
     1
102
RTVSPost2010Prop39
140
1.0
102
RTVSPost2010PropOp39
 70
     1
102
RTVSPost2010Prop40
 90
        0
102
RTVSPost2010PropOp40
 70
     1
102
RTVSPost2010Prop41ColorIndex
 90
       18
102
RTVSPost2010Prop41ColorRGB
 90
        0
102
RTVSPost2010PropOp41
 70
     1
102
RTVSPost2010Prop42
 90
       50
102
RTVSPost2010PropOp42
 70
     1
102
RTVSPost2010Prop43
 90
        3
102
RTVSPost2010PropOp43
 70
     1
102
RTVSPost2010Prop44ColorIndex
 90
        5
102
RTVSPost2010Prop44ColorRGB
 90
      255
102
RTVSPost2010PropOp44
 70
     1
102
RTVSPost2010Prop45
280
     0
102
RTVSPost2010PropOp45
 70
     1
102
RTVSPost2010Prop46
 90
       50
102
RTVSPost2010PropOp46
 70
     1
102
RTVSPost2010Prop47
 90
       50
102
RTVSPost2010PropOp47
 70
     1
102
RTVSPost2010Prop48
 90
       50
102
RTVSPost2010PropOp48
 70
     1
102
RTVSPost2010Prop49
280
     0
102
RTVSPost2010PropOp49
 70
     1
102
RTVSPost2010Prop50
 90
       50
102
RTVSPost2010PropOp50
 70
     1
102
RTVSPost2010Prop51ColorIndex
 90
      256
102
RTVSPost2010Prop51ColorRGB
 90
-16777216
102
RTVSPost2010PropOp51
 70
     0
102
RTVSPost2010Prop52
140
1.0
102
RTVSPost2010PropOp52
 70
     0
102
RTVSPost2010Prop53
 90
        2
102
RTVSPost2010PropOp53
 70
     1
102
RTVSPost2010Prop54
  1
strokes_ogs.tif
102
RTVSPost2010PropOp54
 70
     1
102
RTVSPost2010Prop55
280
     0
102
RTVSPost2010PropOp55
 70
     1
102
RTVSPost2010Prop56
140
1.0
102
RTVSPost2010PropOp56
 70
     1
102
RTVSPost2010Prop57
140
1.0
102
RTVSPost2010PropOp57
 70
     1
  0
ENDSEC
  0
EOF
