  0
SECTION
  2
HEADER
  9
$ACADVER
  1
AC1015
  9
$ACADMAINTVER
 70
     6
  9
$DWGCODEPAGE
  3
ANSI_1252
  9
$INSBASE
 10
0.0
 20
0.0
 30
0.0
  9
$EXTMIN
 10
22644.800158343
 20
563.5100997096124
 30
-0.0000000000112498
  9
$EXTMAX
 10
25426.51642381726
 20
2168.318597494374
 30
0.0000000000002956
  9
$LIMMIN
 10
0.0
 20
0.0
  9
$LIMMAX
 10
420.0
 20
297.0
  9
$ORTHOMODE
 70
     1
  9
$REGENMODE
 70
     1
  9
$FILLMODE
 70
     1
  9
$QTEXTMODE
 70
     0
  9
$MIRRTEXT
 70
     0
  9
$LTSCALE
 40
1.0
  9
$ATTMODE
 70
     1
  9
$TEXTSIZE
 40
2.5
  9
$TRACEWID
 40
1.0
  9
$TEXTSTYLE
  7
style1
  9
$CLAYER
  8
Trazo
  9
$CELTYPE
  6
ByLayer
  9
$CECOLOR
 62
   256
  9
$CELTSCALE
 40
0.13
  9
$DISPSILH
 70
     0
  9
$DIMSCALE
 40
1.0
  9
$DIMASZ
 40
2.5
  9
$DIMEXO
 40
0.625
  9
$DIMDLI
 40
3.75
  9
$DIMRND
 40
0.0
  9
$DIMDLE
 40
0.0
  9
$DIMEXE
 40
1.25
  9
$DIMTP
 40
0.0
  9
$DIMTM
 40
0.0
  9
$DIMTXT
 40
2.5
  9
$DIMCEN
 40
2.5
  9
$DIMTSZ
 40
0.0
  9
$DIMTOL
 70
     0
  9
$DIMLIM
 70
     0
  9
$DIMTIH
 70
     0
  9
$DIMTOH
 70
     0
  9
$DIMSE1
 70
     0
  9
$DIMSE2
 70
     0
  9
$DIMTAD
 70
     1
  9
$DIMZIN
 70
     8
  9
$DIMBLK
  1

  9
$DIMASO
 70
     1
  9
$DIMSHO
 70
     1
  9
$DIMPOST
  1

  9
$DIMAPOST
  1

  9
$DIMALT
 70
     0
  9
$DIMALTD
 70
     3
  9
$DIMALTF
 40
0.03937007874016
  9
$DIMLFAC
 40
1.0
  9
$DIMTOFL
 70
     1
  9
$DIMTVP
 40
0.0
  9
$DIMTIX
 70
     0
  9
$DIMSOXD
 70
     0
  9
$DIMSAH
 70
     0
  9
$DIMBLK1
  1

  9
$DIMBLK2
  1

  9
$DIMSTYLE
  2
ISO-25
  9
$DIMCLRD
 70
     0
  9
$DIMCLRE
 70
     0
  9
$DIMCLRT
 70
     0
  9
$DIMTFAC
 40
1.0
  9
$DIMGAP
 40
0.625
  9
$DIMJUST
 70
     0
  9
$DIMSD1
 70
     0
  9
$DIMSD2
 70
     0
  9
$DIMTOLJ
 70
     0
  9
$DIMTZIN
 70
     8
  9
$DIMALTZ
 70
     0
  9
$DIMALTTZ
 70
     0
  9
$DIMUPT
 70
     0
  9
$DIMDEC
 70
     2
  9
$DIMTDEC
 70
     2
  9
$DIMALTU
 70
     2
  9
$DIMALTTD
 70
     3
  9
$DIMTXSTY
  7
style1
  9
$DIMAUNIT
 70
     0
  9
$DIMADEC
 70
     0
  9
$DIMALTRND
 40
0.0
  9
$DIMAZIN
 70
     0
  9
$DIMDSEP
 70
    44
  9
$DIMATFIT
 70
     3
  9
$DIMFRAC
 70
     0
  9
$DIMLDRBLK
  1

  9
$DIMLUNIT
 70
     2
  9
$DIMLWD
 70
    -2
  9
$DIMLWE
 70
    -2
  9
$DIMTMOVE
 70
     0
  9
$LUNITS
 70
     2
  9
$LUPREC
 70
     4
  9
$SKETCHINC
 40
1.0
  9
$FILLETRAD
 40
4.0
  9
$AUNITS
 70
     0
  9
$AUPREC
 70
     0
  9
$MENU
  1
.
  9
$ELEVATION
 40
0.0
  9
$PELEVATION
 40
0.0
  9
$THICKNESS
 40
0.0
  9
$LIMCHECK
 70
     0
  9
$CHAMFERA
 40
0.0
  9
$CHAMFERB
 40
0.0
  9
$CHAMFERC
 40
0.0
  9
$CHAMFERD
 40
0.0
  9
$SKPOLY
 70
     0
  9
$TDCREATE
 40
2454651.65304735
  9
$TDUCREATE
 40
2454651.611380683
  9
$TDUPDATE
 40
2460388.342093426
  9
$TDUUPDATE
 40
2460388.300426759
  9
$TDINDWG
 40
0.2738490278
  9
$TDUSRTIMER
 40
0.2738489931
  9
$USRTIMER
 70
     1
  9
$ANGBASE
 50
0.0
  9
$ANGDIR
 70
     0
  9
$PDMODE
 70
     0
  9
$PDSIZE
 40
0.0
  9
$PLINEWID
 40
0.0
  9
$SPLFRAME
 70
     0
  9
$SPLINETYPE
 70
     6
  9
$SPLINESEGS
 70
     8
  9
$HANDSEED
  5
3D8C
  9
$SURFTAB1
 70
     6
  9
$SURFTAB2
 70
     6
  9
$SURFTYPE
 70
     6
  9
$SURFU
 70
     6
  9
$SURFV
 70
     6
  9
$UCSBASE
  2

  9
$UCSNAME
  2

  9
$UCSORG
 10
0.0
 20
0.0
 30
0.0
  9
$UCSXDIR
 10
1.0
 20
0.0
 30
0.0
  9
$UCSYDIR
 10
0.0
 20
1.0
 30
0.0
  9
$UCSORTHOREF
  2

  9
$UCSORTHOVIEW
 70
     0
  9
$UCSORGTOP
 10
0.0
 20
0.0
 30
0.0
  9
$UCSORGBOTTOM
 10
0.0
 20
0.0
 30
0.0
  9
$UCSORGLEFT
 10
0.0
 20
0.0
 30
0.0
  9
$UCSORGRIGHT
 10
0.0
 20
0.0
 30
0.0
  9
$UCSORGFRONT
 10
0.0
 20
0.0
 30
0.0
  9
$UCSORGBACK
 10
0.0
 20
0.0
 30
0.0
  9
$PUCSBASE
  2

  9
$PUCSNAME
  2

  9
$PUCSORG
 10
0.0
 20
0.0
 30
0.0
  9
$PUCSXDIR
 10
1.0
 20
0.0
 30
0.0
  9
$PUCSYDIR
 10
0.0
 20
1.0
 30
0.0
  9
$PUCSORTHOREF
  2

  9
$PUCSORTHOVIEW
 70
     0
  9
$PUCSORGTOP
 10
0.0
 20
0.0
 30
0.0
  9
$PUCSORGBOTTOM
 10
0.0
 20
0.0
 30
0.0
  9
$PUCSORGLEFT
 10
0.0
 20
0.0
 30
0.0
  9
$PUCSORGRIGHT
 10
0.0
 20
0.0
 30
0.0
  9
$PUCSORGFRONT
 10
0.0
 20
0.0
 30
0.0
  9
$PUCSORGBACK
 10
0.0
 20
0.0
 30
0.0
  9
$USERI1
 70
     0
  9
$USERI2
 70
     0
  9
$USERI3
 70
     0
  9
$USERI4
 70
     0
  9
$USERI5
 70
     0
  9
$USERR1
 40
0.0
  9
$USERR2
 40
0.0
  9
$USERR3
 40
0.0
  9
$USERR4
 40
0.0
  9
$USERR5
 40
0.0
  9
$WORLDVIEW
 70
     1
  9
$SHADEDGE
 70
     3
  9
$SHADEDIF
 70
    70
  9
$TILEMODE
 70
     1
  9
$MAXACTVP
 70
    64
  9
$PINSBASE
 10
0.0
 20
0.0
 30
0.0
  9
$PLIMCHECK
 70
     0
  9
$PEXTMIN
 10
0.0
 20
0.0
 30
0.0
  9
$PEXTMAX
 10
0.0
 20
0.0
 30
0.0
  9
$PLIMMIN
 10
0.0
 20
0.0
  9
$PLIMMAX
 10
12.0
 20
9.0
  9
$UNITMODE
 70
     0
  9
$VISRETAIN
 70
     1
  9
$PLINEGEN
 70
     0
  9
$PSLTSCALE
 70
     1
  9
$TREEDEPTH
 70
  3020
  9
$CMLSTYLE
  2
Standard
  9
$CMLJUST
 70
     0
  9
$CMLSCALE
 40
20.0
  9
$PROXYGRAPHICS
 70
     1
  9
$MEASUREMENT
 70
     0
  9
$CELWEIGHT
370
    -1
  9
$ENDCAPS
280
     0
  9
$JOINSTYLE
280
     0
  9
$LWDISPLAY
290
     0
  9
$INSUNITS
 70
     4
  9
$HYPERLINKBASE
  1

  9
$STYLESHEET
  1

  9
$XEDIT
290
     1
  9
$CEPSNTYPE
380
     0
  9
$PSTYLEMODE
290
     1
  9
$FINGERPRINTGUID
  2
{65CFBF12-1059-4896-95DE-1C806D254FE3}
  9
$VERSIONGUID
  2
{E4FB6295-AF65-4818-A23B-682F0349C627}
  9
$EXTNAMES
290
     1
  9
$PSVPSCALE
 40
0.0
  9
$OLESTARTUP
290
     0
  0
ENDSEC
  0
SECTION
  2
CLASSES
  0
CLASS
  1
ACDBDICTIONARYWDFLT
  2
AcDbDictionaryWithDefault
  3
ObjectDBX Classes
 90
        0
280
     0
281
     0
  0
CLASS
  1
ACDBPLACEHOLDER
  2
AcDbPlaceHolder
  3
ObjectDBX Classes
 90
        0
280
     0
281
     0
  0
CLASS
  1
LAYOUT
  2
AcDbLayout
  3
ObjectDBX Classes
 90
        0
280
     0
281
     0
  0
CLASS
  1
DICTIONARYVAR
  2
AcDbDictionaryVar
  3
ObjectDBX Classes
 90
        0
280
     0
281
     0
  0
CLASS
  1
TABLESTYLE
  2
AcDbTableStyle
  3
ObjectDBX Classes
 90
     4095
280
     0
281
     0
  0
CLASS
  1
MATERIAL
  2
AcDbMaterial
  3
ObjectDBX Classes
 90
     1153
280
     0
281
     0
  0
CLASS
  1
VISUALSTYLE
  2
AcDbVisualStyle
  3
ObjectDBX Classes
 90
     4095
280
     0
281
     0
  0
CLASS
  1
SCALE
  2
AcDbScale
  3
ObjectDBX Classes
 90
     1153
280
     0
281
     0
  0
CLASS
  1
MLEADERSTYLE
  2
AcDbMLeaderStyle
  3
ACDB_MLEADERSTYLE_CLASS
 90
     4095
280
     0
281
     0
  0
CLASS
  1
CELLSTYLEMAP
  2
AcDbCellStyleMap
  3
ObjectDBX Classes
 90
     1152
280
     0
281
     0
  0
CLASS
  1
RASTERVARIABLES
  2
AcDbRasterVariables
  3
ISM
 90
        0
280
     0
281
     0
  0
CLASS
  1
IMAGEDEF
  2
AcDbRasterImageDef
  3
ISM
 90
        0
280
     0
281
     0
  0
CLASS
  1
IMAGEDEF_REACTOR
  2
AcDbRasterImageDefReactor
  3
ISM
 90
        1
280
     0
281
     0
  0
CLASS
  1
IMAGE
  2
AcDbRasterImage
  3
ISM
 90
      127
280
     0
281
     1
  0
CLASS
  1
SORTENTSTABLE
  2
AcDbSortentsTable
  3
ObjectDBX Classes
 90
        0
280
     0
281
     0
  0
CLASS
  1
DIMASSOC
  2
AcDbDimAssoc
  3
"AcDbDimAssoc|Product Desc:     AcDim ARX App For Dimension|Company:          Autodesk, Inc.|WEB Address:      www.autodesk.com"
 90
        0
280
     0
281
     0
  0
ENDSEC
  0
SECTION
  2
TABLES
  0
TABLE
  2
VPORT
  5
8
102
{ACAD_XDICTIONARY
360
3D4D
102
}
330
0
100
AcDbSymbolTable
 70
     1
  0
VPORT
  5
EA
330
8
100
AcDbSymbolTableRecord
100
AcDbViewportTableRecord
  2
*Active
 70
     0
 10
0.0
 20
0.0
 11
1.0
 21
1.0
 12
24035.65829108013
 22
1365.914348601993
 13
0.0
 23
0.0
 14
10.0
 24
10.0
 15
10.0
 25
10.0
 16
0.0
 26
0.0
 36
1.0
 17
0.0
 27
0.0
 37
0.0
 40
1622.806350096367
 41
2.241573033707865
 42
50.0
 43
0.0
 44
0.0
 50
0.0
 51
0.0
 71
     0
 72
  1000
 73
     1
 74
     3
 75
     0
 76
     0
 77
     0
 78
     0
281
     0
 65
     1
110
0.0
120
0.0
130
0.0
111
1.0
121
0.0
131
0.0
112
0.0
122
1.0
132
0.0
 79
     0
146
0.0
  0
ENDTAB
  0
TABLE
  2
LTYPE
  5
5
330
0
100
AcDbSymbolTable
 70
     3
  0
LTYPE
  5
14
330
5
100
AcDbSymbolTableRecord
100
AcDbLinetypeTableRecord
  2
ByBlock
 70
     0
  3

 72
    65
 73
     0
 40
0.0
  0
LTYPE
  5
15
330
5
100
AcDbSymbolTableRecord
100
AcDbLinetypeTableRecord
  2
ByLayer
 70
     0
  3

 72
    65
 73
     0
 40
0.0
  0
LTYPE
  5
16
330
5
100
AcDbSymbolTableRecord
100
AcDbLinetypeTableRecord
  2
Continuous
 70
     0
  3
Solid line
 72
    65
 73
     0
 40
0.0
  0
LTYPE
  5
2CD
330
5
100
AcDbSymbolTableRecord
100
AcDbLinetypeTableRecord
  2
ACAD_ISO04W100
 70
     0
  3
ISO long-dash dot ____ . ____ . ____ . ____ . _
 72
    65
 73
     4
 40
30.0
 49
24.0
 74
     0
 49
-3.0
 74
     0
 49
0.0
 74
     0
 49
-3.0
 74
     0
  0
LTYPE
  5
2E1
330
5
100
AcDbSymbolTableRecord
100
AcDbLinetypeTableRecord
  2
ACAD_ISO02W100
 70
     0
  3
ISO dash __ __ __ __ __ __ __ __ __ __ __ __ __
 72
    65
 73
     2
 40
15.0
 49
12.0
 74
     0
 49
-3.0
 74
     0
  0
ENDTAB
  0
TABLE
  2
LAYER
  5
2
102
{ACAD_XDICTIONARY
360
1B6
102
}
330
0
100
AcDbSymbolTable
 70
     3
  0
LAYER
  5
10
102
{ACAD_XDICTIONARY
360
13C
102
}
330
2
100
AcDbSymbolTableRecord
100
AcDbLayerTableRecord
  2
0
 70
     0
 62
     7
  6
Continuous
370
    -3
390
F
  0
LAYER
  5
1B4
330
2
100
AcDbSymbolTableRecord
100
AcDbLayerTableRecord
  2
Trazo
 70
     0
 62
   250
  6
Continuous
370
    -3
390
F
1001
AcAecLayerStandard
1000

1000

  0
LAYER
  5
282
330
2
100
AcDbSymbolTableRecord
100
AcDbLayerTableRecord
  2
Defpoints
 70
     0
 62
     1
  6
Continuous
290
     0
370
    -3
390
F
  0
ENDTAB
  0
TABLE
  2
STYLE
  5
3
330
0
100
AcDbSymbolTable
 70
     2
  0
STYLE
  5
11
330
3
100
AcDbSymbolTableRecord
100
AcDbTextStyleTableRecord
  2
Standard
 70
     0
 40
0.0
 41
1.0
 50
0.0
 71
     0
 42
2.5
  3
arial.ttf
  4

1001
ACAD
1000
Arial
1071
       34
  0
STYLE
  5
456
330
3
100
AcDbSymbolTableRecord
100
AcDbTextStyleTableRecord
  2
style1
 70
     0
 40
0.0
 41
1.0
 50
0.0
 71
     0
 42
2.5
  3
arial.ttf
  4

1001
ACAD
1000
Arial
1071
       34
  0
ENDTAB
  0
TABLE
  2
VIEW
  5
6
330
0
100
AcDbSymbolTable
 70
     0
  0
ENDTAB
  0
TABLE
  2
UCS
  5
7
330
0
100
AcDbSymbolTable
 70
     0
  0
ENDTAB
  0
TABLE
  2
APPID
  5
9
330
0
100
AcDbSymbolTable
 70
     9
  0
APPID
  5
12
330
9
100
AcDbSymbolTableRecord
100
AcDbRegAppTableRecord
  2
ACAD
 70
     0
  0
APPID
  5
9E
330
9
100
AcDbSymbolTableRecord
100
AcDbRegAppTableRecord
  2
ACAD_PSEXT
 70
     0
  0
APPID
  5
133
330
9
100
AcDbSymbolTableRecord
100
AcDbRegAppTableRecord
  2
AcadAnnoPO
 70
     0
  0
APPID
  5
134
330
9
100
AcDbSymbolTableRecord
100
AcDbRegAppTableRecord
  2
AcadAnnotative
 70
     0
  0
APPID
  5
135
330
9
100
AcDbSymbolTableRecord
100
AcDbRegAppTableRecord
  2
ACAD_DSTYLE_DIMJAG
 70
     0
  0
APPID
  5
136
330
9
100
AcDbSymbolTableRecord
100
AcDbRegAppTableRecord
  2
ACAD_DSTYLE_DIMTALN
 70
     0
  0
APPID
  5
165
330
9
100
AcDbSymbolTableRecord
100
AcDbRegAppTableRecord
  2
ACAD_MLEADERVER
 70
     0
  0
APPID
  5
1B5
330
9
100
AcDbSymbolTableRecord
100
AcDbRegAppTableRecord
  2
AcAecLayerStandard
 70
     0
  0
APPID
  5
1BA
330
9
100
AcDbSymbolTableRecord
100
AcDbRegAppTableRecord
  2
ACAD_EXEMPT_FROM_CAD_STANDARDS
 70
     0
  0
ENDTAB
  0
TABLE
  2
DIMSTYLE
  5
A
330
0
100
AcDbSymbolTable
 70
     1
100
AcDbDimStyleTable
  0
DIMSTYLE
105
27
102
{ACAD_REACTORS
330
3A92
330
3AA8
330
3AA9
330
3ABB
330
3CF8
330
3D0E
330
3D0F
102
}
330
A
100
AcDbSymbolTableRecord
100
AcDbDimStyleTableRecord
  2
ISO-25
 70
     0
 41
2.5
 42
0.625
 43
3.75
 44
1.25
 73
     0
 74
     0
 77
     1
 78
     8
140
2.5
141
2.5
143
0.03937007874016
147
0.625
171
     3
172
     1
178
     0
271
     2
272
     2
274
     3
278
    44
283
     0
284
     8
340
456
1001
ACAD_DSTYLE_DIMJAG
1070
   388
1040
1.5
1001
ACAD_DSTYLE_DIMTALN
1070
   392
1070
     0
  0
ENDTAB
  0
TABLE
  2
BLOCK_RECORD
  5
1
330
0
100
AcDbSymbolTable
 70
    11
  0
BLOCK_RECORD
  5
1F
102
{ACAD_XDICTIONARY
360
1CC
102
}
330
1
100
AcDbSymbolTableRecord
100
AcDbBlockTableRecord
  2
*Model_Space
340
22
  0
BLOCK_RECORD
  5
D2
330
1
100
AcDbSymbolTableRecord
100
AcDbBlockTableRecord
  2
*Paper_Space
340
D3
  0
BLOCK_RECORD
  5
D6
330
1
100
AcDbSymbolTableRecord
100
AcDbBlockTableRecord
  2
*Paper_Space0
340
D7
  0
BLOCK_RECORD
  5
3798
330
1
100
AcDbSymbolTableRecord
100
AcDbBlockTableRecord
  2
S 200
340
0
310
2800000020000000200000000100080000000000000400000000000000000000000000000000000000000000000080000080000000808000800000008000800080800000C0C0C000C0DCC000F0CAA6000020400000206000002080000020A0000020C0000020E00000400000004020000040400000406000004080000040A0
310
000040C0000040E00000600000006020000060400000606000006080000060A0000060C0000060E00000800000008020000080400000806000008080000080A0000080C0000080E00000A0000000A0200000A0400000A0600000A0800000A0A00000A0C00000A0E00000C0000000C0200000C0400000C0600000C0800000C0
310
A00000C0C00000C0E00000E0000000E0200000E0400000E0600000E0800000E0A00000E0C00000E0E00040000000400020004000400040006000400080004000A0004000C0004000E00040200000402020004020400040206000402080004020A0004020C0004020E000404000004040200040404000404060004040800040
310
40A0004040C0004040E00040600000406020004060400040606000406080004060A0004060C0004060E00040800000408020004080400040806000408080004080A0004080C0004080E00040A0000040A0200040A0400040A0600040A0800040A0A00040A0C00040A0E00040C0000040C0200040C0400040C0600040C08000
310
40C0A00040C0C00040C0E00040E0000040E0200040E0400040E0600040E0800040E0A00040E0C00040E0E00080000000800020008000400080006000800080008000A0008000C0008000E00080200000802020008020400080206000802080008020A0008020C0008020E00080400000804020008040400080406000804080
310
008040A0008040C0008040E00080600000806020008060400080606000806080008060A0008060C0008060E00080800000808020008080400080806000808080008080A0008080C0008080E00080A0000080A0200080A0400080A0600080A0800080A0A00080A0C00080A0E00080C0000080C0200080C0400080C0600080C0
310
800080C0A00080C0C00080C0E00080E0000080E0200080E0400080E0600080E0800080E0A00080E0C00080E0E000C0000000C0002000C0004000C0006000C0008000C000A000C000C000C000E000C0200000C0202000C0204000C0206000C0208000C020A000C020C000C020E000C0400000C0402000C0404000C0406000C0
310
408000C040A000C040C000C040E000C0600000C0602000C0604000C0606000C0608000C060A000C060C000C060E000C0800000C0802000C0804000C0806000C0808000C080A000C080C000C080E000C0A00000C0A02000C0A04000C0A06000C0A08000C0A0A000C0A0C000C0A0E000C0C00000C0C02000C0C04000C0C06000
310
C0C08000C0C0A000F0FBFF00A4A0A000808080000000FF0000FF000000FFFF00FF000000FF00FF00FFFF0000FFFFFF0000000000000000000000000000000000000000000000000000000000000000000000000000000000000000000000000000000000000000000000000000000000000000000000FF0000FFFFFFFFFFFF
310
FFFFFFFFFFFF0000000000000000000000000000000000FF0000FF00000000FFFF00000000FF0000000000000000000000000000000000FF0000FF00000000000000000000FF0000000000000000000000000000000000FFFFFFFFFFFF00000000FFFF0000FF0000000000000000000000000000000000FF0000FFFFFFFFFF
310
FFFFFFFFFFFFFF0000FFFFFF000000000000000000000000FF0000FFFFFFFFFFFFFFFFFFFF52FFFFFFFFFFFFFFFF00000000000000000000FF00FFFFFF00FFFFFFFFFF0000FFFF0000000000000000000000000000000000FF00FFFFFFFFFFFFFFFFFFFFFFFFFFFFFFFFFFFFFF0000000000000000000000FF00FFFFFFFF00
310
FFFFFFFFFFFFFFFFFFFFFFFFFFFFFF00000000000000000000FF00FFFFFF000000FFFFFFFFFFFFFF0000000000000000000000000000000000FF00FFFFFF00FFFFFFFFFFFFFFFFFFFFFFFFFFFFFFFFFFFF0000000000000000FF0000FFFF00FFFFFFFFFFFFFFFFFFFFFFFFFFFFFFFFFFFF0000000000000000FF0000FFFF00
310
FFFFFFFFFFFFFFFFFFFFFFFFFFFFFFFFFFFFFF00000000000000FF0000FFFF00FFFFFFFFFFFFFFFFFF0000000000000000000000000000000000FF0000FFFF00FFFFFFFFFFFFFFFFFF0000000000000000000000000000000000FF0000FFFF00FFFFFFFFFFFFFFFFFFFFFFFFFFFFFFFF0000000000FFFFFFFFFFFFFFFFFFFF
310
FF0000FFFF000000FFFFFFFFFFFFFFFFFFFFFF000000FFFFFFFFFFFFFF0052FF000000FFFF000000FFFF0000000000000000000000000000000000FF000052FF000000FFFF000000FFFFFF00000000000000000000000000000000FF000052FF000000FFFF000000FFFFFFFFFFFFFFFFFF00000000000000000000FF000052
310
FF000000FFFF000000FFFF0000000000000000000000000000000000FF0000FFFF000000FFFF000000FFFF0000000000000000000000000000000000FF0000FFFF000000FFFF000000FFFF0000000000000000000000000000000000FF000052FF000000FFFF000000FFFF0000000000000000000000000000000000FF0000
310
5252FFFF52FFFF52FFFFFFFFFF00000000000000000000000000000000FF000052525252FFFFFFFF52FFFFFFFFFFFFFFFFFFFF00000000000000000000FFFFFFFFFFFFFFFFFFFFFFFFFFFFFFFFFFFFFFFFFFFF000000000000000000000000000000000000FF00000000000000000000000000000000000000000000000000
310
0000000000000000000000000000000000000000000000000000000000000000000000000000000000000000000000000000000000000000
1001
ACAD
1000
DesignCenter Data
1002
{
1070
     1
1070
     4
1002
}
  0
BLOCK_RECORD
  5
3852
330
1
100
AcDbSymbolTableRecord
100
AcDbBlockTableRecord
  2
S 200_1
340
0
310
2800000020000000200000000100080000000000000400000000000000000000000000000000000000000000000080000080000000808000800000008000800080800000C0C0C000C0DCC000F0CAA6000020400000206000002080000020A0000020C0000020E00000400000004020000040400000406000004080000040A0
310
000040C0000040E00000600000006020000060400000606000006080000060A0000060C0000060E00000800000008020000080400000806000008080000080A0000080C0000080E00000A0000000A0200000A0400000A0600000A0800000A0A00000A0C00000A0E00000C0000000C0200000C0400000C0600000C0800000C0
310
A00000C0C00000C0E00000E0000000E0200000E0400000E0600000E0800000E0A00000E0C00000E0E00040000000400020004000400040006000400080004000A0004000C0004000E00040200000402020004020400040206000402080004020A0004020C0004020E000404000004040200040404000404060004040800040
310
40A0004040C0004040E00040600000406020004060400040606000406080004060A0004060C0004060E00040800000408020004080400040806000408080004080A0004080C0004080E00040A0000040A0200040A0400040A0600040A0800040A0A00040A0C00040A0E00040C0000040C0200040C0400040C0600040C08000
310
40C0A00040C0C00040C0E00040E0000040E0200040E0400040E0600040E0800040E0A00040E0C00040E0E00080000000800020008000400080006000800080008000A0008000C0008000E00080200000802020008020400080206000802080008020A0008020C0008020E00080400000804020008040400080406000804080
310
008040A0008040C0008040E00080600000806020008060400080606000806080008060A0008060C0008060E00080800000808020008080400080806000808080008080A0008080C0008080E00080A0000080A0200080A0400080A0600080A0800080A0A00080A0C00080A0E00080C0000080C0200080C0400080C0600080C0
310
800080C0A00080C0C00080C0E00080E0000080E0200080E0400080E0600080E0800080E0A00080E0C00080E0E000C0000000C0002000C0004000C0006000C0008000C000A000C000C000C000E000C0200000C0202000C0204000C0206000C0208000C020A000C020C000C020E000C0400000C0402000C0404000C0406000C0
310
408000C040A000C040C000C040E000C0600000C0602000C0604000C0606000C0608000C060A000C060C000C060E000C0800000C0802000C0804000C0806000C0808000C080A000C080C000C080E000C0A00000C0A02000C0A04000C0A06000C0A08000C0A0A000C0A0C000C0A0E000C0C00000C0C02000C0C04000C0C06000
310
C0C08000C0C0A000F0FBFF00A4A0A000808080000000FF0000FF000000FFFF00FF000000FF00FF00FFFF0000FFFFFF0000000000000000000000000000000000000000000000000000000000000000000000000000000000000000000000000000000000000000000000000000000000000000000000000000000000000000
310
00000000000000000000000000000000000000000000000000000000000000000000000000000000000000000000000000000000000000000000000000000000000000000000000000000000000000000000000000000000000000000000000000000000000000000000000000000000000000000000000000000000000000
310
0000000000000000000000000000000000000000000000000000000000000000000000000000000000000000000000000000000000000000000000000000000000000000FFFFFFFFFFFFFFFFFFFFFFFFFF0000000000000000000000000000000000FFFF00FFFFFFFF000000000000FFFF0000000000000000000000000000
310
0000FF000000FF000000FF000000000000FF000000000000000000000000000000FF00000000FF00000000FF0000000000FF0000000000000000000000000000FF0000000000FF0000000000FF00000000FF000000000000000000000000FFFFFF0000000000FF0000000000FF00000000FF000000000000000000000000FF
310
FF0000000000FFFF000000000000FF000000FF0000000000000000000000FFFFFFFFFFFFFFFFFFFFFFFFFFFFFFFFFFFF00FFFF000000000000000000000000FFFF0000000000FFFFFF0000000000FF0000FFFF000000000000000000000000FF00FF0000FFFF00FF000000000000FF000000FF000000000000000000000000
310
FFFFFF00FF000000FF0000000000FF00000000FF000000000000000000000000000000FF00000000FF0000000000FF00000000FF00000000FFFFFFFFFFFFFFFFFFFFFFFF00000000FF00000000FF0000000000FF0000FFFFFFFFFFFFFFFFFFFFFF000000FF000000FF0000FFFF000000000000FF000000FFFFFFFFFFFFFFFF
310
FFFFFF000000FFFFFFFFFFFFFFFFFFFFFFFFFFFFFF000000FF00000000000000000000000000000000FF00000000000000000000000000000000000000000000000000000000000000000000000000000000000000000000000000000000000000000000000000000000000000000000000000000000000000000000000000
310
00000000000000000000000000000000000000000000000000000000000000000000000000000000000000000000000000000000000000000000000000000000000000000000000000000000000000000000000000000000000000000000000000000000000000000000000000000000000000000000000000000000000000
310
0000000000000000000000000000000000000000000000000000000000000000000000000000000000000000000000000000000000000000
102
{BLKREFS
331
3ABC
102
}
1001
ACAD
1000
DesignCenter Data
1002
{
1070
     1
1070
     4
1002
}
  0
BLOCK_RECORD
  5
396A
330
1
100
AcDbSymbolTableRecord
100
AcDbBlockTableRecord
  2
*D6
340
0
  0
BLOCK_RECORD
  5
3976
330
1
100
AcDbSymbolTableRecord
100
AcDbBlockTableRecord
  2
*D7
340
0
  0
BLOCK_RECORD
  5
3982
330
1
100
AcDbSymbolTableRecord
100
AcDbBlockTableRecord
  2
*D8
340
0
  0
BLOCK_RECORD
  5
39AF
330
1
100
AcDbSymbolTableRecord
100
AcDbBlockTableRecord
  2
*D9
340
0
  0
BLOCK_RECORD
  5
3B97
330
1
100
AcDbSymbolTableRecord
100
AcDbBlockTableRecord
  2
*D10
340
0
  0
BLOCK_RECORD
  5
3BA3
330
1
100
AcDbSymbolTableRecord
100
AcDbBlockTableRecord
  2
*D11
340
0
  0
BLOCK_RECORD
  5
3BAF
330
1
100
AcDbSymbolTableRecord
100
AcDbBlockTableRecord
  2
*D12
340
0
  0
BLOCK_RECORD
  5
3C57
330
1
100
AcDbSymbolTableRecord
100
AcDbBlockTableRecord
  2
S 200 ZB
340
0
310
2800000020000000200000000100080000000000000400000000000000000000000000000000000000000000000080000080000000808000800000008000800080800000C0C0C000C0DCC000F0CAA6000020400000206000002080000020A0000020C0000020E00000400000004020000040400000406000004080000040A0
310
000040C0000040E00000600000006020000060400000606000006080000060A0000060C0000060E00000800000008020000080400000806000008080000080A0000080C0000080E00000A0000000A0200000A0400000A0600000A0800000A0A00000A0C00000A0E00000C0000000C0200000C0400000C0600000C0800000C0
310
A00000C0C00000C0E00000E0000000E0200000E0400000E0600000E0800000E0A00000E0C00000E0E00040000000400020004000400040006000400080004000A0004000C0004000E00040200000402020004020400040206000402080004020A0004020C0004020E000404000004040200040404000404060004040800040
310
40A0004040C0004040E00040600000406020004060400040606000406080004060A0004060C0004060E00040800000408020004080400040806000408080004080A0004080C0004080E00040A0000040A0200040A0400040A0600040A0800040A0A00040A0C00040A0E00040C0000040C0200040C0400040C0600040C08000
310
40C0A00040C0C00040C0E00040E0000040E0200040E0400040E0600040E0800040E0A00040E0C00040E0E00080000000800020008000400080006000800080008000A0008000C0008000E00080200000802020008020400080206000802080008020A0008020C0008020E00080400000804020008040400080406000804080
310
008040A0008040C0008040E00080600000806020008060400080606000806080008060A0008060C0008060E00080800000808020008080400080806000808080008080A0008080C0008080E00080A0000080A0200080A0400080A0600080A0800080A0A00080A0C00080A0E00080C0000080C0200080C0400080C0600080C0
310
800080C0A00080C0C00080C0E00080E0000080E0200080E0400080E0600080E0800080E0A00080E0C00080E0E000C0000000C0002000C0004000C0006000C0008000C000A000C000C000C000E000C0200000C0202000C0204000C0206000C0208000C020A000C020C000C020E000C0400000C0402000C0404000C0406000C0
310
408000C040A000C040C000C040E000C0600000C0602000C0604000C0606000C0608000C060A000C060C000C060E000C0800000C0802000C0804000C0806000C0808000C080A000C080C000C080E000C0A00000C0A02000C0A04000C0A06000C0A08000C0A0A000C0A0C000C0A0E000C0C00000C0C02000C0C04000C0C06000
310
C0C08000C0C0A000F0FBFF00A4A0A000808080000000FF0000FF000000FFFF00FF000000FF00FF00FFFF0000FFFFFF00000000000000000000000000000000000000000000000000000000000000000000000000000000FF0000FFFFFFFFFFFFFFFFFFFF00000000000000000000000000000000000000FF0000FF000000FF
310
FF000000FF00000000000000000000000000000000000000FF0000FF0000000000000000FF00000000000000000000000000000000000000FFFFFFFFFFFFFFFFFFFFFFFFFF00000000000000000000000000000000000000FF0000FFFFFFFFFFFF52FFFFFFFFFFFFFFFFFFFF000000000000000000000000FF0000FFFFFFFF
310
FFFFFFFFFFFF00FFFFFFFFFFFF000000000000000000000000FF00FFFFFFFFFFFFFFFFFFFFFFFF000000000000000000000000000000000000FF00FFFFFF00FFFFFFFFFFFFFFFFFFFFFFFFFFFF000000000000000000000000FF00FFFFFF000000FFFFFFFFFF00000000000000000000000000000000000000FF00FFFFFFFF
310
FFFFFFFFFFFFFFFF000000000000000000000000000000000000FF0000FFFFFFFFFFFFFFFFFFFFFFFFFFFFFFFFFFFFFF00000000000000000000FF0000FFFFFFFFFFFFFFFFFFFFFFFFFFFFFFFFFFFFFF00000000000000000000FF0000FFFFFFFFFFFFFFFFFFFF00000000000000000000000000000000000000FF0000FFFF
310
FFFFFFFFFFFFFFFFFF0000000000000000000000000000FFFFFFFFFFFFFFFFFF000000FFFFFFFFFFFFFFFFFFFFFFFFFF00000000000000FFFFFFFFFFFFFFFFFF0000FFFF000000FF00000000000000000000000000000000000000FF000052FF0000FFFF0000FFFFFF000000000000000000000000000000000000FF000052
310
FF0000FFFF000000FFFFFFFFFFFFFFFF000000000000000000000000FF000052FF0000FFFF000000FF00000000000000000000000000000000000000FF000052FF0000FFFF000000FF00000000000000000000000000000000000000FF000052FF0000FFFF000000FF00000000000000000000000000000000000000FF0000
310
52FF0000FFFF000000FF00000000000000000000000000000000000000FF000052FF0000FFFF000000FF00000000000000000000000000000000000000FF0000FFFF0000FFFF000000FF00000000000000000000000000000000000000FF00FFFFFF0000FFFF000000FF00000000000000000000000000000000000000FF00
310
0052FF0000FFFF000000FF00000000000000000000000000000000000000FF000052FFFF52FFFF52FFFFFFFF000000000000000000000000000000000000FF0000525252FFFFFFFF52FFFFFFFFFFFFFFFFFF000000000000000000000000FFFFFFFFFFFFFFFFFFFFFFFFFF0000000000000000000000000000000000000000
310
00000000000000FF000000000000000000000000000000000000000000000000000000000000000000000000000000000000000000000000
102
{BLKREFS
331
3D10
102
}
1001
ACAD
1000
DesignCenter Data
1002
{
1070
     1
1070
     4
1002
}
  0
ENDTAB
  0
ENDSEC
  0
SECTION
  2
BLOCKS
  0
BLOCK
  5
20
330
1F
100
AcDbEntity
  8
0
100
AcDbBlockBegin
  2
*Model_Space
 70
     0
 10
0.0
 20
0.0
 30
0.0
  3
*Model_Space
  1

  0
ENDBLK
  5
21
330
1F
100
AcDbEntity
  8
0
100
AcDbBlockEnd
  0
BLOCK
  5
D4
330
D2
100
AcDbEntity
 67
     1
  8
0
100
AcDbBlockBegin
  2
*Paper_Space
 70
     0
 10
0.0
 20
0.0
 30
0.0
  3
*Paper_Space
  1

  0
ENDBLK
  5
D5
330
D2
100
AcDbEntity
 67
     1
  8
0
100
AcDbBlockEnd
  0
BLOCK
  5
D8
330
D6
100
AcDbEntity
  8
0
100
AcDbBlockBegin
  2
*Paper_Space0
 70
     0
 10
0.0
 20
0.0
 30
0.0
  3
*Paper_Space0
  1

  0
ENDBLK
  5
D9
330
D6
100
AcDbEntity
  8
0
100
AcDbBlockEnd
  0
BLOCK
  5
3799
330
3798
100
AcDbEntity
  8
0
 48
0.13
100
AcDbBlockBegin
  2
S 200
 70
     0
 10
0.0
 20
0.0
 30
0.0
  3
S 200
  1

  0
LWPOLYLINE
  5
39F4
330
3798
100
AcDbEntity
  8
0
 48
0.13
100
AcDbPolyline
 90
        4
 70
     0
 43
0.0
 10
23039.41346369152
 20
1364.77854220931
 10
23039.41346369152
 20
1851.571742530414
 10
23579.39173141222
 20
1851.571742530414
 10
23579.39173141222
 20
1801.551236042668
  0
HATCH
  5
39F5
330
3798
100
AcDbEntity
  8
Trazo
 48
0.13
100
AcDbHatch
 10
0.0
 20
0.0
 30
0.0
210
0.0
220
0.0
230
1.0
  2
ANSI37
 70
     0
 71
     0
 91
       12
 92
        7
 72
     1
 73
     1
 93
        8
 10
23579.39173141222
 20
1851.571742530414
 42
0.0
 10
23351.80067793469
 20
1851.571742530414
 42
0.0
 10
23351.80067793469
 20
1818.708169739474
 42
0.0
 10
23323.4052329577
 20
1818.708169739473
 42
0.0
 10
23323.4052329577
 20
1799.238510620398
 42
-0.0743918666408897
 10
23456.17969406901
 20
1769.177435161133
 42
-0.2289774189952612
 10
23507.06374892424
 20
1801.551236042668
 42
0.0
 10
23579.39173141221
 20
1801.551236042668
 42
0.0
 97
        0
 92
        7
 72
     1
 73
     1
 93
        9
 10
23288.7542716365
 20
1818.708169739473
 42
0.0
 10
23258.45924740864
 20
1818.708169739474
 42
0.0
 10
23258.45924740864
 20
1851.571742530414
 42
0.0
 10
23039.41346369152
 20
1851.571742530414
 42
0.0
 10
23039.41346369152
 20
1637.966758053128
 42
0.0
 10
23082.93633815111
 20
1637.966758053128
 42
0.0
 10
23082.93633815111
 20
1708.887478321964
 42
-0.2688663451281736
 10
23100.69884464489
 20
1739.918079841622
 42
-0.1170713385019382
 10
23288.7542716365
 20
1799.375656730401
 42
0.0
 97
        0
 92
        7
 72
     0
 73
     1
 93
       10
 10
23082.93633815111
 20
1637.966758053128
 10
23079.01316660941
 20
1637.966758053128
 10
23079.01316660941
 20
1629.150612104926
 10
23039.41346369152
 20
1629.150612104926
 10
23039.41346369152
 20
1364.77854220931
 10
23046.41870502024
 20
1364.77854220931
 10
23046.41870502024
 20
1368.762269736136
 10
23059.66376665722
 20
1368.762269736136
 10
23059.66376665722
 20
1373.970905647007
 10
23082.93633815111
 20
1373.970905647007
 97
        0
 92
        7
 72
     0
 73
     1
 93
       10
 10
23082.93633815111
 20
1316.819388977144
 10
23059.66376665722
 20
1316.819388977144
 10
23059.66376665722
 20
1320.07228244404
 10
23046.41870502024
 20
1320.07228244404
 10
23046.41870502024
 20
1322.949417409836
 10
23039.41346369152
 20
1322.949417409836
 10
23039.41346369152
 20
1063.671472441978
 10
23071.84851640358
 20
1063.671472441978
 10
23071.84851640358
 20
1026.02887332181
 10
23082.93633815111
 20
1026.02887332181
 97
        0
 92
        7
 72
     1
 73
     1
 93
        9
 10
23089.623439654
 20
807.2936011856241
 42
-0.2238027544372029
 10
23098.16081934316
 20
811.0618008552099
 42
-0.1061959415747009
 10
23085.23402884989
 20
834.5111078910518
 42
0.0
 10
23085.23402884989
 20
901.3309909888585
 42
0.0
 10
23073.03768254039
 20
901.3309909888586
 42
0.0
 10
23073.03768254039
 20
867.0880904616679
 42
0.0
 10
23039.41346369152
 20
867.088090461668
 42
0.0
 10
23039.41346369152
 20
734.9666009548928
 42
0.0
 10
23089.623439654
 20
734.9666009548928
 42
0.0
 97
        0
 92
        7
 72
     1
 73
     1
 93
        4
 10
23131.95493872782
 20
790.6459094525303
 42
0.0
 10
23131.95493872782
 20
734.9666009548929
 42
0.0
 10
23305.12996267166
 20
734.9666009548929
 42
0.0
 10
23305.12996267166
 20
753.4493396966805
 42
-0.1038167709449102
 97
        0
 92
        7
 72
     1
 73
     1
 93
        6
 10
23579.39173141222
 20
750.6329743854923
 42
0.0
 10
23496.38117173018
 20
750.6329743854922
 42
-0.2012517474878766
 10
23455.32398025797
 20
779.7074518402213
 42
-0.0891165302253027
 10
23305.12996267166
 20
753.4493396966807
 42
0.0
 10
23305.12996267166
 20
734.9666009548928
 42
0.0
 10
23579.39173141222
 20
734.9666009548927
 42
0.0
 97
        0
 92
        7
 72
     1
 73
     1
 93
        7
 10
23579.39173141222
 20
891.5032728948963
 42
0.0
 10
23535.3122121602
 20
891.5032728948964
 42
0.0
 10
23535.3122121602
 20
835.2324469841719
 42
-0.1985438529787948
 10
23507.87803153592
 20
803.0236534755868
 42
-0.0171990602136219
 10
23481.17736094358
 20
790.1289363672294
 42
0.2467858432657655
 10
23505.25564504517
 20
776.5956032551785
 42
0.0
 10
23579.39173141222
 20
776.5956032551785
 42
0.0
 97
        0
 92
        7
 72
     0
 73
     1
 93
        4
 10
23579.39173141222
 20
1066.448946091406
 10
23535.3122121602
 20
1066.448946091406
 10
23535.3122121602
 20
926.2930498037302
 10
23579.39173141221
 20
926.2930498037304
 97
        0
 92
        7
 72
     0
 73
     1
 93
        4
 10
23579.39173141222
 20
1293.536769552019
 10
23535.31221216021
 20
1293.536769552019
 10
23535.3122121602
 20
1090.272067133471
 10
23579.39173141222
 20
1090.272067133471
 97
        0
 92
        7
 72
     0
 73
     1
 93
        4
 10
23579.39173141222
 20
1462.113870898988
 10
23535.31221216021
 20
1462.113870898987
 10
23535.31221216021
 20
1327.037204828478
 10
23579.39173141222
 20
1327.037204828478
 97
        0
 92
        7
 72
     1
 73
     1
 93
        7
 10
23579.39173141222
 20
1773.472741187351
 42
0.0
 10
23513.01353160729
 20
1773.472741187351
 42
0.2452400133126935
 10
23484.20185106635
 20
1757.18764298879
 42
-0.0210021505776403
 10
23518.47572701514
 20
1739.369121931037
 42
-0.252531924391854
 10
23535.3122121602
 20
1710.001567523759
 42
0.0
 10
23535.31221216021
 20
1490.280674752013
 42
0.0
 10
23579.39173141222
 20
1490.280674752013
 42
0.0
 97
        0
 75
     0
 76
     1
 52
0.0
 41
5.0
 77
     0
 78
     2
 53
45.0
 43
23039.41346369152
 44
734.9666009548927
 45
-11.22532015133644
 46
11.22532015133644
 79
     0
 53
135.0
 43
23039.41346369152
 44
734.9666009548927
 45
-11.22532015133644
 46
-11.22532015133644
 79
     0
 47
2.27679627691486
 98
       12
 10
23425.43183869173
 20
1808.347482670737
 10
23147.37482851671
 20
1808.347482670737
 10
23060.76690538126
 20
1537.408726455438
 10
23065.32521557344
 20
1261.916364655905
 10
23067.60437066952
 20
786.0659490500457
 10
23170.16637947757
 20
754.1907888804017
 10
23450.50254474868
 20
747.3604068107179
 10
23557.62289323306
 20
811.1107008433355
 10
23546.22711775263
 20
993.254411232725
 10
23555.34373813698
 20
1195.889280984502
 10
23548.50627284872
 20
1368.925793358754
 10
23555.34373813698
 20
1580.667847972334
1001
ACAD
1010
0.0
1020
0.0
1030
0.0
  0
LWPOLYLINE
  5
39F6
330
3798
100
AcDbEntity
  8
0
 48
0.13
100
AcDbPolyline
 90
        2
 70
     0
 43
0.0
 10
23579.39173141222
 20
1773.472741187351
 10
23579.39173141222
 20
1490.280674752012
  0
LWPOLYLINE
  5
39F7
330
3798
100
AcDbEntity
  8
0
 48
0.13
100
AcDbPolyline
 90
        2
 70
     0
 43
0.0
 10
23579.39173141222
 20
1462.113870898988
 10
23579.39173141222
 20
1327.037204828478
  0
LWPOLYLINE
  5
39F8
330
3798
100
AcDbEntity
  8
0
 48
0.13
100
AcDbPolyline
 90
        2
 70
     0
 43
0.0
 10
23579.39173141222
 20
1293.536769552019
 10
23579.39173141222
 20
1090.272067133471
  0
LWPOLYLINE
  5
39F9
330
3798
100
AcDbEntity
  8
0
 48
0.13
100
AcDbPolyline
 90
        2
 70
     0
 43
0.0
 10
23579.39173141222
 20
1066.448946091406
 10
23579.39173141222
 20
926.2930498037304
  0
LWPOLYLINE
  5
39FA
330
3798
100
AcDbEntity
  8
0
 48
0.13
100
AcDbPolyline
 90
        2
 70
     0
 43
0.0
 10
23579.39173141222
 20
891.5032728948966
 10
23579.39173141222
 20
776.5956032551785
  0
LWPOLYLINE
  5
39FB
330
3798
100
AcDbEntity
  8
0
 48
0.13
100
AcDbPolyline
 90
        3
 70
     0
 43
0.0
 10
23579.39173141222
 20
750.6329743854922
 10
23579.39173141222
 20
734.9666009548928
 10
23131.95493872782
 20
734.9666009548928
  0
LWPOLYLINE
  5
39FC
330
3798
100
AcDbEntity
  8
0
 48
0.13
100
AcDbPolyline
 90
        3
 70
     0
 43
0.0
 10
23089.623439654
 20
734.9666009548928
 10
23039.41346369152
 20
734.9666009548928
 10
23039.41346369152
 20
1322.949417409836
  0
ARC
  5
39FD
330
3798
100
AcDbEntity
  8
0
 48
0.13
100
AcDbCircle
 10
23309.40259755187
 20
704.2461475230643
 30
0.0
 40
1178.664563547081
100
AcDbArc
 50
76.75805246864911
 51
103.2419475313512
  0
LWPOLYLINE
  5
39FE
330
3798
100
AcDbEntity
  8
0
 48
0.13
100
AcDbPolyline
 90
        4
 70
     1
 43
0.0
 10
23258.45924740864
 20
1851.571742530414
 10
23351.80067793469
 20
1851.571742530414
 10
23351.80067793469
 20
1818.708169739473
 10
23258.45924740864
 20
1818.708169739473
  0
LINE
  5
39FF
330
3798
100
AcDbEntity
  8
0
 48
0.13
100
AcDbLine
 10
23258.45924740864
 20
1826.614892444674
 30
0.0
 11
23288.7542716365
 21
1826.614892444674
 31
0.0
  0
LINE
  5
3A00
330
3798
100
AcDbEntity
  8
0
 48
0.13
100
AcDbLine
 10
23322.87029163557
 20
1826.614892444674
 30
0.0
 11
23351.80067793469
 21
1826.614892444674
 31
0.0
  0
LWPOLYLINE
  5
3A01
330
3798
100
AcDbEntity
  8
0
 48
0.13
100
AcDbPolyline
 90
        4
 70
     1
 43
0.0
 10
23288.7542716365
 20
1835.339553821817
 10
23322.87029163557
 20
1835.339553821817
 10
23322.87029163557
 20
1818.708169739473
 10
23288.7542716365
 20
1818.708169739473
  0
LWPOLYLINE
  5
3A02
330
3798
100
AcDbEntity
  8
0
 48
0.13
100
AcDbPolyline
 90
        4
 70
     1
 43
0.0
 10
23288.7542716365
 20
1818.708169739473
 10
23323.4052329577
 20
1818.708169739473
 10
23323.4052329577
 20
1799.375656730401
 10
23288.7542716365
 20
1799.375656730401
  0
ARC
  5
3A03
330
3798
100
AcDbEntity
  8
0
 48
0.13
100
AcDbCircle
 10
23319.95505135853
 20
1373.567865476175
 30
0.0
 40
426.9493690685879
100
AcDbArc
 50
94.19082009580318
 51
121.0431689534537
  0
LINE
  5
3A04
330
3798
100
AcDbEntity
  8
0
 48
0.13
100
AcDbLine
 10
23082.93633815111
 20
1708.887478321964
 30
0.0
 11
23082.93633815111
 21
1374.492921334551
 31
0.0
  0
ARC
  5
3A05
330
3798
100
AcDbEntity
  8
0
 48
0.13
100
AcDbCircle
 10
23118.58500523278
 20
1709.080602302172
 30
0.0
 40
35.64919019517852
100
AcDbArc
 50
121.8288614250842
 51
180.3103925517418
  0
LINE
  5
3A06
330
3798
100
AcDbEntity
  8
0
 48
0.13
100
AcDbLine
 10
23029.67191200142
 20
1661.087967658801
 30
0.0
 11
23029.67191200142
 21
1609.00172240768
 31
0.0
  0
LINE
  5
3A07
330
3798
100
AcDbEntity
  8
0
 48
0.13
100
AcDbLine
 10
23029.67191200142
 20
1609.00172240768
 30
0.0
 11
23039.41346369152
 21
1609.00172240768
 31
0.0
  0
LINE
  5
3A08
330
3798
100
AcDbEntity
  8
0
 48
0.13
100
AcDbLine
 10
23029.67191200142
 20
1661.087967658801
 30
0.0
 11
23039.41346369152
 21
1667.439950782966
 31
0.0
  0
LINE
  5
3A09
330
3798
100
AcDbEntity
  8
0
  6
ACAD_ISO04W100
 48
3.0
100
AcDbLine
 10
23098.34440605661
 20
1637.966758053128
 30
0.0
 11
23009.07016298729
 21
1637.966758053128
 31
0.0
  0
LINE
  5
3A0A
330
3798
100
AcDbEntity
  8
0
 48
0.13
100
AcDbLine
 10
23039.41346369152
 20
1629.150612104926
 30
0.0
 11
23079.01316660941
 21
1629.150612104926
 31
0.0
  0
LINE
  5
3A0B
330
3798
100
AcDbEntity
  8
0
 48
0.13
100
AcDbLine
 10
23079.01316660941
 20
1629.150612104926
 30
0.0
 11
23079.01316660941
 21
1637.966758053128
 31
0.0
  0
LWPOLYLINE
  5
3A0C
330
3798
100
AcDbEntity
  8
0
 48
0.13
100
AcDbPolyline
 90
        4
 70
     1
 43
0.0
 10
23059.66376665722
 20
1373.970905647007
 10
23103.59909274391
 20
1373.970905647007
 10
23103.59909274391
 20
1316.819388977144
 10
23059.66376665722
 20
1316.819388977144
  0
LWPOLYLINE
  5
3A0D
330
3798
100
AcDbEntity
  8
0
 48
0.13
100
AcDbPolyline
 90
        4
 70
     1
 43
0.0
 10
23059.66376665722
 20
1368.762269736136
 10
23046.41870502024
 20
1368.762269736136
 10
23046.41870502024
 20
1320.07228244404
 10
23059.66376665722
 20
1320.07228244404
  0
LWPOLYLINE
  5
3A0E
330
3798
100
AcDbEntity
  8
0
 48
0.13
100
AcDbPolyline
 90
        4
 70
     1
 43
0.0
 10
23046.41870502024
 20
1364.77854220931
 10
23034.01204937566
 20
1364.77854220931
 10
23034.01204937566
 20
1322.949417409836
 10
23046.41870502024
 20
1322.949417409836
  0
LWPOLYLINE
  5
3A0F
330
3798
100
AcDbEntity
  8
0
 48
0.13
100
AcDbPolyline
 90
        4
 70
     1
 43
0.0
 10
23024.70705963613
 20
1374.959178826971
 10
23034.01204937566
 20
1374.959178826971
 10
23034.01204937566
 20
1311.219556188003
 10
23024.70705963613
 20
1311.219556188003
  0
LWPOLYLINE
  5
3A10
330
3798
100
AcDbEntity
  8
0
 48
0.13
100
AcDbPolyline
 90
        4
 70
     1
 43
0.0
 10
23015.4020698966
 20
1374.959178826971
 10
23024.70705963613
 20
1374.959178826971
 10
23024.70705963613
 20
1311.219556188003
 10
23015.4020698966
 20
1311.219556188003
  0
LINE
  5
3A11
330
3798
100
AcDbEntity
  8
0
  6
ACAD_ISO04W100
 48
3.0
100
AcDbLine
 10
23114.10991768279
 20
1345.395147312076
 30
0.0
 11
22963.44606147378
 21
1345.395147312076
 31
0.0
  0
LWPOLYLINE
  5
3A12
330
3798
100
AcDbEntity
  8
0
 48
0.13
100
AcDbPolyline
 90
        6
 70
     1
 43
0.0
 10
22994.03054440278
 20
1063.671472441978
 10
23000.64396782043
 20
1063.671472441978
 10
23000.64396782043
 20
864.6521251806321
 10
22994.03054440278
 20
864.6521251806321
 42
-0.414213562373095
 10
22990.03054440278
 20
868.6521251806321
 10
22990.03054440278
 20
1059.671472441978
 42
-0.414213562373095
  0
HATCH
  5
3A13
330
3798
100
AcDbEntity
  8
Trazo
 48
0.13
100
AcDbHatch
 10
0.0
 20
0.0
 30
0.0
210
0.0
220
0.0
230
1.0
  2
ANSI37
 70
     0
 71
     0
 91
        2
 92
        7
 72
     0
 73
     1
 93
        4
 10
23023.90393782206
 20
1063.671472441978
 10
23000.64396782043
 20
1063.671472441978
 10
23000.64396782043
 20
963.6799321553343
 10
23023.90393782206
 20
963.6799321553342
 97
        0
 92
        7
 72
     0
 73
     1
 93
        4
 10
23023.90393782206
 20
963.6799321553343
 10
23000.64396782043
 20
963.6799321553343
 10
23000.64396782043
 20
864.6521251806323
 10
23023.90393782206
 20
864.6521251806323
 97
        0
 75
     0
 76
     1
 52
0.0
 41
2.0
 77
     0
 78
     2
 53
45.0
 43
23000.64396782043
 44
864.6521251806323
 45
-4.490128060534576
 46
4.490128060534577
 79
     0
 53
135.0
 43
23000.64396782043
 44
864.6521251806323
 45
-4.490128060534577
 46
-4.490128060534576
 79
     0
 47
1.210842403987217
 98
        2
 10
23012.0057647602
 20
995.5384220523083
 10
23014.42995244212
 20
938.6288223038482
1001
ACAD
1010
0.0
1020
0.0
1030
0.0
  0
LWPOLYLINE
  5
3A14
330
3798
100
AcDbEntity
  8
0
 48
0.13
100
AcDbPolyline
 90
        4
 70
     1
 43
0.0
 10
23000.64396782043
 20
864.6521251806321
 10
23023.90393782206
 20
864.6521251806321
 10
23023.90393782206
 20
1063.671472441978
 10
23000.64396782043
 20
1063.671472441978
  0
LINE
  5
3A15
330
3798
100
AcDbEntity
  8
0
 48
0.13
100
AcDbLine
 10
23023.90393782206
 20
864.6521251806321
 30
0.0
 11
23039.41346369152
 21
864.6521251806321
 31
0.0
  0
LINE
  5
3A16
330
3798
100
AcDbEntity
  8
0
 48
0.13
100
AcDbLine
 10
23023.90393782206
 20
886.0175796356348
 30
0.0
 11
23039.41346369152
 21
886.0175796356348
 31
0.0
  0
LINE
  5
3A17
330
3798
100
AcDbEntity
  8
0
 48
0.13
100
AcDbLine
 10
23023.90393782206
 20
1063.671472441978
 30
0.0
 11
23039.41346369152
 21
1063.671472441978
 31
0.0
  0
LINE
  5
3A18
330
3798
100
AcDbEntity
  8
0
 48
0.13
100
AcDbLine
 10
23023.90393782206
 20
1044.778745036375
 30
0.0
 11
23039.41346369152
 21
1044.778745036375
 31
0.0
  0
LINE
  5
3A19
330
3798
100
AcDbEntity
  8
0
 48
0.13
100
AcDbLine
 10
23039.41346369152
 20
1063.671472441978
 30
0.0
 11
23071.84851640358
 21
1063.671472441978
 31
0.0
  0
LINE
  5
3A1A
330
3798
100
AcDbEntity
  8
0
 48
0.13
100
AcDbLine
 10
23071.84851640358
 20
1063.671472441978
 30
0.0
 11
23071.84851640358
 21
1026.02887332181
 31
0.0
  0
LINE
  5
3A1B
330
3798
100
AcDbEntity
  8
0
 48
0.13
100
AcDbLine
 10
23092.88827893258
 20
1026.02887332181
 30
0.0
 11
23039.41346369152
 21
1026.02887332181
 31
0.0
  0
LINE
  5
3A1C
330
3798
100
AcDbEntity
  8
0
 48
0.13
100
AcDbLine
 10
23082.93633815111
 20
1316.819388977144
 30
0.0
 11
23082.93633815111
 21
1026.02887332181
 31
0.0
  0
LINE
  5
3A1D
330
3798
100
AcDbEntity
  8
0
 48
0.13
100
AcDbLine
 10
23092.88827893258
 20
1026.02887332181
 30
0.0
 11
23092.88827893258
 21
901.3309909888585
 31
0.0
  0
LINE
  5
3A1E
330
3798
100
AcDbEntity
  8
0
 48
0.13
100
AcDbLine
 10
23092.88827893258
 20
901.3309909888585
 30
0.0
 11
23039.41346369152
 21
901.3309909888585
 31
0.0
  0
LINE
  5
3A1F
330
3798
100
AcDbEntity
  8
0
 48
0.13
100
AcDbLine
 10
23057.35594691087
 20
1016.470713921867
 30
0.0
 11
23057.35594691087
 21
913.399247633045
 31
0.0
  0
LINE
  5
3A20
330
3798
100
AcDbEntity
  8
0
 48
0.13
100
AcDbLine
 10
23057.35594691087
 20
913.399247633045
 30
0.0
 11
23039.41346369152
 21
905.6303780011585
 31
0.0
  0
LINE
  5
3A21
330
3798
100
AcDbEntity
  8
0
 48
0.13
100
AcDbLine
 10
23057.35594691087
 20
1016.470713921867
 30
0.0
 11
23039.41346369152
 21
1024.239583553753
 31
0.0
  0
LINE
  5
3A22
330
3798
100
AcDbEntity
  8
0
  6
ACAD_ISO04W100
 48
3.0
100
AcDbLine
 10
23108.77405505357
 20
963.6799321553343
 30
0.0
 11
22972.80203142757
 21
963.6799321553343
 31
0.0
  0
LINE
  5
3A23
330
3798
100
AcDbEntity
  8
0
 48
0.13
100
AcDbLine
 10
23085.23402884989
 20
901.3309909888585
 30
0.0
 11
23085.23402884989
 21
834.5111078910518
 31
0.0
  0
LWPOLYLINE
  5
3A24
330
3798
100
AcDbEntity
  8
0
 48
0.13
100
AcDbPolyline
 90
        4
 70
     1
 43
0.0
 10
23039.41346369152
 20
901.3309909888585
 10
23073.03768254039
 20
901.3309909888585
 10
23073.03768254039
 20
867.0880904616679
 10
23039.41346369152
 20
867.0880904616679
  0
ARC
  5
3A25
330
3798
100
AcDbEntity
  8
0
 48
0.13
100
AcDbCircle
 10
23146.27779530174
 20
852.8747219085576
 30
0.0
 40
63.7460880557509
100
AcDbArc
 50
196.742706298279
 51
256.5213477486282
  0
LINE
  5
3A26
330
3798
100
AcDbEntity
  8
0
 48
0.13
100
AcDbLine
 10
23089.623439654
 20
807.2936011856241
 30
0.0
 11
23089.623439654
 21
711.0693031277892
 31
0.0
  0
LINE
  5
3A27
330
3798
100
AcDbEntity
  8
0
 48
0.13
100
AcDbLine
 10
23089.623439654
 20
711.0693031277892
 30
0.0
 11
23099.17653522977
 21
711.0693031277892
 31
0.0
  0
LINE
  5
3A28
330
3798
100
AcDbEntity
  8
0
 48
0.13
100
AcDbLine
 10
23123.22026222065
 20
711.0693031277892
 30
0.0
 11
23131.95493872782
 21
711.0693031277892
 31
0.0
  0
LINE
  5
3A29
330
3798
100
AcDbEntity
  8
0
 48
0.13
100
AcDbLine
 10
23131.95493872782
 20
711.0693031277892
 30
0.0
 11
23131.95493872782
 21
790.6512723982507
 31
0.0
  0
ARC
  5
3A2A
330
3798
100
AcDbEntity
  8
0
 48
0.13
100
AcDbCircle
 10
23307.14968558115
 20
1184.573836612521
 30
0.0
 40
431.1292278674314
100
AcDbArc
 50
245.9455858737546
 51
297.7482456476414
  0
ARC
  5
3A2B
330
3798
100
AcDbEntity
  8
0
 48
0.13
100
AcDbCircle
 10
23097.89058265227
 20
800.118650084789
 30
0.0
 40
10.94648695487585
100
AcDbArc
 50
88.58539136023214
 51
139.0456915633046
  0
LINE
  5
3A2C
330
3798
100
AcDbEntity
  8
0
 48
0.13
100
AcDbLine
 10
23089.623439654
 20
728.2683306543831
 30
0.0
 11
23131.95493872782
 21
728.2683306543814
 31
0.0
  0
ARC
  5
3A2D
330
3798
100
AcDbEntity
  8
0
 48
0.13
100
AcDbCircle
 10
23111.19839872521
 20
708.9613874191332
 30
0.0
 40
12.2052656889471
100
AcDbArc
 50
9.945156118243057
 51
170.054843881754
  0
LINE
  5
3A2E
330
3798
100
AcDbEntity
  8
0
 48
0.13
100
AcDbLine
 10
23111.19839872521
 20
708.9613874191332
 30
0.0
 11
23111.19839872521
 21
742.1433470901138
 31
0.0
  0
LWPOLYLINE
  5
3A2F
330
3798
100
AcDbEntity
  8
0
 48
0.13
100
AcDbPolyline
 90
        4
 70
     1
 43
0.0
 10
23288.7542716365
 20
1799.375656730401
 10
23319.39934617787
 20
1799.375656730401
 10
23319.39934617787
 20
1375.151000396466
 10
23288.7542716365
 20
1375.151000396466
  0
LINE
  5
3A30
330
3798
100
AcDbEntity
  8
0
  6
ACAD_ISO04W100
 48
3.0
100
AcDbLine
 10
23305.12996267166
 20
734.9666009548928
 30
0.0
 11
23305.12996267166
 21
1908.189530413482
 31
0.0
  0
LWPOLYLINE
  5
3A31
330
3798
100
AcDbEntity
  8
0
 48
0.13
100
AcDbPolyline
 90
        4
 70
     1
 43
0.0
 10
23369.05125947262
 20
734.9666009548928
 10
23445.66877108099
 20
734.9666009548928
 10
23445.66877108099
 20
711.300074666146
 10
23369.05125947262
 20
711.300074666146
  0
LINE
  5
3A32
330
3798
100
AcDbEntity
  8
0
 48
0.13
100
AcDbLine
 10
23505.25564504517
 20
776.5956032551785
 30
0.0
 11
23608.26295450273
 21
776.5956032551785
 31
0.0
  0
LINE
  5
3A33
330
3798
100
AcDbEntity
  8
0
 48
0.13
100
AcDbLine
 10
23608.26295450273
 20
776.5956032551785
 30
0.0
 11
23608.26295450273
 21
750.6329743854922
 31
0.0
  0
LINE
  5
3A34
330
3798
100
AcDbEntity
  8
0
 48
0.13
100
AcDbLine
 10
23608.26295450273
 20
750.6329743854922
 30
0.0
 11
23496.38117173018
 21
750.6329743854922
 31
0.0
  0
LINE
  5
3A35
330
3798
100
AcDbEntity
  8
0
 48
0.13
100
AcDbLine
 10
23592.09873325653
 20
750.6329743854922
 30
0.0
 11
23592.09873325653
 21
776.5956032551785
 31
0.0
  0
LINE
  5
3A36
330
3798
100
AcDbEntity
  8
0
  6
ACAD_ISO04W100
 48
3.0
100
AcDbLine
 10
23608.26295450273
 20
763.6142888203353
 30
0.0
 11
23504.30480662466
 21
763.6142888203353
 31
0.0
  0
ARC
  5
3A37
330
3798
100
AcDbEntity
  8
0
 48
0.13
100
AcDbCircle
 10
23506.09113646305
 20
806.2686063209168
 30
0.0
 40
29.68476304181435
100
AcDbArc
 50
212.448475586782
 51
268.3871707366627
  0
ARC
  5
3A38
330
3798
100
AcDbEntity
  8
0
  6
ACAD_ISO04W100
 48
3.0
100
AcDbCircle
 10
23504.97474352921
 20
806.0407497742463
 30
0.0
 40
42.43174995837589
100
AcDbArc
 50
209.7387128849812
 51
269.0953436487407
  0
ARC
  5
3A39
330
3798
100
AcDbEntity
  8
0
 48
0.13
100
AcDbCircle
 10
23510.50680333265
 20
814.1067846944566
 30
0.0
 40
65.02659504623374
100
AcDbArc
 50
211.5691790612968
 51
257.4536968598534
  0
LINE
  5
3A3A
330
3798
100
AcDbEntity
  8
0
 48
0.13
100
AcDbLine
 10
23437.84260633647
 20
793.3324479273697
 30
0.0
 11
23474.06362586152
 21
809.7232722769354
 31
0.0
  0
LINE
  5
3A3B
330
3798
100
AcDbEntity
  8
0
 48
0.13
100
AcDbLine
 10
23488.94150107944
 20
793.8508198766499
 30
0.0
 11
23488.94150107944
 21
805.0843619405609
 31
0.0
  0
ARC
  5
3A3C
330
3798
100
AcDbEntity
  8
0
 48
0.13
100
AcDbCircle
 10
23478.35203434853
 20
797.2994659254185
 30
0.0
 40
13.1431127063404
100
AcDbArc
 50
36.32163999803296
 51
109.0434812079961
  0
LINE
  5
3A3D
330
3798
100
AcDbEntity
  8
0
 48
0.13
100
AcDbLine
 10
23535.3122121602
 20
891.5032728948963
 30
0.0
 11
23535.3122121602
 21
835.2324469841719
 31
0.0
  0
ARC
  5
3A3E
330
3798
100
AcDbEntity
  8
0
 48
0.13
100
AcDbCircle
 10
23482.63756498446
 20
852.3105614404217
 30
0.0
 40
55.3740051691193
100
AcDbArc
 50
297.1175761281757
 51
342.0363275868365
  0
LINE
  5
3A3F
330
3798
100
AcDbEntity
  8
0
 48
0.13
100
AcDbLine
 10
23612.92916351978
 20
891.5032728948963
 30
0.0
 11
23478.70462010573
 21
891.5032728948963
 31
0.0
  0
LINE
  5
3A40
330
3798
100
AcDbEntity
  8
0
 48
0.13
100
AcDbLine
 10
23612.92916351978
 20
891.5032728948963
 30
0.0
 11
23612.92916351978
 21
926.2930498037304
 31
0.0
  0
LINE
  5
3A41
330
3798
100
AcDbEntity
  8
0
 48
0.13
100
AcDbLine
 10
23612.92916351978
 20
926.2930498037304
 30
0.0
 11
23476.52800639754
 21
926.2930498037304
 31
0.0
  0
LINE
  5
3A42
330
3798
100
AcDbEntity
  8
0
 48
0.13
100
AcDbLine
 10
23587.17257111372
 20
926.2930498037304
 30
0.0
 11
23587.17257111372
 21
891.5032728948963
 31
0.0
  0
LINE
  5
3A43
330
3798
100
AcDbEntity
  8
0
  6
ACAD_ISO04W100
 48
3.0
100
AcDbLine
 10
23634.65406707766
 20
908.8981613493133
 30
0.0
 11
23483.20966528706
 21
908.8981613493133
 31
0.0
  0
LINE
  5
3A44
330
3798
100
AcDbEntity
  8
0
 48
0.13
100
AcDbLine
 10
23476.52800639754
 20
926.2930498037304
 30
0.0
 11
23182.95265943274
 21
863.644579300447
 31
0.0
  0
LINE
  5
3A45
330
3798
100
AcDbEntity
  8
0
 48
0.13
100
AcDbLine
 10
23478.70462010573
 20
891.5032728948963
 30
0.0
 11
23191.58443576966
 21
830.2323229147796
 31
0.0
  0
ARC
  5
3A46
330
3798
100
AcDbEntity
  8
0
 48
0.13
100
AcDbCircle
 10
23188.16036988876
 20
847.1688459193174
 30
0.0
 40
17.27917933930324
100
AcDbArc
 50
107.540895341761
 51
281.4294616127904
  0
LINE
  5
3A47
330
3798
100
AcDbEntity
  8
0
 48
0.13
100
AcDbLine
 10
23464.80649145885
 20
970.4283802917607
 30
0.0
 11
23171.23114449404
 21
907.7799097884774
 31
0.0
  0
LINE
  5
3A48
330
3798
100
AcDbEntity
  8
0
 48
0.13
100
AcDbLine
 10
23466.98310516704
 20
935.6386033829267
 30
0.0
 11
23179.86292083096
 21
874.36765340281
 31
0.0
  0
ARC
  5
3A49
330
3798
100
AcDbEntity
  8
0
 48
0.13
100
AcDbCircle
 10
23466.3035148413
 20
953.0590630849196
 30
0.0
 40
17.43371042662663
100
AcDbArc
 50
272.2340353567409
 51
94.92602433982547
  0
ARC
  5
3A4A
330
3798
100
AcDbEntity
  8
0
 48
0.13
100
AcDbCircle
 10
23172.01934810168
 20
890.1624338625011
 30
0.0
 40
17.63509917549171
100
AcDbArc
 50
92.56169750711052
 51
296.40865944744
  0
LINE
  5
3A4B
330
3798
100
AcDbEntity
  8
0
 48
0.13
100
AcDbLine
 10
23205.73039987973
 20
868.5053096556289
 30
0.0
 11
23260.56359118648
 21
891.5890366648338
 31
0.0
  0
LINE
  5
3A4C
330
3798
100
AcDbEntity
  8
0
 48
0.13
100
AcDbLine
 10
23427.02343792962
 20
927.1112796136578
 30
0.0
 11
23438.24163179807
 21
918.1228037848781
 31
0.0
  0
LINE
  5
3A4D
330
3798
100
AcDbEntity
  8
0
 48
0.13
100
AcDbLine
 10
23171.23114449404
 20
907.7799097884767
 30
0.0
 11
23417.78042400749
 21
1027.912641299064
 31
0.0
  0
LINE
  5
3A4E
330
3798
100
AcDbEntity
  8
0
 48
0.13
100
AcDbLine
 10
23318.01881797644
 20
939.1041450401191
 30
0.0
 11
23487.08966828742
 21
1019.404059441275
 31
0.0
  0
LINE
  5
3A4F
330
3798
100
AcDbEntity
  8
0
 48
0.13
100
AcDbLine
 10
23177.91327995805
 20
1053.806753060652
 30
0.0
 11
23488.46875754527
 21
1020.281702030072
 31
0.0
  0
LINE
  5
3A50
330
3798
100
AcDbEntity
  8
0
 48
0.13
100
AcDbLine
 10
23175.28803495489
 20
1090.897927689449
 30
0.0
 11
23483.49762152444
 21
1056.762052678248
 31
0.0
  0
ARC
  5
3A51
330
3798
100
AcDbEntity
  8
0
 48
0.13
100
AcDbCircle
 10
23476.69730895271
 20
1037.256500935709
 30
0.0
 40
20.65697944652369
100
AcDbArc
 50
300.2047711066955
 51
70.77967142285361
  0
ARC
  5
3A52
330
3798
100
AcDbEntity
  8
0
 48
0.13
100
AcDbCircle
 10
23184.98377400411
 20
1072.945681919174
 30
0.0
 40
20.40319788432489
100
AcDbArc
 50
118.3728177553491
 51
249.724258786433
  0
LINE
  5
3A53
330
3798
100
AcDbEntity
  8
0
 48
0.13
100
AcDbLine
 10
23175.28803495489
 20
1090.897927689449
 30
0.0
 11
23320.32863301068
 21
1114.016473369057
 31
0.0
  0
LINE
  5
3A54
330
3798
100
AcDbEntity
  8
0
 48
0.13
100
AcDbLine
 10
23312.19184892307
 20
1075.735091470791
 30
0.0
 11
23475.04802220909
 21
1103.858851912694
 31
0.0
  0
LINE
  5
3A55
330
3798
100
AcDbEntity
  8
0
 48
0.13
100
AcDbLine
 10
23403.39359116316
 20
1090.272067133471
 30
0.0
 11
23603.39151773113
 21
1090.272067133471
 31
0.0
  0
LINE
  5
3A56
330
3798
100
AcDbEntity
  8
0
 48
0.13
100
AcDbLine
 10
23603.39151773113
 20
1090.272067133471
 30
0.0
 11
23603.39151773113
 21
1066.448946091406
 31
0.0
  0
LINE
  5
3A57
330
3798
100
AcDbEntity
  8
0
 48
0.13
100
AcDbLine
 10
23603.39151773113
 20
1066.448946091406
 30
0.0
 11
23396.03557717863
 21
1066.448946091406
 31
0.0
  0
LINE
  5
3A58
330
3798
100
AcDbEntity
  8
0
 48
0.13
100
AcDbLine
 10
23592.1191617559
 20
1066.448946091406
 30
0.0
 11
23592.1191617559
 21
1090.272067133471
 31
0.0
  0
LINE
  5
3A59
330
3798
100
AcDbEntity
  8
0
 48
0.13
100
AcDbLine
 10
23535.3122121602
 20
926.2930498037304
 30
0.0
 11
23535.3122121602
 21
1066.448946091406
 31
0.0
  0
LINE
  5
3A5A
330
3798
100
AcDbEntity
  8
0
 48
0.13
100
AcDbLine
 10
23535.31221216021
 20
1090.272067133471
 30
0.0
 11
23535.31221216021
 21
1293.536769552019
 31
0.0
  0
LINE
  5
3A5B
330
3798
100
AcDbEntity
  8
0
 48
0.13
100
AcDbLine
 10
23535.31221216021
 20
1327.037204828478
 30
0.0
 11
23535.3122121602
 21
1710.001567523759
 31
0.0
  0
LINE
  5
3A5C
330
3798
100
AcDbEntity
  8
0
 48
0.13
100
AcDbLine
 10
23181.50683434531
 20
1162.9880918516
 30
0.0
 11
23478.68381489068
 21
1139.44991028932
 31
0.0
  0
LINE
  5
3A5D
330
3798
100
AcDbEntity
  8
0
 48
0.13
100
AcDbLine
 10
23174.27623061033
 20
1127.711623408371
 30
0.0
 11
23482.35670800564
 21
1103.279960597004
 31
0.0
  0
ARC
  5
3A5E
330
3798
100
AcDbEntity
  8
0
 48
0.13
100
AcDbCircle
 10
23477.00184984284
 20
1121.0076568218
 30
0.0
 40
18.51879368053917
100
AcDbArc
 50
286.8075560799276
 51
84.78894313177915
  0
ARC
  5
3A5F
330
3798
100
AcDbEntity
  8
0
 48
0.13
100
AcDbCircle
 10
23182.34302199815
 20
1144.437437589873
 30
0.0
 40
18.56949065884386
100
AcDbArc
 50
92.5809124437535
 51
244.2521778775156
  0
LINE
  5
3A60
330
3798
100
AcDbEntity
  8
0
 48
0.13
100
AcDbLine
 10
23181.50683434531
 20
1209.58097498376
 30
0.0
 11
23478.68381489068
 21
1186.042793421479
 31
0.0
  0
LINE
  5
3A61
330
3798
100
AcDbEntity
  8
0
 48
0.13
100
AcDbLine
 10
23174.27623061033
 20
1174.30450654053
 30
0.0
 11
23482.35670800564
 21
1149.872843729164
 31
0.0
  0
ARC
  5
3A62
330
3798
100
AcDbEntity
  8
0
 48
0.13
100
AcDbCircle
 10
23477.00184984284
 20
1167.60053995396
 30
0.0
 40
18.51879368053917
100
AcDbArc
 50
286.8075560799276
 51
84.78894313177913
  0
ARC
  5
3A63
330
3798
100
AcDbEntity
  8
0
 48
0.13
100
AcDbCircle
 10
23182.34302199815
 20
1191.030320722033
 30
0.0
 40
18.56949065884386
100
AcDbArc
 50
92.58091244375349
 51
244.2521778775156
  0
LINE
  5
3A64
330
3798
100
AcDbEntity
  8
0
 48
0.13
100
AcDbLine
 10
23181.50683434531
 20
1258.626122645087
 30
0.0
 11
23478.68381489068
 21
1235.087941082807
 31
0.0
  0
LINE
  5
3A65
330
3798
100
AcDbEntity
  8
0
 48
0.13
100
AcDbLine
 10
23174.27623061033
 20
1223.349654201857
 30
0.0
 11
23482.35670800564
 21
1198.917991390491
 31
0.0
  0
ARC
  5
3A66
330
3798
100
AcDbEntity
  8
0
 48
0.13
100
AcDbCircle
 10
23477.00184984284
 20
1216.645687615287
 30
0.0
 40
18.51879368053917
100
AcDbArc
 50
286.8075560799276
 51
84.78894313177918
  0
ARC
  5
3A67
330
3798
100
AcDbEntity
  8
0
 48
0.13
100
AcDbCircle
 10
23182.34302199815
 20
1240.07546838336
 30
0.0
 40
18.56949065884386
100
AcDbArc
 50
92.58091244375353
 51
244.2521778775156
  0
LINE
  5
3A68
330
3798
100
AcDbEntity
  8
0
 48
0.13
100
AcDbLine
 10
23181.50683434531
 20
1304.140591833703
 30
0.0
 11
23478.68381489068
 21
1280.602410271423
 31
0.0
  0
LINE
  5
3A69
330
3798
100
AcDbEntity
  8
0
 48
0.13
100
AcDbLine
 10
23174.27623061033
 20
1268.864123390474
 30
0.0
 11
23482.35670800564
 21
1244.432460579107
 31
0.0
  0
ARC
  5
3A6A
330
3798
100
AcDbEntity
  8
0
 48
0.13
100
AcDbCircle
 10
23477.00184984284
 20
1262.160156803903
 30
0.0
 40
18.51879368053917
100
AcDbArc
 50
286.8075560799277
 51
84.78894313177918
  0
ARC
  5
3A6B
330
3798
100
AcDbEntity
  8
0
 48
0.13
100
AcDbCircle
 10
23182.34302199815
 20
1285.589937571976
 30
0.0
 40
18.56949065884386
100
AcDbArc
 50
92.58091244375349
 51
244.2521778775156
  0
LINE
  5
3A6C
330
3798
100
AcDbEntity
  8
0
 48
0.13
100
AcDbLine
 10
23181.50683434531
 20
1304.140591833703
 30
0.0
 11
23469.58070684822
 21
1327.037204828478
 31
0.0
  0
LINE
  5
3A6D
330
3798
100
AcDbEntity
  8
0
 48
0.13
100
AcDbLine
 10
23416.77534469359
 20
1285.505928737314
 30
0.0
 11
23480.80843440653
 21
1293.536769552019
 31
0.0
  0
LINE
  5
3A6E
330
3798
100
AcDbEntity
  8
0
 48
0.13
100
AcDbLine
 10
23480.80843440653
 20
1293.536769552019
 30
0.0
 11
23612.78548692595
 21
1293.536769552019
 31
0.0
  0
LINE
  5
3A6F
330
3798
100
AcDbEntity
  8
0
 48
0.13
100
AcDbLine
 10
23612.78548692595
 20
1293.536769552019
 30
0.0
 11
23612.78548692595
 21
1327.037204828478
 31
0.0
  0
LINE
  5
3A70
330
3798
100
AcDbEntity
  8
0
 48
0.13
100
AcDbLine
 10
23612.78548692595
 20
1327.037204828478
 30
0.0
 11
23469.58070684821
 21
1327.037204828478
 31
0.0
  0
LINE
  5
3A71
330
3798
100
AcDbEntity
  8
0
 48
0.13
100
AcDbLine
 10
23590.17943351262
 20
1293.536769552019
 30
0.0
 11
23590.17943351262
 21
1327.037204828478
 31
0.0
  0
LINE
  5
3A72
330
3798
100
AcDbEntity
  8
0
 48
0.13
100
AcDbLine
 10
23535.31221216021
 20
1490.280674752013
 30
0.0
 11
23593.282199661
 21
1490.280674752013
 31
0.0
  0
LINE
  5
3A73
330
3798
100
AcDbEntity
  8
0
 48
0.13
100
AcDbLine
 10
23593.282199661
 20
1490.280674752013
 30
0.0
 11
23593.282199661
 21
1462.113870898988
 31
0.0
  0
LINE
  5
3A74
330
3798
100
AcDbEntity
  8
0
 48
0.13
100
AcDbLine
 10
23593.282199661
 20
1462.113870898988
 30
0.0
 11
23535.31221216021
 21
1462.113870898987
 31
0.0
  0
LWPOLYLINE
  5
3A75
330
3798
100
AcDbEntity
  8
0
 48
0.13
100
AcDbPolyline
 90
        4
 70
     1
 43
0.0
 10
23535.31221216021
 20
1490.280674752013
 10
23531.00218413986
 20
1490.280674752013
 10
23531.00218413986
 20
1462.113870898987
 10
23535.31221216021
 20
1462.113870898987
  0
LWPOLYLINE
  5
3A76
330
3798
100
AcDbEntity
  8
0
 48
0.13
100
AcDbPolyline
 90
        4
 70
     1
 43
0.0
 10
23593.282199661
 20
1488.494704300846
 10
23612.35752892891
 20
1488.494704300846
 10
23612.35752892891
 20
1464.428913468845
 10
23593.282199661
 20
1464.428913468845
  0
LINE
  5
3A77
330
3798
100
AcDbEntity
  8
0
  6
ACAD_ISO04W100
 48
3.0
100
AcDbLine
 10
23628.36480509748
 20
1476.461808884846
 30
0.0
 11
23518.14456123476
 21
1476.461808884846
 31
0.0
  0
LINE
  5
3A78
330
3798
100
AcDbEntity
  8
0
 48
0.13
100
AcDbLine
 10
23593.64336990245
 20
1801.551236042668
 30
0.0
 11
23507.06374892424
 21
1801.551236042668
 31
0.0
  0
LINE
  5
3A79
330
3798
100
AcDbEntity
  8
0
 48
0.13
100
AcDbLine
 10
23593.64336990245
 20
1801.551236042668
 30
0.0
 11
23593.64336990245
 21
1773.472741187351
 31
0.0
  0
LINE
  5
3A7A
330
3798
100
AcDbEntity
  8
0
 48
0.13
100
AcDbLine
 10
23593.64336990245
 20
1773.472741187351
 30
0.0
 11
23513.01353160729
 21
1773.472741187351
 31
0.0
  0
LWPOLYLINE
  5
3A7B
330
3798
100
AcDbEntity
  8
0
 48
0.13
100
AcDbPolyline
 90
        4
 70
     1
 43
0.0
 10
23593.64336990246
 20
1798.681899820119
 10
23611.90303674456
 20
1798.681899820119
 10
23611.90303674456
 20
1775.317309669174
 10
23593.64336990246
 20
1775.317309669174
  0
ARC
  5
3A7C
330
3798
100
AcDbEntity
  8
0
 48
0.13
100
AcDbCircle
 10
23289.32881636438
 20
1340.477786671817
 30
0.0
 40
460.0245689152561
100
AcDbArc
 50
60.12437783485645
 51
85.98911949472682
  0
ARC
  5
3A7D
330
3798
100
AcDbEntity
  8
0
 48
0.13
100
AcDbCircle
 10
23499.67492011054
 20
1709.080602302172
 30
0.0
 40
35.64919019517852
100
AcDbArc
 50
1.480350360358983
 51
58.17113857480181
  0
ARC
  5
3A7E
330
3798
100
AcDbEntity
  8
0
 48
0.13
100
AcDbCircle
 10
23515.11456690546
 20
1732.721404075961
 30
0.0
 40
69.29907242331565
100
AcDbArc
 50
96.6714004183599
 51
148.2598251815766
  0
ARC
  5
3A7F
330
3798
100
AcDbEntity
  8
0
 48
0.13
100
AcDbCircle
 10
23514.2104357672
 20
1737.725735387287
 30
0.0
 40
35.76703794330506
100
AcDbArc
 50
91.91769759153938
 51
147.0347896258043
  0
LINE
  5
3A80
330
3798
100
AcDbEntity
  8
0
  6
ACAD_ISO04W100
 48
3.0
100
AcDbLine
 10
23611.90303674456
 20
1786.999604744647
 30
0.0
 11
23508.79176902808
 21
1786.999604744647
 31
0.0
  0
ARC
  5
3A81
330
3798
100
AcDbEntity
  8
0
 48
0.13
100
AcDbCircle
 10
23513.28342134126
 20
1740.953178931779
 30
0.0
 40
46.26497887865553
100
AcDbArc
 50
95.57135729600608
 51
152.2077226760502
  0
LINE
  5
3A82
330
3798
100
AcDbEntity
  8
0
  6
ACAD_ISO04W100
 48
3.0
100
AcDbLine
 10
23590.17943351262
 20
1310.286987190249
 30
0.0
 11
23437.86520789397
 21
1310.286987190249
 31
0.0
  0
LINE
  5
3A83
330
3798
100
AcDbEntity
  8
0
  6
ACAD_ISO04W100
 48
4.0
100
AcDbLine
 10
23437.86520789397
 20
1310.286987190249
 30
0.0
 11
23190.1432788756
 21
1288.614114617917
 31
0.0
  0
LINE
  5
3A84
330
3798
100
AcDbEntity
  8
0
  6
ACAD_ISO04W100
 48
3.0
100
AcDbLine
 10
23190.1432788756
 20
1288.614114617917
 30
0.0
 11
23479.32229377304
 21
1262.424477258125
 31
0.0
  0
LINE
  5
3A85
330
3798
100
AcDbEntity
  8
0
  6
ACAD_ISO04W100
 48
3.0
100
AcDbLine
 10
23479.32229377304
 20
1262.424477258125
 30
0.0
 11
23179.81544951147
 21
1240.599779458299
 31
0.0
  0
LINE
  5
3A86
330
3798
100
AcDbEntity
  8
0
  6
ACAD_ISO04W100
 48
3.0
100
AcDbLine
 10
23179.81544951147
 20
1240.599779458299
 30
0.0
 11
23478.13062985193
 21
1214.410142098507
 31
0.0
  0
LINE
  5
3A87
330
3798
100
AcDbEntity
  8
0
  6
ACAD_ISO04W100
 48
3.0
100
AcDbLine
 10
23478.13062985193
 20
1214.410142098507
 30
0.0
 11
23182.55022341853
 21
1190.07527112745
 31
0.0
  0
LINE
  5
3A88
330
3798
100
AcDbEntity
  8
0
  6
ACAD_ISO04W100
 48
3.0
100
AcDbLine
 10
23182.55022341853
 20
1190.07527112745
 30
0.0
 11
23477.00184984284
 21
1167.60053995396
 31
0.0
  0
LINE
  5
3A89
330
3798
100
AcDbEntity
  8
0
  6
ACAD_ISO04W100
 48
3.0
100
AcDbLine
 10
23477.00184984284
 20
1167.60053995396
 30
0.0
 11
23183.31779262982
 21
1145.923538235144
 31
0.0
  0
LINE
  5
3A8A
330
3798
100
AcDbEntity
  8
0
  6
ACAD_ISO04W100
 48
3.0
100
AcDbLine
 10
23183.31779262982
 20
1145.923538235144
 30
0.0
 11
23478.05794351636
 21
1120.924340465738
 31
0.0
  0
LINE
  5
3A8B
330
3798
100
AcDbEntity
  8
0
  6
ACAD_ISO04W100
 48
3.0
100
AcDbLine
 10
23478.05794351636
 20
1120.924340465738
 30
0.0
 11
23184.90667785796
 21
1075.290884486893
 31
0.0
  0
LINE
  5
3A8C
330
3798
100
AcDbEntity
  8
0
  6
ACAD_ISO04W100
 48
3.0
100
AcDbLine
 10
23184.90667785796
 20
1075.290884486893
 30
0.0
 11
23476.50654159686
 21
1038.230513758285
 31
0.0
  0
LINE
  5
3A8D
330
3798
100
AcDbEntity
  8
0
  6
ACAD_ISO04W100
 48
3.0
100
AcDbLine
 10
23476.50654159686
 20
1038.230513758285
 30
0.0
 11
23183.93152762869
 21
895.0131772307695
 31
0.0
  0
LINE
  5
3A8E
330
3798
100
AcDbEntity
  8
0
  6
ACAD_ISO04W100
 48
3.0
100
AcDbLine
 10
23183.93152762869
 20
895.0131772307695
 30
0.0
 11
23466.3035148413
 21
953.0590630849196
 31
0.0
  0
LINE
  5
3A8F
330
3798
100
AcDbEntity
  8
0
  6
ACAD_ISO04W100
 48
3.0
100
AcDbLine
 10
23466.3035148413
 20
953.0590630849196
 30
0.0
 11
23190.83416654697
 21
848.0175902724304
 31
0.0
  0
LINE
  5
3A90
330
3798
100
AcDbEntity
  8
0
  6
ACAD_ISO04W100
 48
3.0
100
AcDbLine
 10
23190.83416654697
 20
848.0175902724304
 30
0.0
 11
23483.20966528706
 21
908.8981613493133
 31
0.0
  0
LINE
  5
3A91
330
3798
100
AcDbEntity
  8
0
  6
ACAD_ISO04W100
 48
4.0
100
AcDbLine
 10
23592.1191617559
 20
1078.360506612438
 30
0.0
 11
23376.9309354953
 21
1078.360506612438
 31
0.0
  0
DIMENSION
  5
3A92
330
3798
100
AcDbEntity
  8
0
100
AcDbDimension
  2
*D6
 10
23039.41346369152
 20
568.4958118065224
 30
0.0
 11
23309.40259755187
 21
579.3322715609562
 31
0.0
 71
     5
 42
539.9782677206967
  3
ISO-25
100
AcDbAlignedDimension
 13
23579.39173141222
 23
734.9666009548928
 33
0.0
 14
23039.41346369152
 24
735.5916009548928
 34
0.0
100
AcDbRotatedDimension
1001
ACAD
1000
DSTYLE
1002
{
1070
   280
1070
     0
1070
   271
1070
     0
1070
   140
1040
20.0
1070
    41
1040
20.0
1002
}
  0
MTEXT
  5
3A93
330
3798
100
AcDbEntity
  8
0
100
AcDbMText
 10
23791.20355154717
 20
795.573997862296
 30
0.0
 40
20.0
 41
0.0
 71
     5
 72
     1
  1
{\H1.0833x;Entrada de agua fría/\Pvaciado}
  7
style1
 73
     1
 44
1.0
  0
LINE
  5
3A94
330
3798
100
AcDbEntity
  8
0
 48
0.13
100
AcDbLine
 10
23608.26295450273
 20
763.6142888203353
 30
0.0
 11
23657.63283112344
 21
794.1827727972632
 31
0.0
  0
LINE
  5
3A95
330
3798
100
AcDbEntity
  8
0
 48
0.13
100
AcDbLine
 10
23657.63283112344
 20
794.1827727972632
 30
0.0
 11
23942.03341377973
 21
794.1827727972632
 31
0.0
  0
MTEXT
  5
3A96
330
3798
100
AcDbEntity
  8
0
100
AcDbMText
 10
23797.53826945545
 20
937.255635164704
 30
0.0
 40
20.0
 41
0.0
 71
     5
 72
     1
  1
{\H1.0833x;Retorno del acumulador\P del agua caliente}
  7
style1
 73
     1
 44
1.0
  0
LINE
  5
3A97
330
3798
100
AcDbEntity
  8
0
 48
0.13
100
AcDbLine
 10
23612.92916351978
 20
908.8981613493133
 30
0.0
 11
23662.29904014049
 21
939.4666453262412
 31
0.0
  0
LINE
  5
3A98
330
3798
100
AcDbEntity
  8
0
 48
0.13
100
AcDbLine
 10
23662.29904014049
 20
939.4666453262412
 30
0.0
 11
23963.61373109272
 21
939.4666453262412
 31
0.0
  0
MTEXT
  5
3A99
330
3798
100
AcDbEntity
  8
0
100
AcDbMText
 10
23850.72069927838
 20
1129.296749413397
 30
0.0
 40
20.0
 41
0.0
 71
     5
 72
     1
  1
{\H1.0833x;Punto de medición para la sonda\Pde temperatura del agua \Pcaliente de la instalación solar}
  7
style1
 73
     1
 44
1.0
  0
LINE
  5
3A9A
330
3798
100
AcDbEntity
  8
0
 48
0.13
100
AcDbLine
 10
23603.39151773113
 20
1078.360506612438
 30
0.0
 11
23652.76139435184
 21
1108.928990589366
 31
0.0
  0
LINE
  5
3A9B
330
3798
100
AcDbEntity
  8
0
 48
0.13
100
AcDbLine
 10
23652.76139435184
 20
1108.928990589366
 30
0.0
 11
24061.78670100052
 21
1108.928990589366
 31
0.0
  0
MTEXT
  5
3A9C
330
3798
100
AcDbEntity
  8
0
100
AcDbMText
 10
23817.65585684927
 20
1338.992495558905
 30
0.0
 40
20.0
 41
0.0
 71
     5
 72
     1
  1
{\H1.0833x;Alimentación del acumulador \Pde agua caliente }
  7
style1
 73
     1
 44
1.0
  0
LINE
  5
3A9D
330
3798
100
AcDbEntity
  8
0
 48
0.13
100
AcDbLine
 10
23612.78548692595
 20
1310.286987190249
 30
0.0
 11
23662.15536354666
 21
1340.855471167176
 31
0.0
  0
LINE
  5
3A9E
330
3798
100
AcDbEntity
  8
0
 48
0.13
100
AcDbLine
 10
23662.15536354666
 20
1340.855471167176
 30
0.0
 11
24013.4754264276
 21
1340.855471167176
 31
0.0
  0
MTEXT
  5
3A9F
330
3798
100
AcDbEntity
  8
0
100
AcDbMText
 10
23801.59716046586
 20
1529.104413655148
 30
0.0
 40
20.0
 41
0.0
 71
     5
 72
     1
  1
{\H1.0833x;Entrada de recirculación}
  7
style1
 73
     1
 44
1.0
  0
LINE
  5
3AA0
330
3798
100
AcDbEntity
  8
0
 48
0.13
100
AcDbLine
 10
23612.35752892891
 20
1476.461808884846
 30
0.0
 11
23661.72740554963
 21
1507.030292861773
 31
0.0
  0
LINE
  5
3AA1
330
3798
100
AcDbEntity
  8
0
 48
0.13
100
AcDbLine
 10
23661.72740554963
 20
1507.030292861773
 30
0.0
 11
23964.43696261466
 21
1507.030292861773
 31
0.0
  0
MTEXT
  5
3AA2
330
3798
100
AcDbEntity
  8
0
100
AcDbMText
 10
23808.4003814414
 20
1836.97990611185
 30
0.0
 40
20.0
 41
0.0
 71
     5
 72
     1
  1
{\H1.0833x;Salida de agua caliente}
  7
style1
 73
     1
 44
1.0
  0
LINE
  5
3AA3
330
3798
100
AcDbEntity
  8
0
 48
0.13
100
AcDbLine
 10
23612.35752892891
 20
1786.999604744646
 30
0.0
 11
23661.72740554963
 21
1817.568088721574
 31
0.0
  0
LINE
  5
3AA4
330
3798
100
AcDbEntity
  8
0
 48
0.13
100
AcDbLine
 10
23661.72740554963
 20
1817.568088721574
 30
0.0
 11
23961.15920829072
 21
1817.568088721574
 31
0.0
  0
MTEXT
  5
3AA5
330
3798
100
AcDbEntity
  8
0
100
AcDbMText
 10
22800.70853276213
 20
1376.759252063322
 30
0.0
 40
20.0
 41
0.0
 71
     5
 72
     1
  1
{\H1.0833x;Conexión del elemento\Pcalefactor eléctrico}
  7
style1
 73
     1
 44
1.0
  0
LINE
  5
3AA6
330
3798
100
AcDbEntity
  8
0
 48
0.13
100
AcDbLine
 10
22982.68468161334
 20
1345.395147312076
 30
0.0
 11
22933.31480499263
 21
1375.963631289003
 31
0.0
  0
LINE
  5
3AA7
330
3798
100
AcDbEntity
  8
0
 48
0.13
100
AcDbLine
 10
22933.31480499263
 20
1375.963631289003
 30
0.0
 11
22653.83309823384
 21
1375.963631289003
 31
0.0
  0
DIMENSION
  5
3AA8
330
3798
100
AcDbEntity
  8
0
100
AcDbDimension
  2
*D7
 10
22870.07370554935
 20
1882.902966937779
 30
0.0
 11
22870.07370554935
 21
1202.612068775607
 31
0.0
 70
   128
 71
     5
 42
1171.83366380999
  3
ISO-25
100
AcDbAlignedDimension
 13
23090.248439654
 23
711.0693031277892
 33
0.0
 14
23305.12996267166
 24
1882.902966937779
 34
0.0
 50
270.0
100
AcDbRotatedDimension
1001
ACAD
1000
DSTYLE
1002
{
1070
   280
1070
     0
1070
   271
1070
     0
1070
   140
1040
23.0
1070
    41
1040
23.0
1002
}
  0
DIMENSION
  5
3AA9
330
3798
100
AcDbEntity
  8
0
100
AcDbDimension
  2
*D8
 10
22870.07370554935
 20
711.0693031277892
 30
0.0
 11
22870.07370554935
 21
610.2554331397674
 31
0.0
 70
   128
  1
15-20
 71
     5
 42
15.6175875869335
  3
ISO-25
100
AcDbAlignedDimension
 13
23040.03846369152
 23
695.4517155408557
 33
0.0
 14
23040.03846369152
 24
711.0693031277892
 34
0.0
 50
270.0
100
AcDbRotatedDimension
1001
ACAD
1000
DSTYLE
1002
{
1070
   280
1070
     0
1070
   271
1070
     0
1070
   140
1040
23.0
1070
    41
1040
23.0
1002
}
  0
ENDBLK
  5
379A
330
3798
100
AcDbEntity
  8
0
 48
0.13
100
AcDbBlockEnd
  0
BLOCK
  5
3853
330
3852
100
AcDbEntity
  8
0
 48
0.13
100
AcDbBlockBegin
  2
S 200_1
 70
     0
 10
0.0
 20
0.0
 30
0.0
  3
S 200_1
  1

  0
CIRCLE
  5
3AAB
330
3852
100
AcDbEntity
  8
0
  6
ACAD_ISO02W100
 48
4.0
100
AcDbCircle
 10
25010.89011416044
 20
1181.127833663098
 30
0.0
 40
44.63190603713928
  0
CIRCLE
  5
3AAC
330
3852
100
AcDbEntity
  8
0
  6
ACAD_ISO02W100
 48
4.0
100
AcDbCircle
 10
25010.89011416044
 20
1181.127833663098
 30
0.0
 40
19.82312638543971
  0
ARC
  5
3AAD
330
3852
100
AcDbEntity
  8
0
 48
0.13
100
AcDbCircle
 10
25010.89011416044
 20
1181.127833663098
 30
0.0
 40
270.0000000000001
100
AcDbArc
 50
186.8724618931328
 51
357.030139534892
  0
ARC
  5
3AAE
330
3852
100
AcDbEntity
  8
0
 48
0.13
100
AcDbCircle
 10
25010.89011416044
 20
1181.127833663098
 30
0.0
 40
270.0000000000001
100
AcDbArc
 50
3.118907905003451
 51
174.1241437739649
  0
LINE
  5
3AAF
330
3852
100
AcDbEntity
  8
0
 48
0.13
100
AcDbLine
 10
24756.73960713072
 20
1272.273430246453
 30
0.0
 11
24712.69653623707
 21
1272.273430246453
 31
0.0
  0
ARC
  5
3AB0
330
3852
100
AcDbEntity
  8
0
 48
0.13
100
AcDbCircle
 10
24712.69653623707
 20
1268.052743304012
 30
0.0
 40
4.220686942441686
100
AcDbArc
 50
90.0
 51
180.0
  0
LINE
  5
3AB1
330
3852
100
AcDbEntity
  8
0
 48
0.13
100
AcDbLine
 10
24708.47584929463
 20
1268.052743304012
 30
0.0
 11
24708.47584929463
 21
1089.111935718255
 31
0.0
  0
ARC
  5
3AB2
330
3852
100
AcDbEntity
  8
0
 48
0.13
100
AcDbCircle
 10
24712.69653623708
 20
1089.111935718255
 30
0.0
 40
4.220686942441686
100
AcDbArc
 50
180.0
 51
270.0
  0
LINE
  5
3AB3
330
3852
100
AcDbEntity
  8
0
 48
0.13
100
AcDbLine
 10
24712.69653623708
 20
1084.891248775813
 30
0.0
 11
24758.62335113124
 21
1084.891248775813
 31
0.0
  0
LWPOLYLINE
  5
3AB4
330
3852
100
AcDbEntity
  8
0
 48
0.13
100
AcDbPolyline
 90
        6
 70
     1
 43
0.0
 10
24734.13526803979
 20
1208.768643966724
 10
24748.89978535086
 20
1208.768643966724
 10
24748.89978535086
 20
1148.819721308979
 10
24734.13526803979
 20
1148.819721308979
 42
-0.414213562373095
 10
24728.50768544987
 20
1154.447303898901
 10
24728.50768544987
 20
1203.141061376802
 42
-0.414213562373095
  0
LINE
  5
3AB5
330
3852
100
AcDbEntity
  8
0
 48
0.13
100
AcDbLine
 10
25306.4562127652
 20
1181.127833663098
 30
0.0
 11
24670.44866935327
 21
1181.127833663098
 31
0.0
  0
LINE
  5
3AB6
330
3852
100
AcDbEntity
  8
0
  6
ACAD_ISO04W100
 48
3.0
100
AcDbLine
 10
25010.89011416044
 20
885.6213662977284
 30
0.0
 11
25010.89011416044
 21
1485.141357560763
 31
0.0
  0
LWPOLYLINE
  5
3AB7
330
3852
100
AcDbEntity
  8
0
 48
0.13
100
AcDbPolyline
 90
        4
 70
     1
 43
0.0
 10
25275.95973290937
 20
1195.818083390758
 10
25299.4343838949
 20
1195.818083390758
 10
25299.4343838949
 20
1167.138961992012
 10
25275.95973290937
 20
1167.138961992012
  0
MTEXT
  5
3AB8
330
3852
100
AcDbEntity
  8
0
100
AcDbMText
 10
24536.71590612187
 20
1419.034240212507
 30
0.0
 40
28.13791294961124
 41
0.0
 71
     5
 72
     1
  1
{\H1.0833x;Ánodos de magnesio\P o ánodos inertes}
  7
style1
 73
     1
 44
1.0
  0
LINE
  5
3AB9
330
3852
100
AcDbEntity
  8
0
100
AcDbLine
 10
25010.89011416044
 20
1181.127833663098
 30
0.0
 11
24712.1387909292
 21
1409.666423745159
 31
0.0
  0
LINE
  5
3ABA
330
3852
100
AcDbEntity
  8
0
100
AcDbLine
 10
24712.1387909292
 20
1409.666423745159
 30
0.0
 11
24328.49530864172
 21
1409.666423745159
 31
0.0
  0
DIMENSION
  5
3ABB
330
3852
100
AcDbEntity
  8
0
100
AcDbDimension
  2
*D9
 10
25419.82938048866
 20
911.1278336630984
 30
0.0
 11
25408.99292073422
 21
1181.127833663102
 31
0.0
 71
     5
 42
539.9999999999999
  3
ISO-25
100
AcDbAlignedDimension
 13
25010.89011416044
 23
1451.127833663098
 33
0.0
 14
25010.89011416044
 24
911.1278336630985
 34
0.0
 50
90.0
100
AcDbRotatedDimension
1001
ACAD
1000
DSTYLE
1002
{
1070
   280
1070
     0
1070
   271
1070
     0
1070
   140
1040
20.0
1070
    41
1040
20.0
1002
}
  0
ENDBLK
  5
3854
330
3852
100
AcDbEntity
  8
0
 48
0.13
100
AcDbBlockEnd
  0
BLOCK
  5
396B
330
396A
100
AcDbEntity
  8
0
 48
0.13
100
AcDbBlockBegin
  2
*D6
 70
     1
 10
0.0
 20
0.0
 30
0.0
  3
*D6
  1

  0
LINE
  5
3990
330
396A
100
AcDbEntity
  8
0
 62
     0
370
    -2
100
AcDbLine
 10
23579.39173141222
 20
734.3416009548928
 30
0.0
 11
23579.39173141222
 21
567.2458118065224
 31
0.0
  0
LINE
  5
3991
330
396A
100
AcDbEntity
  8
0
 62
     0
370
    -2
100
AcDbLine
 10
23039.41346369152
 20
734.9666009548928
 30
0.0
 11
23039.41346369152
 21
567.2458118065224
 31
0.0
  0
LINE
  5
3992
330
396A
100
AcDbEntity
  8
0
 62
     0
370
    -2
100
AcDbLine
 10
23559.39173141222
 20
568.4958118065224
 30
0.0
 11
23059.41346369152
 21
568.4958118065224
 31
0.0
  0
SOLID
  5
3993
330
396A
100
AcDbEntity
  8
0
 62
     0
100
AcDbTrace
 10
23559.39173141222
 20
571.8291451398558
 30
0.0
 11
23559.39173141222
 21
565.162478473189
 31
0.0
 12
23579.39173141222
 22
568.4958118065224
 32
0.0
 13
23579.39173141222
 23
568.4958118065224
 33
0.0
  0
SOLID
  5
3994
330
396A
100
AcDbEntity
  8
0
 62
     0
100
AcDbTrace
 10
23059.41346369152
 20
571.8291451398558
 30
0.0
 11
23059.41346369152
 21
565.162478473189
 31
0.0
 12
23039.41346369152
 22
568.4958118065224
 32
0.0
 13
23039.41346369152
 23
568.4958118065224
 33
0.0
  0
MTEXT
  5
3995
330
396A
100
AcDbEntity
  8
0
 62
     0
100
AcDbMText
 10
23309.40259755187
 20
579.3322715609562
 30
0.0
 40
20.0
 41
0.0
 71
     5
 72
     1
  1
540
  7
style1
 73
     1
 44
1.0
  0
POINT
  5
3996
330
396A
100
AcDbEntity
  8
Defpoints
 62
     0
100
AcDbPoint
 10
23579.39173141222
 20
734.9666009548928
 30
0.0
  0
POINT
  5
3997
330
396A
100
AcDbEntity
  8
Defpoints
 62
     0
100
AcDbPoint
 10
23039.41346369152
 20
735.5916009548928
 30
0.0
  0
POINT
  5
3998
330
396A
100
AcDbEntity
  8
Defpoints
 62
     0
100
AcDbPoint
 10
23039.41346369152
 20
568.4958118065224
 30
0.0
  0
ENDBLK
  5
396C
330
396A
100
AcDbEntity
  8
0
 48
0.13
100
AcDbBlockEnd
  0
BLOCK
  5
3977
330
3976
100
AcDbEntity
  8
0
 48
0.13
100
AcDbBlockBegin
  2
*D7
 70
     1
 10
0.0
 20
0.0
 30
0.0
  3
*D7
  1

  0
LINE
  5
3999
330
3976
100
AcDbEntity
  8
0
 62
     0
370
    -2
100
AcDbLine
 10
23089.623439654
 20
711.0693031277892
 30
0.0
 11
22868.82370554935
 21
711.0693031277892
 31
0.0
  0
LINE
  5
399A
330
3976
100
AcDbEntity
  8
0
 62
     0
370
    -2
100
AcDbLine
 10
23304.50496267166
 20
1882.902966937779
 30
0.0
 11
22868.82370554935
 21
1882.902966937779
 31
0.0
  0
LINE
  5
399B
330
3976
100
AcDbEntity
  8
0
 62
     0
370
    -2
100
AcDbLine
 10
22870.07370554935
 20
734.0693031277892
 30
0.0
 11
22870.07370554935
 21
1859.902966937779
 31
0.0
  0
SOLID
  5
399C
330
3976
100
AcDbEntity
  8
0
 62
     0
100
AcDbTrace
 10
22866.24037221602
 20
734.0693031277892
 30
0.0
 11
22873.90703888268
 21
734.0693031277892
 31
0.0
 12
22870.07370554935
 22
711.0693031277892
 32
0.0
 13
22870.07370554935
 23
711.0693031277892
 33
0.0
  0
SOLID
  5
399D
330
3976
100
AcDbEntity
  8
0
 62
     0
100
AcDbTrace
 10
22866.24037221602
 20
1859.902966937779
 30
0.0
 11
22873.90703888268
 21
1859.902966937779
 31
0.0
 12
22870.07370554935
 22
1882.902966937779
 32
0.0
 13
22870.07370554935
 23
1882.902966937779
 33
0.0
  0
MTEXT
  5
399E
330
3976
100
AcDbEntity
  8
0
 62
     0
100
AcDbMText
 10
22857.90163870078
 20
1202.612068775607
 30
0.0
 40
23.0
 41
0.0
 71
     5
 72
     1
  1
1172
  7
style1
 11
6.123233995736766E-17
 21
1.0
 31
0.0
 73
     1
 44
1.0
  0
POINT
  5
399F
330
3976
100
AcDbEntity
  8
Defpoints
 62
     0
100
AcDbPoint
 10
23090.248439654
 20
711.0693031277892
 30
0.0
  0
POINT
  5
39A0
330
3976
100
AcDbEntity
  8
Defpoints
 62
     0
100
AcDbPoint
 10
23305.12996267166
 20
1882.902966937779
 30
0.0
  0
POINT
  5
39A1
330
3976
100
AcDbEntity
  8
Defpoints
 62
     0
100
AcDbPoint
 10
22870.07370554935
 20
1882.902966937779
 30
0.0
  0
ENDBLK
  5
3978
330
3976
100
AcDbEntity
  8
0
 48
0.13
100
AcDbBlockEnd
  0
BLOCK
  5
3983
330
3982
100
AcDbEntity
  8
0
 48
0.13
100
AcDbBlockBegin
  2
*D8
 70
     1
 10
0.0
 20
0.0
 30
0.0
  3
*D8
  1

  0
LINE
  5
39A2
330
3982
100
AcDbEntity
  8
0
 62
     0
370
    -2
100
AcDbLine
 10
23039.41346369152
 20
695.4517155408557
 30
0.0
 11
22868.82370554935
 21
695.4517155408557
 31
0.0
  0
LINE
  5
39A3
330
3982
100
AcDbEntity
  8
0
 62
     0
370
    -2
100
AcDbLine
 10
23039.41346369152
 20
711.0693031277892
 30
0.0
 11
22868.82370554935
 21
711.0693031277892
 31
0.0
  0
LINE
  5
39A4
330
3982
100
AcDbEntity
  8
0
 62
     0
370
    -2
100
AcDbLine
 10
22870.07370554935
 20
734.0693031277892
 30
0.0
 11
22870.07370554935
 21
757.0693031277892
 31
0.0
  0
LINE
  5
39A5
330
3982
100
AcDbEntity
  8
0
 62
     0
370
    -2
100
AcDbLine
 10
22870.07370554935
 20
672.4517155408557
 30
0.0
 11
22870.07370554935
 21
571.0591507386722
 31
0.0
  0
LINE
  5
39A6
330
3982
100
AcDbEntity
  8
0
 62
     0
370
    -2
100
AcDbLine
 10
22870.07370554935
 20
711.0693031277892
 30
0.0
 11
22870.07370554935
 21
695.4517155408557
 31
0.0
  0
SOLID
  5
39A7
330
3982
100
AcDbEntity
  8
0
 62
     0
100
AcDbTrace
 10
22866.24037221602
 20
734.0693031277892
 30
0.0
 11
22873.90703888268
 21
734.0693031277892
 31
0.0
 12
22870.07370554935
 22
711.0693031277892
 32
0.0
 13
22870.07370554935
 23
711.0693031277892
 33
0.0
  0
SOLID
  5
39A8
330
3982
100
AcDbEntity
  8
0
 62
     0
100
AcDbTrace
 10
22866.24037221602
 20
672.4517155408557
 30
0.0
 11
22873.90703888268
 21
672.4517155408557
 31
0.0
 12
22870.07370554935
 22
695.4517155408557
 32
0.0
 13
22870.07370554935
 23
695.4517155408557
 33
0.0
  0
MTEXT
  5
39A9
330
3982
100
AcDbEntity
  8
0
 62
     0
100
AcDbMText
 10
22857.70552683175
 20
610.2554331397674
 30
0.0
 40
23.0
 41
0.0
 71
     5
 72
     1
  1
15-20
  7
style1
 11
6.123233995736766E-17
 21
1.0
 31
0.0
 73
     1
 44
1.0
  0
POINT
  5
39AA
330
3982
100
AcDbEntity
  8
Defpoints
 62
     0
100
AcDbPoint
 10
23040.03846369152
 20
695.4517155408557
 30
0.0
  0
POINT
  5
39AB
330
3982
100
AcDbEntity
  8
Defpoints
 62
     0
100
AcDbPoint
 10
23040.03846369152
 20
711.0693031277892
 30
0.0
  0
POINT
  5
39AC
330
3982
100
AcDbEntity
  8
Defpoints
 62
     0
100
AcDbPoint
 10
22870.07370554935
 20
711.0693031277892
 30
0.0
  0
ENDBLK
  5
3984
330
3982
100
AcDbEntity
  8
0
 48
0.13
100
AcDbBlockEnd
  0
BLOCK
  5
39B0
330
39AF
100
AcDbEntity
  8
0
 48
0.13
100
AcDbBlockBegin
  2
*D9
 70
     1
 10
0.0
 20
0.0
 30
0.0
  3
*D9
  1

  0
LINE
  5
39EB
330
39AF
100
AcDbEntity
  8
0
 62
     0
370
    -2
100
AcDbLine
 10
25011.51511416044
 20
1451.127833663098
 30
0.0
 11
25421.07938048866
 21
1451.127833663098
 31
0.0
  0
LINE
  5
39EC
330
39AF
100
AcDbEntity
  8
0
 62
     0
370
    -2
100
AcDbLine
 10
25011.51511416044
 20
911.1278336630985
 30
0.0
 11
25421.07938048866
 21
911.1278336630984
 31
0.0
  0
LINE
  5
39ED
330
39AF
100
AcDbEntity
  8
0
 62
     0
370
    -2
100
AcDbLine
 10
25419.82938048866
 20
1431.127833663098
 30
0.0
 11
25419.82938048866
 21
931.1278336630984
 31
0.0
  0
SOLID
  5
39EE
330
39AF
100
AcDbEntity
  8
0
 62
     0
100
AcDbTrace
 10
25416.49604715532
 20
1431.127833663098
 30
0.0
 11
25423.16271382199
 21
1431.127833663098
 31
0.0
 12
25419.82938048866
 22
1451.127833663098
 32
0.0
 13
25419.82938048866
 23
1451.127833663098
 33
0.0
  0
SOLID
  5
39EF
330
39AF
100
AcDbEntity
  8
0
 62
     0
100
AcDbTrace
 10
25416.49604715532
 20
931.1278336630984
 30
0.0
 11
25423.16271382199
 21
931.1278336630984
 31
0.0
 12
25419.82938048866
 22
911.1278336630984
 32
0.0
 13
25419.82938048866
 23
911.1278336630984
 33
0.0
  0
MTEXT
  5
39F0
330
39AF
100
AcDbEntity
  8
0
 62
     0
100
AcDbMText
 10
25408.99292073422
 20
1181.127833663102
 30
0.0
 40
20.0
 41
0.0
 71
     5
 72
     1
  1
540
  7
style1
 11
6.123233995736766E-17
 21
1.0
 31
0.0
 73
     1
 44
1.0
  0
POINT
  5
39F1
330
39AF
100
AcDbEntity
  8
Defpoints
 62
     0
100
AcDbPoint
 10
25010.89011416044
 20
1451.127833663098
 30
0.0
  0
POINT
  5
39F2
330
39AF
100
AcDbEntity
  8
Defpoints
 62
     0
100
AcDbPoint
 10
25010.89011416044
 20
911.1278336630985
 30
0.0
  0
POINT
  5
39F3
330
39AF
100
AcDbEntity
  8
Defpoints
 62
     0
100
AcDbPoint
 10
25419.82938048866
 20
911.1278336630984
 30
0.0
  0
ENDBLK
  5
39B1
330
39AF
100
AcDbEntity
  8
0
 48
0.13
100
AcDbBlockEnd
  0
BLOCK
  5
3B98
330
3B97
100
AcDbEntity
  8
0
 48
0.13
100
AcDbBlockBegin
  2
*D10
 70
     1
 10
0.0
 20
0.0
 30
0.0
  3
*D10
  1

  0
LINE
  5
3BBD
330
3B97
100
AcDbEntity
  8
0
 62
     0
370
    -2
100
AcDbLine
 10
23579.39173141222
 20
734.3416009548928
 30
0.0
 11
23579.39173141222
 21
567.2458118065224
 31
0.0
  0
LINE
  5
3BBE
330
3B97
100
AcDbEntity
  8
0
 62
     0
370
    -2
100
AcDbLine
 10
23039.41346369152
 20
734.9666009548928
 30
0.0
 11
23039.41346369152
 21
567.2458118065224
 31
0.0
  0
LINE
  5
3BBF
330
3B97
100
AcDbEntity
  8
0
 62
     0
370
    -2
100
AcDbLine
 10
23559.39173141222
 20
568.4958118065224
 30
0.0
 11
23059.41346369152
 21
568.4958118065224
 31
0.0
  0
SOLID
  5
3BC0
330
3B97
100
AcDbEntity
  8
0
 62
     0
100
AcDbTrace
 10
23559.39173141222
 20
571.8291451398558
 30
0.0
 11
23559.39173141222
 21
565.162478473189
 31
0.0
 12
23579.39173141222
 22
568.4958118065224
 32
0.0
 13
23579.39173141222
 23
568.4958118065224
 33
0.0
  0
SOLID
  5
3BC1
330
3B97
100
AcDbEntity
  8
0
 62
     0
100
AcDbTrace
 10
23059.41346369152
 20
571.8291451398558
 30
0.0
 11
23059.41346369152
 21
565.162478473189
 31
0.0
 12
23039.41346369152
 22
568.4958118065224
 32
0.0
 13
23039.41346369152
 23
568.4958118065224
 33
0.0
  0
MTEXT
  5
3BC2
330
3B97
100
AcDbEntity
  8
0
 62
     0
100
AcDbMText
 10
23309.40259755187
 20
579.3322715609562
 30
0.0
 40
20.0
 41
0.0
 71
     5
 72
     1
  1
540
  7
style1
 73
     1
 44
1.0
  0
POINT
  5
3BC3
330
3B97
100
AcDbEntity
  8
Defpoints
 62
     0
100
AcDbPoint
 10
23579.39173141222
 20
734.9666009548928
 30
0.0
  0
POINT
  5
3BC4
330
3B97
100
AcDbEntity
  8
Defpoints
 62
     0
100
AcDbPoint
 10
23039.41346369152
 20
735.5916009548928
 30
0.0
  0
POINT
  5
3BC5
330
3B97
100
AcDbEntity
  8
Defpoints
 62
     0
100
AcDbPoint
 10
23039.41346369152
 20
568.4958118065224
 30
0.0
  0
ENDBLK
  5
3B99
330
3B97
100
AcDbEntity
  8
0
 48
0.13
100
AcDbBlockEnd
  0
BLOCK
  5
3BA4
330
3BA3
100
AcDbEntity
  8
0
 48
0.13
100
AcDbBlockBegin
  2
*D11
 70
     1
 10
0.0
 20
0.0
 30
0.0
  3
*D11
  1

  0
LINE
  5
3BDA
330
3BA3
100
AcDbEntity
  8
0
 62
     0
370
    -2
100
AcDbLine
 10
23089.623439654
 20
711.0693031277892
 30
0.0
 11
22868.82370554935
 21
711.0693031277892
 31
0.0
  0
LINE
  5
3BDB
330
3BA3
100
AcDbEntity
  8
0
 62
     0
370
    -2
100
AcDbLine
 10
23304.50496267166
 20
2142.902966937779
 30
0.0
 11
22868.82370554935
 21
2142.902966937779
 31
0.0
  0
LINE
  5
3BDC
330
3BA3
100
AcDbEntity
  8
0
 62
     0
370
    -2
100
AcDbLine
 10
22870.07370554935
 20
734.0693031277892
 30
0.0
 11
22870.07370554935
 21
2119.902966937779
 31
0.0
  0
SOLID
  5
3BDD
330
3BA3
100
AcDbEntity
  8
0
 62
     0
100
AcDbTrace
 10
22866.24037221602
 20
734.0693031277892
 30
0.0
 11
22873.90703888268
 21
734.0693031277892
 31
0.0
 12
22870.07370554935
 22
711.0693031277892
 32
0.0
 13
22870.07370554935
 23
711.0693031277892
 33
0.0
  0
SOLID
  5
3BDE
330
3BA3
100
AcDbEntity
  8
0
 62
     0
100
AcDbTrace
 10
22866.24037221602
 20
2119.902966937779
 30
0.0
 11
22873.90703888268
 21
2119.902966937779
 31
0.0
 12
22870.07370554935
 22
2142.902966937779
 32
0.0
 13
22870.07370554935
 23
2142.902966937779
 33
0.0
  0
MTEXT
  5
3BDF
330
3BA3
100
AcDbEntity
  8
0
 62
     0
100
AcDbMText
 10
22857.69768235699
 20
1462.612068775607
 30
0.0
 40
23.0
 41
0.0
 71
     5
 72
     1
  1
1432
  7
style1
 11
6.123233995736766E-17
 21
1.0
 31
0.0
 73
     1
 44
1.0
  0
POINT
  5
3BE0
330
3BA3
100
AcDbEntity
  8
Defpoints
 62
     0
100
AcDbPoint
 10
23090.248439654
 20
711.0693031277892
 30
0.0
  0
POINT
  5
3BE1
330
3BA3
100
AcDbEntity
  8
Defpoints
 62
     0
100
AcDbPoint
 10
23305.12996267166
 20
2142.902966937779
 30
0.0
  0
POINT
  5
3BE2
330
3BA3
100
AcDbEntity
  8
Defpoints
 62
     0
100
AcDbPoint
 10
22870.07370554935
 20
2142.902966937779
 30
0.0
  0
ENDBLK
  5
3BA5
330
3BA3
100
AcDbEntity
  8
0
 48
0.13
100
AcDbBlockEnd
  0
BLOCK
  5
3BB0
330
3BAF
100
AcDbEntity
  8
0
 48
0.13
100
AcDbBlockBegin
  2
*D12
 70
     1
 10
0.0
 20
0.0
 30
0.0
  3
*D12
  1

  0
LINE
  5
3BCF
330
3BAF
100
AcDbEntity
  8
0
 62
     0
370
    -2
100
AcDbLine
 10
23039.41346369152
 20
695.4517155408557
 30
0.0
 11
22868.82370554935
 21
695.4517155408557
 31
0.0
  0
LINE
  5
3BD0
330
3BAF
100
AcDbEntity
  8
0
 62
     0
370
    -2
100
AcDbLine
 10
23039.41346369152
 20
711.0693031277892
 30
0.0
 11
22868.82370554935
 21
711.0693031277892
 31
0.0
  0
LINE
  5
3BD1
330
3BAF
100
AcDbEntity
  8
0
 62
     0
370
    -2
100
AcDbLine
 10
22870.07370554935
 20
734.0693031277892
 30
0.0
 11
22870.07370554935
 21
757.0693031277892
 31
0.0
  0
LINE
  5
3BD2
330
3BAF
100
AcDbEntity
  8
0
 62
     0
370
    -2
100
AcDbLine
 10
22870.07370554935
 20
672.4517155408557
 30
0.0
 11
22870.07370554935
 21
571.0591507386722
 31
0.0
  0
LINE
  5
3BD3
330
3BAF
100
AcDbEntity
  8
0
 62
     0
370
    -2
100
AcDbLine
 10
22870.07370554935
 20
711.0693031277892
 30
0.0
 11
22870.07370554935
 21
695.4517155408557
 31
0.0
  0
SOLID
  5
3BD4
330
3BAF
100
AcDbEntity
  8
0
 62
     0
100
AcDbTrace
 10
22866.24037221602
 20
734.0693031277892
 30
0.0
 11
22873.90703888268
 21
734.0693031277892
 31
0.0
 12
22870.07370554935
 22
711.0693031277892
 32
0.0
 13
22870.07370554935
 23
711.0693031277892
 33
0.0
  0
SOLID
  5
3BD5
330
3BAF
100
AcDbEntity
  8
0
 62
     0
100
AcDbTrace
 10
22866.24037221602
 20
672.4517155408557
 30
0.0
 11
22873.90703888268
 21
672.4517155408557
 31
0.0
 12
22870.07370554935
 22
695.4517155408557
 32
0.0
 13
22870.07370554935
 23
695.4517155408557
 33
0.0
  0
MTEXT
  5
3BD6
330
3BAF
100
AcDbEntity
  8
0
 62
     0
100
AcDbMText
 10
22857.70552683175
 20
610.2554331397674
 30
0.0
 40
23.0
 41
0.0
 71
     5
 72
     1
  1
15-20
  7
style1
 11
6.123233995736766E-17
 21
1.0
 31
0.0
 73
     1
 44
1.0
  0
POINT
  5
3BD7
330
3BAF
100
AcDbEntity
  8
Defpoints
 62
     0
100
AcDbPoint
 10
23040.03846369152
 20
695.4517155408557
 30
0.0
  0
POINT
  5
3BD8
330
3BAF
100
AcDbEntity
  8
Defpoints
 62
     0
100
AcDbPoint
 10
23040.03846369152
 20
711.0693031277892
 30
0.0
  0
POINT
  5
3BD9
330
3BAF
100
AcDbEntity
  8
Defpoints
 62
     0
100
AcDbPoint
 10
22870.07370554935
 20
711.0693031277892
 30
0.0
  0
ENDBLK
  5
3BB1
330
3BAF
100
AcDbEntity
  8
0
 48
0.13
100
AcDbBlockEnd
  0
BLOCK
  5
3C58
330
3C57
100
AcDbEntity
  8
0
 48
0.13
100
AcDbBlockBegin
  2
S 200 ZB
 70
     0
 10
0.0
 20
0.0
 30
0.0
  3
S 200 ZB
  1

  0
LWPOLYLINE
  5
3C5A
330
3C57
100
AcDbEntity
  8
0
 48
0.13
100
AcDbPolyline
 90
        4
 70
     0
 43
0.0
 10
23039.41346369152
 20
1364.77854220931
 10
23039.41346369152
 20
2111.571742530414
 10
23579.39173141222
 20
2111.571742530414
 10
23579.39173141222
 20
2061.551236042668
  0
HATCH
  5
3C5B
330
3C57
100
AcDbEntity
  8
Trazo
 48
0.13
100
AcDbHatch
 10
0.0
 20
0.0
 30
0.0
210
0.0
220
0.0
230
1.0
  2
ANSI37
 70
     0
 71
     0
 91
       12
 92
        7
 72
     1
 73
     1
 93
        8
 10
23579.39173141221
 20
2111.571742530414
 42
0.0
 10
23351.80067793469
 20
2111.571742530414
 42
0.0
 10
23351.80067793469
 20
2078.708169739473
 42
0.0
 10
23323.40523295769
 20
2078.708169739473
 42
0.0
 10
23323.4052329577
 20
2059.238510620398
 42
-0.0743918666408897
 10
23456.17969406901
 20
2029.177435161133
 42
-0.2289774189952607
 10
23507.06374892424
 20
2061.551236042668
 42
0.0
 10
23579.39173141221
 20
2061.551236042668
 42
0.0
 97
        0
 92
        7
 72
     1
 73
     1
 93
        9
 10
23288.7542716365
 20
2078.708169739473
 42
0.0
 10
23258.45924740864
 20
2078.708169739473
 42
0.0
 10
23258.45924740864
 20
2111.571742530414
 42
0.0
 10
23039.41346369152
 20
2111.571742530414
 42
0.0
 10
23039.41346369152
 20
1897.966758053128
 42
0.0
 10
23082.93633815111
 20
1897.966758053128
 42
0.0
 10
23082.93633815111
 20
1968.887478321964
 42
-0.2688663451281736
 10
23100.69884464489
 20
1999.918079841622
 42
-0.1170713385019382
 10
23288.7542716365
 20
2059.375656730401
 42
0.0
 97
        0
 92
        7
 72
     0
 73
     1
 93
       10
 10
23082.93633815111
 20
1897.966758053128
 10
23079.01316660941
 20
1897.966758053128
 10
23079.01316660941
 20
1889.150612104926
 10
23039.41346369152
 20
1889.150612104926
 10
23039.41346369152
 20
1364.77854220931
 10
23046.41870502024
 20
1364.77854220931
 10
23046.41870502024
 20
1368.762269736136
 10
23059.66376665722
 20
1368.762269736136
 10
23059.66376665722
 20
1373.970905647007
 10
23082.93633815111
 20
1373.970905647007
 97
        0
 92
        7
 72
     0
 73
     1
 93
       10
 10
23082.93633815111
 20
1316.819388977144
 10
23059.66376665722
 20
1316.819388977144
 10
23059.66376665722
 20
1320.07228244404
 10
23046.41870502024
 20
1320.07228244404
 10
23046.41870502024
 20
1322.949417409836
 10
23039.41346369152
 20
1322.949417409836
 10
23039.41346369152
 20
1063.671472441978
 10
23071.84851640358
 20
1063.671472441978
 10
23071.84851640358
 20
1026.02887332181
 10
23082.93633815111
 20
1026.02887332181
 97
        0
 92
        7
 72
     1
 73
     1
 93
        9
 10
23089.623439654
 20
807.2936011856241
 42
-0.2238027544372029
 10
23098.16081934316
 20
811.0618008552099
 42
-0.1061959415747009
 10
23085.23402884989
 20
834.5111078910518
 42
0.0
 10
23085.23402884989
 20
901.3309909888585
 42
0.0
 10
23073.03768254039
 20
901.3309909888586
 42
0.0
 10
23073.03768254039
 20
867.0880904616679
 42
0.0
 10
23039.41346369152
 20
867.088090461668
 42
0.0
 10
23039.41346369152
 20
734.9666009548928
 42
0.0
 10
23089.623439654
 20
734.9666009548928
 42
0.0
 97
        0
 92
        7
 72
     1
 73
     1
 93
        4
 10
23131.95493872782
 20
790.6459094525302
 42
0.0
 10
23131.95493872782
 20
734.9666009548929
 42
0.0
 10
23305.12996267166
 20
734.9666009548927
 42
0.0
 10
23305.12996267166
 20
753.4493396966805
 42
-0.1038167709449102
 97
        0
 92
        7
 72
     1
 73
     1
 93
        6
 10
23455.32398025797
 20
779.7074518402214
 42
-0.0891165302253027
 10
23305.12996267166
 20
753.4493396966807
 42
0.0
 10
23305.12996267166
 20
734.9666009548928
 42
0.0
 10
23579.39173141222
 20
734.9666009548927
 42
0.0
 10
23579.39173141222
 20
750.6329743854922
 42
0.0
 10
23496.38117173018
 20
750.6329743854922
 42
-0.2012517474878769
 97
        0
 92
        7
 72
     1
 73
     1
 93
        7
 10
23579.39173141222
 20
891.5032728948962
 42
0.0
 10
23535.3122121602
 20
891.5032728948962
 42
0.0
 10
23535.3122121602
 20
835.2324469841719
 42
-0.1985438529787948
 10
23507.87803153592
 20
803.0236534755868
 42
-0.0171990602136219
 10
23481.17736094358
 20
790.1289363672294
 42
0.2467858432657655
 10
23505.25564504517
 20
776.5956032551785
 42
0.0
 10
23579.39173141222
 20
776.5956032551785
 42
0.0
 97
        0
 92
        7
 72
     0
 73
     1
 93
        4
 10
23579.39173141221
 20
1066.448946091406
 10
23535.31221216021
 20
1066.448946091406
 10
23535.31221216021
 20
926.2930498037304
 10
23579.39173141222
 20
926.2930498037305
 97
        0
 92
        7
 72
     0
 73
     1
 93
        4
 10
23579.39173141222
 20
1293.536769552019
 10
23535.31221216021
 20
1293.536769552019
 10
23535.31221216021
 20
1090.272067133471
 10
23579.39173141222
 20
1090.272067133471
 97
        0
 92
        7
 72
     0
 73
     1
 93
        4
 10
23579.39173141221
 20
1462.113870898988
 10
23535.31221216021
 20
1462.113870898987
 10
23535.31221216021
 20
1327.037204828478
 10
23579.39173141222
 20
1327.037204828478
 97
        0
 92
        7
 72
     1
 73
     1
 93
        7
 10
23579.39173141222
 20
2033.472741187351
 42
0.0
 10
23513.01353160729
 20
2033.472741187351
 42
0.2452400133126673
 10
23484.20185106635
 20
2017.18764298879
 42
-0.0210021505776547
 10
23518.47572701516
 20
1999.369121931021
 42
-0.2525319243916346
 10
23535.3122121602
 20
1970.001567523759
 42
0.0
 10
23535.31221216021
 20
1490.280674752013
 42
0.0
 10
23579.39173141221
 20
1490.280674752013
 42
0.0
 97
        0
 75
     0
 76
     1
 52
0.0
 41
5.0
 77
     0
 78
     2
 53
45.0
 43
23039.41346369152
 44
382.977556827024
 45
-11.22532015133644
 46
11.22532015133644
 79
     0
 53
135.0
 43
23039.41346369152
 44
382.977556827024
 45
-11.22532015133644
 46
-11.22532015133644
 79
     0
 47
3.085227317622508
 98
       12
 10
23452.28265714725
 20
2090.705890838397
 10
23171.23600040861
 20
2062.93884414539
 10
23060.05271363788
 20
1680.370656872637
 10
23069.31798694404
 20
1245.353601513539
 10
23075.49483818042
 20
791.8251848584359
 10
23171.23600040861
 20
754.8024591004269
 10
23443.01738384109
 20
751.7172306347597
 10
23548.02382647225
 20
807.2513240207722
 10
23548.02382647225
 20
983.1092800778124
 10
23563.46595101479
 20
1177.478600596856
 10
23566.55437308457
 20
1399.614967808907
 10
23560.37752184819
 20
1661.859292410633
1001
ACAD
1010
0.0
1020
0.0
1030
0.0
  0
LWPOLYLINE
  5
3C5C
330
3C57
100
AcDbEntity
  8
0
 48
0.13
100
AcDbPolyline
 90
        2
 70
     0
 43
0.0
 10
23579.39173141222
 20
2033.472741187351
 10
23579.39173141222
 20
1490.280674752012
  0
LWPOLYLINE
  5
3C5D
330
3C57
100
AcDbEntity
  8
0
 48
0.13
100
AcDbPolyline
 90
        2
 70
     0
 43
0.0
 10
23579.39173141222
 20
1462.113870898988
 10
23579.39173141222
 20
1327.037204828478
  0
LWPOLYLINE
  5
3C5E
330
3C57
100
AcDbEntity
  8
0
 48
0.13
100
AcDbPolyline
 90
        2
 70
     0
 43
0.0
 10
23579.39173141222
 20
1293.536769552019
 10
23579.39173141222
 20
1090.272067133471
  0
LWPOLYLINE
  5
3C5F
330
3C57
100
AcDbEntity
  8
0
 48
0.13
100
AcDbPolyline
 90
        2
 70
     0
 43
0.0
 10
23579.39173141222
 20
1066.448946091406
 10
23579.39173141222
 20
926.2930498037304
  0
LWPOLYLINE
  5
3C60
330
3C57
100
AcDbEntity
  8
0
 48
0.13
100
AcDbPolyline
 90
        2
 70
     0
 43
0.0
 10
23579.39173141222
 20
891.5032728948966
 10
23579.39173141222
 20
776.5956032551785
  0
LWPOLYLINE
  5
3C61
330
3C57
100
AcDbEntity
  8
0
 48
0.13
100
AcDbPolyline
 90
        3
 70
     0
 43
0.0
 10
23579.39173141222
 20
750.6329743854922
 10
23579.39173141222
 20
734.9666009548928
 10
23131.95493872782
 20
734.9666009548928
  0
LWPOLYLINE
  5
3C62
330
3C57
100
AcDbEntity
  8
0
 48
0.13
100
AcDbPolyline
 90
        3
 70
     0
 43
0.0
 10
23089.623439654
 20
734.9666009548928
 10
23039.41346369152
 20
734.9666009548928
 10
23039.41346369152
 20
1322.949417409836
  0
ARC
  5
3C63
330
3C57
100
AcDbEntity
  8
0
 48
0.13
100
AcDbCircle
 10
23309.40259755187
 20
964.2461475230643
 30
0.0
 40
1178.664563547081
100
AcDbArc
 50
76.75805246864911
 51
103.2419475313512
  0
LWPOLYLINE
  5
3C64
330
3C57
100
AcDbEntity
  8
0
 48
0.13
100
AcDbPolyline
 90
        4
 70
     1
 43
0.0
 10
23258.45924740864
 20
2111.571742530414
 10
23351.80067793469
 20
2111.571742530414
 10
23351.80067793469
 20
2078.708169739473
 10
23258.45924740864
 20
2078.708169739473
  0
LINE
  5
3C65
330
3C57
100
AcDbEntity
  8
0
 48
0.13
100
AcDbLine
 10
23258.45924740864
 20
2086.614892444674
 30
0.0
 11
23288.7542716365
 21
2086.614892444674
 31
0.0
  0
LINE
  5
3C66
330
3C57
100
AcDbEntity
  8
0
 48
0.13
100
AcDbLine
 10
23322.87029163557
 20
2086.614892444674
 30
0.0
 11
23351.80067793469
 21
2086.614892444674
 31
0.0
  0
LWPOLYLINE
  5
3C67
330
3C57
100
AcDbEntity
  8
0
 48
0.13
100
AcDbPolyline
 90
        4
 70
     1
 43
0.0
 10
23288.7542716365
 20
2095.339553821817
 10
23322.87029163557
 20
2095.339553821817
 10
23322.87029163557
 20
2078.708169739473
 10
23288.7542716365
 20
2078.708169739473
  0
LWPOLYLINE
  5
3C68
330
3C57
100
AcDbEntity
  8
0
 48
0.13
100
AcDbPolyline
 90
        4
 70
     1
 43
0.0
 10
23288.7542716365
 20
2078.708169739473
 10
23323.4052329577
 20
2078.708169739473
 10
23323.4052329577
 20
2059.375656730401
 10
23288.7542716365
 20
2059.375656730401
  0
ARC
  5
3C69
330
3C57
100
AcDbEntity
  8
0
 48
0.13
100
AcDbCircle
 10
23319.95505135853
 20
1633.567865476175
 30
0.0
 40
426.9493690685879
100
AcDbArc
 50
94.19082009580318
 51
121.0431689534537
  0
LINE
  5
3C6A
330
3C57
100
AcDbEntity
  8
0
 48
0.13
100
AcDbLine
 10
23082.93633815111
 20
1968.887478321964
 30
0.0
 11
23082.93633815111
 21
1374.492921334551
 31
0.0
  0
ARC
  5
3C6B
330
3C57
100
AcDbEntity
  8
0
 48
0.13
100
AcDbCircle
 10
23118.58500523278
 20
1969.080602302172
 30
0.0
 40
35.64919019517852
100
AcDbArc
 50
121.8288614250842
 51
180.3103925517418
  0
LINE
  5
3C6C
330
3C57
100
AcDbEntity
  8
0
 48
0.13
100
AcDbLine
 10
23029.67191200142
 20
1921.087967658801
 30
0.0
 11
23029.67191200142
 21
1869.00172240768
 31
0.0
  0
LINE
  5
3C6D
330
3C57
100
AcDbEntity
  8
0
 48
0.13
100
AcDbLine
 10
23029.67191200142
 20
1869.00172240768
 30
0.0
 11
23039.41346369152
 21
1869.00172240768
 31
0.0
  0
LINE
  5
3C6E
330
3C57
100
AcDbEntity
  8
0
 48
0.13
100
AcDbLine
 10
23029.67191200142
 20
1921.087967658801
 30
0.0
 11
23039.41346369152
 21
1927.439950782966
 31
0.0
  0
LINE
  5
3C6F
330
3C57
100
AcDbEntity
  8
0
  6
ACAD_ISO04W100
 48
3.0
100
AcDbLine
 10
23098.34440605661
 20
1897.966758053128
 30
0.0
 11
23009.07016298729
 21
1897.966758053128
 31
0.0
  0
LINE
  5
3C70
330
3C57
100
AcDbEntity
  8
0
 48
0.13
100
AcDbLine
 10
23039.41346369152
 20
1889.150612104926
 30
0.0
 11
23079.01316660941
 21
1889.150612104926
 31
0.0
  0
LINE
  5
3C71
330
3C57
100
AcDbEntity
  8
0
 48
0.13
100
AcDbLine
 10
23079.01316660941
 20
1889.150612104926
 30
0.0
 11
23079.01316660941
 21
1897.966758053128
 31
0.0
  0
LWPOLYLINE
  5
3C72
330
3C57
100
AcDbEntity
  8
0
 48
0.13
100
AcDbPolyline
 90
        4
 70
     1
 43
0.0
 10
23059.66376665722
 20
1373.970905647007
 10
23103.59909274391
 20
1373.970905647007
 10
23103.59909274391
 20
1316.819388977144
 10
23059.66376665722
 20
1316.819388977144
  0
LWPOLYLINE
  5
3C73
330
3C57
100
AcDbEntity
  8
0
 48
0.13
100
AcDbPolyline
 90
        4
 70
     1
 43
0.0
 10
23059.66376665722
 20
1368.762269736136
 10
23046.41870502024
 20
1368.762269736136
 10
23046.41870502024
 20
1320.07228244404
 10
23059.66376665722
 20
1320.07228244404
  0
LWPOLYLINE
  5
3C74
330
3C57
100
AcDbEntity
  8
0
 48
0.13
100
AcDbPolyline
 90
        4
 70
     1
 43
0.0
 10
23046.41870502024
 20
1364.77854220931
 10
23034.01204937566
 20
1364.77854220931
 10
23034.01204937566
 20
1322.949417409836
 10
23046.41870502024
 20
1322.949417409836
  0
LWPOLYLINE
  5
3C75
330
3C57
100
AcDbEntity
  8
0
 48
0.13
100
AcDbPolyline
 90
        4
 70
     1
 43
0.0
 10
23024.70705963613
 20
1374.959178826971
 10
23034.01204937566
 20
1374.959178826971
 10
23034.01204937566
 20
1311.219556188003
 10
23024.70705963613
 20
1311.219556188003
  0
LWPOLYLINE
  5
3C76
330
3C57
100
AcDbEntity
  8
0
 48
0.13
100
AcDbPolyline
 90
        4
 70
     1
 43
0.0
 10
23015.4020698966
 20
1374.959178826971
 10
23024.70705963613
 20
1374.959178826971
 10
23024.70705963613
 20
1311.219556188003
 10
23015.4020698966
 20
1311.219556188003
  0
LINE
  5
3C77
330
3C57
100
AcDbEntity
  8
0
  6
ACAD_ISO04W100
 48
3.0
100
AcDbLine
 10
23114.10991768279
 20
1345.395147312076
 30
0.0
 11
22963.44606147378
 21
1345.395147312076
 31
0.0
  0
LWPOLYLINE
  5
3C78
330
3C57
100
AcDbEntity
  8
0
 48
0.13
100
AcDbPolyline
 90
        6
 70
     1
 43
0.0
 10
22994.03054440278
 20
1063.671472441978
 10
23000.64396782043
 20
1063.671472441978
 10
23000.64396782043
 20
864.6521251806321
 10
22994.03054440278
 20
864.6521251806321
 42
-0.414213562373095
 10
22990.03054440278
 20
868.6521251806321
 10
22990.03054440278
 20
1059.671472441978
 42
-0.414213562373095
  0
HATCH
  5
3C79
330
3C57
100
AcDbEntity
  8
Trazo
 48
0.13
100
AcDbHatch
 10
0.0
 20
0.0
 30
0.0
210
0.0
220
0.0
230
1.0
  2
ANSI37
 70
     0
 71
     0
 91
        2
 92
        7
 72
     0
 73
     1
 93
        4
 10
23023.90393782206
 20
1063.671472441978
 10
23000.64396782043
 20
1063.671472441978
 10
23000.64396782043
 20
963.6799321553343
 10
23023.90393782206
 20
963.6799321553342
 97
        0
 92
        7
 72
     0
 73
     1
 93
        4
 10
23023.90393782206
 20
963.6799321553343
 10
23000.64396782043
 20
963.6799321553343
 10
23000.64396782043
 20
864.6521251806323
 10
23023.90393782206
 20
864.6521251806323
 97
        0
 75
     0
 76
     1
 52
0.0
 41
2.0
 77
     0
 78
     2
 53
45.0
 43
23000.64396782043
 44
864.6521251806323
 45
-4.490128060534576
 46
4.490128060534577
 79
     0
 53
135.0
 43
23000.64396782043
 44
864.6521251806323
 45
-4.490128060534577
 46
-4.490128060534576
 79
     0
 47
1.210842403987217
 98
        2
 10
23012.0057647602
 20
995.5384220523083
 10
23014.42995244212
 20
938.6288223038482
1001
ACAD
1010
0.0
1020
0.0
1030
0.0
  0
LWPOLYLINE
  5
3C7A
330
3C57
100
AcDbEntity
  8
0
 48
0.13
100
AcDbPolyline
 90
        4
 70
     1
 43
0.0
 10
23000.64396782043
 20
864.6521251806321
 10
23023.90393782206
 20
864.6521251806321
 10
23023.90393782206
 20
1063.671472441978
 10
23000.64396782043
 20
1063.671472441978
  0
LINE
  5
3C7B
330
3C57
100
AcDbEntity
  8
0
 48
0.13
100
AcDbLine
 10
23023.90393782206
 20
864.6521251806321
 30
0.0
 11
23039.41346369152
 21
864.6521251806321
 31
0.0
  0
LINE
  5
3C7C
330
3C57
100
AcDbEntity
  8
0
 48
0.13
100
AcDbLine
 10
23023.90393782206
 20
886.0175796356348
 30
0.0
 11
23039.41346369152
 21
886.0175796356348
 31
0.0
  0
LINE
  5
3C7D
330
3C57
100
AcDbEntity
  8
0
 48
0.13
100
AcDbLine
 10
23023.90393782206
 20
1063.671472441978
 30
0.0
 11
23039.41346369152
 21
1063.671472441978
 31
0.0
  0
LINE
  5
3C7E
330
3C57
100
AcDbEntity
  8
0
 48
0.13
100
AcDbLine
 10
23023.90393782206
 20
1044.778745036375
 30
0.0
 11
23039.41346369152
 21
1044.778745036375
 31
0.0
  0
LINE
  5
3C7F
330
3C57
100
AcDbEntity
  8
0
 48
0.13
100
AcDbLine
 10
23039.41346369152
 20
1063.671472441978
 30
0.0
 11
23071.84851640358
 21
1063.671472441978
 31
0.0
  0
LINE
  5
3C80
330
3C57
100
AcDbEntity
  8
0
 48
0.13
100
AcDbLine
 10
23071.84851640358
 20
1063.671472441978
 30
0.0
 11
23071.84851640358
 21
1026.02887332181
 31
0.0
  0
LINE
  5
3C81
330
3C57
100
AcDbEntity
  8
0
 48
0.13
100
AcDbLine
 10
23092.88827893258
 20
1026.02887332181
 30
0.0
 11
23039.41346369152
 21
1026.02887332181
 31
0.0
  0
LINE
  5
3C82
330
3C57
100
AcDbEntity
  8
0
 48
0.13
100
AcDbLine
 10
23082.93633815111
 20
1316.819388977144
 30
0.0
 11
23082.93633815111
 21
1026.02887332181
 31
0.0
  0
LINE
  5
3C83
330
3C57
100
AcDbEntity
  8
0
 48
0.13
100
AcDbLine
 10
23092.88827893258
 20
1026.02887332181
 30
0.0
 11
23092.88827893258
 21
901.3309909888585
 31
0.0
  0
LINE
  5
3C84
330
3C57
100
AcDbEntity
  8
0
 48
0.13
100
AcDbLine
 10
23092.88827893258
 20
901.3309909888585
 30
0.0
 11
23039.41346369152
 21
901.3309909888585
 31
0.0
  0
LINE
  5
3C85
330
3C57
100
AcDbEntity
  8
0
 48
0.13
100
AcDbLine
 10
23057.35594691087
 20
1016.470713921867
 30
0.0
 11
23057.35594691087
 21
913.399247633045
 31
0.0
  0
LINE
  5
3C86
330
3C57
100
AcDbEntity
  8
0
 48
0.13
100
AcDbLine
 10
23057.35594691087
 20
913.399247633045
 30
0.0
 11
23039.41346369152
 21
905.6303780011585
 31
0.0
  0
LINE
  5
3C87
330
3C57
100
AcDbEntity
  8
0
 48
0.13
100
AcDbLine
 10
23057.35594691087
 20
1016.470713921867
 30
0.0
 11
23039.41346369152
 21
1024.239583553753
 31
0.0
  0
LINE
  5
3C88
330
3C57
100
AcDbEntity
  8
0
  6
ACAD_ISO04W100
 48
3.0
100
AcDbLine
 10
23108.77405505357
 20
963.6799321553343
 30
0.0
 11
22972.80203142757
 21
963.6799321553343
 31
0.0
  0
LINE
  5
3C89
330
3C57
100
AcDbEntity
  8
0
 48
0.13
100
AcDbLine
 10
23085.23402884989
 20
901.3309909888585
 30
0.0
 11
23085.23402884989
 21
834.5111078910518
 31
0.0
  0
LWPOLYLINE
  5
3C8A
330
3C57
100
AcDbEntity
  8
0
 48
0.13
100
AcDbPolyline
 90
        4
 70
     1
 43
0.0
 10
23039.41346369152
 20
901.3309909888585
 10
23073.03768254039
 20
901.3309909888585
 10
23073.03768254039
 20
867.0880904616679
 10
23039.41346369152
 20
867.0880904616679
  0
ARC
  5
3C8B
330
3C57
100
AcDbEntity
  8
0
 48
0.13
100
AcDbCircle
 10
23146.27779530174
 20
852.8747219085576
 30
0.0
 40
63.7460880557509
100
AcDbArc
 50
196.742706298279
 51
256.5213477486282
  0
LINE
  5
3C8C
330
3C57
100
AcDbEntity
  8
0
 48
0.13
100
AcDbLine
 10
23089.623439654
 20
807.2936011856241
 30
0.0
 11
23089.623439654
 21
711.0693031277892
 31
0.0
  0
LINE
  5
3C8D
330
3C57
100
AcDbEntity
  8
0
 48
0.13
100
AcDbLine
 10
23089.623439654
 20
711.0693031277892
 30
0.0
 11
23099.17653522977
 21
711.0693031277892
 31
0.0
  0
LINE
  5
3C8E
330
3C57
100
AcDbEntity
  8
0
 48
0.13
100
AcDbLine
 10
23123.22026222065
 20
711.0693031277892
 30
0.0
 11
23131.95493872782
 21
711.0693031277892
 31
0.0
  0
LINE
  5
3C8F
330
3C57
100
AcDbEntity
  8
0
 48
0.13
100
AcDbLine
 10
23131.95493872782
 20
711.0693031277892
 30
0.0
 11
23131.95493872782
 21
790.6512723982507
 31
0.0
  0
ARC
  5
3C90
330
3C57
100
AcDbEntity
  8
0
 48
0.13
100
AcDbCircle
 10
23307.14968558115
 20
1184.573836612521
 30
0.0
 40
431.1292278674314
100
AcDbArc
 50
245.9455858737546
 51
297.7482456476414
  0
ARC
  5
3C91
330
3C57
100
AcDbEntity
  8
0
 48
0.13
100
AcDbCircle
 10
23097.89058265227
 20
800.118650084789
 30
0.0
 40
10.94648695487585
100
AcDbArc
 50
88.58539136023214
 51
139.0456915633046
  0
LINE
  5
3C92
330
3C57
100
AcDbEntity
  8
0
 48
0.13
100
AcDbLine
 10
23089.623439654
 20
728.2683306543831
 30
0.0
 11
23131.95493872782
 21
728.2683306543814
 31
0.0
  0
ARC
  5
3C93
330
3C57
100
AcDbEntity
  8
0
 48
0.13
100
AcDbCircle
 10
23111.19839872521
 20
708.9613874191332
 30
0.0
 40
12.2052656889471
100
AcDbArc
 50
9.945156118243057
 51
170.054843881754
  0
LINE
  5
3C94
330
3C57
100
AcDbEntity
  8
0
 48
0.13
100
AcDbLine
 10
23111.19839872521
 20
708.9613874191332
 30
0.0
 11
23111.19839872521
 21
742.1433470901138
 31
0.0
  0
LWPOLYLINE
  5
3C95
330
3C57
100
AcDbEntity
  8
0
 48
0.13
100
AcDbPolyline
 90
        4
 70
     1
 43
0.0
 10
23288.7542716365
 20
2059.375656730401
 10
23319.39934617787
 20
2059.375656730401
 10
23319.39934617787
 20
1375.151000396466
 10
23288.7542716365
 20
1375.151000396466
  0
LINE
  5
3C96
330
3C57
100
AcDbEntity
  8
0
  6
ACAD_ISO04W100
 48
3.0
100
AcDbLine
 10
23305.12996267166
 20
734.9666009548928
 30
0.0
 11
23305.12996267166
 21
2168.189530413482
 31
0.0
  0
LWPOLYLINE
  5
3C97
330
3C57
100
AcDbEntity
  8
0
 48
0.13
100
AcDbPolyline
 90
        4
 70
     1
 43
0.0
 10
23369.05125947262
 20
734.9666009548928
 10
23445.66877108099
 20
734.9666009548928
 10
23445.66877108099
 20
711.300074666146
 10
23369.05125947262
 20
711.300074666146
  0
LINE
  5
3C98
330
3C57
100
AcDbEntity
  8
0
 48
0.13
100
AcDbLine
 10
23505.25564504517
 20
776.5956032551785
 30
0.0
 11
23608.26295450273
 21
776.5956032551785
 31
0.0
  0
LINE
  5
3C99
330
3C57
100
AcDbEntity
  8
0
 48
0.13
100
AcDbLine
 10
23608.26295450273
 20
776.5956032551785
 30
0.0
 11
23608.26295450273
 21
750.6329743854922
 31
0.0
  0
LINE
  5
3C9A
330
3C57
100
AcDbEntity
  8
0
 48
0.13
100
AcDbLine
 10
23608.26295450273
 20
750.6329743854922
 30
0.0
 11
23496.38117173018
 21
750.6329743854922
 31
0.0
  0
LINE
  5
3C9B
330
3C57
100
AcDbEntity
  8
0
 48
0.13
100
AcDbLine
 10
23592.09873325653
 20
750.6329743854922
 30
0.0
 11
23592.09873325653
 21
776.5956032551785
 31
0.0
  0
LINE
  5
3C9C
330
3C57
100
AcDbEntity
  8
0
  6
ACAD_ISO04W100
 48
3.0
100
AcDbLine
 10
23608.26295450273
 20
763.6142888203353
 30
0.0
 11
23504.30480662466
 21
763.6142888203353
 31
0.0
  0
ARC
  5
3C9D
330
3C57
100
AcDbEntity
  8
0
 48
0.13
100
AcDbCircle
 10
23506.09113646305
 20
806.2686063209168
 30
0.0
 40
29.68476304181435
100
AcDbArc
 50
212.448475586782
 51
268.3871707366627
  0
ARC
  5
3C9E
330
3C57
100
AcDbEntity
  8
0
  6
ACAD_ISO04W100
 48
3.0
100
AcDbCircle
 10
23504.97474352921
 20
806.0407497742463
 30
0.0
 40
42.43174995837589
100
AcDbArc
 50
209.7387128849812
 51
269.0953436487407
  0
ARC
  5
3C9F
330
3C57
100
AcDbEntity
  8
0
 48
0.13
100
AcDbCircle
 10
23510.50680333265
 20
814.1067846944566
 30
0.0
 40
65.02659504623374
100
AcDbArc
 50
211.5691790612968
 51
257.4536968598534
  0
LINE
  5
3CA0
330
3C57
100
AcDbEntity
  8
0
 48
0.13
100
AcDbLine
 10
23437.84260633647
 20
793.3324479273697
 30
0.0
 11
23474.06362586152
 21
809.7232722769354
 31
0.0
  0
LINE
  5
3CA1
330
3C57
100
AcDbEntity
  8
0
 48
0.13
100
AcDbLine
 10
23488.94150107944
 20
793.8508198766499
 30
0.0
 11
23488.94150107944
 21
805.0843619405609
 31
0.0
  0
ARC
  5
3CA2
330
3C57
100
AcDbEntity
  8
0
 48
0.13
100
AcDbCircle
 10
23478.35203434853
 20
797.2994659254185
 30
0.0
 40
13.1431127063404
100
AcDbArc
 50
36.32163999803296
 51
109.0434812079961
  0
LINE
  5
3CA3
330
3C57
100
AcDbEntity
  8
0
 48
0.13
100
AcDbLine
 10
23535.3122121602
 20
891.5032728948963
 30
0.0
 11
23535.3122121602
 21
835.2324469841719
 31
0.0
  0
ARC
  5
3CA4
330
3C57
100
AcDbEntity
  8
0
 48
0.13
100
AcDbCircle
 10
23482.63756498446
 20
852.3105614404217
 30
0.0
 40
55.3740051691193
100
AcDbArc
 50
297.1175761281757
 51
342.0363275868365
  0
LINE
  5
3CA5
330
3C57
100
AcDbEntity
  8
0
 48
0.13
100
AcDbLine
 10
23612.92916351978
 20
891.5032728948963
 30
0.0
 11
23478.70462010573
 21
891.5032728948963
 31
0.0
  0
LINE
  5
3CA6
330
3C57
100
AcDbEntity
  8
0
 48
0.13
100
AcDbLine
 10
23612.92916351978
 20
891.5032728948963
 30
0.0
 11
23612.92916351978
 21
926.2930498037304
 31
0.0
  0
LINE
  5
3CA7
330
3C57
100
AcDbEntity
  8
0
 48
0.13
100
AcDbLine
 10
23612.92916351978
 20
926.2930498037304
 30
0.0
 11
23476.52800639754
 21
926.2930498037304
 31
0.0
  0
LINE
  5
3CA8
330
3C57
100
AcDbEntity
  8
0
 48
0.13
100
AcDbLine
 10
23587.17257111372
 20
926.2930498037304
 30
0.0
 11
23587.17257111372
 21
891.5032728948963
 31
0.0
  0
LINE
  5
3CA9
330
3C57
100
AcDbEntity
  8
0
  6
ACAD_ISO04W100
 48
3.0
100
AcDbLine
 10
23634.65406707766
 20
908.8981613493133
 30
0.0
 11
23483.20966528706
 21
908.8981613493133
 31
0.0
  0
LINE
  5
3CAA
330
3C57
100
AcDbEntity
  8
0
 48
0.13
100
AcDbLine
 10
23476.52800639754
 20
926.2930498037304
 30
0.0
 11
23182.95265943274
 21
863.644579300447
 31
0.0
  0
LINE
  5
3CAB
330
3C57
100
AcDbEntity
  8
0
 48
0.13
100
AcDbLine
 10
23478.70462010573
 20
891.5032728948963
 30
0.0
 11
23191.58443576966
 21
830.2323229147796
 31
0.0
  0
ARC
  5
3CAC
330
3C57
100
AcDbEntity
  8
0
 48
0.13
100
AcDbCircle
 10
23188.16036988876
 20
847.1688459193174
 30
0.0
 40
17.27917933930324
100
AcDbArc
 50
107.540895341761
 51
281.4294616127904
  0
LINE
  5
3CAD
330
3C57
100
AcDbEntity
  8
0
 48
0.13
100
AcDbLine
 10
23464.80649145885
 20
970.4283802917607
 30
0.0
 11
23171.23114449404
 21
907.7799097884774
 31
0.0
  0
LINE
  5
3CAE
330
3C57
100
AcDbEntity
  8
0
 48
0.13
100
AcDbLine
 10
23466.98310516704
 20
935.6386033829267
 30
0.0
 11
23179.86292083096
 21
874.36765340281
 31
0.0
  0
ARC
  5
3CAF
330
3C57
100
AcDbEntity
  8
0
 48
0.13
100
AcDbCircle
 10
23466.3035148413
 20
953.0590630849196
 30
0.0
 40
17.43371042662663
100
AcDbArc
 50
272.2340353567409
 51
94.92602433982547
  0
ARC
  5
3CB0
330
3C57
100
AcDbEntity
  8
0
 48
0.13
100
AcDbCircle
 10
23172.01934810168
 20
890.1624338625011
 30
0.0
 40
17.63509917549171
100
AcDbArc
 50
92.56169750711052
 51
296.40865944744
  0
LINE
  5
3CB1
330
3C57
100
AcDbEntity
  8
0
 48
0.13
100
AcDbLine
 10
23205.73039987973
 20
868.5053096556289
 30
0.0
 11
23260.56359118648
 21
891.5890366648338
 31
0.0
  0
LINE
  5
3CB2
330
3C57
100
AcDbEntity
  8
0
 48
0.13
100
AcDbLine
 10
23427.02343792962
 20
927.1112796136578
 30
0.0
 11
23438.24163179807
 21
918.1228037848781
 31
0.0
  0
LINE
  5
3CB3
330
3C57
100
AcDbEntity
  8
0
 48
0.13
100
AcDbLine
 10
23171.23114449404
 20
907.7799097884767
 30
0.0
 11
23417.78042400749
 21
1027.912641299064
 31
0.0
  0
LINE
  5
3CB4
330
3C57
100
AcDbEntity
  8
0
 48
0.13
100
AcDbLine
 10
23318.01881797644
 20
939.1041450401191
 30
0.0
 11
23487.08966828742
 21
1019.404059441275
 31
0.0
  0
LINE
  5
3CB5
330
3C57
100
AcDbEntity
  8
0
 48
0.13
100
AcDbLine
 10
23177.91327995805
 20
1053.806753060652
 30
0.0
 11
23488.46875754527
 21
1020.281702030072
 31
0.0
  0
LINE
  5
3CB6
330
3C57
100
AcDbEntity
  8
0
 48
0.13
100
AcDbLine
 10
23175.28803495489
 20
1090.897927689449
 30
0.0
 11
23483.49762152444
 21
1056.762052678248
 31
0.0
  0
ARC
  5
3CB7
330
3C57
100
AcDbEntity
  8
0
 48
0.13
100
AcDbCircle
 10
23476.69730895271
 20
1037.256500935709
 30
0.0
 40
20.65697944652369
100
AcDbArc
 50
300.2047711066955
 51
70.77967142285361
  0
ARC
  5
3CB8
330
3C57
100
AcDbEntity
  8
0
 48
0.13
100
AcDbCircle
 10
23184.98377400411
 20
1072.945681919174
 30
0.0
 40
20.40319788432489
100
AcDbArc
 50
118.3728177553491
 51
249.724258786433
  0
LINE
  5
3CB9
330
3C57
100
AcDbEntity
  8
0
 48
0.13
100
AcDbLine
 10
23175.28803495489
 20
1090.897927689449
 30
0.0
 11
23320.32863301068
 21
1114.016473369057
 31
0.0
  0
LINE
  5
3CBA
330
3C57
100
AcDbEntity
  8
0
 48
0.13
100
AcDbLine
 10
23312.19184892307
 20
1075.735091470791
 30
0.0
 11
23475.04802220909
 21
1103.858851912694
 31
0.0
  0
LINE
  5
3CBB
330
3C57
100
AcDbEntity
  8
0
 48
0.13
100
AcDbLine
 10
23403.39359116316
 20
1090.272067133471
 30
0.0
 11
23603.39151773113
 21
1090.272067133471
 31
0.0
  0
LINE
  5
3CBC
330
3C57
100
AcDbEntity
  8
0
 48
0.13
100
AcDbLine
 10
23603.39151773113
 20
1090.272067133471
 30
0.0
 11
23603.39151773113
 21
1066.448946091406
 31
0.0
  0
LINE
  5
3CBD
330
3C57
100
AcDbEntity
  8
0
 48
0.13
100
AcDbLine
 10
23603.39151773113
 20
1066.448946091406
 30
0.0
 11
23396.03557717863
 21
1066.448946091406
 31
0.0
  0
LINE
  5
3CBE
330
3C57
100
AcDbEntity
  8
0
 48
0.13
100
AcDbLine
 10
23592.1191617559
 20
1066.448946091406
 30
0.0
 11
23592.1191617559
 21
1090.272067133471
 31
0.0
  0
LINE
  5
3CBF
330
3C57
100
AcDbEntity
  8
0
 48
0.13
100
AcDbLine
 10
23535.3122121602
 20
926.2930498037304
 30
0.0
 11
23535.3122121602
 21
1066.448946091406
 31
0.0
  0
LINE
  5
3CC0
330
3C57
100
AcDbEntity
  8
0
 48
0.13
100
AcDbLine
 10
23535.31221216021
 20
1090.272067133471
 30
0.0
 11
23535.31221216021
 21
1293.536769552019
 31
0.0
  0
LINE
  5
3CC1
330
3C57
100
AcDbEntity
  8
0
 48
0.13
100
AcDbLine
 10
23535.31221216021
 20
1327.037204828478
 30
0.0
 11
23535.3122121602
 21
1970.001567523759
 31
0.0
  0
LINE
  5
3CC2
330
3C57
100
AcDbEntity
  8
0
 48
0.13
100
AcDbLine
 10
23181.50683434531
 20
1162.9880918516
 30
0.0
 11
23478.68381489068
 21
1139.44991028932
 31
0.0
  0
LINE
  5
3CC3
330
3C57
100
AcDbEntity
  8
0
 48
0.13
100
AcDbLine
 10
23174.27623061033
 20
1127.711623408371
 30
0.0
 11
23482.35670800564
 21
1103.279960597004
 31
0.0
  0
ARC
  5
3CC4
330
3C57
100
AcDbEntity
  8
0
 48
0.13
100
AcDbCircle
 10
23477.00184984284
 20
1121.0076568218
 30
0.0
 40
18.51879368053917
100
AcDbArc
 50
286.8075560799276
 51
84.78894313177915
  0
ARC
  5
3CC5
330
3C57
100
AcDbEntity
  8
0
 48
0.13
100
AcDbCircle
 10
23182.34302199815
 20
1144.437437589873
 30
0.0
 40
18.56949065884386
100
AcDbArc
 50
92.58091244375349
 51
244.2521778775156
  0
LINE
  5
3CC6
330
3C57
100
AcDbEntity
  8
0
 48
0.13
100
AcDbLine
 10
23181.50683434531
 20
1209.58097498376
 30
0.0
 11
23478.68381489068
 21
1186.042793421479
 31
0.0
  0
LINE
  5
3CC7
330
3C57
100
AcDbEntity
  8
0
 48
0.13
100
AcDbLine
 10
23174.27623061033
 20
1174.30450654053
 30
0.0
 11
23482.35670800564
 21
1149.872843729164
 31
0.0
  0
ARC
  5
3CC8
330
3C57
100
AcDbEntity
  8
0
 48
0.13
100
AcDbCircle
 10
23477.00184984284
 20
1167.60053995396
 30
0.0
 40
18.51879368053917
100
AcDbArc
 50
286.8075560799276
 51
84.78894313177913
  0
ARC
  5
3CC9
330
3C57
100
AcDbEntity
  8
0
 48
0.13
100
AcDbCircle
 10
23182.34302199815
 20
1191.030320722033
 30
0.0
 40
18.56949065884386
100
AcDbArc
 50
92.58091244375349
 51
244.2521778775156
  0
LINE
  5
3CCA
330
3C57
100
AcDbEntity
  8
0
 48
0.13
100
AcDbLine
 10
23181.50683434531
 20
1258.626122645087
 30
0.0
 11
23478.68381489068
 21
1235.087941082807
 31
0.0
  0
LINE
  5
3CCB
330
3C57
100
AcDbEntity
  8
0
 48
0.13
100
AcDbLine
 10
23174.27623061033
 20
1223.349654201857
 30
0.0
 11
23482.35670800564
 21
1198.917991390491
 31
0.0
  0
ARC
  5
3CCC
330
3C57
100
AcDbEntity
  8
0
 48
0.13
100
AcDbCircle
 10
23477.00184984284
 20
1216.645687615287
 30
0.0
 40
18.51879368053917
100
AcDbArc
 50
286.8075560799276
 51
84.78894313177918
  0
ARC
  5
3CCD
330
3C57
100
AcDbEntity
  8
0
 48
0.13
100
AcDbCircle
 10
23182.34302199815
 20
1240.07546838336
 30
0.0
 40
18.56949065884386
100
AcDbArc
 50
92.5809124437535
 51
244.2521778775156
  0
LINE
  5
3CCE
330
3C57
100
AcDbEntity
  8
0
 48
0.13
100
AcDbLine
 10
23181.50683434531
 20
1304.140591833703
 30
0.0
 11
23478.68381489068
 21
1280.602410271423
 31
0.0
  0
LINE
  5
3CCF
330
3C57
100
AcDbEntity
  8
0
 48
0.13
100
AcDbLine
 10
23174.27623061033
 20
1268.864123390474
 30
0.0
 11
23482.35670800564
 21
1244.432460579107
 31
0.0
  0
ARC
  5
3CD0
330
3C57
100
AcDbEntity
  8
0
 48
0.13
100
AcDbCircle
 10
23477.00184984284
 20
1262.160156803903
 30
0.0
 40
18.51879368053917
100
AcDbArc
 50
286.8075560799277
 51
84.78894313177918
  0
ARC
  5
3CD1
330
3C57
100
AcDbEntity
  8
0
 48
0.13
100
AcDbCircle
 10
23182.34302199815
 20
1285.589937571976
 30
0.0
 40
18.56949065884386
100
AcDbArc
 50
92.58091244375349
 51
244.2521778775156
  0
LINE
  5
3CD2
330
3C57
100
AcDbEntity
  8
0
 48
0.13
100
AcDbLine
 10
23181.50683434531
 20
1304.140591833703
 30
0.0
 11
23469.58070684822
 21
1327.037204828478
 31
0.0
  0
LINE
  5
3CD3
330
3C57
100
AcDbEntity
  8
0
 48
0.13
100
AcDbLine
 10
23416.77534469359
 20
1285.505928737314
 30
0.0
 11
23480.80843440653
 21
1293.536769552019
 31
0.0
  0
LINE
  5
3CD4
330
3C57
100
AcDbEntity
  8
0
 48
0.13
100
AcDbLine
 10
23480.80843440653
 20
1293.536769552019
 30
0.0
 11
23612.78548692595
 21
1293.536769552019
 31
0.0
  0
LINE
  5
3CD5
330
3C57
100
AcDbEntity
  8
0
 48
0.13
100
AcDbLine
 10
23612.78548692595
 20
1293.536769552019
 30
0.0
 11
23612.78548692595
 21
1327.037204828478
 31
0.0
  0
LINE
  5
3CD6
330
3C57
100
AcDbEntity
  8
0
 48
0.13
100
AcDbLine
 10
23612.78548692595
 20
1327.037204828478
 30
0.0
 11
23469.58070684821
 21
1327.037204828478
 31
0.0
  0
LINE
  5
3CD7
330
3C57
100
AcDbEntity
  8
0
 48
0.13
100
AcDbLine
 10
23590.17943351262
 20
1293.536769552019
 30
0.0
 11
23590.17943351262
 21
1327.037204828478
 31
0.0
  0
LINE
  5
3CD8
330
3C57
100
AcDbEntity
  8
0
 48
0.13
100
AcDbLine
 10
23535.31221216021
 20
1490.280674752013
 30
0.0
 11
23593.282199661
 21
1490.280674752013
 31
0.0
  0
LINE
  5
3CD9
330
3C57
100
AcDbEntity
  8
0
 48
0.13
100
AcDbLine
 10
23593.282199661
 20
1490.280674752013
 30
0.0
 11
23593.282199661
 21
1462.113870898988
 31
0.0
  0
LINE
  5
3CDA
330
3C57
100
AcDbEntity
  8
0
 48
0.13
100
AcDbLine
 10
23593.282199661
 20
1462.113870898988
 30
0.0
 11
23535.31221216021
 21
1462.113870898987
 31
0.0
  0
LWPOLYLINE
  5
3CDB
330
3C57
100
AcDbEntity
  8
0
 48
0.13
100
AcDbPolyline
 90
        4
 70
     1
 43
0.0
 10
23535.31221216021
 20
1490.280674752013
 10
23531.00218413986
 20
1490.280674752013
 10
23531.00218413986
 20
1462.113870898987
 10
23535.31221216021
 20
1462.113870898987
  0
LWPOLYLINE
  5
3CDC
330
3C57
100
AcDbEntity
  8
0
 48
0.13
100
AcDbPolyline
 90
        4
 70
     1
 43
0.0
 10
23593.282199661
 20
1488.494704300846
 10
23612.35752892891
 20
1488.494704300846
 10
23612.35752892891
 20
1464.428913468845
 10
23593.282199661
 20
1464.428913468845
  0
LINE
  5
3CDD
330
3C57
100
AcDbEntity
  8
0
  6
ACAD_ISO04W100
 48
3.0
100
AcDbLine
 10
23628.36480509748
 20
1476.461808884846
 30
0.0
 11
23518.14456123476
 21
1476.461808884846
 31
0.0
  0
LINE
  5
3CDE
330
3C57
100
AcDbEntity
  8
0
 48
0.13
100
AcDbLine
 10
23593.64336990245
 20
2061.551236042668
 30
0.0
 11
23507.06374892424
 21
2061.551236042668
 31
0.0
  0
LINE
  5
3CDF
330
3C57
100
AcDbEntity
  8
0
 48
0.13
100
AcDbLine
 10
23593.64336990245
 20
2061.551236042668
 30
0.0
 11
23593.64336990245
 21
2033.472741187351
 31
0.0
  0
LINE
  5
3CE0
330
3C57
100
AcDbEntity
  8
0
 48
0.13
100
AcDbLine
 10
23593.64336990245
 20
2033.472741187351
 30
0.0
 11
23513.01353160729
 21
2033.472741187351
 31
0.0
  0
LWPOLYLINE
  5
3CE1
330
3C57
100
AcDbEntity
  8
0
 48
0.13
100
AcDbPolyline
 90
        4
 70
     1
 43
0.0
 10
23593.64336990246
 20
2058.681899820119
 10
23611.90303674456
 20
2058.681899820119
 10
23611.90303674456
 20
2035.317309669174
 10
23593.64336990246
 20
2035.317309669174
  0
ARC
  5
3CE2
330
3C57
100
AcDbEntity
  8
0
 48
0.13
100
AcDbCircle
 10
23289.32881636438
 20
1600.477786671817
 30
0.0
 40
460.0245689152561
100
AcDbArc
 50
60.12437783485645
 51
85.98911949472682
  0
ARC
  5
3CE3
330
3C57
100
AcDbEntity
  8
0
 48
0.13
100
AcDbCircle
 10
23499.67492011054
 20
1969.080602302172
 30
0.0
 40
35.64919019517852
100
AcDbArc
 50
1.480350360358983
 51
58.17113857480181
  0
ARC
  5
3CE4
330
3C57
100
AcDbEntity
  8
0
 48
0.13
100
AcDbCircle
 10
23515.11456690546
 20
1992.721404075961
 30
0.0
 40
69.29907242331565
100
AcDbArc
 50
96.6714004183599
 51
148.2598251815766
  0
ARC
  5
3CE5
330
3C57
100
AcDbEntity
  8
0
 48
0.13
100
AcDbCircle
 10
23514.2104357672
 20
1997.725735387287
 30
0.0
 40
35.76703794330506
100
AcDbArc
 50
91.91769759153937
 51
147.0347896258043
  0
LINE
  5
3CE6
330
3C57
100
AcDbEntity
  8
0
  6
ACAD_ISO04W100
 48
3.0
100
AcDbLine
 10
23611.90303674456
 20
2046.999604744647
 30
0.0
 11
23508.79176902808
 21
2046.999604744647
 31
0.0
  0
ARC
  5
3CE7
330
3C57
100
AcDbEntity
  8
0
 48
0.13
100
AcDbCircle
 10
23513.28342134126
 20
2000.953178931779
 30
0.0
 40
46.26497887865553
100
AcDbArc
 50
95.57135729600607
 51
152.2077226760502
  0
LINE
  5
3CE8
330
3C57
100
AcDbEntity
  8
0
  6
ACAD_ISO04W100
 48
3.0
100
AcDbLine
 10
23590.17943351262
 20
1310.286987190249
 30
0.0
 11
23437.86520789397
 21
1310.286987190249
 31
0.0
  0
LINE
  5
3CE9
330
3C57
100
AcDbEntity
  8
0
  6
ACAD_ISO04W100
 48
4.0
100
AcDbLine
 10
23437.86520789397
 20
1310.286987190249
 30
0.0
 11
23190.1432788756
 21
1288.614114617917
 31
0.0
  0
LINE
  5
3CEA
330
3C57
100
AcDbEntity
  8
0
  6
ACAD_ISO04W100
 48
3.0
100
AcDbLine
 10
23190.1432788756
 20
1288.614114617917
 30
0.0
 11
23479.32229377304
 21
1262.424477258125
 31
0.0
  0
LINE
  5
3CEB
330
3C57
100
AcDbEntity
  8
0
  6
ACAD_ISO04W100
 48
3.0
100
AcDbLine
 10
23479.32229377304
 20
1262.424477258125
 30
0.0
 11
23179.81544951147
 21
1240.599779458299
 31
0.0
  0
LINE
  5
3CEC
330
3C57
100
AcDbEntity
  8
0
  6
ACAD_ISO04W100
 48
3.0
100
AcDbLine
 10
23179.81544951147
 20
1240.599779458299
 30
0.0
 11
23478.13062985193
 21
1214.410142098507
 31
0.0
  0
LINE
  5
3CED
330
3C57
100
AcDbEntity
  8
0
  6
ACAD_ISO04W100
 48
3.0
100
AcDbLine
 10
23478.13062985193
 20
1214.410142098507
 30
0.0
 11
23182.55022341853
 21
1190.07527112745
 31
0.0
  0
LINE
  5
3CEE
330
3C57
100
AcDbEntity
  8
0
  6
ACAD_ISO04W100
 48
3.0
100
AcDbLine
 10
23182.55022341853
 20
1190.07527112745
 30
0.0
 11
23477.00184984284
 21
1167.60053995396
 31
0.0
  0
LINE
  5
3CEF
330
3C57
100
AcDbEntity
  8
0
  6
ACAD_ISO04W100
 48
3.0
100
AcDbLine
 10
23477.00184984284
 20
1167.60053995396
 30
0.0
 11
23183.31779262982
 21
1145.923538235144
 31
0.0
  0
LINE
  5
3CF0
330
3C57
100
AcDbEntity
  8
0
  6
ACAD_ISO04W100
 48
3.0
100
AcDbLine
 10
23183.31779262982
 20
1145.923538235144
 30
0.0
 11
23478.05794351636
 21
1120.924340465738
 31
0.0
  0
LINE
  5
3CF1
330
3C57
100
AcDbEntity
  8
0
  6
ACAD_ISO04W100
 48
3.0
100
AcDbLine
 10
23478.05794351636
 20
1120.924340465738
 30
0.0
 11
23184.90667785796
 21
1075.290884486893
 31
0.0
  0
LINE
  5
3CF2
330
3C57
100
AcDbEntity
  8
0
  6
ACAD_ISO04W100
 48
3.0
100
AcDbLine
 10
23184.90667785796
 20
1075.290884486893
 30
0.0
 11
23476.50654159686
 21
1038.230513758285
 31
0.0
  0
LINE
  5
3CF3
330
3C57
100
AcDbEntity
  8
0
  6
ACAD_ISO04W100
 48
3.0
100
AcDbLine
 10
23476.50654159686
 20
1038.230513758285
 30
0.0
 11
23183.93152762869
 21
895.0131772307695
 31
0.0
  0
LINE
  5
3CF4
330
3C57
100
AcDbEntity
  8
0
  6
ACAD_ISO04W100
 48
3.0
100
AcDbLine
 10
23183.93152762869
 20
895.0131772307695
 30
0.0
 11
23466.3035148413
 21
953.0590630849196
 31
0.0
  0
LINE
  5
3CF5
330
3C57
100
AcDbEntity
  8
0
  6
ACAD_ISO04W100
 48
3.0
100
AcDbLine
 10
23466.3035148413
 20
953.0590630849196
 30
0.0
 11
23190.83416654697
 21
848.0175902724304
 31
0.0
  0
LINE
  5
3CF6
330
3C57
100
AcDbEntity
  8
0
  6
ACAD_ISO04W100
 48
3.0
100
AcDbLine
 10
23190.83416654697
 20
848.0175902724304
 30
0.0
 11
23483.20966528706
 21
908.8981613493133
 31
0.0
  0
LINE
  5
3CF7
330
3C57
100
AcDbEntity
  8
0
  6
ACAD_ISO04W100
 48
4.0
100
AcDbLine
 10
23592.1191617559
 20
1078.360506612438
 30
0.0
 11
23376.9309354953
 21
1078.360506612438
 31
0.0
  0
DIMENSION
  5
3CF8
330
3C57
100
AcDbEntity
  8
0
100
AcDbDimension
  2
*D10
 10
23039.41346369152
 20
568.4958118065224
 30
0.0
 11
23309.40259755187
 21
579.3322715609562
 31
0.0
 71
     5
 42
539.9782677206967
  3
ISO-25
100
AcDbAlignedDimension
 13
23579.39173141222
 23
734.9666009548928
 33
0.0
 14
23039.41346369152
 24
735.5916009548928
 34
0.0
100
AcDbRotatedDimension
1001
ACAD
1000
DSTYLE
1002
{
1070
   280
1070
     0
1070
   271
1070
     0
1070
   140
1040
20.0
1070
    41
1040
20.0
1002
}
  0
MTEXT
  5
3CF9
330
3C57
100
AcDbEntity
  8
0
100
AcDbMText
 10
23791.20355154717
 20
795.573997862296
 30
0.0
 40
20.0
 41
0.0
 71
     5
 72
     1
  1
{\H1.0833x;Entrada de agua fría/\Pvaciado}
  7
style1
 73
     1
 44
1.0
  0
LINE
  5
3CFA
330
3C57
100
AcDbEntity
  8
0
 48
0.13
100
AcDbLine
 10
23608.26295450273
 20
763.6142888203353
 30
0.0
 11
23657.63283112344
 21
794.1827727972632
 31
0.0
  0
LINE
  5
3CFB
330
3C57
100
AcDbEntity
  8
0
 48
0.13
100
AcDbLine
 10
23657.63283112344
 20
794.1827727972632
 30
0.0
 11
23942.03341377973
 21
794.1827727972632
 31
0.0
  0
MTEXT
  5
3CFC
330
3C57
100
AcDbEntity
  8
0
100
AcDbMText
 10
23797.53826945545
 20
937.255635164704
 30
0.0
 40
20.0
 41
0.0
 71
     5
 72
     1
  1
{\H1.0833x;Retorno del acumulador\P del agua caliente}
  7
style1
 73
     1
 44
1.0
  0
LINE
  5
3CFD
330
3C57
100
AcDbEntity
  8
0
 48
0.13
100
AcDbLine
 10
23612.92916351978
 20
908.8981613493133
 30
0.0
 11
23662.29904014049
 21
939.4666453262412
 31
0.0
  0
LINE
  5
3CFE
330
3C57
100
AcDbEntity
  8
0
 48
0.13
100
AcDbLine
 10
23662.29904014049
 20
939.4666453262412
 30
0.0
 11
23963.61373109272
 21
939.4666453262412
 31
0.0
  0
MTEXT
  5
3CFF
330
3C57
100
AcDbEntity
  8
0
100
AcDbMText
 10
23850.72069927838
 20
1129.296749413397
 30
0.0
 40
20.0
 41
0.0
 71
     5
 72
     1
  1
{\H1.0833x;Punto de medición para la sonda\Pde temperatura del agua \Pcaliente de la instalación solar}
  7
style1
 73
     1
 44
1.0
  0
LINE
  5
3D00
330
3C57
100
AcDbEntity
  8
0
 48
0.13
100
AcDbLine
 10
23603.39151773113
 20
1078.360506612438
 30
0.0
 11
23652.76139435184
 21
1108.928990589366
 31
0.0
  0
LINE
  5
3D01
330
3C57
100
AcDbEntity
  8
0
 48
0.13
100
AcDbLine
 10
23652.76139435184
 20
1108.928990589366
 30
0.0
 11
24061.78670100052
 21
1108.928990589366
 31
0.0
  0
MTEXT
  5
3D02
330
3C57
100
AcDbEntity
  8
0
100
AcDbMText
 10
23817.65585684927
 20
1338.992495558905
 30
0.0
 40
20.0
 41
0.0
 71
     5
 72
     1
  1
{\H1.0833x;Alimentación del acumulador \Pde agua caliente }
  7
style1
 73
     1
 44
1.0
  0
LINE
  5
3D03
330
3C57
100
AcDbEntity
  8
0
 48
0.13
100
AcDbLine
 10
23612.78548692595
 20
1310.286987190249
 30
0.0
 11
23662.15536354666
 21
1340.855471167176
 31
0.0
  0
LINE
  5
3D04
330
3C57
100
AcDbEntity
  8
0
 48
0.13
100
AcDbLine
 10
23662.15536354666
 20
1340.855471167176
 30
0.0
 11
24013.4754264276
 21
1340.855471167176
 31
0.0
  0
MTEXT
  5
3D05
330
3C57
100
AcDbEntity
  8
0
100
AcDbMText
 10
23801.59716046586
 20
1529.104413655148
 30
0.0
 40
20.0
 41
0.0
 71
     5
 72
     1
  1
{\H1.0833x;Entrada de recirculación}
  7
style1
 73
     1
 44
1.0
  0
LINE
  5
3D06
330
3C57
100
AcDbEntity
  8
0
 48
0.13
100
AcDbLine
 10
23612.35752892891
 20
1476.461808884846
 30
0.0
 11
23661.72740554963
 21
1507.030292861773
 31
0.0
  0
LINE
  5
3D07
330
3C57
100
AcDbEntity
  8
0
 48
0.13
100
AcDbLine
 10
23661.72740554963
 20
1507.030292861773
 30
0.0
 11
23964.43696261466
 21
1507.030292861773
 31
0.0
  0
MTEXT
  5
3D08
330
3C57
100
AcDbEntity
  8
0
100
AcDbMText
 10
23808.4003814414
 20
2096.97990611185
 30
0.0
 40
20.0
 41
0.0
 71
     5
 72
     1
  1
{\H1.0833x;Salida de agua caliente}
  7
style1
 73
     1
 44
1.0
  0
LINE
  5
3D09
330
3C57
100
AcDbEntity
  8
0
 48
0.13
100
AcDbLine
 10
23612.35752892891
 20
2046.999604744646
 30
0.0
 11
23661.72740554963
 21
2077.568088721574
 31
0.0
  0
LINE
  5
3D0A
330
3C57
100
AcDbEntity
  8
0
 48
0.13
100
AcDbLine
 10
23661.72740554963
 20
2077.568088721574
 30
0.0
 11
23961.15920829072
 21
2077.568088721574
 31
0.0
  0
MTEXT
  5
3D0B
330
3C57
100
AcDbEntity
  8
0
100
AcDbMText
 10
22800.70853276213
 20
1376.759252063322
 30
0.0
 40
20.0
 41
0.0
 71
     5
 72
     1
  1
{\H1.0833x;Conexión del elemento\Pcalefactor eléctrico}
  7
style1
 73
     1
 44
1.0
  0
LINE
  5
3D0C
330
3C57
100
AcDbEntity
  8
0
 48
0.13
100
AcDbLine
 10
22982.68468161334
 20
1345.395147312076
 30
0.0
 11
22933.31480499263
 21
1375.963631289003
 31
0.0
  0
LINE
  5
3D0D
330
3C57
100
AcDbEntity
  8
0
 48
0.13
100
AcDbLine
 10
22933.31480499263
 20
1375.963631289003
 30
0.0
 11
22653.83309823384
 21
1375.963631289003
 31
0.0
  0
DIMENSION
  5
3D0E
330
3C57
100
AcDbEntity
  8
0
100
AcDbDimension
  2
*D11
 10
22870.07370554935
 20
2142.902966937779
 30
0.0
 11
22870.07370554935
 21
1462.612068775607
 31
0.0
 70
   128
 71
     5
 42
1431.83366380999
  3
ISO-25
100
AcDbAlignedDimension
 13
23090.248439654
 23
711.0693031277892
 33
0.0
 14
23305.12996267166
 24
2142.902966937779
 34
0.0
 50
270.0
100
AcDbRotatedDimension
1001
ACAD
1000
DSTYLE
1002
{
1070
   280
1070
     0
1070
   271
1070
     0
1070
   140
1040
23.0
1070
    41
1040
23.0
1002
}
  0
DIMENSION
  5
3D0F
330
3C57
100
AcDbEntity
  8
0
100
AcDbDimension
  2
*D12
 10
22870.07370554935
 20
711.0693031277892
 30
0.0
 11
22870.07370554935
 21
610.2554331397674
 31
0.0
 70
   128
  1
15-20
 71
     5
 42
15.6175875869335
  3
ISO-25
100
AcDbAlignedDimension
 13
23040.03846369152
 23
695.4517155408557
 33
0.0
 14
23040.03846369152
 24
711.0693031277892
 34
0.0
 50
270.0
100
AcDbRotatedDimension
1001
ACAD
1000
DSTYLE
1002
{
1070
   280
1070
     0
1070
   271
1070
     0
1070
   140
1040
23.0
1070
    41
1040
23.0
1002
}
  0
ENDBLK
  5
3C59
330
3C57
100
AcDbEntity
  8
0
 48
0.13
100
AcDbBlockEnd
  0
ENDSEC
  0
SECTION
  2
ENTITIES
  0
INSERT
  5
3ABC
330
1F
100
AcDbEntity
  8
0
100
AcDbBlockReference
  2
S 200_1
 10
0.0
 20
0.0
 30
0.0
  0
INSERT
  5
3D10
330
1F
100
AcDbEntity
  8
0
100
AcDbBlockReference
  2
S 200 ZB
 10
0.0
 20
0.0
 30
0.0
  0
ENDSEC
  0
SECTION
  2
OBJECTS
  0
DICTIONARY
  5
C
330
0
100
AcDbDictionary
281
     1
  3
ACAD_COLOR
350
6B
  3
ACAD_GROUP
350
D
  3
ACAD_IMAGE_DICT
350
1AD
  3
ACAD_IMAGE_VARS
350
1AE
  3
ACAD_LAYOUT
350
1A
  3
ACAD_MATERIAL
350
6A
  3
ACAD_MLEADERSTYLE
350
12D
  3
ACAD_MLINESTYLE
350
17
  3
ACAD_PLOTSETTINGS
350
19
  3
ACAD_PLOTSTYLENAME
350
E
  3
ACAD_SCALELIST
350
10C
  3
ACAD_TABLESTYLE
350
7E
  3
ACAD_VISUALSTYLE
350
EF
  3
ACDBHEADERROUNDTRIPXREC
350
3D49
  3
AcDbVariableDictionary
350
5E
  3
DWGPROPS
350
3D4C
  0
DICTIONARY
  5
3D4D
330
8
100
AcDbDictionary
280
     1
281
     1
  3
ACAD_XREC_ROUNDTRIP
360
3D4E
  0
DICTIONARY
  5
1B6
330
2
100
AcDbDictionary
280
     1
281
     1
  3
ACAD_LAYERFILTERS
360
1B8
  3
ACAD_LAYERSTATES
360
285
  3
ACLYDICTIONARY
360
1B7
  0
DICTIONARY
  5
13C
330
10
100
AcDbDictionary
280
     1
281
     1
  3
ADSK_XREC_LAYER_RECONCILED
360
1B2
  0
DICTIONARY
  5
1CC
330
1F
100
AcDbDictionary
280
     1
281
     1
  3
ACAD_SORTENTS
360
1CD
  0
DICTIONARY
  5
6B
102
{ACAD_REACTORS
330
C
102
}
330
C
100
AcDbDictionary
281
     1
  0
DICTIONARY
  5
D
102
{ACAD_REACTORS
330
C
102
}
330
C
100
AcDbDictionary
281
     1
  0
DICTIONARY
  5
1AD
102
{ACAD_REACTORS
330
C
102
}
330
C
100
AcDbDictionary
281
     1
  3
DimSK300_3ZB
350
2697
  3
DimZWC28_28_3_MFK
350
1AE7
  3
GWS_S 120 K_DIM
350
1AF
  3
GZK_30-8 EC_DIM
350
779
  3
GZT_ZSC30_3_MFA_DIM
350
1C86
  3
GZT_ZW 24 AE_DIM
350
2052
  3
OZK_CGA 25_DIM
350
1319
  0
RASTERVARIABLES
  5
1AE
102
{ACAD_REACTORS
330
C
102
}
330
C
100
AcDbRasterVariables
 90
        0
 70
     1
 71
     1
 72
     1
  0
DICTIONARY
  5
1A
102
{ACAD_REACTORS
330
C
102
}
330
C
100
AcDbDictionary
281
     1
  3
Layout1
350
D3
  3
Layout2
350
D7
  3
Model
350
22
  0
DICTIONARY
  5
6A
102
{ACAD_REACTORS
330
C
102
}
330
C
100
AcDbDictionary
281
     1
  3
ByBlock
350
ED
  3
ByLayer
350
EC
  3
Global
350
EE
  0
DICTIONARY
  5
12D
102
{ACAD_REACTORS
330
C
102
}
330
C
100
AcDbDictionary
281
     1
  3
Standard
350
12E
  0
DICTIONARY
  5
17
102
{ACAD_REACTORS
330
C
102
}
330
C
100
AcDbDictionary
281
     1
  3
Standard
350
18
  0
DICTIONARY
  5
19
102
{ACAD_REACTORS
330
C
102
}
330
C
100
AcDbDictionary
281
     1
  0
ACDBDICTIONARYWDFLT
  5
E
102
{ACAD_REACTORS
330
C
102
}
330
C
100
AcDbDictionary
281
     1
  3
Normal
350
F
100
AcDbDictionaryWithDefault
340
F
  0
DICTIONARY
  5
10C
102
{ACAD_REACTORS
330
C
102
}
330
C
100
AcDbDictionary
281
     1
  3
A0
350
10D
  3
A1
350
188
  3
A2
350
189
  3
A3
350
18A
  3
A4
350
18B
  3
A5
350
18C
  3
A6
350
18D
  3
A7
350
18E
  3
A8
350
18F
  3
A9
350
190
  3
B0
350
191
  3
B1
350
192
  3
B2
350
193
  3
B3
350
194
  3
B4
350
195
  3
B5
350
196
  3
B6
350
197
  3
B7
350
198
  3
B8
350
199
  3
B9
350
19A
  3
C0
350
19B
  3
C1
350
19C
  3
C2
350
19D
  3
C3
350
19E
  3
C4
350
19F
  3
C5
350
1A0
  3
C6
350
1A1
  3
C7
350
1A2
  3
C8
350
1A3
  3
C9
350
1A4
  3
D0
350
1A5
  3
D1
350
1A6
  3
D2
350
1A7
  0
DICTIONARY
  5
7E
102
{ACAD_REACTORS
330
C
102
}
330
C
100
AcDbDictionary
281
     1
  3
Standard
350
7F
  0
DICTIONARY
  5
EF
102
{ACAD_REACTORS
330
C
102
}
330
C
100
AcDbDictionary
281
     1
  3
2dWireframe
350
F5
  3
3D Hidden
350
F7
  3
3dWireframe
350
F6
  3
Basic
350
F4
  3
Brighten
350
FB
  3
ColorChange
350
FF
  3
Conceptual
350
F8
  3
Dim
350
FA
  3
EdgeColorOff
350
3D3F
  3
Facepattern
350
FE
  3
Flat
350
F0
  3
FlatWithEdges
350
F1
  3
Gouraud
350
F2
  3
GouraudWithEdges
350
F3
  3
Hidden
350
3D3C
  3
JitterOff
350
3D3D
  3
Linepattern
350
FD
  3
OverhangOff
350
3D3E
  3
Realistic
350
F9
  3
Shaded
350
3D44
  3
Shaded with edges
350
3D43
  3
Shades of Gray
350
3D40
  3
Sketchy
350
3D41
  3
Thicken
350
FC
  3
Wireframe
350
3D3B
  3
X-Ray
350
3D42
  0
DICTIONARY
  5
3D49
102
{ACAD_REACTORS
330
C
102
}
330
C
100
AcDbDictionary
281
     1
  3
COLORDICT
350
3D4A
  3
MATERIALDICT
350
3D4B
  0
DICTIONARY
  5
5E
102
{ACAD_REACTORS
330
C
102
}
330
C
100
AcDbDictionary
281
     1
  3
CANNOSCALE
350
3D4F
  3
CMLEADERSTYLE
350
145
  3
CTABLESTYLE
350
84
  3
DIMASSOC
350
5F
  3
HIDETEXT
350
63
  3
INDEXCTL
350
3331
  3
LIGHTINGUNITS
350
2CA1
  3
MSLTSCALE
350
2CA0
  3
PSOLHEIGHT
350
3D46
  3
PSOLWIDTH
350
3D45
  3
SORTENTS
350
3330
  0
XRECORD
  5
3D4C
102
{ACAD_REACTORS
330
C
102
}
330
C
100
AcDbXrecord
280
     1
  1
DWGPROPS COOKIE
  2

  3

  4

  6

  7

  8
acae2
  9

300
=
301
=
302
=
303
=
304
=
305
=
306
=
307
=
308
=
309
=
 40
0.0
 41
2454651.611380683
 42
2460388.300426759
  1

 90
        0
  0
XRECORD
  5
3D4E
102
{ACAD_REACTORS
330
3D4D
102
}
330
3D4D
100
AcDbXrecord
280
     1
102
VTR_0.000_0.000_1.000_1.000_VISUALSTYLE
340
F5
102
VTR_0.000_0.000_1.000_1.000_GRIDDISPLAY
 70
     2
102
VTR_0.000_0.000_1.000_1.000_GRIDMAJOR
 70
     5
102
VTR_0.000_0.000_1.000_1.000_DEFAULTLIGHTING
280
     1
102
VTR_0.000_0.000_1.000_1.000_DEFAULTLIGHTINGTYPE
 70
     1
102
VTR_0.000_0.000_1.000_1.000_BRIGHTNESS
141
0.0
102
VTR_0.000_0.000_1.000_1.000_CONTRAST
142
0.0
  0
DICTIONARY
  5
1B8
102
{ACAD_REACTORS
330
1B6
102
}
330
1B6
100
AcDbDictionary
281
     1
  0
DICTIONARY
  5
285
102
{ACAD_REACTORS
330
1B6
102
}
330
1B6
100
AcDbDictionary
281
     1
  0
DICTIONARY
  5
1B7
102
{ACAD_REACTORS
330
1B6
102
}
330
1B6
100
AcDbDictionary
281
     1
1001
ACAD
1000
<All
  0
XRECORD
  5
1B2
102
{ACAD_REACTORS
330
13C
102
}
330
13C
100
AcDbXrecord
280
     1
290
     1
  0
SORTENTSTABLE
  5
1CD
102
{ACAD_REACTORS
330
1CC
102
}
330
1CC
100
AcDbSortentsTable
330
1F
331
0
  5
3C45
331
3ABC
  5
3BE3
  0
IMAGEDEF
  5
2697
102
{ACAD_REACTORS
330
1AD
102
}
330
1AD
100
AcDbRasterImageDef
 90
        0
  1
C:\Users\Vanina\Documents\Vanina\ACAE\Junkers\cad's\solar\acumuladores intercambiadores\DimSK300_3ZB.jpg
 10
720.0
 20
540.0
 11
0.3527777777777777
 21
0.3527777777777777
280
     1
281
     5
  0
IMAGEDEF
  5
1AE7
102
{ACAD_REACTORS
330
1AD
102
}
330
1AD
100
AcDbRasterImageDef
 90
        0
  1
C:\Users\Vanina\Documents\Vanina\ACAE\Junkers\cad's\calefacción\calderas murales a gas\ceraclass excellence\DimZWC28_28_3_MFK.jpg
 10
720.0
 20
540.0
 11
0.3527777777777777
 21
0.3527777777777777
280
     1
281
     5
  0
IMAGEDEF
  5
1AF
102
{ACAD_REACTORS
330
1AD
102
}
330
1AD
100
AcDbRasterImageDef
 90
        0
  1
C:\Users\Vanina\Documents\Vanina\ACAE\Junkers\cad's\acs\acumuladores directos a gas\GWS_S 120 K_DIM.jpg
 10
720.0
 20
540.0
 11
0.3527777777777777
 21
0.3527777777777777
280
     1
281
     5
  0
IMAGEDEF
  5
779
102
{ACAD_REACTORS
330
1AD
102
}
330
1AD
100
AcDbRasterImageDef
 90
        0
  1
C:\Users\Vanina\Documents\Vanina\ACAE\Junkers\cad's\calefacción\calderas de pie a gas\GZK_30-8 EC_DIM.jpg
 10
720.0
 20
540.0
 11
0.3527777777777777
 21
0.3527777777777777
280
     1
281
     5
  0
IMAGEDEF
  5
1C86
102
{ACAD_REACTORS
330
1AD
102
}
330
1AD
100
AcDbRasterImageDef
 90
        0
  1
C:\Users\Vanina\Documents\Vanina\ACAE\Junkers\cad's\calefacción\calderas murales a gas\ceraclass excellence\GZT_ZSC30_3_MFA_DIM.jpg
 10
720.0
 20
540.0
 11
0.3527777777777777
 21
0.3527777777777777
280
     1
281
     5
  0
IMAGEDEF
  5
2052
102
{ACAD_REACTORS
330
1AD
102
}
330
1AD
100
AcDbRasterImageDef
 90
        0
  1
C:\Users\Vanina\Documents\Vanina\ACAE\Junkers\cad's\calefacción\calderas murales a gas\ceraclass midi\GZT_ZW 24 AE_DIM.jpg
 10
720.0
 20
540.0
 11
0.3527777777777777
 21
0.3527777777777777
280
     1
281
     5
  0
IMAGEDEF
  5
1319
102
{ACAD_REACTORS
330
1AD
102
}
330
1AD
100
AcDbRasterImageDef
 90
        0
  1
C:\Users\Vanina\Documents\Vanina\ACAE\Junkers\cad's\calefacción\calderas gasoleo\OZK_CGA 25_DIM.jpg
 10
720.0
 20
540.0
 11
0.3527777777777777
 21
0.3527777777777777
280
     1
281
     5
  0
LAYOUT
  5
D3
102
{ACAD_REACTORS
330
1A
102
}
330
1A
100
AcDbPlotSettings
  1

  2
C:\Documents and Settings\basas\Application Data\Autodesk\AutoCAD 2005\R16.1\enu\plotters\Default Windows System Printer.pc3
  4

  6

 40
0.0
 41
0.0
 42
0.0
 43
0.0
 44
0.0
 45
0.0
 46
0.0
 47
0.0
 48
0.0
 49
0.0
140
0.0
141
0.0
142
1.0
143
1.0
 70
   688
 72
     0
 73
     0
 74
     5
  7

 75
    16
147
1.0
148
0.0
149
0.0
100
AcDbLayout
  1
Layout1
 70
     1
 71
     1
 10
0.0
 20
0.0
 11
12.0
 21
9.0
 12
0.0
 22
0.0
 32
0.0
 14
0.0
 24
0.0
 34
0.0
 15
0.0
 25
0.0
 35
0.0
146
0.0
 13
0.0
 23
0.0
 33
0.0
 16
1.0
 26
0.0
 36
0.0
 17
0.0
 27
1.0
 37
0.0
 76
     0
330
D2
  0
LAYOUT
  5
D7
102
{ACAD_REACTORS
330
1A
102
}
330
1A
100
AcDbPlotSettings
  1

  2
C:\Documents and Settings\basas\Application Data\Autodesk\AutoCAD 2005\R16.1\enu\plotters\Default Windows System Printer.pc3
  4

  6

 40
0.0
 41
0.0
 42
0.0
 43
0.0
 44
0.0
 45
0.0
 46
0.0
 47
0.0
 48
0.0
 49
0.0
140
0.0
141
0.0
142
1.0
143
1.0
 70
   688
 72
     0
 73
     0
 74
     5
  7

 75
    16
147
1.0
148
0.0
149
0.0
100
AcDbLayout
  1
Layout2
 70
     1
 71
     2
 10
0.0
 20
0.0
 11
12.0
 21
9.0
 12
0.0
 22
0.0
 32
0.0
 14
0.0
 24
0.0
 34
0.0
 15
0.0
 25
0.0
 35
0.0
146
0.0
 13
0.0
 23
0.0
 33
0.0
 16
1.0
 26
0.0
 36
0.0
 17
0.0
 27
1.0
 37
0.0
 76
     0
330
D6
  0
LAYOUT
  5
22
102
{ACAD_REACTORS
330
1A
102
}
330
1A
100
AcDbPlotSettings
  1

  2
none_device
  4
ISO_A4_(210.00_x_297.00_MM)
  6

 40
7.5
 41
20.0
 42
7.5
 43
20.0
 44
210.0
 45
297.0
 46
11.54999923706055
 47
-13.65000009536743
 48
0.0
 49
0.0
140
0.0
141
0.0
142
1.0
143
8.704084754739808
 70
 11952
 72
     1
 73
     0
 74
     0
  7

 75
     0
147
0.1148885871608098
148
0.0
149
0.0
100
AcDbLayout
  1
Model
 70
     1
 71
     0
 10
0.0
 20
0.0
 11
12.0
 21
9.0
 12
0.0
 22
0.0
 32
0.0
 14
0.0
 24
0.0
 34
0.0
 15
0.0
 25
0.0
 35
0.0
146
0.0
 13
0.0
 23
0.0
 33
0.0
 16
1.0
 26
0.0
 36
0.0
 17
0.0
 27
1.0
 37
0.0
 76
     0
330
1F
331
EA
1001
ACAD_PSEXT
1000
None
1000
None
1000
Not applicable
1000
The layout will not be plotted unless a new plotter configuration name is selected.
1070
     0
  0
MATERIAL
  5
ED
102
{ACAD_REACTORS
330
6A
102
}
102
{ACAD_XDICTIONARY
360
3D50
102
}
330
6A
100
AcDbMaterial
  1
ByBlock
 73
     2
 78
     2
172
     2
176
     2
270
     2
274
     2
  0
MATERIAL
  5
EC
102
{ACAD_REACTORS
330
6A
102
}
102
{ACAD_XDICTIONARY
360
3D52
102
}
330
6A
100
AcDbMaterial
  1
ByLayer
 73
     2
 78
     2
172
     2
176
     2
270
     2
274
     2
  0
MATERIAL
  5
EE
102
{ACAD_REACTORS
330
6A
102
}
102
{ACAD_XDICTIONARY
360
3D54
102
}
330
6A
100
AcDbMaterial
  1
Global
 73
     2
 43
0.0007999999797903
 43
0.0
 43
0.0
 43
0.0
 43
0.0
 43
0.0007999999797903
 43
0.0
 43
0.0
 43
0.0
 43
0.0
 43
1.0
 43
0.0
 43
0.0
 43
0.0
 43
0.0
 43
1.0
 78
     2
172
     2
 49
0.0007999999797903
 49
0.0
 49
0.0
 49
0.0
 49
0.0
 49
0.0007999999797903
 49
0.0
 49
0.0
 49
0.0
 49
0.0
 49
1.0
 49
0.0
 49
0.0
 49
0.0
 49
0.0
 49
1.0
176
     2
142
0.0007999999797903
142
0.0
142
0.0
142
0.0
142
0.0
142
0.0007999999797903
142
0.0
142
0.0
142
0.0
142
0.0
142
1.0
142
0.0
142
0.0
142
0.0
142
0.0
142
1.0
270
     2
144
0.0007999999797903
144
0.0
144
0.0
144
0.0
144
0.0
144
0.0007999999797903
144
0.0
144
0.0
144
0.0
144
0.0
144
1.0
144
0.0
144
0.0
144
0.0
144
0.0
144
1.0
274
     2
1001
ACAD
1070
    -1
1070
     3
1070
     0
1000

1071
        0
1070
     0
  0
MLEADERSTYLE
  5
12E
102
{ACAD_REACTORS
330
12D
102
}
102
{ACAD_XDICTIONARY
360
3D56
102
}
330
12D
100
AcDbMLeaderStyle
170
     2
171
     1
172
     0
 90
        2
 40
0.0
 41
0.0
173
     1
 91
-1056964608
340
14
 92
       -2
290
     1
 42
2.0
291
     1
 43
8.0
  3
Standard
341
0
 44
4.0
300

342
11
174
     1
178
     1
175
     1
176
     0
 93
-1056964608
 45
4.0
292
     0
297
     0
 46
4.0
343
0
 94
-1056964608
 47
1.0
 49
1.0
140
1.0
293
     1
141
0.0
294
     1
177
     0
142
1.0
295
     0
296
     0
143
3.75
1001
ACAD_MLEADERVER
1070
     2
  0
MLINESTYLE
  5
18
102
{ACAD_REACTORS
330
17
102
}
330
17
100
AcDbMlineStyle
  2
STANDARD
 70
     0
  3

 62
   256
 51
90.0
 52
90.0
 71
     2
 49
0.5
 62
   256
  6
BYLAYER
 49
-0.5
 62
   256
  6
BYLAYER
  0
ACDBPLACEHOLDER
  5
F
102
{ACAD_REACTORS
330
E
102
}
330
E
  0
SCALE
  5
10D
102
{ACAD_REACTORS
330
10C
102
}
330
10C
100
AcDbScale
 70
     0
300
1:1
140
1.0
141
1.0
290
     1
  0
SCALE
  5
188
102
{ACAD_REACTORS
330
10C
102
}
330
10C
100
AcDbScale
 70
     0
300
1:2
140
1.0
141
2.0
290
     0
  0
SCALE
  5
189
102
{ACAD_REACTORS
330
10C
102
}
330
10C
100
AcDbScale
 70
     0
300
1:4
140
1.0
141
4.0
290
     0
  0
SCALE
  5
18A
102
{ACAD_REACTORS
330
10C
102
}
330
10C
100
AcDbScale
 70
     0
300
1:5
140
1.0
141
5.0
290
     0
  0
SCALE
  5
18B
102
{ACAD_REACTORS
330
10C
102
}
330
10C
100
AcDbScale
 70
     0
300
1:8
140
1.0
141
8.0
290
     0
  0
SCALE
  5
18C
102
{ACAD_REACTORS
330
10C
102
}
330
10C
100
AcDbScale
 70
     0
300
1:10
140
1.0
141
10.0
290
     0
  0
SCALE
  5
18D
102
{ACAD_REACTORS
330
10C
102
}
330
10C
100
AcDbScale
 70
     0
300
1:16
140
1.0
141
16.0
290
     0
  0
SCALE
  5
18E
102
{ACAD_REACTORS
330
10C
102
}
330
10C
100
AcDbScale
 70
     0
300
1:20
140
1.0
141
20.0
290
     0
  0
SCALE
  5
18F
102
{ACAD_REACTORS
330
10C
102
}
330
10C
100
AcDbScale
 70
     0
300
1:30
140
1.0
141
30.0
290
     0
  0
SCALE
  5
190
102
{ACAD_REACTORS
330
10C
102
}
330
10C
100
AcDbScale
 70
     0
300
1:40
140
1.0
141
40.0
290
     0
  0
SCALE
  5
191
102
{ACAD_REACTORS
330
10C
102
}
330
10C
100
AcDbScale
 70
     0
300
1:50
140
1.0
141
50.0
290
     0
  0
SCALE
  5
192
102
{ACAD_REACTORS
330
10C
102
}
330
10C
100
AcDbScale
 70
     0
300
1:100
140
1.0
141
100.0
290
     0
  0
SCALE
  5
193
102
{ACAD_REACTORS
330
10C
102
}
330
10C
100
AcDbScale
 70
     0
300
2:1
140
2.0
141
1.0
290
     0
  0
SCALE
  5
194
102
{ACAD_REACTORS
330
10C
102
}
330
10C
100
AcDbScale
 70
     0
300
4:1
140
4.0
141
1.0
290
     0
  0
SCALE
  5
195
102
{ACAD_REACTORS
330
10C
102
}
330
10C
100
AcDbScale
 70
     0
300
8:1
140
8.0
141
1.0
290
     0
  0
SCALE
  5
196
102
{ACAD_REACTORS
330
10C
102
}
330
10C
100
AcDbScale
 70
     0
300
10:1
140
10.0
141
1.0
290
     0
  0
SCALE
  5
197
102
{ACAD_REACTORS
330
10C
102
}
330
10C
100
AcDbScale
 70
     0
300
100:1
140
100.0
141
1.0
290
     0
  0
SCALE
  5
198
102
{ACAD_REACTORS
330
10C
102
}
330
10C
100
AcDbScale
 70
     0
300
1/128" = 1'-0"
140
0.0078125
141
12.0
290
     0
  0
SCALE
  5
199
102
{ACAD_REACTORS
330
10C
102
}
330
10C
100
AcDbScale
 70
     0
300
1/64" = 1'-0"
140
0.015625
141
12.0
290
     0
  0
SCALE
  5
19A
102
{ACAD_REACTORS
330
10C
102
}
330
10C
100
AcDbScale
 70
     0
300
1/32" = 1'-0"
140
0.03125
141
12.0
290
     0
  0
SCALE
  5
19B
102
{ACAD_REACTORS
330
10C
102
}
330
10C
100
AcDbScale
 70
     0
300
1/16" = 1'-0"
140
0.0625
141
12.0
290
     0
  0
SCALE
  5
19C
102
{ACAD_REACTORS
330
10C
102
}
330
10C
100
AcDbScale
 70
     0
300
3/32" = 1'-0"
140
0.09375
141
12.0
290
     0
  0
SCALE
  5
19D
102
{ACAD_REACTORS
330
10C
102
}
330
10C
100
AcDbScale
 70
     0
300
1/8" = 1'-0"
140
0.125
141
12.0
290
     0
  0
SCALE
  5
19E
102
{ACAD_REACTORS
330
10C
102
}
330
10C
100
AcDbScale
 70
     0
300
3/16" = 1'-0"
140
0.1875
141
12.0
290
     0
  0
SCALE
  5
19F
102
{ACAD_REACTORS
330
10C
102
}
330
10C
100
AcDbScale
 70
     0
300
1/4" = 1'-0"
140
0.25
141
12.0
290
     0
  0
SCALE
  5
1A0
102
{ACAD_REACTORS
330
10C
102
}
330
10C
100
AcDbScale
 70
     0
300
3/8" = 1'-0"
140
0.375
141
12.0
290
     0
  0
SCALE
  5
1A1
102
{ACAD_REACTORS
330
10C
102
}
330
10C
100
AcDbScale
 70
     0
300
1/2" = 1'-0"
140
0.5
141
12.0
290
     0
  0
SCALE
  5
1A2
102
{ACAD_REACTORS
330
10C
102
}
330
10C
100
AcDbScale
 70
     0
300
3/4" = 1'-0"
140
0.75
141
12.0
290
     0
  0
SCALE
  5
1A3
102
{ACAD_REACTORS
330
10C
102
}
330
10C
100
AcDbScale
 70
     0
300
1" = 1'-0"
140
1.0
141
12.0
290
     0
  0
SCALE
  5
1A4
102
{ACAD_REACTORS
330
10C
102
}
330
10C
100
AcDbScale
 70
     0
300
1-1/2" = 1'-0"
140
1.5
141
12.0
290
     0
  0
SCALE
  5
1A5
102
{ACAD_REACTORS
330
10C
102
}
330
10C
100
AcDbScale
 70
     0
300
3" = 1'-0"
140
3.0
141
12.0
290
     0
  0
SCALE
  5
1A6
102
{ACAD_REACTORS
330
10C
102
}
330
10C
100
AcDbScale
 70
     0
300
6" = 1'-0"
140
6.0
141
12.0
290
     0
  0
SCALE
  5
1A7
102
{ACAD_REACTORS
330
10C
102
}
330
10C
100
AcDbScale
 70
     0
300
1'-0" = 1'-0"
140
12.0
141
12.0
290
     0
  0
TABLESTYLE
  5
7F
102
{ACAD_REACTORS
330
7E
102
}
102
{ACAD_XDICTIONARY
360
162
102
}
330
7E
100
AcDbTableStyle
  3
Standard
 70
     0
 71
     0
 40
1.5
 41
1.5
280
     0
281
     0
  7
Standard
140
4.5
170
     2
 62
     0
 63
   257
283
     0
274
    -2
284
     1
 64
     0
275
    -2
285
     1
 65
     0
276
    -2
286
     1
 66
     0
277
    -2
287
     1
 67
     0
278
    -2
288
     1
 68
     0
279
    -2
289
     1
 69
     0
  7
Standard
140
6.0
170
     5
 62
     0
 63
   257
283
     0
274
    -2
284
     1
 64
     0
275
    -2
285
     1
 65
     0
276
    -2
286
     1
 66
     0
277
    -2
287
     1
 67
     0
278
    -2
288
     1
 68
     0
279
    -2
289
     1
 69
     0
  7
Standard
140
4.5
170
     5
 62
     0
 63
   257
283
     0
274
    -2
284
     1
 64
     0
275
    -2
285
     1
 65
     0
276
    -2
286
     1
 66
     0
277
    -2
287
     1
 67
     0
278
    -2
288
     1
 68
     0
279
    -2
289
     1
 69
     0
  0
VISUALSTYLE
  5
F5
102
{ACAD_REACTORS
330
EF
102
}
102
{ACAD_XDICTIONARY
360
3D58
102
}
330
EF
100
AcDbVisualStyle
  2
2dWireframe
 70
     4
 71
     0
 72
     2
 73
     1
 90
        0
 40
-0.6
 41
-30.0
 62
     5
 63
     7
 74
     1
 91
        4
 64
     7
 65
   257
 75
     1
175
     1
 42
1.0
 92
        0
 66
   257
 43
1.0
 76
     1
 77
     6
 78
     2
 67
     7
 79
     5
170
     0
171
     0
290
     0
174
     0
 93
        1
 44
0.0
173
     0
291
     0
 45
0.0
1001
ACAD
1000
AcDbSavedByObjectVersion
1070
     0
  0
VISUALSTYLE
  5
F7
102
{ACAD_REACTORS
330
EF
102
}
102
{ACAD_XDICTIONARY
360
3D5A
102
}
330
EF
100
AcDbVisualStyle
  2
3D Hidden
 70
     6
 71
     1
 72
     2
 73
     2
 90
        0
 40
-0.6
 41
-30.0
 62
     5
 63
     7
 74
     2
 91
        2
 64
     7
 65
   257
 75
     2
175
     1
 42
40.0
 92
        0
 66
   257
 43
1.0
 76
     1
 77
     6
 78
     2
 67
     7
 79
     3
170
     0
171
     0
290
     0
174
     0
 93
        1
 44
0.0
173
     0
291
     0
 45
0.0
1001
ACAD
1000
AcDbSavedByObjectVersion
1070
     0
  0
VISUALSTYLE
  5
F6
102
{ACAD_REACTORS
330
EF
102
}
102
{ACAD_XDICTIONARY
360
3D5C
102
}
330
EF
100
AcDbVisualStyle
  2
3dWireframe
 70
     5
 71
     0
 72
     2
 73
     1
 90
        0
 40
-0.6
 41
-30.0
 62
     5
 63
     7
 74
     1
 91
        4
 64
     7
 65
   257
 75
     1
175
     1
 42
1.0
 92
        0
 66
   257
 43
1.0
 76
     1
 77
     6
 78
     2
 67
     7
 79
     5
170
     0
171
     0
290
     0
174
     0
 93
        1
 44
0.0
173
     0
291
     0
 45
0.0
1001
ACAD
1000
AcDbSavedByObjectVersion
1070
     0
  0
VISUALSTYLE
  5
F4
102
{ACAD_REACTORS
330
EF
102
}
102
{ACAD_XDICTIONARY
360
3D5E
102
}
330
EF
100
AcDbVisualStyle
  2
Basic
 70
     7
 71
     1
 72
     0
 73
     1
 90
        0
 40
-0.6
 41
-30.0
 62
     5
 63
     7
 74
     0
 91
        4
 64
     7
 65
   257
 75
     1
175
     1
 42
1.0
 92
        8
 66
     7
 43
1.0
 76
     1
 77
     6
 78
     2
 67
     7
 79
     5
170
     0
171
     0
290
     0
174
     0
 93
        1
 44
0.0
173
     0
291
     1
 45
0.0
1001
ACAD
1000
AcDbSavedByObjectVersion
1070
     0
  0
VISUALSTYLE
  5
FB
102
{ACAD_REACTORS
330
EF
102
}
102
{ACAD_XDICTIONARY
360
3D60
102
}
330
EF
100
AcDbVisualStyle
  2
Brighten
 70
    12
 71
     2
 72
     2
 73
     1
 90
        0
 40
-0.6
 41
-30.0
 62
     5
 63
     7
 74
     1
 91
        4
 64
     7
 65
   257
 75
     1
175
     1
 42
1.0
 92
        8
 66
     7
 43
1.0
 76
     1
 77
     6
 78
     2
 67
     7
 79
     5
170
     0
171
     0
290
     0
174
     0
 93
        1
 44
50.0
173
     0
291
     1
 45
0.0
1001
ACAD
1000
AcDbSavedByObjectVersion
1070
     0
  0
VISUALSTYLE
  5
FF
102
{ACAD_REACTORS
330
EF
102
}
102
{ACAD_XDICTIONARY
360
3D62
102
}
330
EF
100
AcDbVisualStyle
  2
ColorChange
 70
    16
 71
     2
 72
     2
 73
     3
 90
        0
 40
-0.6
 41
-30.0
 62
     5
 63
     8
 74
     1
 91
        4
 64
     7
 65
   257
 75
     1
175
     1
 42
1.0
 92
        8
 66
     8
 43
1.0
 76
     1
 77
     6
 78
     2
 67
     7
 79
     5
170
     0
171
     0
290
     0
174
     0
 93
        1
 44
0.0
173
     0
291
     1
 45
0.0
1001
ACAD
1000
AcDbSavedByObjectVersion
1070
     0
  0
VISUALSTYLE
  5
F8
102
{ACAD_REACTORS
330
EF
102
}
102
{ACAD_XDICTIONARY
360
3D64
102
}
330
EF
100
AcDbVisualStyle
  2
Conceptual
 70
     9
 71
     3
 72
     2
 73
     1
 90
        0
 40
-0.6
 41
-30.0
 62
     5
 63
     7
 74
     2
 91
        2
 64
     7
 65
   257
 75
     1
175
     1
 42
40.0
 92
        8
 66
     7
 43
1.0
 76
     1
 77
     6
 78
     2
 67
     7
 79
     3
170
     0
171
     0
290
     0
174
     0
 93
        1
 44
0.0
173
     0
291
     0
 45
0.0
1001
ACAD
1000
AcDbSavedByObjectVersion
1070
     0
  0
VISUALSTYLE
  5
FA
102
{ACAD_REACTORS
330
EF
102
}
102
{ACAD_XDICTIONARY
360
3D66
102
}
330
EF
100
AcDbVisualStyle
  2
Dim
 70
    11
 71
     2
 72
     2
 73
     1
 90
        0
 40
-0.6
 41
-30.0
 62
     5
 63
     7
 74
     1
 91
        4
 64
     7
 65
   257
 75
     1
175
     1
 42
1.0
 92
        8
 66
     7
 43
1.0
 76
     1
 77
     6
 78
     2
 67
     7
 79
     5
170
     0
171
     0
290
     0
174
     0
 93
        1
 44
-50.0
173
     0
291
     1
 45
0.0
1001
ACAD
1000
AcDbSavedByObjectVersion
1070
     0
  0
VISUALSTYLE
  5
3D3F
102
{ACAD_REACTORS
330
EF
102
}
102
{ACAD_XDICTIONARY
360
3D80
102
}
330
EF
100
AcDbVisualStyle
  2
EdgeColorOff
 70
    22
 71
     2
 72
     2
 73
     0
 90
        0
 40
0.6
 41
30.0
 62
     5
 63
     7
 74
     1
 91
        4
 64
     7
 65
   257
 75
     1
175
     1
 42
1.0
 92
        8
 66
     7
 43
1.0
 76
     1
 77
     6
 78
     2
 67
     7
 79
     5
170
     0
171
     0
290
     0
174
     0
 93
        1
 44
0.0
173
     0
291
     1
 45
0.0
1001
ACAD
1000
AcDbSavedByObjectVersion
1070
     0
  0
VISUALSTYLE
  5
FE
102
{ACAD_REACTORS
330
EF
102
}
102
{ACAD_XDICTIONARY
360
3D68
102
}
330
EF
100
AcDbVisualStyle
  2
Facepattern
 70
    15
 71
     2
 72
     2
 73
     1
 90
        0
 40
-0.6
 41
-30.0
 62
     5
 63
     7
 74
     1
 91
        4
 64
     7
 65
   257
 75
     1
175
     1
 42
1.0
 92
        8
 66
     7
 43
1.0
 76
     1
 77
     6
 78
     2
 67
     7
 79
     5
170
     0
171
     0
290
     0
174
     0
 93
        1
 44
0.0
173
     0
291
     1
 45
0.0
1001
ACAD
1000
AcDbSavedByObjectVersion
1070
     0
  0
VISUALSTYLE
  5
F0
102
{ACAD_REACTORS
330
EF
102
}
102
{ACAD_XDICTIONARY
360
3D6A
102
}
330
EF
100
AcDbVisualStyle
  2
Flat
 70
     0
 71
     2
 72
     1
 73
     1
 90
        2
 40
-0.6
 41
30.0
 62
     5
 63
     7
 74
     0
 91
        4
 64
     7
 65
   257
 75
     1
175
     1
 42
1.0
 92
        8
 66
     7
 43
1.0
 76
     1
 77
     6
 78
     2
 67
     7
 79
     5
170
     0
171
     0
290
     0
174
     0
 93
        1
 44
0.0
173
     0
291
     1
 45
0.0
1001
ACAD
1000
AcDbSavedByObjectVersion
1070
     0
  0
VISUALSTYLE
  5
F1
102
{ACAD_REACTORS
330
EF
102
}
102
{ACAD_XDICTIONARY
360
3D6C
102
}
330
EF
100
AcDbVisualStyle
  2
FlatWithEdges
 70
     1
 71
     2
 72
     1
 73
     1
 90
        2
 40
-0.6
 41
30.0
 62
     5
 63
     7
 74
     1
 91
        4
 64
     7
 65
   257
 75
     1
175
     1
 42
1.0
 92
        0
 66
   257
 43
1.0
 76
     1
 77
     6
 78
     2
 67
     7
 79
     5
170
     0
171
     0
290
     0
174
     0
 93
        1
 44
0.0
173
     0
291
     1
 45
0.0
1001
ACAD
1000
AcDbSavedByObjectVersion
1070
     0
  0
VISUALSTYLE
  5
F2
102
{ACAD_REACTORS
330
EF
102
}
102
{ACAD_XDICTIONARY
360
3D6E
102
}
330
EF
100
AcDbVisualStyle
  2
Gouraud
 70
     2
 71
     2
 72
     2
 73
     1
 90
        2
 40
-0.6
 41
30.0
 62
     5
 63
     7
 74
     0
 91
        4
 64
     7
 65
   257
 75
     1
175
     1
 42
1.0
 92
        0
 66
     7
 43
1.0
 76
     1
 77
     6
 78
     2
 67
     7
 79
     5
170
     0
171
     0
290
     0
174
     0
 93
        1
 44
0.0
173
     0
291
     1
 45
0.0
1001
ACAD
1000
AcDbSavedByObjectVersion
1070
     0
  0
VISUALSTYLE
  5
F3
102
{ACAD_REACTORS
330
EF
102
}
102
{ACAD_XDICTIONARY
360
3D70
102
}
330
EF
100
AcDbVisualStyle
  2
GouraudWithEdges
 70
     3
 71
     2
 72
     2
 73
     1
 90
        2
 40
-0.6
 41
30.0
 62
     5
 63
     7
 74
     1
 91
        4
 64
     7
 65
   257
 75
     1
175
     1
 42
1.0
 92
        0
 66
   257
 43
1.0
 76
     1
 77
     6
 78
     2
 67
     7
 79
     5
170
     0
171
     0
290
     0
174
     0
 93
        1
 44
0.0
173
     0
291
     1
 45
0.0
1001
ACAD
1000
AcDbSavedByObjectVersion
1070
     0
  0
VISUALSTYLE
  5
3D3C
102
{ACAD_REACTORS
330
EF
102
}
102
{ACAD_XDICTIONARY
360
3D7A
102
}
330
EF
100
AcDbVisualStyle
  2
Hidden
 70
     6
 71
     1
 72
     2
 73
     2
 90
        0
 40
0.6
 41
30.0
 62
     5
 63
     7
 74
     2
 91
        2
 64
     7
 65
   257
 75
     2
175
     1
 42
40.0
 92
        0
 66
   257
 43
1.0
 76
     1
 77
     6
 78
     2
 67
     7
 79
     3
170
     0
171
     0
290
     0
174
     0
 93
        1
 44
0.0
173
     0
291
     0
 45
0.0
1001
ACAD
1000
AcDbSavedByObjectVersion
1070
     0
  0
VISUALSTYLE
  5
3D3D
102
{ACAD_REACTORS
330
EF
102
}
102
{ACAD_XDICTIONARY
360
3D7C
102
}
330
EF
100
AcDbVisualStyle
  2
JitterOff
 70
    20
 71
     2
 72
     2
 73
     0
 90
        0
 40
0.6
 41
30.0
 62
     5
 63
     7
 74
     1
 91
        4
 64
     7
 65
   257
 75
     1
175
     1
 42
1.0
 92
       10
 66
     7
 43
1.0
 76
     1
 77
     6
 78
     2
 67
     7
 79
     5
170
     0
171
     0
290
     0
174
     0
 93
        1
 44
0.0
173
     0
291
     1
 45
0.0
1001
ACAD
1000
AcDbSavedByObjectVersion
1070
     0
  0
VISUALSTYLE
  5
FD
102
{ACAD_REACTORS
330
EF
102
}
102
{ACAD_XDICTIONARY
360
3D72
102
}
330
EF
100
AcDbVisualStyle
  2
Linepattern
 70
    14
 71
     2
 72
     2
 73
     1
 90
        0
 40
-0.6
 41
-30.0
 62
     5
 63
     7
 74
     1
 91
        4
 64
     7
 65
   257
 75
     7
175
     7
 42
1.0
 92
        8
 66
     7
 43
1.0
 76
     1
 77
     6
 78
     2
 67
     7
 79
     5
170
     0
171
     0
290
     0
174
     0
 93
        1
 44
0.0
173
     0
291
     1
 45
0.0
1001
ACAD
1000
AcDbSavedByObjectVersion
1070
     0
  0
VISUALSTYLE
  5
3D3E
102
{ACAD_REACTORS
330
EF
102
}
102
{ACAD_XDICTIONARY
360
3D7E
102
}
330
EF
100
AcDbVisualStyle
  2
OverhangOff
 70
    21
 71
     2
 72
     2
 73
     0
 90
        0
 40
0.6
 41
30.0
 62
     5
 63
     7
 74
     1
 91
        4
 64
     7
 65
   257
 75
     1
175
     1
 42
1.0
 92
        9
 66
     7
 43
1.0
 76
     1
 77
     6
 78
     2
 67
     7
 79
     5
170
     0
171
     0
290
     0
174
     0
 93
        1
 44
0.0
173
     0
291
     1
 45
0.0
1001
ACAD
1000
AcDbSavedByObjectVersion
1070
     0
  0
VISUALSTYLE
  5
F9
102
{ACAD_REACTORS
330
EF
102
}
102
{ACAD_XDICTIONARY
360
3D74
102
}
330
EF
100
AcDbVisualStyle
  2
Realistic
 70
     8
 71
     2
 72
     2
 73
     1
 90
        0
 40
-0.6
 41
-30.0
 62
     5
 63
     7
 74
     1
 91
        0
 64
     7
 65
   257
 75
     1
175
     1
 42
1.0
 92
        8
 66
     8
 43
1.0
 76
     1
 77
     6
 78
     2
 67
     7
 79
     5
170
     0
171
     0
290
     0
174
     0
 93
       13
 44
0.0
173
     0
291
     0
 45
0.0
1001
ACAD
1000
AcDbSavedByObjectVersion
1070
     0
  0
VISUALSTYLE
  5
3D44
102
{ACAD_REACTORS
330
EF
102
}
102
{ACAD_XDICTIONARY
360
3D8A
102
}
330
EF
100
AcDbVisualStyle
  2
Shaded
 70
    27
 71
     2
 72
     2
 73
     1
 90
        2
 40
0.6
 41
30.0
 62
     5
 63
     7
 74
     0
 91
        4
 64
     7
 65
   257
 75
     1
175
     1
 42
1.0
 92
        8
 66
   257
 43
1.0
 76
     1
 77
     6
 78
     2
 67
     8
 79
     3
170
     0
171
     0
290
     0
174
     0
 93
        5
 44
0.0
173
     0
291
     0
 45
0.0
1001
ACAD
1000
AcDbSavedByObjectVersion
1070
     0
  0
VISUALSTYLE
  5
3D43
102
{ACAD_REACTORS
330
EF
102
}
102
{ACAD_XDICTIONARY
360
3D88
102
}
330
EF
100
AcDbVisualStyle
  2
Shaded with edges
 70
    26
 71
     2
 72
     2
 73
     1
 90
        2
 40
0.6
 41
30.0
 62
     5
 63
     7
 74
     1
 91
       10
 64
     7
 65
   257
 75
     2
175
     1
 42
1.0
 92
        8
 66
   257
 43
1.0
 76
     1
 77
     6
 78
     2
 67
     7
 79
     3
170
     0
171
     0
290
     0
174
     0
 93
        5
 44
0.0
173
     0
291
     0
 45
0.0
1001
ACAD
1000
AcDbSavedByObjectVersion
1070
     0
  0
VISUALSTYLE
  5
3D40
102
{ACAD_REACTORS
330
EF
102
}
102
{ACAD_XDICTIONARY
360
3D82
102
}
330
EF
100
AcDbVisualStyle
  2
Shades of Gray
 70
    23
 71
     2
 72
     2
 73
     3
 90
        0
 40
0.6
 41
30.0
 62
     5
 63
     7
 74
     2
 91
        2
 64
     7
 65
     7
 75
     1
175
     1
 42
40.0
 92
        8
 66
     7
 43
1.0
 76
     1
 77
     6
 78
     2
 67
     7
 79
     3
170
     0
171
     0
290
     0
174
     0
 93
        1
 44
0.0
173
     0
291
     0
 45
0.0
1001
ACAD
1000
AcDbSavedByObjectVersion
1070
     0
  0
VISUALSTYLE
  5
3D41
102
{ACAD_REACTORS
330
EF
102
}
102
{ACAD_XDICTIONARY
360
3D84
102
}
330
EF
100
AcDbVisualStyle
  2
Sketchy
 70
    24
 71
     1
 72
     2
 73
     2
 90
        0
 40
0.6
 41
30.0
 62
     5
 63
     7
 74
     2
 91
        2
 64
     7
 65
     7
 75
     1
175
     1
 42
40.0
 92
       11
 66
     7
 43
1.0
 76
     1
 77
     6
 78
     2
 67
     7
 79
     6
170
     0
171
     0
290
     0
174
     0
 93
        1
 44
0.0
173
     0
291
     0
 45
0.0
1001
ACAD
1000
AcDbSavedByObjectVersion
1070
     0
  0
VISUALSTYLE
  5
FC
102
{ACAD_REACTORS
330
EF
102
}
102
{ACAD_XDICTIONARY
360
3D76
102
}
330
EF
100
AcDbVisualStyle
  2
Thicken
 70
    13
 71
     2
 72
     2
 73
     1
 90
        0
 40
-0.6
 41
-30.0
 62
     5
 63
     7
 74
     1
 91
        4
 64
     7
 65
   257
 75
     1
175
     1
 42
1.0
 92
       12
 66
     7
 43
1.0
 76
     1
 77
     6
 78
     2
 67
     7
 79
     5
170
     0
171
     0
290
     0
174
     0
 93
        1
 44
0.0
173
     0
291
     1
 45
0.0
1001
ACAD
1000
AcDbSavedByObjectVersion
1070
     0
  0
VISUALSTYLE
  5
3D3B
102
{ACAD_REACTORS
330
EF
102
}
102
{ACAD_XDICTIONARY
360
3D78
102
}
330
EF
100
AcDbVisualStyle
  2
Wireframe
 70
     5
 71
     0
 72
     2
 73
     0
 90
        0
 40
0.6
 41
30.0
 62
     5
 63
     7
 74
     1
 91
        4
 64
     7
 65
   257
 75
     1
175
     1
 42
1.0
 92
        0
 66
   257
 43
1.0
 76
     1
 77
     6
 78
     2
 67
     7
 79
     3
170
     0
171
     0
290
     0
174
     0
 93
        1
 44
0.0
173
     0
291
     0
 45
0.0
1001
ACAD
1000
AcDbSavedByObjectVersion
1070
     0
  0
VISUALSTYLE
  5
3D42
102
{ACAD_REACTORS
330
EF
102
}
102
{ACAD_XDICTIONARY
360
3D86
102
}
330
EF
100
AcDbVisualStyle
  2
X-Ray
 70
    25
 71
     2
 72
     2
 73
     1
 90
        1
 40
0.5
 41
30.0
 62
     5
 63
     7
 74
     1
 91
        0
 64
     7
 65
   257
 75
     1
175
     1
 42
1.0
 92
        8
 66
     7
 43
1.0
 76
     1
 77
     6
 78
     2
 67
     7
 79
     3
170
     0
171
     0
290
     0
174
     0
 93
       13
 44
0.0
173
     0
291
     0
 45
0.0
1001
ACAD
1000
AcDbSavedByObjectVersion
1070
     0
  0
XRECORD
  5
3D4A
102
{ACAD_REACTORS
330
3D49
102
}
330
3D49
100
AcDbXrecord
280
     1
340
6B
  0
XRECORD
  5
3D4B
102
{ACAD_REACTORS
330
3D49
102
}
330
3D49
100
AcDbXrecord
280
     1
340
6A
  0
DICTIONARYVAR
  5
3D4F
102
{ACAD_REACTORS
330
5E
102
}
330
5E
100
DictionaryVariables
280
     0
  1
1:1
  0
DICTIONARYVAR
  5
145
102
{ACAD_REACTORS
330
5E
102
}
330
5E
100
DictionaryVariables
280
     0
  1
Standard
  0
DICTIONARYVAR
  5
84
102
{ACAD_REACTORS
330
5E
102
}
330
5E
100
DictionaryVariables
280
     0
  1
Standard
  0
DICTIONARYVAR
  5
5F
102
{ACAD_REACTORS
330
5E
102
}
330
5E
100
DictionaryVariables
280
     0
  1
2
  0
DICTIONARYVAR
  5
63
102
{ACAD_REACTORS
330
5E
102
}
330
5E
100
DictionaryVariables
280
     0
  1
1
  0
DICTIONARYVAR
  5
3331
102
{ACAD_REACTORS
330
5E
102
}
330
5E
100
DictionaryVariables
280
     0
  1
0
  0
DICTIONARYVAR
  5
2CA1
102
{ACAD_REACTORS
330
5E
102
}
330
5E
100
DictionaryVariables
280
     0
  1
2
  0
DICTIONARYVAR
  5
2CA0
102
{ACAD_REACTORS
330
5E
102
}
330
5E
100
DictionaryVariables
280
     0
  1
1
  0
DICTIONARYVAR
  5
3D46
102
{ACAD_REACTORS
330
5E
102
}
330
5E
100
DictionaryVariables
280
     0
  1
80.000000
  0
DICTIONARYVAR
  5
3D45
102
{ACAD_REACTORS
330
5E
102
}
330
5E
100
DictionaryVariables
280
     0
  1
5.000000
  0
DICTIONARYVAR
  5
3330
102
{ACAD_REACTORS
330
5E
102
}
330
5E
100
DictionaryVariables
280
     0
  1
127
  0
DICTIONARY
  5
3D50
330
ED
100
AcDbDictionary
280
     1
281
     1
  3
ACAD_XREC_ROUNDTRIP
360
3D51
  0
DICTIONARY
  5
3D52
330
EC
100
AcDbDictionary
280
     1
281
     1
  3
ACAD_XREC_ROUNDTRIP
360
3D53
  0
DICTIONARY
  5
3D54
330
EE
100
AcDbDictionary
280
     1
281
     1
  3
ACAD_XREC_ROUNDTRIP
360
3D55
  0
DICTIONARY
  5
3D56
330
12E
100
AcDbDictionary
280
     1
281
     1
  3
ACAD_XREC_ROUNDTRIP
360
3D57
  0
DICTIONARY
  5
162
330
7F
100
AcDbDictionary
280
     1
281
     1
  3
ACAD_ROUNDTRIP_2008_TABLESTYLE_CELLSTYLEMAP
360
3D14
  0
DICTIONARY
  5
3D58
330
F5
100
AcDbDictionary
280
     1
281
     1
  3
ACAD_XREC_ROUNDTRIP
360
3D59
  0
DICTIONARY
  5
3D5A
330
F7
100
AcDbDictionary
280
     1
281
     1
  3
ACAD_XREC_ROUNDTRIP
360
3D5B
  0
DICTIONARY
  5
3D5C
330
F6
100
AcDbDictionary
280
     1
281
     1
  3
ACAD_XREC_ROUNDTRIP
360
3D5D
  0
DICTIONARY
  5
3D5E
330
F4
100
AcDbDictionary
280
     1
281
     1
  3
ACAD_XREC_ROUNDTRIP
360
3D5F
  0
DICTIONARY
  5
3D60
330
FB
100
AcDbDictionary
280
     1
281
     1
  3
ACAD_XREC_ROUNDTRIP
360
3D61
  0
DICTIONARY
  5
3D62
330
FF
100
AcDbDictionary
280
     1
281
     1
  3
ACAD_XREC_ROUNDTRIP
360
3D63
  0
DICTIONARY
  5
3D64
330
F8
100
AcDbDictionary
280
     1
281
     1
  3
ACAD_XREC_ROUNDTRIP
360
3D65
  0
DICTIONARY
  5
3D66
330
FA
100
AcDbDictionary
280
     1
281
     1
  3
ACAD_XREC_ROUNDTRIP
360
3D67
  0
DICTIONARY
  5
3D80
330
3D3F
100
AcDbDictionary
280
     1
281
     1
  3
ACAD_XREC_ROUNDTRIP
360
3D81
  0
DICTIONARY
  5
3D68
330
FE
100
AcDbDictionary
280
     1
281
     1
  3
ACAD_XREC_ROUNDTRIP
360
3D69
  0
DICTIONARY
  5
3D6A
330
F0
100
AcDbDictionary
280
     1
281
     1
  3
ACAD_XREC_ROUNDTRIP
360
3D6B
  0
DICTIONARY
  5
3D6C
330
F1
100
AcDbDictionary
280
     1
281
     1
  3
ACAD_XREC_ROUNDTRIP
360
3D6D
  0
DICTIONARY
  5
3D6E
330
F2
100
AcDbDictionary
280
     1
281
     1
  3
ACAD_XREC_ROUNDTRIP
360
3D6F
  0
DICTIONARY
  5
3D70
330
F3
100
AcDbDictionary
280
     1
281
     1
  3
ACAD_XREC_ROUNDTRIP
360
3D71
  0
DICTIONARY
  5
3D7A
330
3D3C
100
AcDbDictionary
280
     1
281
     1
  3
ACAD_XREC_ROUNDTRIP
360
3D7B
  0
DICTIONARY
  5
3D7C
330
3D3D
100
AcDbDictionary
280
     1
281
     1
  3
ACAD_XREC_ROUNDTRIP
360
3D7D
  0
DICTIONARY
  5
3D72
330
FD
100
AcDbDictionary
280
     1
281
     1
  3
ACAD_XREC_ROUNDTRIP
360
3D73
  0
DICTIONARY
  5
3D7E
330
3D3E
100
AcDbDictionary
280
     1
281
     1
  3
ACAD_XREC_ROUNDTRIP
360
3D7F
  0
DICTIONARY
  5
3D74
330
F9
100
AcDbDictionary
280
     1
281
     1
  3
ACAD_XREC_ROUNDTRIP
360
3D75
  0
DICTIONARY
  5
3D8A
330
3D44
100
AcDbDictionary
280
     1
281
     1
  3
ACAD_XREC_ROUNDTRIP
360
3D8B
  0
DICTIONARY
  5
3D88
330
3D43
100
AcDbDictionary
280
     1
281
     1
  3
ACAD_XREC_ROUNDTRIP
360
3D89
  0
DICTIONARY
  5
3D82
330
3D40
100
AcDbDictionary
280
     1
281
     1
  3
ACAD_XREC_ROUNDTRIP
360
3D83
  0
DICTIONARY
  5
3D84
330
3D41
100
AcDbDictionary
280
     1
281
     1
  3
ACAD_XREC_ROUNDTRIP
360
3D85
  0
DICTIONARY
  5
3D76
330
FC
100
AcDbDictionary
280
     1
281
     1
  3
ACAD_XREC_ROUNDTRIP
360
3D77
  0
DICTIONARY
  5
3D78
330
3D3B
100
AcDbDictionary
280
     1
281
     1
  3
ACAD_XREC_ROUNDTRIP
360
3D79
  0
DICTIONARY
  5
3D86
330
3D42
100
AcDbDictionary
280
     1
281
     1
  3
ACAD_XREC_ROUNDTRIP
360
3D87
  0
XRECORD
  5
3D51
102
{ACAD_REACTORS
330
3D50
102
}
330
3D50
100
AcDbXrecord
280
     1
102
MATERIAL
148
0.0
149
0.0
149
0.0
 93
        0
 94
       63
282
     0
 72
     1
 77
     1
171
     1
175
     1
179
     1
273
     0
  0
XRECORD
  5
3D53
102
{ACAD_REACTORS
330
3D52
102
}
330
3D52
100
AcDbXrecord
280
     1
102
MATERIAL
148
0.0
149
0.0
149
0.0
 93
        0
 94
       63
282
     0
 72
     1
 77
     1
171
     1
175
     1
179
     1
273
     0
  0
XRECORD
  5
3D55
102
{ACAD_REACTORS
330
3D54
102
}
330
3D54
100
AcDbXrecord
280
     1
102
MATERIAL
148
0.0
149
0.0
149
0.0
 93
        0
 94
       63
282
     0
 72
     1
 77
     1
171
     1
175
     1
179
     1
273
     0
  0
XRECORD
  5
3D57
102
{ACAD_REACTORS
330
3D56
102
}
330
3D56
100
AcDbXrecord
280
     1
102
ACAD_ROUNDTRIP_2010_MLEADER_STYLE
  0
CELLSTYLEMAP
  5
3D14
102
{ACAD_REACTORS
330
162
102
}
330
162
100
AcDbCellStyleMap
 90
        3
300
CELLSTYLE
  1
TABLEFORMAT_BEGIN
 90
        5
170
     1
 91
        0
 92
        0
 62
   257
 93
        1
300
CONTENTFORMAT
  1
CONTENTFORMAT_BEGIN
 90
        0
 91
        0
 92
      512
 93
        0
300

 40
0.0
140
1.0
 94
        5
 62
     0
340
11
144
4.5
309
CONTENTFORMAT_END
171
     1
301
MARGIN
  1
CELLMARGIN_BEGIN
 40
1.5
 40
1.5
 40
1.5
 40
1.5
 40
4.5
 40
4.5
309
CELLMARGIN_END
 94
        6
 95
        1
302
GRIDFORMAT
  1
GRIDFORMAT_BEGIN
 90
        0
 91
        1
 62
     0
 92
       -2
340
14
 93
        0
 40
1.125
309
GRIDFORMAT_END
 95
        2
302
GRIDFORMAT
  1
GRIDFORMAT_BEGIN
 90
        0
 91
        1
 62
     0
 92
       -2
340
14
 93
        0
 40
1.125
309
GRIDFORMAT_END
 95
        4
302
GRIDFORMAT
  1
GRIDFORMAT_BEGIN
 90
        0
 91
        1
 62
     0
 92
       -2
340
14
 93
        0
 40
1.125
309
GRIDFORMAT_END
 95
        8
302
GRIDFORMAT
  1
GRIDFORMAT_BEGIN
 90
        0
 91
        1
 62
     0
 92
       -2
340
14
 93
        0
 40
1.125
309
GRIDFORMAT_END
 95
       16
302
GRIDFORMAT
  1
GRIDFORMAT_BEGIN
 90
        0
 91
        1
 62
     0
 92
       -2
340
14
 93
        0
 40
1.125
309
GRIDFORMAT_END
 95
       32
302
GRIDFORMAT
  1
GRIDFORMAT_BEGIN
 90
        0
 91
        1
 62
     0
 92
       -2
340
14
 93
        0
 40
1.125
309
GRIDFORMAT_END
309
TABLEFORMAT_END
  1
CELLSTYLE_BEGIN
 90
        2
 91
        1
300
_HEADER
309
CELLSTYLE_END
300
CELLSTYLE
  1
TABLEFORMAT_BEGIN
 90
        5
170
     1
 91
        0
 92
        0
 62
   257
 93
        1
300
CONTENTFORMAT
  1
CONTENTFORMAT_BEGIN
 90
        0
 91
        0
 92
      512
 93
        0
300

 40
0.0
140
1.0
 94
        2
 62
     0
340
11
144
4.5
309
CONTENTFORMAT_END
171
     1
301
MARGIN
  1
CELLMARGIN_BEGIN
 40
1.5
 40
1.5
 40
1.5
 40
1.5
 40
4.5
 40
4.5
309
CELLMARGIN_END
 94
        6
 95
        1
302
GRIDFORMAT
  1
GRIDFORMAT_BEGIN
 90
        0
 91
        1
 62
     0
 92
       -2
340
14
 93
        0
 40
1.125
309
GRIDFORMAT_END
 95
        2
302
GRIDFORMAT
  1
GRIDFORMAT_BEGIN
 90
        0
 91
        1
 62
     0
 92
       -2
340
14
 93
        0
 40
1.125
309
GRIDFORMAT_END
 95
        4
302
GRIDFORMAT
  1
GRIDFORMAT_BEGIN
 90
        0
 91
        1
 62
     0
 92
       -2
340
14
 93
        0
 40
1.125
309
GRIDFORMAT_END
 95
        8
302
GRIDFORMAT
  1
GRIDFORMAT_BEGIN
 90
        0
 91
        1
 62
     0
 92
       -2
340
14
 93
        0
 40
1.125
309
GRIDFORMAT_END
 95
       16
302
GRIDFORMAT
  1
GRIDFORMAT_BEGIN
 90
        0
 91
        1
 62
     0
 92
       -2
340
14
 93
        0
 40
1.125
309
GRIDFORMAT_END
 95
       32
302
GRIDFORMAT
  1
GRIDFORMAT_BEGIN
 90
        0
 91
        1
 62
     0
 92
       -2
340
14
 93
        0
 40
1.125
309
GRIDFORMAT_END
309
TABLEFORMAT_END
  1
CELLSTYLE_BEGIN
 90
        3
 91
        2
300
_DATA
309
CELLSTYLE_END
300
CELLSTYLE
  1
TABLEFORMAT_BEGIN
 90
        5
170
     1
 91
        0
 92
    32768
 62
   257
 93
        1
300
CONTENTFORMAT
  1
CONTENTFORMAT_BEGIN
 90
        0
 91
        0
 92
      512
 93
        0
300

 40
0.0
140
1.0
 94
        5
 62
     0
340
11
144
6.0
309
CONTENTFORMAT_END
171
     1
301
MARGIN
  1
CELLMARGIN_BEGIN
 40
1.5
 40
1.5
 40
1.5
 40
1.5
 40
4.5
 40
4.5
309
CELLMARGIN_END
 94
        6
 95
        1
302
GRIDFORMAT
  1
GRIDFORMAT_BEGIN
 90
        0
 91
        1
 62
     0
 92
       -2
340
14
 93
        0
 40
1.125
309
GRIDFORMAT_END
 95
        2
302
GRIDFORMAT
  1
GRIDFORMAT_BEGIN
 90
        0
 91
        1
 62
     0
 92
       -2
340
14
 93
        0
 40
1.125
309
GRIDFORMAT_END
 95
        4
302
GRIDFORMAT
  1
GRIDFORMAT_BEGIN
 90
        0
 91
        1
 62
     0
 92
       -2
340
14
 93
        0
 40
1.125
309
GRIDFORMAT_END
 95
        8
302
GRIDFORMAT
  1
GRIDFORMAT_BEGIN
 90
        0
 91
        1
 62
     0
 92
       -2
340
14
 93
        0
 40
1.125
309
GRIDFORMAT_END
 95
       16
302
GRIDFORMAT
  1
GRIDFORMAT_BEGIN
 90
        0
 91
        1
 62
     0
 92
       -2
340
14
 93
        0
 40
1.125
309
GRIDFORMAT_END
 95
       32
302
GRIDFORMAT
  1
GRIDFORMAT_BEGIN
 90
        0
 91
        1
 62
     0
 92
       -2
340
14
 93
        0
 40
1.125
309
GRIDFORMAT_END
309
TABLEFORMAT_END
  1
CELLSTYLE_BEGIN
 90
        1
 91
        1
300
_TITLE
309
CELLSTYLE_END
  0
XRECORD
  5
3D59
102
{ACAD_REACTORS
330
3D58
102
}
330
3D58
100
AcDbXrecord
280
     1
102
RTVSPropertyOp0
 70
     1
102
RTVSPropertyOp1
 70
     1
102
RTVSPropertyOp2
 70
     1
102
RTVSPropertyOp3
 70
     1
102
RTVSPropertyOp4
 70
     1
102
RTVSPropertyOp5
 70
     1
102
RTVSPropertyOp6
 70
     1
102
RTVSPropertyOp7
 70
     1
102
RTVSPropertyOp8
 70
     1
102
RTVSPropertyOp9
 70
     1
102
RTVSPropertyOp10
 70
     1
102
RTVSPropertyOp11
 70
     1
102
RTVSPropertyOp12
 70
     1
102
RTVSPropertyOp13
 70
     1
102
RTVSPropertyOp14
 70
     1
102
RTVSPropertyOp15
 70
     1
102
RTVSPropertyOp16
 70
     1
102
RTVSPropertyOp17
 70
     1
102
RTVSPropertyOp18
 70
     1
102
RTVSPropertyOp19
 70
     1
102
RTVSPropertyOp20
 70
     1
102
RTVSPropertyOp21
 70
     1
102
RTVSPropertyOp22
 70
     1
102
RTVSPropertyOp23
 70
     1
102
RTVSPropertyOp24
 70
     1
102
RTVSPropertyOp25
 70
     1
102
RTVSPropertyOp26
 70
     1
102
RTVSPropertyOp27
 70
     1
102
RTVSPropertyOp28
 70
     1
102
RTVSPropertyOp29
 70
     1
102
RTVSPropertyOp30
 70
     1
102
RTVSPropertyOp31
 70
     1
102
RTVSPropertyOp32
 70
     1
102
RTVSPropertyOp33
 70
     1
102
RTVSPropertyOp34
 70
     1
102
RTVSPropertyOp35
 70
     1
102
RTVSPropertyOp36
 70
     1
102
RTVSPropertyOp37
 70
     1
102
RTVSPropertyOp38
 70
     1
102
RTVSPropertyOp39
 70
     1
102
RTVSPropertyOp40
 70
     1
102
RTVSPropertyOp41
 70
     1
102
RTVSPropertyOp42
 70
     1
102
RTVSPropertyOp43
 70
     1
102
RTVSPropertyOp44
 70
     1
102
RTVSPropertyOp45
 70
     1
102
RTVSPropertyOp46
 70
     1
102
RTVSPropertyOp47
 70
     1
102
RTVSPropertyOp48
 70
     1
102
RTVSPropertyOp49
 70
     1
102
RTVSPropertyOp50
 70
     1
102
RTVSPropertyOp51
 70
     0
102
RTVSPropertyOp52
 70
     0
102
RTVSPropertyOp53
 70
     1
102
RTVSPropertyOp54
 70
     1
102
RTVSPropertyOp55
 70
     1
102
RTVSPropertyOp56
 70
     1
102
RTVSPropertyOp57
 70
     1
102
RTVSPost2010Prop28
280
     1
102
RTVSPost2010PropOp28
 70
     1
102
RTVSPost2010Prop29
280
     1
102
RTVSPost2010PropOp29
 70
     1
102
RTVSPost2010Prop30
280
     0
102
RTVSPost2010PropOp30
 70
     1
102
RTVSPost2010Prop31
280
     0
102
RTVSPost2010PropOp31
 70
     1
102
RTVSPost2010Prop32
280
     0
102
RTVSPost2010PropOp32
 70
     1
102
RTVSPost2010Prop33
280
     0
102
RTVSPost2010PropOp33
 70
     1
102
RTVSPost2010Prop34
280
     0
102
RTVSPost2010PropOp34
 70
     1
102
RTVSPost2010Prop35
280
     0
102
RTVSPost2010PropOp35
 70
     1
102
RTVSPost2010Prop36
280
     0
102
RTVSPost2010PropOp36
 70
     1
102
RTVSPost2010Prop37
 90
       50
102
RTVSPost2010PropOp37
 70
     1
102
RTVSPost2010Prop38
140
0.0
102
RTVSPost2010PropOp38
 70
     1
102
RTVSPost2010Prop39
140
1.0
102
RTVSPost2010PropOp39
 70
     1
102
RTVSPost2010Prop40
 90
        0
102
RTVSPost2010PropOp40
 70
     1
102
RTVSPost2010Prop41ColorIndex
 90
       18
102
RTVSPost2010Prop41ColorRGB
 90
        0
102
RTVSPost2010PropOp41
 70
     1
102
RTVSPost2010Prop42
 90
       50
102
RTVSPost2010PropOp42
 70
     1
102
RTVSPost2010Prop43
 90
        3
102
RTVSPost2010PropOp43
 70
     1
102
RTVSPost2010Prop44ColorIndex
 90
        5
102
RTVSPost2010Prop44ColorRGB
 90
      255
102
RTVSPost2010PropOp44
 70
     1
102
RTVSPost2010Prop45
280
     0
102
RTVSPost2010PropOp45
 70
     1
102
RTVSPost2010Prop46
 90
       50
102
RTVSPost2010PropOp46
 70
     1
102
RTVSPost2010Prop47
 90
       50
102
RTVSPost2010PropOp47
 70
     1
102
RTVSPost2010Prop48
 90
       50
102
RTVSPost2010PropOp48
 70
     1
102
RTVSPost2010Prop49
280
     0
102
RTVSPost2010PropOp49
 70
     1
102
RTVSPost2010Prop50
 90
       50
102
RTVSPost2010PropOp50
 70
     1
102
RTVSPost2010Prop51ColorIndex
 90
      256
102
RTVSPost2010Prop51ColorRGB
 90
-16777216
102
RTVSPost2010PropOp51
 70
     0
102
RTVSPost2010Prop52
140
1.0
102
RTVSPost2010PropOp52
 70
     0
102
RTVSPost2010Prop53
 90
        2
102
RTVSPost2010PropOp53
 70
     1
102
RTVSPost2010Prop54
  1
strokes_ogs.tif
102
RTVSPost2010PropOp54
 70
     1
102
RTVSPost2010Prop55
280
     0
102
RTVSPost2010PropOp55
 70
     1
102
RTVSPost2010Prop56
140
1.0
102
RTVSPost2010PropOp56
 70
     1
102
RTVSPost2010Prop57
140
1.0
102
RTVSPost2010PropOp57
 70
     1
  0
XRECORD
  5
3D5B
102
{ACAD_REACTORS
330
3D5A
102
}
330
3D5A
100
AcDbXrecord
280
     1
102
RTVSPropertyOp0
 70
     1
102
RTVSPropertyOp1
 70
     1
102
RTVSPropertyOp2
 70
     1
102
RTVSPropertyOp3
 70
     1
102
RTVSPropertyOp4
 70
     1
102
RTVSPropertyOp5
 70
     1
102
RTVSPropertyOp6
 70
     1
102
RTVSPropertyOp7
 70
     1
102
RTVSPropertyOp8
 70
     1
102
RTVSPropertyOp9
 70
     1
102
RTVSPropertyOp10
 70
     1
102
RTVSPropertyOp11
 70
     1
102
RTVSPropertyOp12
 70
     1
102
RTVSPropertyOp13
 70
     1
102
RTVSPropertyOp14
 70
     1
102
RTVSPropertyOp15
 70
     1
102
RTVSPropertyOp16
 70
     1
102
RTVSPropertyOp17
 70
     1
102
RTVSPropertyOp18
 70
     1
102
RTVSPropertyOp19
 70
     1
102
RTVSPropertyOp20
 70
     1
102
RTVSPropertyOp21
 70
     1
102
RTVSPropertyOp22
 70
     1
102
RTVSPropertyOp23
 70
     1
102
RTVSPropertyOp24
 70
     1
102
RTVSPropertyOp25
 70
     1
102
RTVSPropertyOp26
 70
     1
102
RTVSPropertyOp27
 70
     1
102
RTVSPropertyOp28
 70
     1
102
RTVSPropertyOp29
 70
     1
102
RTVSPropertyOp30
 70
     1
102
RTVSPropertyOp31
 70
     1
102
RTVSPropertyOp32
 70
     1
102
RTVSPropertyOp33
 70
     1
102
RTVSPropertyOp34
 70
     1
102
RTVSPropertyOp35
 70
     1
102
RTVSPropertyOp36
 70
     1
102
RTVSPropertyOp37
 70
     1
102
RTVSPropertyOp38
 70
     1
102
RTVSPropertyOp39
 70
     1
102
RTVSPropertyOp40
 70
     1
102
RTVSPropertyOp41
 70
     1
102
RTVSPropertyOp42
 70
     1
102
RTVSPropertyOp43
 70
     1
102
RTVSPropertyOp44
 70
     1
102
RTVSPropertyOp45
 70
     1
102
RTVSPropertyOp46
 70
     1
102
RTVSPropertyOp47
 70
     1
102
RTVSPropertyOp48
 70
     1
102
RTVSPropertyOp49
 70
     1
102
RTVSPropertyOp50
 70
     1
102
RTVSPropertyOp51
 70
     0
102
RTVSPropertyOp52
 70
     0
102
RTVSPropertyOp53
 70
     1
102
RTVSPropertyOp54
 70
     1
102
RTVSPropertyOp55
 70
     1
102
RTVSPropertyOp56
 70
     1
102
RTVSPropertyOp57
 70
     1
102
RTVSPost2010Prop28
280
     0
102
RTVSPost2010PropOp28
 70
     1
102
RTVSPost2010Prop29
280
     1
102
RTVSPost2010PropOp29
 70
     1
102
RTVSPost2010Prop30
280
     1
102
RTVSPost2010PropOp30
 70
     1
102
RTVSPost2010Prop31
280
     0
102
RTVSPost2010PropOp31
 70
     1
102
RTVSPost2010Prop32
280
     0
102
RTVSPost2010PropOp32
 70
     1
102
RTVSPost2010Prop33
280
     0
102
RTVSPost2010PropOp33
 70
     1
102
RTVSPost2010Prop34
280
     0
102
RTVSPost2010PropOp34
 70
     1
102
RTVSPost2010Prop35
280
     0
102
RTVSPost2010PropOp35
 70
     1
102
RTVSPost2010Prop36
280
     0
102
RTVSPost2010PropOp36
 70
     1
102
RTVSPost2010Prop37
 90
       50
102
RTVSPost2010PropOp37
 70
     1
102
RTVSPost2010Prop38
140
0.0
102
RTVSPost2010PropOp38
 70
     1
102
RTVSPost2010Prop39
140
1.0
102
RTVSPost2010PropOp39
 70
     1
102
RTVSPost2010Prop40
 90
        0
102
RTVSPost2010PropOp40
 70
     1
102
RTVSPost2010Prop41ColorIndex
 90
       18
102
RTVSPost2010Prop41ColorRGB
 90
        0
102
RTVSPost2010PropOp41
 70
     1
102
RTVSPost2010Prop42
 90
       50
102
RTVSPost2010PropOp42
 70
     1
102
RTVSPost2010Prop43
 90
        3
102
RTVSPost2010PropOp43
 70
     1
102
RTVSPost2010Prop44ColorIndex
 90
        5
102
RTVSPost2010Prop44ColorRGB
 90
      255
102
RTVSPost2010PropOp44
 70
     1
102
RTVSPost2010Prop45
280
     0
102
RTVSPost2010PropOp45
 70
     1
102
RTVSPost2010Prop46
 90
       50
102
RTVSPost2010PropOp46
 70
     1
102
RTVSPost2010Prop47
 90
       50
102
RTVSPost2010PropOp47
 70
     1
102
RTVSPost2010Prop48
 90
       50
102
RTVSPost2010PropOp48
 70
     1
102
RTVSPost2010Prop49
280
     0
102
RTVSPost2010PropOp49
 70
     1
102
RTVSPost2010Prop50
 90
       50
102
RTVSPost2010PropOp50
 70
     1
102
RTVSPost2010Prop51ColorIndex
 90
      256
102
RTVSPost2010Prop51ColorRGB
 90
-16777216
102
RTVSPost2010PropOp51
 70
     0
102
RTVSPost2010Prop52
140
1.0
102
RTVSPost2010PropOp52
 70
     0
102
RTVSPost2010Prop53
 90
        2
102
RTVSPost2010PropOp53
 70
     1
102
RTVSPost2010Prop54
  1
strokes_ogs.tif
102
RTVSPost2010PropOp54
 70
     1
102
RTVSPost2010Prop55
280
     0
102
RTVSPost2010PropOp55
 70
     1
102
RTVSPost2010Prop56
140
1.0
102
RTVSPost2010PropOp56
 70
     1
102
RTVSPost2010Prop57
140
1.0
102
RTVSPost2010PropOp57
 70
     1
  0
XRECORD
  5
3D5D
102
{ACAD_REACTORS
330
3D5C
102
}
330
3D5C
100
AcDbXrecord
280
     1
102
RTVSPropertyOp0
 70
     1
102
RTVSPropertyOp1
 70
     1
102
RTVSPropertyOp2
 70
     1
102
RTVSPropertyOp3
 70
     1
102
RTVSPropertyOp4
 70
     1
102
RTVSPropertyOp5
 70
     1
102
RTVSPropertyOp6
 70
     1
102
RTVSPropertyOp7
 70
     1
102
RTVSPropertyOp8
 70
     1
102
RTVSPropertyOp9
 70
     1
102
RTVSPropertyOp10
 70
     1
102
RTVSPropertyOp11
 70
     1
102
RTVSPropertyOp12
 70
     1
102
RTVSPropertyOp13
 70
     1
102
RTVSPropertyOp14
 70
     1
102
RTVSPropertyOp15
 70
     1
102
RTVSPropertyOp16
 70
     1
102
RTVSPropertyOp17
 70
     1
102
RTVSPropertyOp18
 70
     1
102
RTVSPropertyOp19
 70
     1
102
RTVSPropertyOp20
 70
     1
102
RTVSPropertyOp21
 70
     1
102
RTVSPropertyOp22
 70
     1
102
RTVSPropertyOp23
 70
     1
102
RTVSPropertyOp24
 70
     1
102
RTVSPropertyOp25
 70
     1
102
RTVSPropertyOp26
 70
     1
102
RTVSPropertyOp27
 70
     1
102
RTVSPropertyOp28
 70
     1
102
RTVSPropertyOp29
 70
     1
102
RTVSPropertyOp30
 70
     1
102
RTVSPropertyOp31
 70
     1
102
RTVSPropertyOp32
 70
     1
102
RTVSPropertyOp33
 70
     1
102
RTVSPropertyOp34
 70
     1
102
RTVSPropertyOp35
 70
     1
102
RTVSPropertyOp36
 70
     1
102
RTVSPropertyOp37
 70
     1
102
RTVSPropertyOp38
 70
     1
102
RTVSPropertyOp39
 70
     1
102
RTVSPropertyOp40
 70
     1
102
RTVSPropertyOp41
 70
     1
102
RTVSPropertyOp42
 70
     1
102
RTVSPropertyOp43
 70
     1
102
RTVSPropertyOp44
 70
     1
102
RTVSPropertyOp45
 70
     1
102
RTVSPropertyOp46
 70
     1
102
RTVSPropertyOp47
 70
     1
102
RTVSPropertyOp48
 70
     1
102
RTVSPropertyOp49
 70
     1
102
RTVSPropertyOp50
 70
     1
102
RTVSPropertyOp51
 70
     0
102
RTVSPropertyOp52
 70
     0
102
RTVSPropertyOp53
 70
     1
102
RTVSPropertyOp54
 70
     1
102
RTVSPropertyOp55
 70
     1
102
RTVSPropertyOp56
 70
     1
102
RTVSPropertyOp57
 70
     1
102
RTVSPost2010Prop28
280
     0
102
RTVSPost2010PropOp28
 70
     1
102
RTVSPost2010Prop29
280
     1
102
RTVSPost2010PropOp29
 70
     1
102
RTVSPost2010Prop30
280
     1
102
RTVSPost2010PropOp30
 70
     1
102
RTVSPost2010Prop31
280
     0
102
RTVSPost2010PropOp31
 70
     1
102
RTVSPost2010Prop32
280
     0
102
RTVSPost2010PropOp32
 70
     1
102
RTVSPost2010Prop33
280
     0
102
RTVSPost2010PropOp33
 70
     1
102
RTVSPost2010Prop34
280
     0
102
RTVSPost2010PropOp34
 70
     1
102
RTVSPost2010Prop35
280
     0
102
RTVSPost2010PropOp35
 70
     1
102
RTVSPost2010Prop36
280
     0
102
RTVSPost2010PropOp36
 70
     1
102
RTVSPost2010Prop37
 90
       50
102
RTVSPost2010PropOp37
 70
     1
102
RTVSPost2010Prop38
140
0.0
102
RTVSPost2010PropOp38
 70
     1
102
RTVSPost2010Prop39
140
1.0
102
RTVSPost2010PropOp39
 70
     1
102
RTVSPost2010Prop40
 90
        0
102
RTVSPost2010PropOp40
 70
     1
102
RTVSPost2010Prop41ColorIndex
 90
       18
102
RTVSPost2010Prop41ColorRGB
 90
        0
102
RTVSPost2010PropOp41
 70
     1
102
RTVSPost2010Prop42
 90
       50
102
RTVSPost2010PropOp42
 70
     1
102
RTVSPost2010Prop43
 90
        3
102
RTVSPost2010PropOp43
 70
     1
102
RTVSPost2010Prop44ColorIndex
 90
        5
102
RTVSPost2010Prop44ColorRGB
 90
      255
102
RTVSPost2010PropOp44
 70
     1
102
RTVSPost2010Prop45
280
     0
102
RTVSPost2010PropOp45
 70
     1
102
RTVSPost2010Prop46
 90
       50
102
RTVSPost2010PropOp46
 70
     1
102
RTVSPost2010Prop47
 90
       50
102
RTVSPost2010PropOp47
 70
     1
102
RTVSPost2010Prop48
 90
       50
102
RTVSPost2010PropOp48
 70
     1
102
RTVSPost2010Prop49
280
     0
102
RTVSPost2010PropOp49
 70
     1
102
RTVSPost2010Prop50
 90
       50
102
RTVSPost2010PropOp50
 70
     1
102
RTVSPost2010Prop51ColorIndex
 90
      256
102
RTVSPost2010Prop51ColorRGB
 90
-16777216
102
RTVSPost2010PropOp51
 70
     0
102
RTVSPost2010Prop52
140
1.0
102
RTVSPost2010PropOp52
 70
     0
102
RTVSPost2010Prop53
 90
        2
102
RTVSPost2010PropOp53
 70
     1
102
RTVSPost2010Prop54
  1
strokes_ogs.tif
102
RTVSPost2010PropOp54
 70
     1
102
RTVSPost2010Prop55
280
     0
102
RTVSPost2010PropOp55
 70
     1
102
RTVSPost2010Prop56
140
1.0
102
RTVSPost2010PropOp56
 70
     1
102
RTVSPost2010Prop57
140
1.0
102
RTVSPost2010PropOp57
 70
     1
  0
XRECORD
  5
3D5F
102
{ACAD_REACTORS
330
3D5E
102
}
330
3D5E
100
AcDbXrecord
280
     1
102
RTVSPropertyOp0
 70
     1
102
RTVSPropertyOp1
 70
     1
102
RTVSPropertyOp2
 70
     1
102
RTVSPropertyOp3
 70
     1
102
RTVSPropertyOp4
 70
     1
102
RTVSPropertyOp5
 70
     1
102
RTVSPropertyOp6
 70
     1
102
RTVSPropertyOp7
 70
     1
102
RTVSPropertyOp8
 70
     1
102
RTVSPropertyOp9
 70
     1
102
RTVSPropertyOp10
 70
     1
102
RTVSPropertyOp11
 70
     1
102
RTVSPropertyOp12
 70
     1
102
RTVSPropertyOp13
 70
     1
102
RTVSPropertyOp14
 70
     1
102
RTVSPropertyOp15
 70
     1
102
RTVSPropertyOp16
 70
     1
102
RTVSPropertyOp17
 70
     1
102
RTVSPropertyOp18
 70
     1
102
RTVSPropertyOp19
 70
     1
102
RTVSPropertyOp20
 70
     1
102
RTVSPropertyOp21
 70
     1
102
RTVSPropertyOp22
 70
     1
102
RTVSPropertyOp23
 70
     1
102
RTVSPropertyOp24
 70
     1
102
RTVSPropertyOp25
 70
     1
102
RTVSPropertyOp26
 70
     1
102
RTVSPropertyOp27
 70
     1
102
RTVSPropertyOp28
 70
     1
102
RTVSPropertyOp29
 70
     1
102
RTVSPropertyOp30
 70
     1
102
RTVSPropertyOp31
 70
     1
102
RTVSPropertyOp32
 70
     1
102
RTVSPropertyOp33
 70
     1
102
RTVSPropertyOp34
 70
     1
102
RTVSPropertyOp35
 70
     1
102
RTVSPropertyOp36
 70
     1
102
RTVSPropertyOp37
 70
     1
102
RTVSPropertyOp38
 70
     1
102
RTVSPropertyOp39
 70
     1
102
RTVSPropertyOp40
 70
     1
102
RTVSPropertyOp41
 70
     1
102
RTVSPropertyOp42
 70
     1
102
RTVSPropertyOp43
 70
     1
102
RTVSPropertyOp44
 70
     1
102
RTVSPropertyOp45
 70
     1
102
RTVSPropertyOp46
 70
     1
102
RTVSPropertyOp47
 70
     1
102
RTVSPropertyOp48
 70
     1
102
RTVSPropertyOp49
 70
     1
102
RTVSPropertyOp50
 70
     1
102
RTVSPropertyOp51
 70
     0
102
RTVSPropertyOp52
 70
     0
102
RTVSPropertyOp53
 70
     1
102
RTVSPropertyOp54
 70
     1
102
RTVSPropertyOp55
 70
     1
102
RTVSPropertyOp56
 70
     1
102
RTVSPropertyOp57
 70
     1
102
RTVSPost2010Prop28
280
     0
102
RTVSPost2010PropOp28
 70
     1
102
RTVSPost2010Prop29
280
     1
102
RTVSPost2010PropOp29
 70
     1
102
RTVSPost2010Prop30
280
     1
102
RTVSPost2010PropOp30
 70
     1
102
RTVSPost2010Prop31
280
     0
102
RTVSPost2010PropOp31
 70
     1
102
RTVSPost2010Prop32
280
     0
102
RTVSPost2010PropOp32
 70
     1
102
RTVSPost2010Prop33
280
     0
102
RTVSPost2010PropOp33
 70
     1
102
RTVSPost2010Prop34
280
     0
102
RTVSPost2010PropOp34
 70
     1
102
RTVSPost2010Prop35
280
     0
102
RTVSPost2010PropOp35
 70
     1
102
RTVSPost2010Prop36
280
     0
102
RTVSPost2010PropOp36
 70
     1
102
RTVSPost2010Prop37
 90
       50
102
RTVSPost2010PropOp37
 70
     1
102
RTVSPost2010Prop38
140
0.0
102
RTVSPost2010PropOp38
 70
     1
102
RTVSPost2010Prop39
140
1.0
102
RTVSPost2010PropOp39
 70
     1
102
RTVSPost2010Prop40
 90
        0
102
RTVSPost2010PropOp40
 70
     1
102
RTVSPost2010Prop41ColorIndex
 90
       18
102
RTVSPost2010Prop41ColorRGB
 90
        0
102
RTVSPost2010PropOp41
 70
     1
102
RTVSPost2010Prop42
 90
       50
102
RTVSPost2010PropOp42
 70
     1
102
RTVSPost2010Prop43
 90
        3
102
RTVSPost2010PropOp43
 70
     1
102
RTVSPost2010Prop44ColorIndex
 90
        5
102
RTVSPost2010Prop44ColorRGB
 90
      255
102
RTVSPost2010PropOp44
 70
     1
102
RTVSPost2010Prop45
280
     0
102
RTVSPost2010PropOp45
 70
     1
102
RTVSPost2010Prop46
 90
       50
102
RTVSPost2010PropOp46
 70
     1
102
RTVSPost2010Prop47
 90
       50
102
RTVSPost2010PropOp47
 70
     1
102
RTVSPost2010Prop48
 90
       50
102
RTVSPost2010PropOp48
 70
     1
102
RTVSPost2010Prop49
280
     0
102
RTVSPost2010PropOp49
 70
     1
102
RTVSPost2010Prop50
 90
       50
102
RTVSPost2010PropOp50
 70
     1
102
RTVSPost2010Prop51ColorIndex
 90
      256
102
RTVSPost2010Prop51ColorRGB
 90
-16777216
102
RTVSPost2010PropOp51
 70
     0
102
RTVSPost2010Prop52
140
1.0
102
RTVSPost2010PropOp52
 70
     0
102
RTVSPost2010Prop53
 90
        2
102
RTVSPost2010PropOp53
 70
     1
102
RTVSPost2010Prop54
  1
strokes_ogs.tif
102
RTVSPost2010PropOp54
 70
     1
102
RTVSPost2010Prop55
280
     0
102
RTVSPost2010PropOp55
 70
     1
102
RTVSPost2010Prop56
140
1.0
102
RTVSPost2010PropOp56
 70
     1
102
RTVSPost2010Prop57
140
1.0
102
RTVSPost2010PropOp57
 70
     1
  0
XRECORD
  5
3D61
102
{ACAD_REACTORS
330
3D60
102
}
330
3D60
100
AcDbXrecord
280
     1
102
RTVSPropertyOp0
 70
     1
102
RTVSPropertyOp1
 70
     1
102
RTVSPropertyOp2
 70
     1
102
RTVSPropertyOp3
 70
     1
102
RTVSPropertyOp4
 70
     1
102
RTVSPropertyOp5
 70
     1
102
RTVSPropertyOp6
 70
     1
102
RTVSPropertyOp7
 70
     1
102
RTVSPropertyOp8
 70
     1
102
RTVSPropertyOp9
 70
     1
102
RTVSPropertyOp10
 70
     1
102
RTVSPropertyOp11
 70
     1
102
RTVSPropertyOp12
 70
     1
102
RTVSPropertyOp13
 70
     1
102
RTVSPropertyOp14
 70
     1
102
RTVSPropertyOp15
 70
     1
102
RTVSPropertyOp16
 70
     1
102
RTVSPropertyOp17
 70
     1
102
RTVSPropertyOp18
 70
     1
102
RTVSPropertyOp19
 70
     1
102
RTVSPropertyOp20
 70
     1
102
RTVSPropertyOp21
 70
     1
102
RTVSPropertyOp22
 70
     1
102
RTVSPropertyOp23
 70
     1
102
RTVSPropertyOp24
 70
     1
102
RTVSPropertyOp25
 70
     1
102
RTVSPropertyOp26
 70
     1
102
RTVSPropertyOp27
 70
     1
102
RTVSPropertyOp28
 70
     1
102
RTVSPropertyOp29
 70
     1
102
RTVSPropertyOp30
 70
     1
102
RTVSPropertyOp31
 70
     1
102
RTVSPropertyOp32
 70
     1
102
RTVSPropertyOp33
 70
     1
102
RTVSPropertyOp34
 70
     1
102
RTVSPropertyOp35
 70
     1
102
RTVSPropertyOp36
 70
     1
102
RTVSPropertyOp37
 70
     1
102
RTVSPropertyOp38
 70
     1
102
RTVSPropertyOp39
 70
     1
102
RTVSPropertyOp40
 70
     1
102
RTVSPropertyOp41
 70
     1
102
RTVSPropertyOp42
 70
     1
102
RTVSPropertyOp43
 70
     1
102
RTVSPropertyOp44
 70
     1
102
RTVSPropertyOp45
 70
     1
102
RTVSPropertyOp46
 70
     1
102
RTVSPropertyOp47
 70
     1
102
RTVSPropertyOp48
 70
     1
102
RTVSPropertyOp49
 70
     1
102
RTVSPropertyOp50
 70
     1
102
RTVSPropertyOp51
 70
     0
102
RTVSPropertyOp52
 70
     0
102
RTVSPropertyOp53
 70
     1
102
RTVSPropertyOp54
 70
     1
102
RTVSPropertyOp55
 70
     1
102
RTVSPropertyOp56
 70
     1
102
RTVSPropertyOp57
 70
     1
102
RTVSPost2010Prop28
280
     0
102
RTVSPost2010PropOp28
 70
     1
102
RTVSPost2010Prop29
280
     1
102
RTVSPost2010PropOp29
 70
     1
102
RTVSPost2010Prop30
280
     1
102
RTVSPost2010PropOp30
 70
     1
102
RTVSPost2010Prop31
280
     0
102
RTVSPost2010PropOp31
 70
     1
102
RTVSPost2010Prop32
280
     0
102
RTVSPost2010PropOp32
 70
     1
102
RTVSPost2010Prop33
280
     0
102
RTVSPost2010PropOp33
 70
     1
102
RTVSPost2010Prop34
280
     0
102
RTVSPost2010PropOp34
 70
     1
102
RTVSPost2010Prop35
280
     0
102
RTVSPost2010PropOp35
 70
     1
102
RTVSPost2010Prop36
280
     0
102
RTVSPost2010PropOp36
 70
     1
102
RTVSPost2010Prop37
 90
       50
102
RTVSPost2010PropOp37
 70
     1
102
RTVSPost2010Prop38
140
0.0
102
RTVSPost2010PropOp38
 70
     1
102
RTVSPost2010Prop39
140
1.0
102
RTVSPost2010PropOp39
 70
     1
102
RTVSPost2010Prop40
 90
        0
102
RTVSPost2010PropOp40
 70
     1
102
RTVSPost2010Prop41ColorIndex
 90
       18
102
RTVSPost2010Prop41ColorRGB
 90
        0
102
RTVSPost2010PropOp41
 70
     1
102
RTVSPost2010Prop42
 90
       50
102
RTVSPost2010PropOp42
 70
     1
102
RTVSPost2010Prop43
 90
        3
102
RTVSPost2010PropOp43
 70
     1
102
RTVSPost2010Prop44ColorIndex
 90
        5
102
RTVSPost2010Prop44ColorRGB
 90
      255
102
RTVSPost2010PropOp44
 70
     1
102
RTVSPost2010Prop45
280
     0
102
RTVSPost2010PropOp45
 70
     1
102
RTVSPost2010Prop46
 90
       50
102
RTVSPost2010PropOp46
 70
     1
102
RTVSPost2010Prop47
 90
       50
102
RTVSPost2010PropOp47
 70
     1
102
RTVSPost2010Prop48
 90
       50
102
RTVSPost2010PropOp48
 70
     1
102
RTVSPost2010Prop49
280
     0
102
RTVSPost2010PropOp49
 70
     1
102
RTVSPost2010Prop50
 90
       50
102
RTVSPost2010PropOp50
 70
     1
102
RTVSPost2010Prop51ColorIndex
 90
      256
102
RTVSPost2010Prop51ColorRGB
 90
-16777216
102
RTVSPost2010PropOp51
 70
     0
102
RTVSPost2010Prop52
140
1.0
102
RTVSPost2010PropOp52
 70
     0
102
RTVSPost2010Prop53
 90
        2
102
RTVSPost2010PropOp53
 70
     1
102
RTVSPost2010Prop54
  1
strokes_ogs.tif
102
RTVSPost2010PropOp54
 70
     1
102
RTVSPost2010Prop55
280
     0
102
RTVSPost2010PropOp55
 70
     1
102
RTVSPost2010Prop56
140
1.0
102
RTVSPost2010PropOp56
 70
     1
102
RTVSPost2010Prop57
140
1.0
102
RTVSPost2010PropOp57
 70
     1
  0
XRECORD
  5
3D63
102
{ACAD_REACTORS
330
3D62
102
}
330
3D62
100
AcDbXrecord
280
     1
102
RTVSPropertyOp0
 70
     1
102
RTVSPropertyOp1
 70
     1
102
RTVSPropertyOp2
 70
     1
102
RTVSPropertyOp3
 70
     1
102
RTVSPropertyOp4
 70
     1
102
RTVSPropertyOp5
 70
     1
102
RTVSPropertyOp6
 70
     1
102
RTVSPropertyOp7
 70
     1
102
RTVSPropertyOp8
 70
     1
102
RTVSPropertyOp9
 70
     1
102
RTVSPropertyOp10
 70
     1
102
RTVSPropertyOp11
 70
     1
102
RTVSPropertyOp12
 70
     1
102
RTVSPropertyOp13
 70
     1
102
RTVSPropertyOp14
 70
     1
102
RTVSPropertyOp15
 70
     1
102
RTVSPropertyOp16
 70
     1
102
RTVSPropertyOp17
 70
     1
102
RTVSPropertyOp18
 70
     1
102
RTVSPropertyOp19
 70
     1
102
RTVSPropertyOp20
 70
     1
102
RTVSPropertyOp21
 70
     1
102
RTVSPropertyOp22
 70
     1
102
RTVSPropertyOp23
 70
     1
102
RTVSPropertyOp24
 70
     1
102
RTVSPropertyOp25
 70
     1
102
RTVSPropertyOp26
 70
     1
102
RTVSPropertyOp27
 70
     1
102
RTVSPropertyOp28
 70
     1
102
RTVSPropertyOp29
 70
     1
102
RTVSPropertyOp30
 70
     1
102
RTVSPropertyOp31
 70
     1
102
RTVSPropertyOp32
 70
     1
102
RTVSPropertyOp33
 70
     1
102
RTVSPropertyOp34
 70
     1
102
RTVSPropertyOp35
 70
     1
102
RTVSPropertyOp36
 70
     1
102
RTVSPropertyOp37
 70
     1
102
RTVSPropertyOp38
 70
     1
102
RTVSPropertyOp39
 70
     1
102
RTVSPropertyOp40
 70
     1
102
RTVSPropertyOp41
 70
     1
102
RTVSPropertyOp42
 70
     1
102
RTVSPropertyOp43
 70
     1
102
RTVSPropertyOp44
 70
     1
102
RTVSPropertyOp45
 70
     1
102
RTVSPropertyOp46
 70
     1
102
RTVSPropertyOp47
 70
     1
102
RTVSPropertyOp48
 70
     1
102
RTVSPropertyOp49
 70
     1
102
RTVSPropertyOp50
 70
     1
102
RTVSPropertyOp51
 70
     0
102
RTVSPropertyOp52
 70
     0
102
RTVSPropertyOp53
 70
     1
102
RTVSPropertyOp54
 70
     1
102
RTVSPropertyOp55
 70
     1
102
RTVSPropertyOp56
 70
     1
102
RTVSPropertyOp57
 70
     1
102
RTVSPost2010Prop28
280
     0
102
RTVSPost2010PropOp28
 70
     1
102
RTVSPost2010Prop29
280
     1
102
RTVSPost2010PropOp29
 70
     1
102
RTVSPost2010Prop30
280
     1
102
RTVSPost2010PropOp30
 70
     1
102
RTVSPost2010Prop31
280
     0
102
RTVSPost2010PropOp31
 70
     1
102
RTVSPost2010Prop32
280
     0
102
RTVSPost2010PropOp32
 70
     1
102
RTVSPost2010Prop33
280
     0
102
RTVSPost2010PropOp33
 70
     1
102
RTVSPost2010Prop34
280
     0
102
RTVSPost2010PropOp34
 70
     1
102
RTVSPost2010Prop35
280
     0
102
RTVSPost2010PropOp35
 70
     1
102
RTVSPost2010Prop36
280
     0
102
RTVSPost2010PropOp36
 70
     1
102
RTVSPost2010Prop37
 90
       50
102
RTVSPost2010PropOp37
 70
     1
102
RTVSPost2010Prop38
140
0.0
102
RTVSPost2010PropOp38
 70
     1
102
RTVSPost2010Prop39
140
1.0
102
RTVSPost2010PropOp39
 70
     1
102
RTVSPost2010Prop40
 90
        0
102
RTVSPost2010PropOp40
 70
     1
102
RTVSPost2010Prop41ColorIndex
 90
       18
102
RTVSPost2010Prop41ColorRGB
 90
        0
102
RTVSPost2010PropOp41
 70
     1
102
RTVSPost2010Prop42
 90
       50
102
RTVSPost2010PropOp42
 70
     1
102
RTVSPost2010Prop43
 90
        3
102
RTVSPost2010PropOp43
 70
     1
102
RTVSPost2010Prop44ColorIndex
 90
        5
102
RTVSPost2010Prop44ColorRGB
 90
      255
102
RTVSPost2010PropOp44
 70
     1
102
RTVSPost2010Prop45
280
     0
102
RTVSPost2010PropOp45
 70
     1
102
RTVSPost2010Prop46
 90
       50
102
RTVSPost2010PropOp46
 70
     1
102
RTVSPost2010Prop47
 90
       50
102
RTVSPost2010PropOp47
 70
     1
102
RTVSPost2010Prop48
 90
       50
102
RTVSPost2010PropOp48
 70
     1
102
RTVSPost2010Prop49
280
     0
102
RTVSPost2010PropOp49
 70
     1
102
RTVSPost2010Prop50
 90
       50
102
RTVSPost2010PropOp50
 70
     1
102
RTVSPost2010Prop51ColorIndex
 90
      256
102
RTVSPost2010Prop51ColorRGB
 90
-16777216
102
RTVSPost2010PropOp51
 70
     0
102
RTVSPost2010Prop52
140
1.0
102
RTVSPost2010PropOp52
 70
     0
102
RTVSPost2010Prop53
 90
        2
102
RTVSPost2010PropOp53
 70
     1
102
RTVSPost2010Prop54
  1
strokes_ogs.tif
102
RTVSPost2010PropOp54
 70
     1
102
RTVSPost2010Prop55
280
     0
102
RTVSPost2010PropOp55
 70
     1
102
RTVSPost2010Prop56
140
1.0
102
RTVSPost2010PropOp56
 70
     1
102
RTVSPost2010Prop57
140
1.0
102
RTVSPost2010PropOp57
 70
     1
  0
XRECORD
  5
3D65
102
{ACAD_REACTORS
330
3D64
102
}
330
3D64
100
AcDbXrecord
280
     1
102
RTVSPropertyOp0
 70
     1
102
RTVSPropertyOp1
 70
     1
102
RTVSPropertyOp2
 70
     1
102
RTVSPropertyOp3
 70
     1
102
RTVSPropertyOp4
 70
     1
102
RTVSPropertyOp5
 70
     1
102
RTVSPropertyOp6
 70
     1
102
RTVSPropertyOp7
 70
     1
102
RTVSPropertyOp8
 70
     1
102
RTVSPropertyOp9
 70
     1
102
RTVSPropertyOp10
 70
     1
102
RTVSPropertyOp11
 70
     1
102
RTVSPropertyOp12
 70
     1
102
RTVSPropertyOp13
 70
     1
102
RTVSPropertyOp14
 70
     1
102
RTVSPropertyOp15
 70
     1
102
RTVSPropertyOp16
 70
     1
102
RTVSPropertyOp17
 70
     1
102
RTVSPropertyOp18
 70
     1
102
RTVSPropertyOp19
 70
     1
102
RTVSPropertyOp20
 70
     1
102
RTVSPropertyOp21
 70
     1
102
RTVSPropertyOp22
 70
     1
102
RTVSPropertyOp23
 70
     1
102
RTVSPropertyOp24
 70
     1
102
RTVSPropertyOp25
 70
     1
102
RTVSPropertyOp26
 70
     1
102
RTVSPropertyOp27
 70
     1
102
RTVSPropertyOp28
 70
     1
102
RTVSPropertyOp29
 70
     1
102
RTVSPropertyOp30
 70
     1
102
RTVSPropertyOp31
 70
     1
102
RTVSPropertyOp32
 70
     1
102
RTVSPropertyOp33
 70
     1
102
RTVSPropertyOp34
 70
     1
102
RTVSPropertyOp35
 70
     1
102
RTVSPropertyOp36
 70
     1
102
RTVSPropertyOp37
 70
     1
102
RTVSPropertyOp38
 70
     1
102
RTVSPropertyOp39
 70
     1
102
RTVSPropertyOp40
 70
     1
102
RTVSPropertyOp41
 70
     1
102
RTVSPropertyOp42
 70
     1
102
RTVSPropertyOp43
 70
     1
102
RTVSPropertyOp44
 70
     1
102
RTVSPropertyOp45
 70
     1
102
RTVSPropertyOp46
 70
     1
102
RTVSPropertyOp47
 70
     1
102
RTVSPropertyOp48
 70
     1
102
RTVSPropertyOp49
 70
     1
102
RTVSPropertyOp50
 70
     1
102
RTVSPropertyOp51
 70
     0
102
RTVSPropertyOp52
 70
     0
102
RTVSPropertyOp53
 70
     1
102
RTVSPropertyOp54
 70
     1
102
RTVSPropertyOp55
 70
     1
102
RTVSPropertyOp56
 70
     1
102
RTVSPropertyOp57
 70
     1
102
RTVSPost2010Prop28
280
     0
102
RTVSPost2010PropOp28
 70
     1
102
RTVSPost2010Prop29
280
     1
102
RTVSPost2010PropOp29
 70
     1
102
RTVSPost2010Prop30
280
     1
102
RTVSPost2010PropOp30
 70
     1
102
RTVSPost2010Prop31
280
     0
102
RTVSPost2010PropOp31
 70
     1
102
RTVSPost2010Prop32
280
     0
102
RTVSPost2010PropOp32
 70
     1
102
RTVSPost2010Prop33
280
     0
102
RTVSPost2010PropOp33
 70
     1
102
RTVSPost2010Prop34
280
     0
102
RTVSPost2010PropOp34
 70
     1
102
RTVSPost2010Prop35
280
     0
102
RTVSPost2010PropOp35
 70
     1
102
RTVSPost2010Prop36
280
     0
102
RTVSPost2010PropOp36
 70
     1
102
RTVSPost2010Prop37
 90
       50
102
RTVSPost2010PropOp37
 70
     1
102
RTVSPost2010Prop38
140
0.0
102
RTVSPost2010PropOp38
 70
     1
102
RTVSPost2010Prop39
140
1.0
102
RTVSPost2010PropOp39
 70
     1
102
RTVSPost2010Prop40
 90
        0
102
RTVSPost2010PropOp40
 70
     1
102
RTVSPost2010Prop41ColorIndex
 90
       18
102
RTVSPost2010Prop41ColorRGB
 90
        0
102
RTVSPost2010PropOp41
 70
     1
102
RTVSPost2010Prop42
 90
       50
102
RTVSPost2010PropOp42
 70
     1
102
RTVSPost2010Prop43
 90
        3
102
RTVSPost2010PropOp43
 70
     1
102
RTVSPost2010Prop44ColorIndex
 90
        5
102
RTVSPost2010Prop44ColorRGB
 90
      255
102
RTVSPost2010PropOp44
 70
     1
102
RTVSPost2010Prop45
280
     0
102
RTVSPost2010PropOp45
 70
     1
102
RTVSPost2010Prop46
 90
       50
102
RTVSPost2010PropOp46
 70
     1
102
RTVSPost2010Prop47
 90
       50
102
RTVSPost2010PropOp47
 70
     1
102
RTVSPost2010Prop48
 90
       50
102
RTVSPost2010PropOp48
 70
     1
102
RTVSPost2010Prop49
280
     0
102
RTVSPost2010PropOp49
 70
     1
102
RTVSPost2010Prop50
 90
       50
102
RTVSPost2010PropOp50
 70
     1
102
RTVSPost2010Prop51ColorIndex
 90
      256
102
RTVSPost2010Prop51ColorRGB
 90
-16777216
102
RTVSPost2010PropOp51
 70
     0
102
RTVSPost2010Prop52
140
1.0
102
RTVSPost2010PropOp52
 70
     0
102
RTVSPost2010Prop53
 90
        2
102
RTVSPost2010PropOp53
 70
     1
102
RTVSPost2010Prop54
  1
strokes_ogs.tif
102
RTVSPost2010PropOp54
 70
     1
102
RTVSPost2010Prop55
280
     0
102
RTVSPost2010PropOp55
 70
     1
102
RTVSPost2010Prop56
140
1.0
102
RTVSPost2010PropOp56
 70
     1
102
RTVSPost2010Prop57
140
1.0
102
RTVSPost2010PropOp57
 70
     1
  0
XRECORD
  5
3D67
102
{ACAD_REACTORS
330
3D66
102
}
330
3D66
100
AcDbXrecord
280
     1
102
RTVSPropertyOp0
 70
     1
102
RTVSPropertyOp1
 70
     1
102
RTVSPropertyOp2
 70
     1
102
RTVSPropertyOp3
 70
     1
102
RTVSPropertyOp4
 70
     1
102
RTVSPropertyOp5
 70
     1
102
RTVSPropertyOp6
 70
     1
102
RTVSPropertyOp7
 70
     1
102
RTVSPropertyOp8
 70
     1
102
RTVSPropertyOp9
 70
     1
102
RTVSPropertyOp10
 70
     1
102
RTVSPropertyOp11
 70
     1
102
RTVSPropertyOp12
 70
     1
102
RTVSPropertyOp13
 70
     1
102
RTVSPropertyOp14
 70
     1
102
RTVSPropertyOp15
 70
     1
102
RTVSPropertyOp16
 70
     1
102
RTVSPropertyOp17
 70
     1
102
RTVSPropertyOp18
 70
     1
102
RTVSPropertyOp19
 70
     1
102
RTVSPropertyOp20
 70
     1
102
RTVSPropertyOp21
 70
     1
102
RTVSPropertyOp22
 70
     1
102
RTVSPropertyOp23
 70
     1
102
RTVSPropertyOp24
 70
     1
102
RTVSPropertyOp25
 70
     1
102
RTVSPropertyOp26
 70
     1
102
RTVSPropertyOp27
 70
     1
102
RTVSPropertyOp28
 70
     1
102
RTVSPropertyOp29
 70
     1
102
RTVSPropertyOp30
 70
     1
102
RTVSPropertyOp31
 70
     1
102
RTVSPropertyOp32
 70
     1
102
RTVSPropertyOp33
 70
     1
102
RTVSPropertyOp34
 70
     1
102
RTVSPropertyOp35
 70
     1
102
RTVSPropertyOp36
 70
     1
102
RTVSPropertyOp37
 70
     1
102
RTVSPropertyOp38
 70
     1
102
RTVSPropertyOp39
 70
     1
102
RTVSPropertyOp40
 70
     1
102
RTVSPropertyOp41
 70
     1
102
RTVSPropertyOp42
 70
     1
102
RTVSPropertyOp43
 70
     1
102
RTVSPropertyOp44
 70
     1
102
RTVSPropertyOp45
 70
     1
102
RTVSPropertyOp46
 70
     1
102
RTVSPropertyOp47
 70
     1
102
RTVSPropertyOp48
 70
     1
102
RTVSPropertyOp49
 70
     1
102
RTVSPropertyOp50
 70
     1
102
RTVSPropertyOp51
 70
     0
102
RTVSPropertyOp52
 70
     0
102
RTVSPropertyOp53
 70
     1
102
RTVSPropertyOp54
 70
     1
102
RTVSPropertyOp55
 70
     1
102
RTVSPropertyOp56
 70
     1
102
RTVSPropertyOp57
 70
     1
102
RTVSPost2010Prop28
280
     0
102
RTVSPost2010PropOp28
 70
     1
102
RTVSPost2010Prop29
280
     1
102
RTVSPost2010PropOp29
 70
     1
102
RTVSPost2010Prop30
280
     1
102
RTVSPost2010PropOp30
 70
     1
102
RTVSPost2010Prop31
280
     0
102
RTVSPost2010PropOp31
 70
     1
102
RTVSPost2010Prop32
280
     0
102
RTVSPost2010PropOp32
 70
     1
102
RTVSPost2010Prop33
280
     0
102
RTVSPost2010PropOp33
 70
     1
102
RTVSPost2010Prop34
280
     0
102
RTVSPost2010PropOp34
 70
     1
102
RTVSPost2010Prop35
280
     0
102
RTVSPost2010PropOp35
 70
     1
102
RTVSPost2010Prop36
280
     0
102
RTVSPost2010PropOp36
 70
     1
102
RTVSPost2010Prop37
 90
       50
102
RTVSPost2010PropOp37
 70
     1
102
RTVSPost2010Prop38
140
0.0
102
RTVSPost2010PropOp38
 70
     1
102
RTVSPost2010Prop39
140
1.0
102
RTVSPost2010PropOp39
 70
     1
102
RTVSPost2010Prop40
 90
        0
102
RTVSPost2010PropOp40
 70
     1
102
RTVSPost2010Prop41ColorIndex
 90
       18
102
RTVSPost2010Prop41ColorRGB
 90
        0
102
RTVSPost2010PropOp41
 70
     1
102
RTVSPost2010Prop42
 90
       50
102
RTVSPost2010PropOp42
 70
     1
102
RTVSPost2010Prop43
 90
        3
102
RTVSPost2010PropOp43
 70
     1
102
RTVSPost2010Prop44ColorIndex
 90
        5
102
RTVSPost2010Prop44ColorRGB
 90
      255
102
RTVSPost2010PropOp44
 70
     1
102
RTVSPost2010Prop45
280
     0
102
RTVSPost2010PropOp45
 70
     1
102
RTVSPost2010Prop46
 90
       50
102
RTVSPost2010PropOp46
 70
     1
102
RTVSPost2010Prop47
 90
       50
102
RTVSPost2010PropOp47
 70
     1
102
RTVSPost2010Prop48
 90
       50
102
RTVSPost2010PropOp48
 70
     1
102
RTVSPost2010Prop49
280
     0
102
RTVSPost2010PropOp49
 70
     1
102
RTVSPost2010Prop50
 90
       50
102
RTVSPost2010PropOp50
 70
     1
102
RTVSPost2010Prop51ColorIndex
 90
      256
102
RTVSPost2010Prop51ColorRGB
 90
-16777216
102
RTVSPost2010PropOp51
 70
     0
102
RTVSPost2010Prop52
140
1.0
102
RTVSPost2010PropOp52
 70
     0
102
RTVSPost2010Prop53
 90
        2
102
RTVSPost2010PropOp53
 70
     1
102
RTVSPost2010Prop54
  1
strokes_ogs.tif
102
RTVSPost2010PropOp54
 70
     1
102
RTVSPost2010Prop55
280
     0
102
RTVSPost2010PropOp55
 70
     1
102
RTVSPost2010Prop56
140
1.0
102
RTVSPost2010PropOp56
 70
     1
102
RTVSPost2010Prop57
140
1.0
102
RTVSPost2010PropOp57
 70
     1
  0
XRECORD
  5
3D81
102
{ACAD_REACTORS
330
3D80
102
}
330
3D80
100
AcDbXrecord
280
     1
102
RTVSPropertyOp0
 70
     0
102
RTVSPropertyOp1
 70
     0
102
RTVSPropertyOp2
 70
     0
102
RTVSPropertyOp3
 70
     0
102
RTVSPropertyOp4
 70
     0
102
RTVSPropertyOp5
 70
     0
102
RTVSPropertyOp6
 70
     0
102
RTVSPropertyOp7
 70
     0
102
RTVSPropertyOp8
 70
     0
102
RTVSPropertyOp9
 70
     0
102
RTVSPropertyOp10
 70
     0
102
RTVSPropertyOp11
 70
     0
102
RTVSPropertyOp12
 70
     0
102
RTVSPropertyOp13
 70
     0
102
RTVSPropertyOp14
 70
     2
102
RTVSPropertyOp15
 70
     0
102
RTVSPropertyOp16
 70
     0
102
RTVSPropertyOp17
 70
     0
102
RTVSPropertyOp18
 70
     0
102
RTVSPropertyOp19
 70
     0
102
RTVSPropertyOp20
 70
     0
102
RTVSPropertyOp21
 70
     0
102
RTVSPropertyOp22
 70
     0
102
RTVSPropertyOp23
 70
     0
102
RTVSPropertyOp24
 70
     0
102
RTVSPropertyOp25
 70
     0
102
RTVSPropertyOp26
 70
     0
102
RTVSPropertyOp27
 70
     0
102
RTVSPropertyOp28
 70
     0
102
RTVSPropertyOp29
 70
     0
102
RTVSPropertyOp30
 70
     0
102
RTVSPropertyOp31
 70
     0
102
RTVSPropertyOp32
 70
     0
102
RTVSPropertyOp33
 70
     0
102
RTVSPropertyOp34
 70
     0
102
RTVSPropertyOp35
 70
     0
102
RTVSPropertyOp36
 70
     0
102
RTVSPropertyOp37
 70
     0
102
RTVSPropertyOp38
 70
     0
102
RTVSPropertyOp39
 70
     0
102
RTVSPropertyOp40
 70
     0
102
RTVSPropertyOp41
 70
     0
102
RTVSPropertyOp42
 70
     0
102
RTVSPropertyOp43
 70
     0
102
RTVSPropertyOp44
 70
     0
102
RTVSPropertyOp45
 70
     0
102
RTVSPropertyOp46
 70
     0
102
RTVSPropertyOp47
 70
     0
102
RTVSPropertyOp48
 70
     0
102
RTVSPropertyOp49
 70
     0
102
RTVSPropertyOp50
 70
     0
102
RTVSPropertyOp51
 70
     0
102
RTVSPropertyOp52
 70
     0
102
RTVSPropertyOp53
 70
     0
102
RTVSPropertyOp54
 70
     0
102
RTVSPropertyOp55
 70
     0
102
RTVSPropertyOp56
 70
     0
102
RTVSPropertyOp57
 70
     0
102
RTVSPost2010Prop28
280
     0
102
RTVSPost2010PropOp28
 70
     0
102
RTVSPost2010Prop29
280
     1
102
RTVSPost2010PropOp29
 70
     0
102
RTVSPost2010Prop30
280
     1
102
RTVSPost2010PropOp30
 70
     0
102
RTVSPost2010Prop31
280
     0
102
RTVSPost2010PropOp31
 70
     0
102
RTVSPost2010Prop32
280
     0
102
RTVSPost2010PropOp32
 70
     0
102
RTVSPost2010Prop33
280
     0
102
RTVSPost2010PropOp33
 70
     0
102
RTVSPost2010Prop34
280
     0
102
RTVSPost2010PropOp34
 70
     0
102
RTVSPost2010Prop35
280
     0
102
RTVSPost2010PropOp35
 70
     0
102
RTVSPost2010Prop36
280
     0
102
RTVSPost2010PropOp36
 70
     0
102
RTVSPost2010Prop37
 90
       50
102
RTVSPost2010PropOp37
 70
     0
102
RTVSPost2010Prop38
140
0.0
102
RTVSPost2010PropOp38
 70
     0
102
RTVSPost2010Prop39
140
1.0
102
RTVSPost2010PropOp39
 70
     0
102
RTVSPost2010Prop40
 90
        0
102
RTVSPost2010PropOp40
 70
     0
102
RTVSPost2010Prop41ColorIndex
 90
       18
102
RTVSPost2010Prop41ColorRGB
 90
        0
102
RTVSPost2010PropOp41
 70
     0
102
RTVSPost2010Prop42
 90
       50
102
RTVSPost2010PropOp42
 70
     0
102
RTVSPost2010Prop43
 90
        3
102
RTVSPost2010PropOp43
 70
     0
102
RTVSPost2010Prop44ColorIndex
 90
        5
102
RTVSPost2010Prop44ColorRGB
 90
      255
102
RTVSPost2010PropOp44
 70
     0
102
RTVSPost2010Prop45
280
     0
102
RTVSPost2010PropOp45
 70
     0
102
RTVSPost2010Prop46
 90
       50
102
RTVSPost2010PropOp46
 70
     0
102
RTVSPost2010Prop47
 90
       50
102
RTVSPost2010PropOp47
 70
     0
102
RTVSPost2010Prop48
 90
       50
102
RTVSPost2010PropOp48
 70
     0
102
RTVSPost2010Prop49
280
     0
102
RTVSPost2010PropOp49
 70
     0
102
RTVSPost2010Prop50
 90
       50
102
RTVSPost2010PropOp50
 70
     0
102
RTVSPost2010Prop51ColorIndex
 90
      256
102
RTVSPost2010Prop51ColorRGB
 90
-16777216
102
RTVSPost2010PropOp51
 70
     0
102
RTVSPost2010Prop52
140
1.0
102
RTVSPost2010PropOp52
 70
     0
102
RTVSPost2010Prop53
 90
        2
102
RTVSPost2010PropOp53
 70
     0
102
RTVSPost2010Prop54
  1
strokes_ogs.tif
102
RTVSPost2010PropOp54
 70
     0
102
RTVSPost2010Prop55
280
     0
102
RTVSPost2010PropOp55
 70
     0
102
RTVSPost2010Prop56
140
1.0
102
RTVSPost2010PropOp56
 70
     0
102
RTVSPost2010Prop57
140
1.0
102
RTVSPost2010PropOp57
 70
     0
  0
XRECORD
  5
3D69
102
{ACAD_REACTORS
330
3D68
102
}
330
3D68
100
AcDbXrecord
280
     1
102
RTVSPropertyOp0
 70
     1
102
RTVSPropertyOp1
 70
     1
102
RTVSPropertyOp2
 70
     1
102
RTVSPropertyOp3
 70
     1
102
RTVSPropertyOp4
 70
     1
102
RTVSPropertyOp5
 70
     1
102
RTVSPropertyOp6
 70
     1
102
RTVSPropertyOp7
 70
     1
102
RTVSPropertyOp8
 70
     1
102
RTVSPropertyOp9
 70
     1
102
RTVSPropertyOp10
 70
     1
102
RTVSPropertyOp11
 70
     1
102
RTVSPropertyOp12
 70
     1
102
RTVSPropertyOp13
 70
     1
102
RTVSPropertyOp14
 70
     1
102
RTVSPropertyOp15
 70
     1
102
RTVSPropertyOp16
 70
     1
102
RTVSPropertyOp17
 70
     1
102
RTVSPropertyOp18
 70
     1
102
RTVSPropertyOp19
 70
     1
102
RTVSPropertyOp20
 70
     1
102
RTVSPropertyOp21
 70
     1
102
RTVSPropertyOp22
 70
     1
102
RTVSPropertyOp23
 70
     1
102
RTVSPropertyOp24
 70
     1
102
RTVSPropertyOp25
 70
     1
102
RTVSPropertyOp26
 70
     1
102
RTVSPropertyOp27
 70
     1
102
RTVSPropertyOp28
 70
     1
102
RTVSPropertyOp29
 70
     1
102
RTVSPropertyOp30
 70
     1
102
RTVSPropertyOp31
 70
     1
102
RTVSPropertyOp32
 70
     1
102
RTVSPropertyOp33
 70
     1
102
RTVSPropertyOp34
 70
     1
102
RTVSPropertyOp35
 70
     1
102
RTVSPropertyOp36
 70
     1
102
RTVSPropertyOp37
 70
     1
102
RTVSPropertyOp38
 70
     1
102
RTVSPropertyOp39
 70
     1
102
RTVSPropertyOp40
 70
     1
102
RTVSPropertyOp41
 70
     1
102
RTVSPropertyOp42
 70
     1
102
RTVSPropertyOp43
 70
     1
102
RTVSPropertyOp44
 70
     1
102
RTVSPropertyOp45
 70
     1
102
RTVSPropertyOp46
 70
     1
102
RTVSPropertyOp47
 70
     1
102
RTVSPropertyOp48
 70
     1
102
RTVSPropertyOp49
 70
     1
102
RTVSPropertyOp50
 70
     1
102
RTVSPropertyOp51
 70
     0
102
RTVSPropertyOp52
 70
     0
102
RTVSPropertyOp53
 70
     1
102
RTVSPropertyOp54
 70
     1
102
RTVSPropertyOp55
 70
     1
102
RTVSPropertyOp56
 70
     1
102
RTVSPropertyOp57
 70
     1
102
RTVSPost2010Prop28
280
     0
102
RTVSPost2010PropOp28
 70
     1
102
RTVSPost2010Prop29
280
     1
102
RTVSPost2010PropOp29
 70
     1
102
RTVSPost2010Prop30
280
     1
102
RTVSPost2010PropOp30
 70
     1
102
RTVSPost2010Prop31
280
     0
102
RTVSPost2010PropOp31
 70
     1
102
RTVSPost2010Prop32
280
     0
102
RTVSPost2010PropOp32
 70
     1
102
RTVSPost2010Prop33
280
     0
102
RTVSPost2010PropOp33
 70
     1
102
RTVSPost2010Prop34
280
     0
102
RTVSPost2010PropOp34
 70
     1
102
RTVSPost2010Prop35
280
     0
102
RTVSPost2010PropOp35
 70
     1
102
RTVSPost2010Prop36
280
     0
102
RTVSPost2010PropOp36
 70
     1
102
RTVSPost2010Prop37
 90
       50
102
RTVSPost2010PropOp37
 70
     1
102
RTVSPost2010Prop38
140
0.0
102
RTVSPost2010PropOp38
 70
     1
102
RTVSPost2010Prop39
140
1.0
102
RTVSPost2010PropOp39
 70
     1
102
RTVSPost2010Prop40
 90
        0
102
RTVSPost2010PropOp40
 70
     1
102
RTVSPost2010Prop41ColorIndex
 90
       18
102
RTVSPost2010Prop41ColorRGB
 90
        0
102
RTVSPost2010PropOp41
 70
     1
102
RTVSPost2010Prop42
 90
       50
102
RTVSPost2010PropOp42
 70
     1
102
RTVSPost2010Prop43
 90
        3
102
RTVSPost2010PropOp43
 70
     1
102
RTVSPost2010Prop44ColorIndex
 90
        5
102
RTVSPost2010Prop44ColorRGB
 90
      255
102
RTVSPost2010PropOp44
 70
     1
102
RTVSPost2010Prop45
280
     0
102
RTVSPost2010PropOp45
 70
     1
102
RTVSPost2010Prop46
 90
       50
102
RTVSPost2010PropOp46
 70
     1
102
RTVSPost2010Prop47
 90
       50
102
RTVSPost2010PropOp47
 70
     1
102
RTVSPost2010Prop48
 90
       50
102
RTVSPost2010PropOp48
 70
     1
102
RTVSPost2010Prop49
280
     0
102
RTVSPost2010PropOp49
 70
     1
102
RTVSPost2010Prop50
 90
       50
102
RTVSPost2010PropOp50
 70
     1
102
RTVSPost2010Prop51ColorIndex
 90
      256
102
RTVSPost2010Prop51ColorRGB
 90
-16777216
102
RTVSPost2010PropOp51
 70
     0
102
RTVSPost2010Prop52
140
1.0
102
RTVSPost2010PropOp52
 70
     0
102
RTVSPost2010Prop53
 90
        2
102
RTVSPost2010PropOp53
 70
     1
102
RTVSPost2010Prop54
  1
strokes_ogs.tif
102
RTVSPost2010PropOp54
 70
     1
102
RTVSPost2010Prop55
280
     0
102
RTVSPost2010PropOp55
 70
     1
102
RTVSPost2010Prop56
140
1.0
102
RTVSPost2010PropOp56
 70
     1
102
RTVSPost2010Prop57
140
1.0
102
RTVSPost2010PropOp57
 70
     1
  0
XRECORD
  5
3D6B
102
{ACAD_REACTORS
330
3D6A
102
}
330
3D6A
100
AcDbXrecord
280
     1
102
RTVSPropertyOp0
 70
     1
102
RTVSPropertyOp1
 70
     1
102
RTVSPropertyOp2
 70
     1
102
RTVSPropertyOp3
 70
     1
102
RTVSPropertyOp4
 70
     1
102
RTVSPropertyOp5
 70
     1
102
RTVSPropertyOp6
 70
     1
102
RTVSPropertyOp7
 70
     1
102
RTVSPropertyOp8
 70
     1
102
RTVSPropertyOp9
 70
     1
102
RTVSPropertyOp10
 70
     1
102
RTVSPropertyOp11
 70
     1
102
RTVSPropertyOp12
 70
     1
102
RTVSPropertyOp13
 70
     1
102
RTVSPropertyOp14
 70
     1
102
RTVSPropertyOp15
 70
     1
102
RTVSPropertyOp16
 70
     1
102
RTVSPropertyOp17
 70
     1
102
RTVSPropertyOp18
 70
     1
102
RTVSPropertyOp19
 70
     1
102
RTVSPropertyOp20
 70
     1
102
RTVSPropertyOp21
 70
     1
102
RTVSPropertyOp22
 70
     1
102
RTVSPropertyOp23
 70
     1
102
RTVSPropertyOp24
 70
     1
102
RTVSPropertyOp25
 70
     1
102
RTVSPropertyOp26
 70
     1
102
RTVSPropertyOp27
 70
     1
102
RTVSPropertyOp28
 70
     1
102
RTVSPropertyOp29
 70
     1
102
RTVSPropertyOp30
 70
     1
102
RTVSPropertyOp31
 70
     1
102
RTVSPropertyOp32
 70
     1
102
RTVSPropertyOp33
 70
     1
102
RTVSPropertyOp34
 70
     1
102
RTVSPropertyOp35
 70
     1
102
RTVSPropertyOp36
 70
     1
102
RTVSPropertyOp37
 70
     1
102
RTVSPropertyOp38
 70
     1
102
RTVSPropertyOp39
 70
     1
102
RTVSPropertyOp40
 70
     1
102
RTVSPropertyOp41
 70
     1
102
RTVSPropertyOp42
 70
     1
102
RTVSPropertyOp43
 70
     1
102
RTVSPropertyOp44
 70
     1
102
RTVSPropertyOp45
 70
     1
102
RTVSPropertyOp46
 70
     1
102
RTVSPropertyOp47
 70
     1
102
RTVSPropertyOp48
 70
     1
102
RTVSPropertyOp49
 70
     1
102
RTVSPropertyOp50
 70
     1
102
RTVSPropertyOp51
 70
     0
102
RTVSPropertyOp52
 70
     0
102
RTVSPropertyOp53
 70
     1
102
RTVSPropertyOp54
 70
     1
102
RTVSPropertyOp55
 70
     1
102
RTVSPropertyOp56
 70
     1
102
RTVSPropertyOp57
 70
     1
102
RTVSPost2010Prop28
280
     0
102
RTVSPost2010PropOp28
 70
     1
102
RTVSPost2010Prop29
280
     1
102
RTVSPost2010PropOp29
 70
     1
102
RTVSPost2010Prop30
280
     1
102
RTVSPost2010PropOp30
 70
     1
102
RTVSPost2010Prop31
280
     0
102
RTVSPost2010PropOp31
 70
     1
102
RTVSPost2010Prop32
280
     0
102
RTVSPost2010PropOp32
 70
     1
102
RTVSPost2010Prop33
280
     0
102
RTVSPost2010PropOp33
 70
     1
102
RTVSPost2010Prop34
280
     0
102
RTVSPost2010PropOp34
 70
     1
102
RTVSPost2010Prop35
280
     0
102
RTVSPost2010PropOp35
 70
     1
102
RTVSPost2010Prop36
280
     0
102
RTVSPost2010PropOp36
 70
     1
102
RTVSPost2010Prop37
 90
       50
102
RTVSPost2010PropOp37
 70
     1
102
RTVSPost2010Prop38
140
0.0
102
RTVSPost2010PropOp38
 70
     1
102
RTVSPost2010Prop39
140
1.0
102
RTVSPost2010PropOp39
 70
     1
102
RTVSPost2010Prop40
 90
        0
102
RTVSPost2010PropOp40
 70
     1
102
RTVSPost2010Prop41ColorIndex
 90
       18
102
RTVSPost2010Prop41ColorRGB
 90
        0
102
RTVSPost2010PropOp41
 70
     1
102
RTVSPost2010Prop42
 90
       50
102
RTVSPost2010PropOp42
 70
     1
102
RTVSPost2010Prop43
 90
        3
102
RTVSPost2010PropOp43
 70
     1
102
RTVSPost2010Prop44ColorIndex
 90
        5
102
RTVSPost2010Prop44ColorRGB
 90
      255
102
RTVSPost2010PropOp44
 70
     1
102
RTVSPost2010Prop45
280
     0
102
RTVSPost2010PropOp45
 70
     1
102
RTVSPost2010Prop46
 90
       50
102
RTVSPost2010PropOp46
 70
     1
102
RTVSPost2010Prop47
 90
       50
102
RTVSPost2010PropOp47
 70
     1
102
RTVSPost2010Prop48
 90
       50
102
RTVSPost2010PropOp48
 70
     1
102
RTVSPost2010Prop49
280
     0
102
RTVSPost2010PropOp49
 70
     1
102
RTVSPost2010Prop50
 90
       50
102
RTVSPost2010PropOp50
 70
     1
102
RTVSPost2010Prop51ColorIndex
 90
      256
102
RTVSPost2010Prop51ColorRGB
 90
-16777216
102
RTVSPost2010PropOp51
 70
     0
102
RTVSPost2010Prop52
140
1.0
102
RTVSPost2010PropOp52
 70
     0
102
RTVSPost2010Prop53
 90
        2
102
RTVSPost2010PropOp53
 70
     1
102
RTVSPost2010Prop54
  1
strokes_ogs.tif
102
RTVSPost2010PropOp54
 70
     1
102
RTVSPost2010Prop55
280
     0
102
RTVSPost2010PropOp55
 70
     1
102
RTVSPost2010Prop56
140
1.0
102
RTVSPost2010PropOp56
 70
     1
102
RTVSPost2010Prop57
140
1.0
102
RTVSPost2010PropOp57
 70
     1
  0
XRECORD
  5
3D6D
102
{ACAD_REACTORS
330
3D6C
102
}
330
3D6C
100
AcDbXrecord
280
     1
102
RTVSPropertyOp0
 70
     1
102
RTVSPropertyOp1
 70
     1
102
RTVSPropertyOp2
 70
     1
102
RTVSPropertyOp3
 70
     1
102
RTVSPropertyOp4
 70
     1
102
RTVSPropertyOp5
 70
     1
102
RTVSPropertyOp6
 70
     1
102
RTVSPropertyOp7
 70
     1
102
RTVSPropertyOp8
 70
     1
102
RTVSPropertyOp9
 70
     1
102
RTVSPropertyOp10
 70
     1
102
RTVSPropertyOp11
 70
     1
102
RTVSPropertyOp12
 70
     1
102
RTVSPropertyOp13
 70
     1
102
RTVSPropertyOp14
 70
     1
102
RTVSPropertyOp15
 70
     1
102
RTVSPropertyOp16
 70
     1
102
RTVSPropertyOp17
 70
     1
102
RTVSPropertyOp18
 70
     1
102
RTVSPropertyOp19
 70
     1
102
RTVSPropertyOp20
 70
     1
102
RTVSPropertyOp21
 70
     1
102
RTVSPropertyOp22
 70
     1
102
RTVSPropertyOp23
 70
     1
102
RTVSPropertyOp24
 70
     1
102
RTVSPropertyOp25
 70
     1
102
RTVSPropertyOp26
 70
     1
102
RTVSPropertyOp27
 70
     1
102
RTVSPropertyOp28
 70
     1
102
RTVSPropertyOp29
 70
     1
102
RTVSPropertyOp30
 70
     1
102
RTVSPropertyOp31
 70
     1
102
RTVSPropertyOp32
 70
     1
102
RTVSPropertyOp33
 70
     1
102
RTVSPropertyOp34
 70
     1
102
RTVSPropertyOp35
 70
     1
102
RTVSPropertyOp36
 70
     1
102
RTVSPropertyOp37
 70
     1
102
RTVSPropertyOp38
 70
     1
102
RTVSPropertyOp39
 70
     1
102
RTVSPropertyOp40
 70
     1
102
RTVSPropertyOp41
 70
     1
102
RTVSPropertyOp42
 70
     1
102
RTVSPropertyOp43
 70
     1
102
RTVSPropertyOp44
 70
     1
102
RTVSPropertyOp45
 70
     1
102
RTVSPropertyOp46
 70
     1
102
RTVSPropertyOp47
 70
     1
102
RTVSPropertyOp48
 70
     1
102
RTVSPropertyOp49
 70
     1
102
RTVSPropertyOp50
 70
     1
102
RTVSPropertyOp51
 70
     0
102
RTVSPropertyOp52
 70
     0
102
RTVSPropertyOp53
 70
     1
102
RTVSPropertyOp54
 70
     1
102
RTVSPropertyOp55
 70
     1
102
RTVSPropertyOp56
 70
     1
102
RTVSPropertyOp57
 70
     1
102
RTVSPost2010Prop28
280
     0
102
RTVSPost2010PropOp28
 70
     1
102
RTVSPost2010Prop29
280
     1
102
RTVSPost2010PropOp29
 70
     1
102
RTVSPost2010Prop30
280
     1
102
RTVSPost2010PropOp30
 70
     1
102
RTVSPost2010Prop31
280
     0
102
RTVSPost2010PropOp31
 70
     1
102
RTVSPost2010Prop32
280
     0
102
RTVSPost2010PropOp32
 70
     1
102
RTVSPost2010Prop33
280
     0
102
RTVSPost2010PropOp33
 70
     1
102
RTVSPost2010Prop34
280
     0
102
RTVSPost2010PropOp34
 70
     1
102
RTVSPost2010Prop35
280
     0
102
RTVSPost2010PropOp35
 70
     1
102
RTVSPost2010Prop36
280
     0
102
RTVSPost2010PropOp36
 70
     1
102
RTVSPost2010Prop37
 90
       50
102
RTVSPost2010PropOp37
 70
     1
102
RTVSPost2010Prop38
140
0.0
102
RTVSPost2010PropOp38
 70
     1
102
RTVSPost2010Prop39
140
1.0
102
RTVSPost2010PropOp39
 70
     1
102
RTVSPost2010Prop40
 90
        0
102
RTVSPost2010PropOp40
 70
     1
102
RTVSPost2010Prop41ColorIndex
 90
       18
102
RTVSPost2010Prop41ColorRGB
 90
        0
102
RTVSPost2010PropOp41
 70
     1
102
RTVSPost2010Prop42
 90
       50
102
RTVSPost2010PropOp42
 70
     1
102
RTVSPost2010Prop43
 90
        3
102
RTVSPost2010PropOp43
 70
     1
102
RTVSPost2010Prop44ColorIndex
 90
        5
102
RTVSPost2010Prop44ColorRGB
 90
      255
102
RTVSPost2010PropOp44
 70
     1
102
RTVSPost2010Prop45
280
     0
102
RTVSPost2010PropOp45
 70
     1
102
RTVSPost2010Prop46
 90
       50
102
RTVSPost2010PropOp46
 70
     1
102
RTVSPost2010Prop47
 90
       50
102
RTVSPost2010PropOp47
 70
     1
102
RTVSPost2010Prop48
 90
       50
102
RTVSPost2010PropOp48
 70
     1
102
RTVSPost2010Prop49
280
     0
102
RTVSPost2010PropOp49
 70
     1
102
RTVSPost2010Prop50
 90
       50
102
RTVSPost2010PropOp50
 70
     1
102
RTVSPost2010Prop51ColorIndex
 90
      256
102
RTVSPost2010Prop51ColorRGB
 90
-16777216
102
RTVSPost2010PropOp51
 70
     0
102
RTVSPost2010Prop52
140
1.0
102
RTVSPost2010PropOp52
 70
     0
102
RTVSPost2010Prop53
 90
        2
102
RTVSPost2010PropOp53
 70
     1
102
RTVSPost2010Prop54
  1
strokes_ogs.tif
102
RTVSPost2010PropOp54
 70
     1
102
RTVSPost2010Prop55
280
     0
102
RTVSPost2010PropOp55
 70
     1
102
RTVSPost2010Prop56
140
1.0
102
RTVSPost2010PropOp56
 70
     1
102
RTVSPost2010Prop57
140
1.0
102
RTVSPost2010PropOp57
 70
     1
  0
XRECORD
  5
3D6F
102
{ACAD_REACTORS
330
3D6E
102
}
330
3D6E
100
AcDbXrecord
280
     1
102
RTVSPropertyOp0
 70
     1
102
RTVSPropertyOp1
 70
     1
102
RTVSPropertyOp2
 70
     1
102
RTVSPropertyOp3
 70
     1
102
RTVSPropertyOp4
 70
     1
102
RTVSPropertyOp5
 70
     1
102
RTVSPropertyOp6
 70
     1
102
RTVSPropertyOp7
 70
     1
102
RTVSPropertyOp8
 70
     1
102
RTVSPropertyOp9
 70
     1
102
RTVSPropertyOp10
 70
     1
102
RTVSPropertyOp11
 70
     1
102
RTVSPropertyOp12
 70
     1
102
RTVSPropertyOp13
 70
     1
102
RTVSPropertyOp14
 70
     1
102
RTVSPropertyOp15
 70
     1
102
RTVSPropertyOp16
 70
     1
102
RTVSPropertyOp17
 70
     1
102
RTVSPropertyOp18
 70
     1
102
RTVSPropertyOp19
 70
     1
102
RTVSPropertyOp20
 70
     1
102
RTVSPropertyOp21
 70
     1
102
RTVSPropertyOp22
 70
     1
102
RTVSPropertyOp23
 70
     1
102
RTVSPropertyOp24
 70
     1
102
RTVSPropertyOp25
 70
     1
102
RTVSPropertyOp26
 70
     1
102
RTVSPropertyOp27
 70
     1
102
RTVSPropertyOp28
 70
     1
102
RTVSPropertyOp29
 70
     1
102
RTVSPropertyOp30
 70
     1
102
RTVSPropertyOp31
 70
     1
102
RTVSPropertyOp32
 70
     1
102
RTVSPropertyOp33
 70
     1
102
RTVSPropertyOp34
 70
     1
102
RTVSPropertyOp35
 70
     1
102
RTVSPropertyOp36
 70
     1
102
RTVSPropertyOp37
 70
     1
102
RTVSPropertyOp38
 70
     1
102
RTVSPropertyOp39
 70
     1
102
RTVSPropertyOp40
 70
     1
102
RTVSPropertyOp41
 70
     1
102
RTVSPropertyOp42
 70
     1
102
RTVSPropertyOp43
 70
     1
102
RTVSPropertyOp44
 70
     1
102
RTVSPropertyOp45
 70
     1
102
RTVSPropertyOp46
 70
     1
102
RTVSPropertyOp47
 70
     1
102
RTVSPropertyOp48
 70
     1
102
RTVSPropertyOp49
 70
     1
102
RTVSPropertyOp50
 70
     1
102
RTVSPropertyOp51
 70
     0
102
RTVSPropertyOp52
 70
     0
102
RTVSPropertyOp53
 70
     1
102
RTVSPropertyOp54
 70
     1
102
RTVSPropertyOp55
 70
     1
102
RTVSPropertyOp56
 70
     1
102
RTVSPropertyOp57
 70
     1
102
RTVSPost2010Prop28
280
     0
102
RTVSPost2010PropOp28
 70
     1
102
RTVSPost2010Prop29
280
     1
102
RTVSPost2010PropOp29
 70
     1
102
RTVSPost2010Prop30
280
     1
102
RTVSPost2010PropOp30
 70
     1
102
RTVSPost2010Prop31
280
     0
102
RTVSPost2010PropOp31
 70
     1
102
RTVSPost2010Prop32
280
     0
102
RTVSPost2010PropOp32
 70
     1
102
RTVSPost2010Prop33
280
     0
102
RTVSPost2010PropOp33
 70
     1
102
RTVSPost2010Prop34
280
     0
102
RTVSPost2010PropOp34
 70
     1
102
RTVSPost2010Prop35
280
     0
102
RTVSPost2010PropOp35
 70
     1
102
RTVSPost2010Prop36
280
     0
102
RTVSPost2010PropOp36
 70
     1
102
RTVSPost2010Prop37
 90
       50
102
RTVSPost2010PropOp37
 70
     1
102
RTVSPost2010Prop38
140
0.0
102
RTVSPost2010PropOp38
 70
     1
102
RTVSPost2010Prop39
140
1.0
102
RTVSPost2010PropOp39
 70
     1
102
RTVSPost2010Prop40
 90
        0
102
RTVSPost2010PropOp40
 70
     1
102
RTVSPost2010Prop41ColorIndex
 90
       18
102
RTVSPost2010Prop41ColorRGB
 90
        0
102
RTVSPost2010PropOp41
 70
     1
102
RTVSPost2010Prop42
 90
       50
102
RTVSPost2010PropOp42
 70
     1
102
RTVSPost2010Prop43
 90
        3
102
RTVSPost2010PropOp43
 70
     1
102
RTVSPost2010Prop44ColorIndex
 90
        5
102
RTVSPost2010Prop44ColorRGB
 90
      255
102
RTVSPost2010PropOp44
 70
     1
102
RTVSPost2010Prop45
280
     0
102
RTVSPost2010PropOp45
 70
     1
102
RTVSPost2010Prop46
 90
       50
102
RTVSPost2010PropOp46
 70
     1
102
RTVSPost2010Prop47
 90
       50
102
RTVSPost2010PropOp47
 70
     1
102
RTVSPost2010Prop48
 90
       50
102
RTVSPost2010PropOp48
 70
     1
102
RTVSPost2010Prop49
280
     0
102
RTVSPost2010PropOp49
 70
     1
102
RTVSPost2010Prop50
 90
       50
102
RTVSPost2010PropOp50
 70
     1
102
RTVSPost2010Prop51ColorIndex
 90
      256
102
RTVSPost2010Prop51ColorRGB
 90
-16777216
102
RTVSPost2010PropOp51
 70
     0
102
RTVSPost2010Prop52
140
1.0
102
RTVSPost2010PropOp52
 70
     0
102
RTVSPost2010Prop53
 90
        2
102
RTVSPost2010PropOp53
 70
     1
102
RTVSPost2010Prop54
  1
strokes_ogs.tif
102
RTVSPost2010PropOp54
 70
     1
102
RTVSPost2010Prop55
280
     0
102
RTVSPost2010PropOp55
 70
     1
102
RTVSPost2010Prop56
140
1.0
102
RTVSPost2010PropOp56
 70
     1
102
RTVSPost2010Prop57
140
1.0
102
RTVSPost2010PropOp57
 70
     1
  0
XRECORD
  5
3D71
102
{ACAD_REACTORS
330
3D70
102
}
330
3D70
100
AcDbXrecord
280
     1
102
RTVSPropertyOp0
 70
     1
102
RTVSPropertyOp1
 70
     1
102
RTVSPropertyOp2
 70
     1
102
RTVSPropertyOp3
 70
     1
102
RTVSPropertyOp4
 70
     1
102
RTVSPropertyOp5
 70
     1
102
RTVSPropertyOp6
 70
     1
102
RTVSPropertyOp7
 70
     1
102
RTVSPropertyOp8
 70
     1
102
RTVSPropertyOp9
 70
     1
102
RTVSPropertyOp10
 70
     1
102
RTVSPropertyOp11
 70
     1
102
RTVSPropertyOp12
 70
     1
102
RTVSPropertyOp13
 70
     1
102
RTVSPropertyOp14
 70
     1
102
RTVSPropertyOp15
 70
     1
102
RTVSPropertyOp16
 70
     1
102
RTVSPropertyOp17
 70
     1
102
RTVSPropertyOp18
 70
     1
102
RTVSPropertyOp19
 70
     1
102
RTVSPropertyOp20
 70
     1
102
RTVSPropertyOp21
 70
     1
102
RTVSPropertyOp22
 70
     1
102
RTVSPropertyOp23
 70
     1
102
RTVSPropertyOp24
 70
     1
102
RTVSPropertyOp25
 70
     1
102
RTVSPropertyOp26
 70
     1
102
RTVSPropertyOp27
 70
     1
102
RTVSPropertyOp28
 70
     1
102
RTVSPropertyOp29
 70
     1
102
RTVSPropertyOp30
 70
     1
102
RTVSPropertyOp31
 70
     1
102
RTVSPropertyOp32
 70
     1
102
RTVSPropertyOp33
 70
     1
102
RTVSPropertyOp34
 70
     1
102
RTVSPropertyOp35
 70
     1
102
RTVSPropertyOp36
 70
     1
102
RTVSPropertyOp37
 70
     1
102
RTVSPropertyOp38
 70
     1
102
RTVSPropertyOp39
 70
     1
102
RTVSPropertyOp40
 70
     1
102
RTVSPropertyOp41
 70
     1
102
RTVSPropertyOp42
 70
     1
102
RTVSPropertyOp43
 70
     1
102
RTVSPropertyOp44
 70
     1
102
RTVSPropertyOp45
 70
     1
102
RTVSPropertyOp46
 70
     1
102
RTVSPropertyOp47
 70
     1
102
RTVSPropertyOp48
 70
     1
102
RTVSPropertyOp49
 70
     1
102
RTVSPropertyOp50
 70
     1
102
RTVSPropertyOp51
 70
     0
102
RTVSPropertyOp52
 70
     0
102
RTVSPropertyOp53
 70
     1
102
RTVSPropertyOp54
 70
     1
102
RTVSPropertyOp55
 70
     1
102
RTVSPropertyOp56
 70
     1
102
RTVSPropertyOp57
 70
     1
102
RTVSPost2010Prop28
280
     0
102
RTVSPost2010PropOp28
 70
     1
102
RTVSPost2010Prop29
280
     1
102
RTVSPost2010PropOp29
 70
     1
102
RTVSPost2010Prop30
280
     1
102
RTVSPost2010PropOp30
 70
     1
102
RTVSPost2010Prop31
280
     0
102
RTVSPost2010PropOp31
 70
     1
102
RTVSPost2010Prop32
280
     0
102
RTVSPost2010PropOp32
 70
     1
102
RTVSPost2010Prop33
280
     0
102
RTVSPost2010PropOp33
 70
     1
102
RTVSPost2010Prop34
280
     0
102
RTVSPost2010PropOp34
 70
     1
102
RTVSPost2010Prop35
280
     0
102
RTVSPost2010PropOp35
 70
     1
102
RTVSPost2010Prop36
280
     0
102
RTVSPost2010PropOp36
 70
     1
102
RTVSPost2010Prop37
 90
       50
102
RTVSPost2010PropOp37
 70
     1
102
RTVSPost2010Prop38
140
0.0
102
RTVSPost2010PropOp38
 70
     1
102
RTVSPost2010Prop39
140
1.0
102
RTVSPost2010PropOp39
 70
     1
102
RTVSPost2010Prop40
 90
        0
102
RTVSPost2010PropOp40
 70
     1
102
RTVSPost2010Prop41ColorIndex
 90
       18
102
RTVSPost2010Prop41ColorRGB
 90
        0
102
RTVSPost2010PropOp41
 70
     1
102
RTVSPost2010Prop42
 90
       50
102
RTVSPost2010PropOp42
 70
     1
102
RTVSPost2010Prop43
 90
        3
102
RTVSPost2010PropOp43
 70
     1
102
RTVSPost2010Prop44ColorIndex
 90
        5
102
RTVSPost2010Prop44ColorRGB
 90
      255
102
RTVSPost2010PropOp44
 70
     1
102
RTVSPost2010Prop45
280
     0
102
RTVSPost2010PropOp45
 70
     1
102
RTVSPost2010Prop46
 90
       50
102
RTVSPost2010PropOp46
 70
     1
102
RTVSPost2010Prop47
 90
       50
102
RTVSPost2010PropOp47
 70
     1
102
RTVSPost2010Prop48
 90
       50
102
RTVSPost2010PropOp48
 70
     1
102
RTVSPost2010Prop49
280
     0
102
RTVSPost2010PropOp49
 70
     1
102
RTVSPost2010Prop50
 90
       50
102
RTVSPost2010PropOp50
 70
     1
102
RTVSPost2010Prop51ColorIndex
 90
      256
102
RTVSPost2010Prop51ColorRGB
 90
-16777216
102
RTVSPost2010PropOp51
 70
     0
102
RTVSPost2010Prop52
140
1.0
102
RTVSPost2010PropOp52
 70
     0
102
RTVSPost2010Prop53
 90
        2
102
RTVSPost2010PropOp53
 70
     1
102
RTVSPost2010Prop54
  1
strokes_ogs.tif
102
RTVSPost2010PropOp54
 70
     1
102
RTVSPost2010Prop55
280
     0
102
RTVSPost2010PropOp55
 70
     1
102
RTVSPost2010Prop56
140
1.0
102
RTVSPost2010PropOp56
 70
     1
102
RTVSPost2010Prop57
140
1.0
102
RTVSPost2010PropOp57
 70
     1
  0
XRECORD
  5
3D7B
102
{ACAD_REACTORS
330
3D7A
102
}
330
3D7A
100
AcDbXrecord
280
     1
102
RTVSPropertyOp0
 70
     1
102
RTVSPropertyOp1
 70
     1
102
RTVSPropertyOp2
 70
     1
102
RTVSPropertyOp3
 70
     1
102
RTVSPropertyOp4
 70
     1
102
RTVSPropertyOp5
 70
     1
102
RTVSPropertyOp6
 70
     1
102
RTVSPropertyOp7
 70
     1
102
RTVSPropertyOp8
 70
     1
102
RTVSPropertyOp9
 70
     1
102
RTVSPropertyOp10
 70
     1
102
RTVSPropertyOp11
 70
     1
102
RTVSPropertyOp12
 70
     1
102
RTVSPropertyOp13
 70
     1
102
RTVSPropertyOp14
 70
     1
102
RTVSPropertyOp15
 70
     1
102
RTVSPropertyOp16
 70
     1
102
RTVSPropertyOp17
 70
     1
102
RTVSPropertyOp18
 70
     1
102
RTVSPropertyOp19
 70
     1
102
RTVSPropertyOp20
 70
     1
102
RTVSPropertyOp21
 70
     1
102
RTVSPropertyOp22
 70
     1
102
RTVSPropertyOp23
 70
     1
102
RTVSPropertyOp24
 70
     1
102
RTVSPropertyOp25
 70
     1
102
RTVSPropertyOp26
 70
     1
102
RTVSPropertyOp27
 70
     1
102
RTVSPropertyOp28
 70
     1
102
RTVSPropertyOp29
 70
     1
102
RTVSPropertyOp30
 70
     1
102
RTVSPropertyOp31
 70
     1
102
RTVSPropertyOp32
 70
     1
102
RTVSPropertyOp33
 70
     1
102
RTVSPropertyOp34
 70
     1
102
RTVSPropertyOp35
 70
     1
102
RTVSPropertyOp36
 70
     1
102
RTVSPropertyOp37
 70
     1
102
RTVSPropertyOp38
 70
     1
102
RTVSPropertyOp39
 70
     1
102
RTVSPropertyOp40
 70
     1
102
RTVSPropertyOp41
 70
     1
102
RTVSPropertyOp42
 70
     1
102
RTVSPropertyOp43
 70
     1
102
RTVSPropertyOp44
 70
     1
102
RTVSPropertyOp45
 70
     1
102
RTVSPropertyOp46
 70
     1
102
RTVSPropertyOp47
 70
     1
102
RTVSPropertyOp48
 70
     1
102
RTVSPropertyOp49
 70
     1
102
RTVSPropertyOp50
 70
     1
102
RTVSPropertyOp51
 70
     0
102
RTVSPropertyOp52
 70
     0
102
RTVSPropertyOp53
 70
     1
102
RTVSPropertyOp54
 70
     1
102
RTVSPropertyOp55
 70
     1
102
RTVSPropertyOp56
 70
     1
102
RTVSPropertyOp57
 70
     1
102
RTVSPost2010Prop28
280
     0
102
RTVSPost2010PropOp28
 70
     1
102
RTVSPost2010Prop29
280
     1
102
RTVSPost2010PropOp29
 70
     1
102
RTVSPost2010Prop30
280
     1
102
RTVSPost2010PropOp30
 70
     1
102
RTVSPost2010Prop31
280
     0
102
RTVSPost2010PropOp31
 70
     1
102
RTVSPost2010Prop32
280
     0
102
RTVSPost2010PropOp32
 70
     1
102
RTVSPost2010Prop33
280
     0
102
RTVSPost2010PropOp33
 70
     1
102
RTVSPost2010Prop34
280
     0
102
RTVSPost2010PropOp34
 70
     1
102
RTVSPost2010Prop35
280
     0
102
RTVSPost2010PropOp35
 70
     1
102
RTVSPost2010Prop36
280
     0
102
RTVSPost2010PropOp36
 70
     1
102
RTVSPost2010Prop37
 90
       50
102
RTVSPost2010PropOp37
 70
     1
102
RTVSPost2010Prop38
140
0.0
102
RTVSPost2010PropOp38
 70
     1
102
RTVSPost2010Prop39
140
1.0
102
RTVSPost2010PropOp39
 70
     1
102
RTVSPost2010Prop40
 90
        0
102
RTVSPost2010PropOp40
 70
     1
102
RTVSPost2010Prop41ColorIndex
 90
       18
102
RTVSPost2010Prop41ColorRGB
 90
        0
102
RTVSPost2010PropOp41
 70
     1
102
RTVSPost2010Prop42
 90
       50
102
RTVSPost2010PropOp42
 70
     1
102
RTVSPost2010Prop43
 90
        3
102
RTVSPost2010PropOp43
 70
     1
102
RTVSPost2010Prop44ColorIndex
 90
        5
102
RTVSPost2010Prop44ColorRGB
 90
      255
102
RTVSPost2010PropOp44
 70
     1
102
RTVSPost2010Prop45
280
     0
102
RTVSPost2010PropOp45
 70
     1
102
RTVSPost2010Prop46
 90
       50
102
RTVSPost2010PropOp46
 70
     1
102
RTVSPost2010Prop47
 90
       50
102
RTVSPost2010PropOp47
 70
     1
102
RTVSPost2010Prop48
 90
       50
102
RTVSPost2010PropOp48
 70
     1
102
RTVSPost2010Prop49
280
     0
102
RTVSPost2010PropOp49
 70
     1
102
RTVSPost2010Prop50
 90
       50
102
RTVSPost2010PropOp50
 70
     1
102
RTVSPost2010Prop51ColorIndex
 90
      256
102
RTVSPost2010Prop51ColorRGB
 90
-16777216
102
RTVSPost2010PropOp51
 70
     0
102
RTVSPost2010Prop52
140
1.0
102
RTVSPost2010PropOp52
 70
     0
102
RTVSPost2010Prop53
 90
        2
102
RTVSPost2010PropOp53
 70
     1
102
RTVSPost2010Prop54
  1
strokes_ogs.tif
102
RTVSPost2010PropOp54
 70
     1
102
RTVSPost2010Prop55
280
     0
102
RTVSPost2010PropOp55
 70
     1
102
RTVSPost2010Prop56
140
1.0
102
RTVSPost2010PropOp56
 70
     1
102
RTVSPost2010Prop57
140
1.0
102
RTVSPost2010PropOp57
 70
     1
  0
XRECORD
  5
3D7D
102
{ACAD_REACTORS
330
3D7C
102
}
330
3D7C
100
AcDbXrecord
280
     1
102
RTVSPropertyOp0
 70
     0
102
RTVSPropertyOp1
 70
     0
102
RTVSPropertyOp2
 70
     0
102
RTVSPropertyOp3
 70
     0
102
RTVSPropertyOp4
 70
     0
102
RTVSPropertyOp5
 70
     0
102
RTVSPropertyOp6
 70
     0
102
RTVSPropertyOp7
 70
     0
102
RTVSPropertyOp8
 70
     0
102
RTVSPropertyOp9
 70
     0
102
RTVSPropertyOp10
 70
     0
102
RTVSPropertyOp11
 70
     0
102
RTVSPropertyOp12
 70
     0
102
RTVSPropertyOp13
 70
     0
102
RTVSPropertyOp14
 70
     2
102
RTVSPropertyOp15
 70
     0
102
RTVSPropertyOp16
 70
     0
102
RTVSPropertyOp17
 70
     0
102
RTVSPropertyOp18
 70
     0
102
RTVSPropertyOp19
 70
     0
102
RTVSPropertyOp20
 70
     0
102
RTVSPropertyOp21
 70
     0
102
RTVSPropertyOp22
 70
     0
102
RTVSPropertyOp23
 70
     0
102
RTVSPropertyOp24
 70
     0
102
RTVSPropertyOp25
 70
     0
102
RTVSPropertyOp26
 70
     0
102
RTVSPropertyOp27
 70
     0
102
RTVSPropertyOp28
 70
     0
102
RTVSPropertyOp29
 70
     0
102
RTVSPropertyOp30
 70
     0
102
RTVSPropertyOp31
 70
     0
102
RTVSPropertyOp32
 70
     0
102
RTVSPropertyOp33
 70
     0
102
RTVSPropertyOp34
 70
     0
102
RTVSPropertyOp35
 70
     0
102
RTVSPropertyOp36
 70
     0
102
RTVSPropertyOp37
 70
     0
102
RTVSPropertyOp38
 70
     0
102
RTVSPropertyOp39
 70
     0
102
RTVSPropertyOp40
 70
     0
102
RTVSPropertyOp41
 70
     0
102
RTVSPropertyOp42
 70
     0
102
RTVSPropertyOp43
 70
     0
102
RTVSPropertyOp44
 70
     0
102
RTVSPropertyOp45
 70
     0
102
RTVSPropertyOp46
 70
     0
102
RTVSPropertyOp47
 70
     0
102
RTVSPropertyOp48
 70
     0
102
RTVSPropertyOp49
 70
     0
102
RTVSPropertyOp50
 70
     0
102
RTVSPropertyOp51
 70
     0
102
RTVSPropertyOp52
 70
     0
102
RTVSPropertyOp53
 70
     0
102
RTVSPropertyOp54
 70
     0
102
RTVSPropertyOp55
 70
     0
102
RTVSPropertyOp56
 70
     0
102
RTVSPropertyOp57
 70
     0
102
RTVSPost2010Prop28
280
     0
102
RTVSPost2010PropOp28
 70
     0
102
RTVSPost2010Prop29
280
     1
102
RTVSPost2010PropOp29
 70
     0
102
RTVSPost2010Prop30
280
     1
102
RTVSPost2010PropOp30
 70
     0
102
RTVSPost2010Prop31
280
     0
102
RTVSPost2010PropOp31
 70
     0
102
RTVSPost2010Prop32
280
     0
102
RTVSPost2010PropOp32
 70
     0
102
RTVSPost2010Prop33
280
     0
102
RTVSPost2010PropOp33
 70
     0
102
RTVSPost2010Prop34
280
     0
102
RTVSPost2010PropOp34
 70
     0
102
RTVSPost2010Prop35
280
     0
102
RTVSPost2010PropOp35
 70
     0
102
RTVSPost2010Prop36
280
     0
102
RTVSPost2010PropOp36
 70
     0
102
RTVSPost2010Prop37
 90
       50
102
RTVSPost2010PropOp37
 70
     0
102
RTVSPost2010Prop38
140
0.0
102
RTVSPost2010PropOp38
 70
     0
102
RTVSPost2010Prop39
140
1.0
102
RTVSPost2010PropOp39
 70
     0
102
RTVSPost2010Prop40
 90
        0
102
RTVSPost2010PropOp40
 70
     0
102
RTVSPost2010Prop41ColorIndex
 90
       18
102
RTVSPost2010Prop41ColorRGB
 90
        0
102
RTVSPost2010PropOp41
 70
     0
102
RTVSPost2010Prop42
 90
       50
102
RTVSPost2010PropOp42
 70
     0
102
RTVSPost2010Prop43
 90
        3
102
RTVSPost2010PropOp43
 70
     0
102
RTVSPost2010Prop44ColorIndex
 90
        5
102
RTVSPost2010Prop44ColorRGB
 90
      255
102
RTVSPost2010PropOp44
 70
     0
102
RTVSPost2010Prop45
280
     0
102
RTVSPost2010PropOp45
 70
     0
102
RTVSPost2010Prop46
 90
       50
102
RTVSPost2010PropOp46
 70
     0
102
RTVSPost2010Prop47
 90
       50
102
RTVSPost2010PropOp47
 70
     0
102
RTVSPost2010Prop48
 90
       50
102
RTVSPost2010PropOp48
 70
     0
102
RTVSPost2010Prop49
280
     0
102
RTVSPost2010PropOp49
 70
     0
102
RTVSPost2010Prop50
 90
       50
102
RTVSPost2010PropOp50
 70
     0
102
RTVSPost2010Prop51ColorIndex
 90
      256
102
RTVSPost2010Prop51ColorRGB
 90
-16777216
102
RTVSPost2010PropOp51
 70
     0
102
RTVSPost2010Prop52
140
1.0
102
RTVSPost2010PropOp52
 70
     0
102
RTVSPost2010Prop53
 90
        2
102
RTVSPost2010PropOp53
 70
     0
102
RTVSPost2010Prop54
  1
strokes_ogs.tif
102
RTVSPost2010PropOp54
 70
     0
102
RTVSPost2010Prop55
280
     0
102
RTVSPost2010PropOp55
 70
     0
102
RTVSPost2010Prop56
140
1.0
102
RTVSPost2010PropOp56
 70
     0
102
RTVSPost2010Prop57
140
1.0
102
RTVSPost2010PropOp57
 70
     0
  0
XRECORD
  5
3D73
102
{ACAD_REACTORS
330
3D72
102
}
330
3D72
100
AcDbXrecord
280
     1
102
RTVSPropertyOp0
 70
     1
102
RTVSPropertyOp1
 70
     1
102
RTVSPropertyOp2
 70
     1
102
RTVSPropertyOp3
 70
     1
102
RTVSPropertyOp4
 70
     1
102
RTVSPropertyOp5
 70
     1
102
RTVSPropertyOp6
 70
     1
102
RTVSPropertyOp7
 70
     1
102
RTVSPropertyOp8
 70
     1
102
RTVSPropertyOp9
 70
     1
102
RTVSPropertyOp10
 70
     1
102
RTVSPropertyOp11
 70
     1
102
RTVSPropertyOp12
 70
     1
102
RTVSPropertyOp13
 70
     1
102
RTVSPropertyOp14
 70
     1
102
RTVSPropertyOp15
 70
     1
102
RTVSPropertyOp16
 70
     1
102
RTVSPropertyOp17
 70
     1
102
RTVSPropertyOp18
 70
     1
102
RTVSPropertyOp19
 70
     1
102
RTVSPropertyOp20
 70
     1
102
RTVSPropertyOp21
 70
     1
102
RTVSPropertyOp22
 70
     1
102
RTVSPropertyOp23
 70
     1
102
RTVSPropertyOp24
 70
     1
102
RTVSPropertyOp25
 70
     1
102
RTVSPropertyOp26
 70
     1
102
RTVSPropertyOp27
 70
     1
102
RTVSPropertyOp28
 70
     1
102
RTVSPropertyOp29
 70
     1
102
RTVSPropertyOp30
 70
     1
102
RTVSPropertyOp31
 70
     1
102
RTVSPropertyOp32
 70
     1
102
RTVSPropertyOp33
 70
     1
102
RTVSPropertyOp34
 70
     1
102
RTVSPropertyOp35
 70
     1
102
RTVSPropertyOp36
 70
     1
102
RTVSPropertyOp37
 70
     1
102
RTVSPropertyOp38
 70
     1
102
RTVSPropertyOp39
 70
     1
102
RTVSPropertyOp40
 70
     1
102
RTVSPropertyOp41
 70
     1
102
RTVSPropertyOp42
 70
     1
102
RTVSPropertyOp43
 70
     1
102
RTVSPropertyOp44
 70
     1
102
RTVSPropertyOp45
 70
     1
102
RTVSPropertyOp46
 70
     1
102
RTVSPropertyOp47
 70
     1
102
RTVSPropertyOp48
 70
     1
102
RTVSPropertyOp49
 70
     1
102
RTVSPropertyOp50
 70
     1
102
RTVSPropertyOp51
 70
     0
102
RTVSPropertyOp52
 70
     0
102
RTVSPropertyOp53
 70
     1
102
RTVSPropertyOp54
 70
     1
102
RTVSPropertyOp55
 70
     1
102
RTVSPropertyOp56
 70
     1
102
RTVSPropertyOp57
 70
     1
102
RTVSPost2010Prop28
280
     0
102
RTVSPost2010PropOp28
 70
     1
102
RTVSPost2010Prop29
280
     1
102
RTVSPost2010PropOp29
 70
     1
102
RTVSPost2010Prop30
280
     1
102
RTVSPost2010PropOp30
 70
     1
102
RTVSPost2010Prop31
280
     0
102
RTVSPost2010PropOp31
 70
     1
102
RTVSPost2010Prop32
280
     0
102
RTVSPost2010PropOp32
 70
     1
102
RTVSPost2010Prop33
280
     0
102
RTVSPost2010PropOp33
 70
     1
102
RTVSPost2010Prop34
280
     0
102
RTVSPost2010PropOp34
 70
     1
102
RTVSPost2010Prop35
280
     0
102
RTVSPost2010PropOp35
 70
     1
102
RTVSPost2010Prop36
280
     0
102
RTVSPost2010PropOp36
 70
     1
102
RTVSPost2010Prop37
 90
       50
102
RTVSPost2010PropOp37
 70
     1
102
RTVSPost2010Prop38
140
0.0
102
RTVSPost2010PropOp38
 70
     1
102
RTVSPost2010Prop39
140
1.0
102
RTVSPost2010PropOp39
 70
     1
102
RTVSPost2010Prop40
 90
        0
102
RTVSPost2010PropOp40
 70
     1
102
RTVSPost2010Prop41ColorIndex
 90
       18
102
RTVSPost2010Prop41ColorRGB
 90
        0
102
RTVSPost2010PropOp41
 70
     1
102
RTVSPost2010Prop42
 90
       50
102
RTVSPost2010PropOp42
 70
     1
102
RTVSPost2010Prop43
 90
        3
102
RTVSPost2010PropOp43
 70
     1
102
RTVSPost2010Prop44ColorIndex
 90
        5
102
RTVSPost2010Prop44ColorRGB
 90
      255
102
RTVSPost2010PropOp44
 70
     1
102
RTVSPost2010Prop45
280
     0
102
RTVSPost2010PropOp45
 70
     1
102
RTVSPost2010Prop46
 90
       50
102
RTVSPost2010PropOp46
 70
     1
102
RTVSPost2010Prop47
 90
       50
102
RTVSPost2010PropOp47
 70
     1
102
RTVSPost2010Prop48
 90
       50
102
RTVSPost2010PropOp48
 70
     1
102
RTVSPost2010Prop49
280
     0
102
RTVSPost2010PropOp49
 70
     1
102
RTVSPost2010Prop50
 90
       50
102
RTVSPost2010PropOp50
 70
     1
102
RTVSPost2010Prop51ColorIndex
 90
      256
102
RTVSPost2010Prop51ColorRGB
 90
-16777216
102
RTVSPost2010PropOp51
 70
     0
102
RTVSPost2010Prop52
140
1.0
102
RTVSPost2010PropOp52
 70
     0
102
RTVSPost2010Prop53
 90
        2
102
RTVSPost2010PropOp53
 70
     1
102
RTVSPost2010Prop54
  1
strokes_ogs.tif
102
RTVSPost2010PropOp54
 70
     1
102
RTVSPost2010Prop55
280
     0
102
RTVSPost2010PropOp55
 70
     1
102
RTVSPost2010Prop56
140
1.0
102
RTVSPost2010PropOp56
 70
     1
102
RTVSPost2010Prop57
140
1.0
102
RTVSPost2010PropOp57
 70
     1
  0
XRECORD
  5
3D7F
102
{ACAD_REACTORS
330
3D7E
102
}
330
3D7E
100
AcDbXrecord
280
     1
102
RTVSPropertyOp0
 70
     0
102
RTVSPropertyOp1
 70
     0
102
RTVSPropertyOp2
 70
     0
102
RTVSPropertyOp3
 70
     0
102
RTVSPropertyOp4
 70
     0
102
RTVSPropertyOp5
 70
     0
102
RTVSPropertyOp6
 70
     0
102
RTVSPropertyOp7
 70
     0
102
RTVSPropertyOp8
 70
     0
102
RTVSPropertyOp9
 70
     0
102
RTVSPropertyOp10
 70
     0
102
RTVSPropertyOp11
 70
     0
102
RTVSPropertyOp12
 70
     0
102
RTVSPropertyOp13
 70
     0
102
RTVSPropertyOp14
 70
     2
102
RTVSPropertyOp15
 70
     0
102
RTVSPropertyOp16
 70
     0
102
RTVSPropertyOp17
 70
     0
102
RTVSPropertyOp18
 70
     0
102
RTVSPropertyOp19
 70
     0
102
RTVSPropertyOp20
 70
     0
102
RTVSPropertyOp21
 70
     0
102
RTVSPropertyOp22
 70
     0
102
RTVSPropertyOp23
 70
     0
102
RTVSPropertyOp24
 70
     0
102
RTVSPropertyOp25
 70
     0
102
RTVSPropertyOp26
 70
     0
102
RTVSPropertyOp27
 70
     0
102
RTVSPropertyOp28
 70
     0
102
RTVSPropertyOp29
 70
     0
102
RTVSPropertyOp30
 70
     0
102
RTVSPropertyOp31
 70
     0
102
RTVSPropertyOp32
 70
     0
102
RTVSPropertyOp33
 70
     0
102
RTVSPropertyOp34
 70
     0
102
RTVSPropertyOp35
 70
     0
102
RTVSPropertyOp36
 70
     0
102
RTVSPropertyOp37
 70
     0
102
RTVSPropertyOp38
 70
     0
102
RTVSPropertyOp39
 70
     0
102
RTVSPropertyOp40
 70
     0
102
RTVSPropertyOp41
 70
     0
102
RTVSPropertyOp42
 70
     0
102
RTVSPropertyOp43
 70
     0
102
RTVSPropertyOp44
 70
     0
102
RTVSPropertyOp45
 70
     0
102
RTVSPropertyOp46
 70
     0
102
RTVSPropertyOp47
 70
     0
102
RTVSPropertyOp48
 70
     0
102
RTVSPropertyOp49
 70
     0
102
RTVSPropertyOp50
 70
     0
102
RTVSPropertyOp51
 70
     0
102
RTVSPropertyOp52
 70
     0
102
RTVSPropertyOp53
 70
     0
102
RTVSPropertyOp54
 70
     0
102
RTVSPropertyOp55
 70
     0
102
RTVSPropertyOp56
 70
     0
102
RTVSPropertyOp57
 70
     0
102
RTVSPost2010Prop28
280
     0
102
RTVSPost2010PropOp28
 70
     0
102
RTVSPost2010Prop29
280
     1
102
RTVSPost2010PropOp29
 70
     0
102
RTVSPost2010Prop30
280
     1
102
RTVSPost2010PropOp30
 70
     0
102
RTVSPost2010Prop31
280
     0
102
RTVSPost2010PropOp31
 70
     0
102
RTVSPost2010Prop32
280
     0
102
RTVSPost2010PropOp32
 70
     0
102
RTVSPost2010Prop33
280
     0
102
RTVSPost2010PropOp33
 70
     0
102
RTVSPost2010Prop34
280
     0
102
RTVSPost2010PropOp34
 70
     0
102
RTVSPost2010Prop35
280
     0
102
RTVSPost2010PropOp35
 70
     0
102
RTVSPost2010Prop36
280
     0
102
RTVSPost2010PropOp36
 70
     0
102
RTVSPost2010Prop37
 90
       50
102
RTVSPost2010PropOp37
 70
     0
102
RTVSPost2010Prop38
140
0.0
102
RTVSPost2010PropOp38
 70
     0
102
RTVSPost2010Prop39
140
1.0
102
RTVSPost2010PropOp39
 70
     0
102
RTVSPost2010Prop40
 90
        0
102
RTVSPost2010PropOp40
 70
     0
102
RTVSPost2010Prop41ColorIndex
 90
       18
102
RTVSPost2010Prop41ColorRGB
 90
        0
102
RTVSPost2010PropOp41
 70
     0
102
RTVSPost2010Prop42
 90
       50
102
RTVSPost2010PropOp42
 70
     0
102
RTVSPost2010Prop43
 90
        3
102
RTVSPost2010PropOp43
 70
     0
102
RTVSPost2010Prop44ColorIndex
 90
        5
102
RTVSPost2010Prop44ColorRGB
 90
      255
102
RTVSPost2010PropOp44
 70
     0
102
RTVSPost2010Prop45
280
     0
102
RTVSPost2010PropOp45
 70
     0
102
RTVSPost2010Prop46
 90
       50
102
RTVSPost2010PropOp46
 70
     0
102
RTVSPost2010Prop47
 90
       50
102
RTVSPost2010PropOp47
 70
     0
102
RTVSPost2010Prop48
 90
       50
102
RTVSPost2010PropOp48
 70
     0
102
RTVSPost2010Prop49
280
     0
102
RTVSPost2010PropOp49
 70
     0
102
RTVSPost2010Prop50
 90
       50
102
RTVSPost2010PropOp50
 70
     0
102
RTVSPost2010Prop51ColorIndex
 90
      256
102
RTVSPost2010Prop51ColorRGB
 90
-16777216
102
RTVSPost2010PropOp51
 70
     0
102
RTVSPost2010Prop52
140
1.0
102
RTVSPost2010PropOp52
 70
     0
102
RTVSPost2010Prop53
 90
        2
102
RTVSPost2010PropOp53
 70
     0
102
RTVSPost2010Prop54
  1
strokes_ogs.tif
102
RTVSPost2010PropOp54
 70
     0
102
RTVSPost2010Prop55
280
     0
102
RTVSPost2010PropOp55
 70
     0
102
RTVSPost2010Prop56
140
1.0
102
RTVSPost2010PropOp56
 70
     0
102
RTVSPost2010Prop57
140
1.0
102
RTVSPost2010PropOp57
 70
     0
  0
XRECORD
  5
3D75
102
{ACAD_REACTORS
330
3D74
102
}
330
3D74
100
AcDbXrecord
280
     1
102
RTVSPropertyOp0
 70
     1
102
RTVSPropertyOp1
 70
     1
102
RTVSPropertyOp2
 70
     1
102
RTVSPropertyOp3
 70
     1
102
RTVSPropertyOp4
 70
     1
102
RTVSPropertyOp5
 70
     1
102
RTVSPropertyOp6
 70
     1
102
RTVSPropertyOp7
 70
     1
102
RTVSPropertyOp8
 70
     1
102
RTVSPropertyOp9
 70
     1
102
RTVSPropertyOp10
 70
     1
102
RTVSPropertyOp11
 70
     1
102
RTVSPropertyOp12
 70
     1
102
RTVSPropertyOp13
 70
     1
102
RTVSPropertyOp14
 70
     1
102
RTVSPropertyOp15
 70
     1
102
RTVSPropertyOp16
 70
     1
102
RTVSPropertyOp17
 70
     1
102
RTVSPropertyOp18
 70
     1
102
RTVSPropertyOp19
 70
     1
102
RTVSPropertyOp20
 70
     1
102
RTVSPropertyOp21
 70
     1
102
RTVSPropertyOp22
 70
     1
102
RTVSPropertyOp23
 70
     1
102
RTVSPropertyOp24
 70
     1
102
RTVSPropertyOp25
 70
     1
102
RTVSPropertyOp26
 70
     1
102
RTVSPropertyOp27
 70
     1
102
RTVSPropertyOp28
 70
     1
102
RTVSPropertyOp29
 70
     1
102
RTVSPropertyOp30
 70
     1
102
RTVSPropertyOp31
 70
     1
102
RTVSPropertyOp32
 70
     1
102
RTVSPropertyOp33
 70
     1
102
RTVSPropertyOp34
 70
     1
102
RTVSPropertyOp35
 70
     1
102
RTVSPropertyOp36
 70
     1
102
RTVSPropertyOp37
 70
     1
102
RTVSPropertyOp38
 70
     1
102
RTVSPropertyOp39
 70
     1
102
RTVSPropertyOp40
 70
     1
102
RTVSPropertyOp41
 70
     1
102
RTVSPropertyOp42
 70
     1
102
RTVSPropertyOp43
 70
     1
102
RTVSPropertyOp44
 70
     1
102
RTVSPropertyOp45
 70
     1
102
RTVSPropertyOp46
 70
     1
102
RTVSPropertyOp47
 70
     1
102
RTVSPropertyOp48
 70
     1
102
RTVSPropertyOp49
 70
     1
102
RTVSPropertyOp50
 70
     1
102
RTVSPropertyOp51
 70
     0
102
RTVSPropertyOp52
 70
     0
102
RTVSPropertyOp53
 70
     1
102
RTVSPropertyOp54
 70
     1
102
RTVSPropertyOp55
 70
     1
102
RTVSPropertyOp56
 70
     1
102
RTVSPropertyOp57
 70
     1
102
RTVSPost2010Prop28
280
     0
102
RTVSPost2010PropOp28
 70
     1
102
RTVSPost2010Prop29
280
     1
102
RTVSPost2010PropOp29
 70
     1
102
RTVSPost2010Prop30
280
     1
102
RTVSPost2010PropOp30
 70
     1
102
RTVSPost2010Prop31
280
     0
102
RTVSPost2010PropOp31
 70
     1
102
RTVSPost2010Prop32
280
     0
102
RTVSPost2010PropOp32
 70
     1
102
RTVSPost2010Prop33
280
     0
102
RTVSPost2010PropOp33
 70
     1
102
RTVSPost2010Prop34
280
     0
102
RTVSPost2010PropOp34
 70
     1
102
RTVSPost2010Prop35
280
     0
102
RTVSPost2010PropOp35
 70
     1
102
RTVSPost2010Prop36
280
     0
102
RTVSPost2010PropOp36
 70
     1
102
RTVSPost2010Prop37
 90
       50
102
RTVSPost2010PropOp37
 70
     1
102
RTVSPost2010Prop38
140
0.0
102
RTVSPost2010PropOp38
 70
     1
102
RTVSPost2010Prop39
140
1.0
102
RTVSPost2010PropOp39
 70
     1
102
RTVSPost2010Prop40
 90
        0
102
RTVSPost2010PropOp40
 70
     1
102
RTVSPost2010Prop41ColorIndex
 90
       18
102
RTVSPost2010Prop41ColorRGB
 90
        0
102
RTVSPost2010PropOp41
 70
     1
102
RTVSPost2010Prop42
 90
       50
102
RTVSPost2010PropOp42
 70
     1
102
RTVSPost2010Prop43
 90
        3
102
RTVSPost2010PropOp43
 70
     1
102
RTVSPost2010Prop44ColorIndex
 90
        5
102
RTVSPost2010Prop44ColorRGB
 90
      255
102
RTVSPost2010PropOp44
 70
     1
102
RTVSPost2010Prop45
280
     0
102
RTVSPost2010PropOp45
 70
     1
102
RTVSPost2010Prop46
 90
       50
102
RTVSPost2010PropOp46
 70
     1
102
RTVSPost2010Prop47
 90
       50
102
RTVSPost2010PropOp47
 70
     1
102
RTVSPost2010Prop48
 90
       50
102
RTVSPost2010PropOp48
 70
     1
102
RTVSPost2010Prop49
280
     0
102
RTVSPost2010PropOp49
 70
     1
102
RTVSPost2010Prop50
 90
       50
102
RTVSPost2010PropOp50
 70
     1
102
RTVSPost2010Prop51ColorIndex
 90
      256
102
RTVSPost2010Prop51ColorRGB
 90
-16777216
102
RTVSPost2010PropOp51
 70
     0
102
RTVSPost2010Prop52
140
1.0
102
RTVSPost2010PropOp52
 70
     0
102
RTVSPost2010Prop53
 90
        2
102
RTVSPost2010PropOp53
 70
     1
102
RTVSPost2010Prop54
  1
strokes_ogs.tif
102
RTVSPost2010PropOp54
 70
     1
102
RTVSPost2010Prop55
280
     0
102
RTVSPost2010PropOp55
 70
     1
102
RTVSPost2010Prop56
140
1.0
102
RTVSPost2010PropOp56
 70
     1
102
RTVSPost2010Prop57
140
1.0
102
RTVSPost2010PropOp57
 70
     1
  0
XRECORD
  5
3D8B
102
{ACAD_REACTORS
330
3D8A
102
}
330
3D8A
100
AcDbXrecord
280
     1
102
RTVSPropertyOp0
 70
     1
102
RTVSPropertyOp1
 70
     1
102
RTVSPropertyOp2
 70
     1
102
RTVSPropertyOp3
 70
     1
102
RTVSPropertyOp4
 70
     1
102
RTVSPropertyOp5
 70
     1
102
RTVSPropertyOp6
 70
     1
102
RTVSPropertyOp7
 70
     1
102
RTVSPropertyOp8
 70
     1
102
RTVSPropertyOp9
 70
     1
102
RTVSPropertyOp10
 70
     1
102
RTVSPropertyOp11
 70
     1
102
RTVSPropertyOp12
 70
     1
102
RTVSPropertyOp13
 70
     1
102
RTVSPropertyOp14
 70
     1
102
RTVSPropertyOp15
 70
     1
102
RTVSPropertyOp16
 70
     1
102
RTVSPropertyOp17
 70
     1
102
RTVSPropertyOp18
 70
     1
102
RTVSPropertyOp19
 70
     1
102
RTVSPropertyOp20
 70
     1
102
RTVSPropertyOp21
 70
     1
102
RTVSPropertyOp22
 70
     1
102
RTVSPropertyOp23
 70
     1
102
RTVSPropertyOp24
 70
     1
102
RTVSPropertyOp25
 70
     1
102
RTVSPropertyOp26
 70
     1
102
RTVSPropertyOp27
 70
     1
102
RTVSPropertyOp28
 70
     1
102
RTVSPropertyOp29
 70
     1
102
RTVSPropertyOp30
 70
     1
102
RTVSPropertyOp31
 70
     1
102
RTVSPropertyOp32
 70
     1
102
RTVSPropertyOp33
 70
     1
102
RTVSPropertyOp34
 70
     1
102
RTVSPropertyOp35
 70
     1
102
RTVSPropertyOp36
 70
     1
102
RTVSPropertyOp37
 70
     1
102
RTVSPropertyOp38
 70
     1
102
RTVSPropertyOp39
 70
     1
102
RTVSPropertyOp40
 70
     1
102
RTVSPropertyOp41
 70
     1
102
RTVSPropertyOp42
 70
     1
102
RTVSPropertyOp43
 70
     1
102
RTVSPropertyOp44
 70
     1
102
RTVSPropertyOp45
 70
     1
102
RTVSPropertyOp46
 70
     1
102
RTVSPropertyOp47
 70
     1
102
RTVSPropertyOp48
 70
     1
102
RTVSPropertyOp49
 70
     1
102
RTVSPropertyOp50
 70
     1
102
RTVSPropertyOp51
 70
     0
102
RTVSPropertyOp52
 70
     0
102
RTVSPropertyOp53
 70
     1
102
RTVSPropertyOp54
 70
     1
102
RTVSPropertyOp55
 70
     1
102
RTVSPropertyOp56
 70
     1
102
RTVSPropertyOp57
 70
     1
102
RTVSPost2010Prop28
280
     0
102
RTVSPost2010PropOp28
 70
     1
102
RTVSPost2010Prop29
280
     1
102
RTVSPost2010PropOp29
 70
     1
102
RTVSPost2010Prop30
280
     1
102
RTVSPost2010PropOp30
 70
     1
102
RTVSPost2010Prop31
280
     0
102
RTVSPost2010PropOp31
 70
     1
102
RTVSPost2010Prop32
280
     0
102
RTVSPost2010PropOp32
 70
     1
102
RTVSPost2010Prop33
280
     0
102
RTVSPost2010PropOp33
 70
     1
102
RTVSPost2010Prop34
280
     0
102
RTVSPost2010PropOp34
 70
     1
102
RTVSPost2010Prop35
280
     0
102
RTVSPost2010PropOp35
 70
     1
102
RTVSPost2010Prop36
280
     0
102
RTVSPost2010PropOp36
 70
     1
102
RTVSPost2010Prop37
 90
       50
102
RTVSPost2010PropOp37
 70
     1
102
RTVSPost2010Prop38
140
0.0
102
RTVSPost2010PropOp38
 70
     1
102
RTVSPost2010Prop39
140
1.0
102
RTVSPost2010PropOp39
 70
     1
102
RTVSPost2010Prop40
 90
        0
102
RTVSPost2010PropOp40
 70
     1
102
RTVSPost2010Prop41ColorIndex
 90
       18
102
RTVSPost2010Prop41ColorRGB
 90
        0
102
RTVSPost2010PropOp41
 70
     1
102
RTVSPost2010Prop42
 90
       50
102
RTVSPost2010PropOp42
 70
     1
102
RTVSPost2010Prop43
 90
        3
102
RTVSPost2010PropOp43
 70
     1
102
RTVSPost2010Prop44ColorIndex
 90
        5
102
RTVSPost2010Prop44ColorRGB
 90
      255
102
RTVSPost2010PropOp44
 70
     1
102
RTVSPost2010Prop45
280
     0
102
RTVSPost2010PropOp45
 70
     1
102
RTVSPost2010Prop46
 90
       50
102
RTVSPost2010PropOp46
 70
     1
102
RTVSPost2010Prop47
 90
       50
102
RTVSPost2010PropOp47
 70
     1
102
RTVSPost2010Prop48
 90
       50
102
RTVSPost2010PropOp48
 70
     1
102
RTVSPost2010Prop49
280
     0
102
RTVSPost2010PropOp49
 70
     1
102
RTVSPost2010Prop50
 90
       50
102
RTVSPost2010PropOp50
 70
     1
102
RTVSPost2010Prop51ColorIndex
 90
      256
102
RTVSPost2010Prop51ColorRGB
 90
-16777216
102
RTVSPost2010PropOp51
 70
     0
102
RTVSPost2010Prop52
140
1.0
102
RTVSPost2010PropOp52
 70
     0
102
RTVSPost2010Prop53
 90
        2
102
RTVSPost2010PropOp53
 70
     1
102
RTVSPost2010Prop54
  1
strokes_ogs.tif
102
RTVSPost2010PropOp54
 70
     1
102
RTVSPost2010Prop55
280
     0
102
RTVSPost2010PropOp55
 70
     1
102
RTVSPost2010Prop56
140
1.0
102
RTVSPost2010PropOp56
 70
     1
102
RTVSPost2010Prop57
140
1.0
102
RTVSPost2010PropOp57
 70
     1
  0
XRECORD
  5
3D89
102
{ACAD_REACTORS
330
3D88
102
}
330
3D88
100
AcDbXrecord
280
     1
102
RTVSPropertyOp0
 70
     1
102
RTVSPropertyOp1
 70
     1
102
RTVSPropertyOp2
 70
     1
102
RTVSPropertyOp3
 70
     1
102
RTVSPropertyOp4
 70
     1
102
RTVSPropertyOp5
 70
     1
102
RTVSPropertyOp6
 70
     1
102
RTVSPropertyOp7
 70
     1
102
RTVSPropertyOp8
 70
     1
102
RTVSPropertyOp9
 70
     1
102
RTVSPropertyOp10
 70
     1
102
RTVSPropertyOp11
 70
     1
102
RTVSPropertyOp12
 70
     1
102
RTVSPropertyOp13
 70
     1
102
RTVSPropertyOp14
 70
     1
102
RTVSPropertyOp15
 70
     1
102
RTVSPropertyOp16
 70
     1
102
RTVSPropertyOp17
 70
     1
102
RTVSPropertyOp18
 70
     1
102
RTVSPropertyOp19
 70
     1
102
RTVSPropertyOp20
 70
     1
102
RTVSPropertyOp21
 70
     1
102
RTVSPropertyOp22
 70
     1
102
RTVSPropertyOp23
 70
     1
102
RTVSPropertyOp24
 70
     1
102
RTVSPropertyOp25
 70
     1
102
RTVSPropertyOp26
 70
     1
102
RTVSPropertyOp27
 70
     1
102
RTVSPropertyOp28
 70
     1
102
RTVSPropertyOp29
 70
     1
102
RTVSPropertyOp30
 70
     1
102
RTVSPropertyOp31
 70
     1
102
RTVSPropertyOp32
 70
     1
102
RTVSPropertyOp33
 70
     1
102
RTVSPropertyOp34
 70
     1
102
RTVSPropertyOp35
 70
     1
102
RTVSPropertyOp36
 70
     1
102
RTVSPropertyOp37
 70
     1
102
RTVSPropertyOp38
 70
     1
102
RTVSPropertyOp39
 70
     1
102
RTVSPropertyOp40
 70
     1
102
RTVSPropertyOp41
 70
     1
102
RTVSPropertyOp42
 70
     1
102
RTVSPropertyOp43
 70
     1
102
RTVSPropertyOp44
 70
     1
102
RTVSPropertyOp45
 70
     1
102
RTVSPropertyOp46
 70
     1
102
RTVSPropertyOp47
 70
     1
102
RTVSPropertyOp48
 70
     1
102
RTVSPropertyOp49
 70
     1
102
RTVSPropertyOp50
 70
     1
102
RTVSPropertyOp51
 70
     0
102
RTVSPropertyOp52
 70
     0
102
RTVSPropertyOp53
 70
     1
102
RTVSPropertyOp54
 70
     1
102
RTVSPropertyOp55
 70
     1
102
RTVSPropertyOp56
 70
     1
102
RTVSPropertyOp57
 70
     1
102
RTVSPost2010Prop28
280
     0
102
RTVSPost2010PropOp28
 70
     1
102
RTVSPost2010Prop29
280
     1
102
RTVSPost2010PropOp29
 70
     1
102
RTVSPost2010Prop30
280
     1
102
RTVSPost2010PropOp30
 70
     1
102
RTVSPost2010Prop31
280
     0
102
RTVSPost2010PropOp31
 70
     1
102
RTVSPost2010Prop32
280
     0
102
RTVSPost2010PropOp32
 70
     1
102
RTVSPost2010Prop33
280
     0
102
RTVSPost2010PropOp33
 70
     1
102
RTVSPost2010Prop34
280
     0
102
RTVSPost2010PropOp34
 70
     1
102
RTVSPost2010Prop35
280
     0
102
RTVSPost2010PropOp35
 70
     1
102
RTVSPost2010Prop36
280
     0
102
RTVSPost2010PropOp36
 70
     1
102
RTVSPost2010Prop37
 90
       50
102
RTVSPost2010PropOp37
 70
     1
102
RTVSPost2010Prop38
140
0.0
102
RTVSPost2010PropOp38
 70
     1
102
RTVSPost2010Prop39
140
1.0
102
RTVSPost2010PropOp39
 70
     1
102
RTVSPost2010Prop40
 90
        0
102
RTVSPost2010PropOp40
 70
     1
102
RTVSPost2010Prop41ColorIndex
 90
       18
102
RTVSPost2010Prop41ColorRGB
 90
        0
102
RTVSPost2010PropOp41
 70
     1
102
RTVSPost2010Prop42
 90
       50
102
RTVSPost2010PropOp42
 70
     1
102
RTVSPost2010Prop43
 90
        3
102
RTVSPost2010PropOp43
 70
     1
102
RTVSPost2010Prop44ColorIndex
 90
        5
102
RTVSPost2010Prop44ColorRGB
 90
      255
102
RTVSPost2010PropOp44
 70
     1
102
RTVSPost2010Prop45
280
     0
102
RTVSPost2010PropOp45
 70
     1
102
RTVSPost2010Prop46
 90
       50
102
RTVSPost2010PropOp46
 70
     1
102
RTVSPost2010Prop47
 90
       50
102
RTVSPost2010PropOp47
 70
     1
102
RTVSPost2010Prop48
 90
       50
102
RTVSPost2010PropOp48
 70
     1
102
RTVSPost2010Prop49
280
     0
102
RTVSPost2010PropOp49
 70
     1
102
RTVSPost2010Prop50
 90
       50
102
RTVSPost2010PropOp50
 70
     1
102
RTVSPost2010Prop51ColorIndex
 90
      256
102
RTVSPost2010Prop51ColorRGB
 90
-16777216
102
RTVSPost2010PropOp51
 70
     0
102
RTVSPost2010Prop52
140
1.0
102
RTVSPost2010PropOp52
 70
     0
102
RTVSPost2010Prop53
 90
        2
102
RTVSPost2010PropOp53
 70
     1
102
RTVSPost2010Prop54
  1
strokes_ogs.tif
102
RTVSPost2010PropOp54
 70
     1
102
RTVSPost2010Prop55
280
     0
102
RTVSPost2010PropOp55
 70
     1
102
RTVSPost2010Prop56
140
1.0
102
RTVSPost2010PropOp56
 70
     1
102
RTVSPost2010Prop57
140
1.0
102
RTVSPost2010PropOp57
 70
     1
  0
XRECORD
  5
3D83
102
{ACAD_REACTORS
330
3D82
102
}
330
3D82
100
AcDbXrecord
280
     1
102
RTVSPropertyOp0
 70
     1
102
RTVSPropertyOp1
 70
     1
102
RTVSPropertyOp2
 70
     1
102
RTVSPropertyOp3
 70
     1
102
RTVSPropertyOp4
 70
     1
102
RTVSPropertyOp5
 70
     1
102
RTVSPropertyOp6
 70
     1
102
RTVSPropertyOp7
 70
     1
102
RTVSPropertyOp8
 70
     1
102
RTVSPropertyOp9
 70
     1
102
RTVSPropertyOp10
 70
     1
102
RTVSPropertyOp11
 70
     1
102
RTVSPropertyOp12
 70
     1
102
RTVSPropertyOp13
 70
     1
102
RTVSPropertyOp14
 70
     1
102
RTVSPropertyOp15
 70
     1
102
RTVSPropertyOp16
 70
     1
102
RTVSPropertyOp17
 70
     1
102
RTVSPropertyOp18
 70
     1
102
RTVSPropertyOp19
 70
     1
102
RTVSPropertyOp20
 70
     1
102
RTVSPropertyOp21
 70
     1
102
RTVSPropertyOp22
 70
     1
102
RTVSPropertyOp23
 70
     1
102
RTVSPropertyOp24
 70
     1
102
RTVSPropertyOp25
 70
     1
102
RTVSPropertyOp26
 70
     1
102
RTVSPropertyOp27
 70
     1
102
RTVSPropertyOp28
 70
     1
102
RTVSPropertyOp29
 70
     1
102
RTVSPropertyOp30
 70
     1
102
RTVSPropertyOp31
 70
     1
102
RTVSPropertyOp32
 70
     1
102
RTVSPropertyOp33
 70
     1
102
RTVSPropertyOp34
 70
     1
102
RTVSPropertyOp35
 70
     1
102
RTVSPropertyOp36
 70
     1
102
RTVSPropertyOp37
 70
     1
102
RTVSPropertyOp38
 70
     1
102
RTVSPropertyOp39
 70
     1
102
RTVSPropertyOp40
 70
     1
102
RTVSPropertyOp41
 70
     1
102
RTVSPropertyOp42
 70
     1
102
RTVSPropertyOp43
 70
     1
102
RTVSPropertyOp44
 70
     1
102
RTVSPropertyOp45
 70
     1
102
RTVSPropertyOp46
 70
     1
102
RTVSPropertyOp47
 70
     1
102
RTVSPropertyOp48
 70
     1
102
RTVSPropertyOp49
 70
     1
102
RTVSPropertyOp50
 70
     1
102
RTVSPropertyOp51
 70
     0
102
RTVSPropertyOp52
 70
     0
102
RTVSPropertyOp53
 70
     1
102
RTVSPropertyOp54
 70
     1
102
RTVSPropertyOp55
 70
     1
102
RTVSPropertyOp56
 70
     1
102
RTVSPropertyOp57
 70
     1
102
RTVSPost2010Prop28
280
     0
102
RTVSPost2010PropOp28
 70
     1
102
RTVSPost2010Prop29
280
     1
102
RTVSPost2010PropOp29
 70
     1
102
RTVSPost2010Prop30
280
     1
102
RTVSPost2010PropOp30
 70
     1
102
RTVSPost2010Prop31
280
     0
102
RTVSPost2010PropOp31
 70
     1
102
RTVSPost2010Prop32
280
     0
102
RTVSPost2010PropOp32
 70
     1
102
RTVSPost2010Prop33
280
     0
102
RTVSPost2010PropOp33
 70
     1
102
RTVSPost2010Prop34
280
     0
102
RTVSPost2010PropOp34
 70
     1
102
RTVSPost2010Prop35
280
     0
102
RTVSPost2010PropOp35
 70
     1
102
RTVSPost2010Prop36
280
     0
102
RTVSPost2010PropOp36
 70
     1
102
RTVSPost2010Prop37
 90
       50
102
RTVSPost2010PropOp37
 70
     1
102
RTVSPost2010Prop38
140
0.0
102
RTVSPost2010PropOp38
 70
     1
102
RTVSPost2010Prop39
140
1.0
102
RTVSPost2010PropOp39
 70
     1
102
RTVSPost2010Prop40
 90
        0
102
RTVSPost2010PropOp40
 70
     1
102
RTVSPost2010Prop41ColorIndex
 90
       18
102
RTVSPost2010Prop41ColorRGB
 90
        0
102
RTVSPost2010PropOp41
 70
     1
102
RTVSPost2010Prop42
 90
       50
102
RTVSPost2010PropOp42
 70
     1
102
RTVSPost2010Prop43
 90
        3
102
RTVSPost2010PropOp43
 70
     1
102
RTVSPost2010Prop44ColorIndex
 90
        5
102
RTVSPost2010Prop44ColorRGB
 90
      255
102
RTVSPost2010PropOp44
 70
     1
102
RTVSPost2010Prop45
280
     0
102
RTVSPost2010PropOp45
 70
     1
102
RTVSPost2010Prop46
 90
       50
102
RTVSPost2010PropOp46
 70
     1
102
RTVSPost2010Prop47
 90
       50
102
RTVSPost2010PropOp47
 70
     1
102
RTVSPost2010Prop48
 90
       50
102
RTVSPost2010PropOp48
 70
     1
102
RTVSPost2010Prop49
280
     0
102
RTVSPost2010PropOp49
 70
     1
102
RTVSPost2010Prop50
 90
       50
102
RTVSPost2010PropOp50
 70
     1
102
RTVSPost2010Prop51ColorIndex
 90
      256
102
RTVSPost2010Prop51ColorRGB
 90
-16777216
102
RTVSPost2010PropOp51
 70
     0
102
RTVSPost2010Prop52
140
1.0
102
RTVSPost2010PropOp52
 70
     0
102
RTVSPost2010Prop53
 90
        2
102
RTVSPost2010PropOp53
 70
     1
102
RTVSPost2010Prop54
  1
strokes_ogs.tif
102
RTVSPost2010PropOp54
 70
     1
102
RTVSPost2010Prop55
280
     0
102
RTVSPost2010PropOp55
 70
     1
102
RTVSPost2010Prop56
140
1.0
102
RTVSPost2010PropOp56
 70
     1
102
RTVSPost2010Prop57
140
1.0
102
RTVSPost2010PropOp57
 70
     1
  0
XRECORD
  5
3D85
102
{ACAD_REACTORS
330
3D84
102
}
330
3D84
100
AcDbXrecord
280
     1
102
RTVSPropertyOp0
 70
     1
102
RTVSPropertyOp1
 70
     1
102
RTVSPropertyOp2
 70
     1
102
RTVSPropertyOp3
 70
     1
102
RTVSPropertyOp4
 70
     1
102
RTVSPropertyOp5
 70
     1
102
RTVSPropertyOp6
 70
     1
102
RTVSPropertyOp7
 70
     1
102
RTVSPropertyOp8
 70
     1
102
RTVSPropertyOp9
 70
     1
102
RTVSPropertyOp10
 70
     1
102
RTVSPropertyOp11
 70
     1
102
RTVSPropertyOp12
 70
     1
102
RTVSPropertyOp13
 70
     1
102
RTVSPropertyOp14
 70
     1
102
RTVSPropertyOp15
 70
     1
102
RTVSPropertyOp16
 70
     1
102
RTVSPropertyOp17
 70
     1
102
RTVSPropertyOp18
 70
     1
102
RTVSPropertyOp19
 70
     1
102
RTVSPropertyOp20
 70
     1
102
RTVSPropertyOp21
 70
     1
102
RTVSPropertyOp22
 70
     1
102
RTVSPropertyOp23
 70
     1
102
RTVSPropertyOp24
 70
     1
102
RTVSPropertyOp25
 70
     1
102
RTVSPropertyOp26
 70
     1
102
RTVSPropertyOp27
 70
     1
102
RTVSPropertyOp28
 70
     1
102
RTVSPropertyOp29
 70
     1
102
RTVSPropertyOp30
 70
     1
102
RTVSPropertyOp31
 70
     1
102
RTVSPropertyOp32
 70
     1
102
RTVSPropertyOp33
 70
     1
102
RTVSPropertyOp34
 70
     1
102
RTVSPropertyOp35
 70
     1
102
RTVSPropertyOp36
 70
     1
102
RTVSPropertyOp37
 70
     1
102
RTVSPropertyOp38
 70
     1
102
RTVSPropertyOp39
 70
     1
102
RTVSPropertyOp40
 70
     1
102
RTVSPropertyOp41
 70
     1
102
RTVSPropertyOp42
 70
     1
102
RTVSPropertyOp43
 70
     1
102
RTVSPropertyOp44
 70
     1
102
RTVSPropertyOp45
 70
     1
102
RTVSPropertyOp46
 70
     1
102
RTVSPropertyOp47
 70
     1
102
RTVSPropertyOp48
 70
     1
102
RTVSPropertyOp49
 70
     1
102
RTVSPropertyOp50
 70
     1
102
RTVSPropertyOp51
 70
     0
102
RTVSPropertyOp52
 70
     0
102
RTVSPropertyOp53
 70
     1
102
RTVSPropertyOp54
 70
     1
102
RTVSPropertyOp55
 70
     1
102
RTVSPropertyOp56
 70
     1
102
RTVSPropertyOp57
 70
     1
102
RTVSPost2010Prop28
280
     0
102
RTVSPost2010PropOp28
 70
     1
102
RTVSPost2010Prop29
280
     1
102
RTVSPost2010PropOp29
 70
     1
102
RTVSPost2010Prop30
280
     1
102
RTVSPost2010PropOp30
 70
     1
102
RTVSPost2010Prop31
280
     0
102
RTVSPost2010PropOp31
 70
     1
102
RTVSPost2010Prop32
280
     0
102
RTVSPost2010PropOp32
 70
     1
102
RTVSPost2010Prop33
280
     0
102
RTVSPost2010PropOp33
 70
     1
102
RTVSPost2010Prop34
280
     0
102
RTVSPost2010PropOp34
 70
     1
102
RTVSPost2010Prop35
280
     0
102
RTVSPost2010PropOp35
 70
     1
102
RTVSPost2010Prop36
280
     0
102
RTVSPost2010PropOp36
 70
     1
102
RTVSPost2010Prop37
 90
       50
102
RTVSPost2010PropOp37
 70
     1
102
RTVSPost2010Prop38
140
0.0
102
RTVSPost2010PropOp38
 70
     1
102
RTVSPost2010Prop39
140
1.0
102
RTVSPost2010PropOp39
 70
     1
102
RTVSPost2010Prop40
 90
        0
102
RTVSPost2010PropOp40
 70
     1
102
RTVSPost2010Prop41ColorIndex
 90
       18
102
RTVSPost2010Prop41ColorRGB
 90
        0
102
RTVSPost2010PropOp41
 70
     1
102
RTVSPost2010Prop42
 90
       50
102
RTVSPost2010PropOp42
 70
     1
102
RTVSPost2010Prop43
 90
        3
102
RTVSPost2010PropOp43
 70
     1
102
RTVSPost2010Prop44ColorIndex
 90
        5
102
RTVSPost2010Prop44ColorRGB
 90
      255
102
RTVSPost2010PropOp44
 70
     1
102
RTVSPost2010Prop45
280
     0
102
RTVSPost2010PropOp45
 70
     1
102
RTVSPost2010Prop46
 90
       50
102
RTVSPost2010PropOp46
 70
     1
102
RTVSPost2010Prop47
 90
       50
102
RTVSPost2010PropOp47
 70
     1
102
RTVSPost2010Prop48
 90
       50
102
RTVSPost2010PropOp48
 70
     1
102
RTVSPost2010Prop49
280
     0
102
RTVSPost2010PropOp49
 70
     1
102
RTVSPost2010Prop50
 90
       50
102
RTVSPost2010PropOp50
 70
     1
102
RTVSPost2010Prop51ColorIndex
 90
      256
102
RTVSPost2010Prop51ColorRGB
 90
-16777216
102
RTVSPost2010PropOp51
 70
     0
102
RTVSPost2010Prop52
140
1.0
102
RTVSPost2010PropOp52
 70
     0
102
RTVSPost2010Prop53
 90
        2
102
RTVSPost2010PropOp53
 70
     1
102
RTVSPost2010Prop54
  1
strokes_ogs.tif
102
RTVSPost2010PropOp54
 70
     1
102
RTVSPost2010Prop55
280
     0
102
RTVSPost2010PropOp55
 70
     1
102
RTVSPost2010Prop56
140
1.0
102
RTVSPost2010PropOp56
 70
     1
102
RTVSPost2010Prop57
140
1.0
102
RTVSPost2010PropOp57
 70
     1
  0
XRECORD
  5
3D77
102
{ACAD_REACTORS
330
3D76
102
}
330
3D76
100
AcDbXrecord
280
     1
102
RTVSPropertyOp0
 70
     1
102
RTVSPropertyOp1
 70
     1
102
RTVSPropertyOp2
 70
     1
102
RTVSPropertyOp3
 70
     1
102
RTVSPropertyOp4
 70
     1
102
RTVSPropertyOp5
 70
     1
102
RTVSPropertyOp6
 70
     1
102
RTVSPropertyOp7
 70
     1
102
RTVSPropertyOp8
 70
     1
102
RTVSPropertyOp9
 70
     1
102
RTVSPropertyOp10
 70
     1
102
RTVSPropertyOp11
 70
     1
102
RTVSPropertyOp12
 70
     1
102
RTVSPropertyOp13
 70
     1
102
RTVSPropertyOp14
 70
     1
102
RTVSPropertyOp15
 70
     1
102
RTVSPropertyOp16
 70
     1
102
RTVSPropertyOp17
 70
     1
102
RTVSPropertyOp18
 70
     1
102
RTVSPropertyOp19
 70
     1
102
RTVSPropertyOp20
 70
     1
102
RTVSPropertyOp21
 70
     1
102
RTVSPropertyOp22
 70
     1
102
RTVSPropertyOp23
 70
     1
102
RTVSPropertyOp24
 70
     1
102
RTVSPropertyOp25
 70
     1
102
RTVSPropertyOp26
 70
     1
102
RTVSPropertyOp27
 70
     1
102
RTVSPropertyOp28
 70
     1
102
RTVSPropertyOp29
 70
     1
102
RTVSPropertyOp30
 70
     1
102
RTVSPropertyOp31
 70
     1
102
RTVSPropertyOp32
 70
     1
102
RTVSPropertyOp33
 70
     1
102
RTVSPropertyOp34
 70
     1
102
RTVSPropertyOp35
 70
     1
102
RTVSPropertyOp36
 70
     1
102
RTVSPropertyOp37
 70
     1
102
RTVSPropertyOp38
 70
     1
102
RTVSPropertyOp39
 70
     1
102
RTVSPropertyOp40
 70
     1
102
RTVSPropertyOp41
 70
     1
102
RTVSPropertyOp42
 70
     1
102
RTVSPropertyOp43
 70
     1
102
RTVSPropertyOp44
 70
     1
102
RTVSPropertyOp45
 70
     1
102
RTVSPropertyOp46
 70
     1
102
RTVSPropertyOp47
 70
     1
102
RTVSPropertyOp48
 70
     1
102
RTVSPropertyOp49
 70
     1
102
RTVSPropertyOp50
 70
     1
102
RTVSPropertyOp51
 70
     0
102
RTVSPropertyOp52
 70
     0
102
RTVSPropertyOp53
 70
     1
102
RTVSPropertyOp54
 70
     1
102
RTVSPropertyOp55
 70
     1
102
RTVSPropertyOp56
 70
     1
102
RTVSPropertyOp57
 70
     1
102
RTVSPost2010Prop28
280
     0
102
RTVSPost2010PropOp28
 70
     1
102
RTVSPost2010Prop29
280
     1
102
RTVSPost2010PropOp29
 70
     1
102
RTVSPost2010Prop30
280
     1
102
RTVSPost2010PropOp30
 70
     1
102
RTVSPost2010Prop31
280
     0
102
RTVSPost2010PropOp31
 70
     1
102
RTVSPost2010Prop32
280
     0
102
RTVSPost2010PropOp32
 70
     1
102
RTVSPost2010Prop33
280
     0
102
RTVSPost2010PropOp33
 70
     1
102
RTVSPost2010Prop34
280
     0
102
RTVSPost2010PropOp34
 70
     1
102
RTVSPost2010Prop35
280
     0
102
RTVSPost2010PropOp35
 70
     1
102
RTVSPost2010Prop36
280
     0
102
RTVSPost2010PropOp36
 70
     1
102
RTVSPost2010Prop37
 90
       50
102
RTVSPost2010PropOp37
 70
     1
102
RTVSPost2010Prop38
140
0.0
102
RTVSPost2010PropOp38
 70
     1
102
RTVSPost2010Prop39
140
1.0
102
RTVSPost2010PropOp39
 70
     1
102
RTVSPost2010Prop40
 90
        0
102
RTVSPost2010PropOp40
 70
     1
102
RTVSPost2010Prop41ColorIndex
 90
       18
102
RTVSPost2010Prop41ColorRGB
 90
        0
102
RTVSPost2010PropOp41
 70
     1
102
RTVSPost2010Prop42
 90
       50
102
RTVSPost2010PropOp42
 70
     1
102
RTVSPost2010Prop43
 90
        3
102
RTVSPost2010PropOp43
 70
     1
102
RTVSPost2010Prop44ColorIndex
 90
        5
102
RTVSPost2010Prop44ColorRGB
 90
      255
102
RTVSPost2010PropOp44
 70
     1
102
RTVSPost2010Prop45
280
     0
102
RTVSPost2010PropOp45
 70
     1
102
RTVSPost2010Prop46
 90
       50
102
RTVSPost2010PropOp46
 70
     1
102
RTVSPost2010Prop47
 90
       50
102
RTVSPost2010PropOp47
 70
     1
102
RTVSPost2010Prop48
 90
       50
102
RTVSPost2010PropOp48
 70
     1
102
RTVSPost2010Prop49
280
     0
102
RTVSPost2010PropOp49
 70
     1
102
RTVSPost2010Prop50
 90
       50
102
RTVSPost2010PropOp50
 70
     1
102
RTVSPost2010Prop51ColorIndex
 90
      256
102
RTVSPost2010Prop51ColorRGB
 90
-16777216
102
RTVSPost2010PropOp51
 70
     0
102
RTVSPost2010Prop52
140
1.0
102
RTVSPost2010PropOp52
 70
     0
102
RTVSPost2010Prop53
 90
        2
102
RTVSPost2010PropOp53
 70
     1
102
RTVSPost2010Prop54
  1
strokes_ogs.tif
102
RTVSPost2010PropOp54
 70
     1
102
RTVSPost2010Prop55
280
     0
102
RTVSPost2010PropOp55
 70
     1
102
RTVSPost2010Prop56
140
1.0
102
RTVSPost2010PropOp56
 70
     1
102
RTVSPost2010Prop57
140
1.0
102
RTVSPost2010PropOp57
 70
     1
  0
XRECORD
  5
3D79
102
{ACAD_REACTORS
330
3D78
102
}
330
3D78
100
AcDbXrecord
280
     1
102
RTVSPropertyOp0
 70
     1
102
RTVSPropertyOp1
 70
     1
102
RTVSPropertyOp2
 70
     1
102
RTVSPropertyOp3
 70
     1
102
RTVSPropertyOp4
 70
     1
102
RTVSPropertyOp5
 70
     1
102
RTVSPropertyOp6
 70
     1
102
RTVSPropertyOp7
 70
     1
102
RTVSPropertyOp8
 70
     1
102
RTVSPropertyOp9
 70
     1
102
RTVSPropertyOp10
 70
     1
102
RTVSPropertyOp11
 70
     1
102
RTVSPropertyOp12
 70
     1
102
RTVSPropertyOp13
 70
     1
102
RTVSPropertyOp14
 70
     1
102
RTVSPropertyOp15
 70
     1
102
RTVSPropertyOp16
 70
     1
102
RTVSPropertyOp17
 70
     1
102
RTVSPropertyOp18
 70
     1
102
RTVSPropertyOp19
 70
     1
102
RTVSPropertyOp20
 70
     1
102
RTVSPropertyOp21
 70
     1
102
RTVSPropertyOp22
 70
     1
102
RTVSPropertyOp23
 70
     1
102
RTVSPropertyOp24
 70
     1
102
RTVSPropertyOp25
 70
     1
102
RTVSPropertyOp26
 70
     1
102
RTVSPropertyOp27
 70
     1
102
RTVSPropertyOp28
 70
     1
102
RTVSPropertyOp29
 70
     1
102
RTVSPropertyOp30
 70
     1
102
RTVSPropertyOp31
 70
     1
102
RTVSPropertyOp32
 70
     1
102
RTVSPropertyOp33
 70
     1
102
RTVSPropertyOp34
 70
     1
102
RTVSPropertyOp35
 70
     1
102
RTVSPropertyOp36
 70
     1
102
RTVSPropertyOp37
 70
     1
102
RTVSPropertyOp38
 70
     1
102
RTVSPropertyOp39
 70
     1
102
RTVSPropertyOp40
 70
     1
102
RTVSPropertyOp41
 70
     1
102
RTVSPropertyOp42
 70
     1
102
RTVSPropertyOp43
 70
     1
102
RTVSPropertyOp44
 70
     1
102
RTVSPropertyOp45
 70
     1
102
RTVSPropertyOp46
 70
     1
102
RTVSPropertyOp47
 70
     1
102
RTVSPropertyOp48
 70
     1
102
RTVSPropertyOp49
 70
     1
102
RTVSPropertyOp50
 70
     1
102
RTVSPropertyOp51
 70
     0
102
RTVSPropertyOp52
 70
     0
102
RTVSPropertyOp53
 70
     1
102
RTVSPropertyOp54
 70
     1
102
RTVSPropertyOp55
 70
     1
102
RTVSPropertyOp56
 70
     1
102
RTVSPropertyOp57
 70
     1
102
RTVSPost2010Prop28
280
     0
102
RTVSPost2010PropOp28
 70
     1
102
RTVSPost2010Prop29
280
     1
102
RTVSPost2010PropOp29
 70
     1
102
RTVSPost2010Prop30
280
     1
102
RTVSPost2010PropOp30
 70
     1
102
RTVSPost2010Prop31
280
     0
102
RTVSPost2010PropOp31
 70
     1
102
RTVSPost2010Prop32
280
     0
102
RTVSPost2010PropOp32
 70
     1
102
RTVSPost2010Prop33
280
     0
102
RTVSPost2010PropOp33
 70
     1
102
RTVSPost2010Prop34
280
     0
102
RTVSPost2010PropOp34
 70
     1
102
RTVSPost2010Prop35
280
     0
102
RTVSPost2010PropOp35
 70
     1
102
RTVSPost2010Prop36
280
     0
102
RTVSPost2010PropOp36
 70
     1
102
RTVSPost2010Prop37
 90
       50
102
RTVSPost2010PropOp37
 70
     1
102
RTVSPost2010Prop38
140
0.0
102
RTVSPost2010PropOp38
 70
     1
102
RTVSPost2010Prop39
140
1.0
102
RTVSPost2010PropOp39
 70
     1
102
RTVSPost2010Prop40
 90
        0
102
RTVSPost2010PropOp40
 70
     1
102
RTVSPost2010Prop41ColorIndex
 90
       18
102
RTVSPost2010Prop41ColorRGB
 90
        0
102
RTVSPost2010PropOp41
 70
     1
102
RTVSPost2010Prop42
 90
       50
102
RTVSPost2010PropOp42
 70
     1
102
RTVSPost2010Prop43
 90
        3
102
RTVSPost2010PropOp43
 70
     1
102
RTVSPost2010Prop44ColorIndex
 90
        5
102
RTVSPost2010Prop44ColorRGB
 90
      255
102
RTVSPost2010PropOp44
 70
     1
102
RTVSPost2010Prop45
280
     0
102
RTVSPost2010PropOp45
 70
     1
102
RTVSPost2010Prop46
 90
       50
102
RTVSPost2010PropOp46
 70
     1
102
RTVSPost2010Prop47
 90
       50
102
RTVSPost2010PropOp47
 70
     1
102
RTVSPost2010Prop48
 90
       50
102
RTVSPost2010PropOp48
 70
     1
102
RTVSPost2010Prop49
280
     0
102
RTVSPost2010PropOp49
 70
     1
102
RTVSPost2010Prop50
 90
       50
102
RTVSPost2010PropOp50
 70
     1
102
RTVSPost2010Prop51ColorIndex
 90
      256
102
RTVSPost2010Prop51ColorRGB
 90
-16777216
102
RTVSPost2010PropOp51
 70
     0
102
RTVSPost2010Prop52
140
1.0
102
RTVSPost2010PropOp52
 70
     0
102
RTVSPost2010Prop53
 90
        2
102
RTVSPost2010PropOp53
 70
     1
102
RTVSPost2010Prop54
  1
strokes_ogs.tif
102
RTVSPost2010PropOp54
 70
     1
102
RTVSPost2010Prop55
280
     0
102
RTVSPost2010PropOp55
 70
     1
102
RTVSPost2010Prop56
140
1.0
102
RTVSPost2010PropOp56
 70
     1
102
RTVSPost2010Prop57
140
1.0
102
RTVSPost2010PropOp57
 70
     1
  0
XRECORD
  5
3D87
102
{ACAD_REACTORS
330
3D86
102
}
330
3D86
100
AcDbXrecord
280
     1
102
RTVSPropertyOp0
 70
     1
102
RTVSPropertyOp1
 70
     1
102
RTVSPropertyOp2
 70
     1
102
RTVSPropertyOp3
 70
     1
102
RTVSPropertyOp4
 70
     1
102
RTVSPropertyOp5
 70
     1
102
RTVSPropertyOp6
 70
     1
102
RTVSPropertyOp7
 70
     1
102
RTVSPropertyOp8
 70
     1
102
RTVSPropertyOp9
 70
     1
102
RTVSPropertyOp10
 70
     1
102
RTVSPropertyOp11
 70
     1
102
RTVSPropertyOp12
 70
     1
102
RTVSPropertyOp13
 70
     1
102
RTVSPropertyOp14
 70
     1
102
RTVSPropertyOp15
 70
     1
102
RTVSPropertyOp16
 70
     1
102
RTVSPropertyOp17
 70
     1
102
RTVSPropertyOp18
 70
     1
102
RTVSPropertyOp19
 70
     1
102
RTVSPropertyOp20
 70
     1
102
RTVSPropertyOp21
 70
     1
102
RTVSPropertyOp22
 70
     1
102
RTVSPropertyOp23
 70
     1
102
RTVSPropertyOp24
 70
     1
102
RTVSPropertyOp25
 70
     1
102
RTVSPropertyOp26
 70
     1
102
RTVSPropertyOp27
 70
     1
102
RTVSPropertyOp28
 70
     1
102
RTVSPropertyOp29
 70
     1
102
RTVSPropertyOp30
 70
     1
102
RTVSPropertyOp31
 70
     1
102
RTVSPropertyOp32
 70
     1
102
RTVSPropertyOp33
 70
     1
102
RTVSPropertyOp34
 70
     1
102
RTVSPropertyOp35
 70
     1
102
RTVSPropertyOp36
 70
     1
102
RTVSPropertyOp37
 70
     1
102
RTVSPropertyOp38
 70
     1
102
RTVSPropertyOp39
 70
     1
102
RTVSPropertyOp40
 70
     1
102
RTVSPropertyOp41
 70
     1
102
RTVSPropertyOp42
 70
     1
102
RTVSPropertyOp43
 70
     1
102
RTVSPropertyOp44
 70
     1
102
RTVSPropertyOp45
 70
     1
102
RTVSPropertyOp46
 70
     1
102
RTVSPropertyOp47
 70
     1
102
RTVSPropertyOp48
 70
     1
102
RTVSPropertyOp49
 70
     1
102
RTVSPropertyOp50
 70
     1
102
RTVSPropertyOp51
 70
     0
102
RTVSPropertyOp52
 70
     0
102
RTVSPropertyOp53
 70
     1
102
RTVSPropertyOp54
 70
     1
102
RTVSPropertyOp55
 70
     1
102
RTVSPropertyOp56
 70
     1
102
RTVSPropertyOp57
 70
     1
102
RTVSPost2010Prop28
280
     0
102
RTVSPost2010PropOp28
 70
     1
102
RTVSPost2010Prop29
280
     1
102
RTVSPost2010PropOp29
 70
     1
102
RTVSPost2010Prop30
280
     1
102
RTVSPost2010PropOp30
 70
     1
102
RTVSPost2010Prop31
280
     0
102
RTVSPost2010PropOp31
 70
     1
102
RTVSPost2010Prop32
280
     0
102
RTVSPost2010PropOp32
 70
     1
102
RTVSPost2010Prop33
280
     0
102
RTVSPost2010PropOp33
 70
     1
102
RTVSPost2010Prop34
280
     0
102
RTVSPost2010PropOp34
 70
     1
102
RTVSPost2010Prop35
280
     0
102
RTVSPost2010PropOp35
 70
     1
102
RTVSPost2010Prop36
280
     0
102
RTVSPost2010PropOp36
 70
     1
102
RTVSPost2010Prop37
 90
       50
102
RTVSPost2010PropOp37
 70
     1
102
RTVSPost2010Prop38
140
0.0
102
RTVSPost2010PropOp38
 70
     1
102
RTVSPost2010Prop39
140
1.0
102
RTVSPost2010PropOp39
 70
     1
102
RTVSPost2010Prop40
 90
        0
102
RTVSPost2010PropOp40
 70
     1
102
RTVSPost2010Prop41ColorIndex
 90
       18
102
RTVSPost2010Prop41ColorRGB
 90
        0
102
RTVSPost2010PropOp41
 70
     1
102
RTVSPost2010Prop42
 90
       50
102
RTVSPost2010PropOp42
 70
     1
102
RTVSPost2010Prop43
 90
        3
102
RTVSPost2010PropOp43
 70
     1
102
RTVSPost2010Prop44ColorIndex
 90
        5
102
RTVSPost2010Prop44ColorRGB
 90
      255
102
RTVSPost2010PropOp44
 70
     1
102
RTVSPost2010Prop45
280
     0
102
RTVSPost2010PropOp45
 70
     1
102
RTVSPost2010Prop46
 90
       50
102
RTVSPost2010PropOp46
 70
     1
102
RTVSPost2010Prop47
 90
       50
102
RTVSPost2010PropOp47
 70
     1
102
RTVSPost2010Prop48
 90
       50
102
RTVSPost2010PropOp48
 70
     1
102
RTVSPost2010Prop49
280
     0
102
RTVSPost2010PropOp49
 70
     1
102
RTVSPost2010Prop50
 90
       50
102
RTVSPost2010PropOp50
 70
     1
102
RTVSPost2010Prop51ColorIndex
 90
      256
102
RTVSPost2010Prop51ColorRGB
 90
-16777216
102
RTVSPost2010PropOp51
 70
     0
102
RTVSPost2010Prop52
140
1.0
102
RTVSPost2010PropOp52
 70
     0
102
RTVSPost2010Prop53
 90
        2
102
RTVSPost2010PropOp53
 70
     1
102
RTVSPost2010Prop54
  1
strokes_ogs.tif
102
RTVSPost2010PropOp54
 70
     1
102
RTVSPost2010Prop55
280
     0
102
RTVSPost2010PropOp55
 70
     1
102
RTVSPost2010Prop56
140
1.0
102
RTVSPost2010PropOp56
 70
     1
102
RTVSPost2010Prop57
140
1.0
102
RTVSPost2010PropOp57
 70
     1
  0
ENDSEC
  0
EOF
