  0
SECTION
  2
HEADER
  9
$ACADVER
  1
AC1015
  9
$ACADMAINTVER
 70
     6
  9
$DWGCODEPAGE
  3
ANSI_1252
  9
$INSBASE
 10
0.0
 20
0.0
 30
0.0
  9
$EXTMIN
 10
22614.64824663314
 20
475.6196966263315
 30
-0.0015258207003583
  9
$EXTMAX
 10
25448.95548846912
 20
2443.264096329432
 30
0.0000000349246037
  9
$LIMMIN
 10
0.0
 20
0.0
  9
$LIMMAX
 10
420.0
 20
297.0
  9
$ORTHOMODE
 70
     1
  9
$REGENMODE
 70
     1
  9
$FILLMODE
 70
     1
  9
$QTEXTMODE
 70
     0
  9
$MIRRTEXT
 70
     0
  9
$LTSCALE
 40
1.0
  9
$ATTMODE
 70
     1
  9
$TEXTSIZE
 40
2.5
  9
$TRACEWID
 40
1.0
  9
$TEXTSTYLE
  7
style1
  9
$CLAYER
  8
Trazo
  9
$CELTYPE
  6
ByLayer
  9
$CECOLOR
 62
   256
  9
$CELTSCALE
 40
0.13
  9
$DISPSILH
 70
     0
  9
$DIMSCALE
 40
1.0
  9
$DIMASZ
 40
2.5
  9
$DIMEXO
 40
0.625
  9
$DIMDLI
 40
3.75
  9
$DIMRND
 40
0.0
  9
$DIMDLE
 40
0.0
  9
$DIMEXE
 40
1.25
  9
$DIMTP
 40
0.0
  9
$DIMTM
 40
0.0
  9
$DIMTXT
 40
2.5
  9
$DIMCEN
 40
2.5
  9
$DIMTSZ
 40
0.0
  9
$DIMTOL
 70
     0
  9
$DIMLIM
 70
     0
  9
$DIMTIH
 70
     0
  9
$DIMTOH
 70
     0
  9
$DIMSE1
 70
     0
  9
$DIMSE2
 70
     0
  9
$DIMTAD
 70
     1
  9
$DIMZIN
 70
     8
  9
$DIMBLK
  1

  9
$DIMASO
 70
     1
  9
$DIMSHO
 70
     1
  9
$DIMPOST
  1

  9
$DIMAPOST
  1

  9
$DIMALT
 70
     0
  9
$DIMALTD
 70
     3
  9
$DIMALTF
 40
0.03937007874016
  9
$DIMLFAC
 40
1.0
  9
$DIMTOFL
 70
     1
  9
$DIMTVP
 40
0.0
  9
$DIMTIX
 70
     0
  9
$DIMSOXD
 70
     0
  9
$DIMSAH
 70
     0
  9
$DIMBLK1
  1

  9
$DIMBLK2
  1

  9
$DIMSTYLE
  2
ISO-25
  9
$DIMCLRD
 70
     0
  9
$DIMCLRE
 70
     0
  9
$DIMCLRT
 70
     0
  9
$DIMTFAC
 40
1.0
  9
$DIMGAP
 40
0.625
  9
$DIMJUST
 70
     0
  9
$DIMSD1
 70
     0
  9
$DIMSD2
 70
     0
  9
$DIMTOLJ
 70
     0
  9
$DIMTZIN
 70
     8
  9
$DIMALTZ
 70
     0
  9
$DIMALTTZ
 70
     0
  9
$DIMUPT
 70
     0
  9
$DIMDEC
 70
     2
  9
$DIMTDEC
 70
     2
  9
$DIMALTU
 70
     2
  9
$DIMALTTD
 70
     3
  9
$DIMTXSTY
  7
style1
  9
$DIMAUNIT
 70
     0
  9
$DIMADEC
 70
     0
  9
$DIMALTRND
 40
0.0
  9
$DIMAZIN
 70
     0
  9
$DIMDSEP
 70
    44
  9
$DIMATFIT
 70
     3
  9
$DIMFRAC
 70
     0
  9
$DIMLDRBLK
  1

  9
$DIMLUNIT
 70
     2
  9
$DIMLWD
 70
    -2
  9
$DIMLWE
 70
    -2
  9
$DIMTMOVE
 70
     0
  9
$LUNITS
 70
     2
  9
$LUPREC
 70
     4
  9
$SKETCHINC
 40
1.0
  9
$FILLETRAD
 40
4.0
  9
$AUNITS
 70
     0
  9
$AUPREC
 70
     0
  9
$MENU
  1
.
  9
$ELEVATION
 40
0.0
  9
$PELEVATION
 40
0.0
  9
$THICKNESS
 40
0.0
  9
$LIMCHECK
 70
     0
  9
$CHAMFERA
 40
0.0
  9
$CHAMFERB
 40
0.0
  9
$CHAMFERC
 40
0.0
  9
$CHAMFERD
 40
0.0
  9
$SKPOLY
 70
     0
  9
$TDCREATE
 40
2454651.65304735
  9
$TDUCREATE
 40
2454651.611380683
  9
$TDUPDATE
 40
2460388.342094386
  9
$TDUUPDATE
 40
2460388.30042772
  9
$TDINDWG
 40
0.2791914005
  9
$TDUSRTIMER
 40
0.2791913657
  9
$USRTIMER
 70
     1
  9
$ANGBASE
 50
0.0
  9
$ANGDIR
 70
     0
  9
$PDMODE
 70
     0
  9
$PDSIZE
 40
0.0
  9
$PLINEWID
 40
0.0
  9
$SPLFRAME
 70
     0
  9
$SPLINETYPE
 70
     6
  9
$SPLINESEGS
 70
     8
  9
$HANDSEED
  5
4280
  9
$SURFTAB1
 70
     6
  9
$SURFTAB2
 70
     6
  9
$SURFTYPE
 70
     6
  9
$SURFU
 70
     6
  9
$SURFV
 70
     6
  9
$UCSBASE
  2

  9
$UCSNAME
  2

  9
$UCSORG
 10
0.0
 20
0.0
 30
0.0
  9
$UCSXDIR
 10
1.0
 20
0.0
 30
0.0
  9
$UCSYDIR
 10
0.0
 20
1.0
 30
0.0
  9
$UCSORTHOREF
  2

  9
$UCSORTHOVIEW
 70
     0
  9
$UCSORGTOP
 10
0.0
 20
0.0
 30
0.0
  9
$UCSORGBOTTOM
 10
0.0
 20
0.0
 30
0.0
  9
$UCSORGLEFT
 10
0.0
 20
0.0
 30
0.0
  9
$UCSORGRIGHT
 10
0.0
 20
0.0
 30
0.0
  9
$UCSORGFRONT
 10
0.0
 20
0.0
 30
0.0
  9
$UCSORGBACK
 10
0.0
 20
0.0
 30
0.0
  9
$PUCSBASE
  2

  9
$PUCSNAME
  2

  9
$PUCSORG
 10
0.0
 20
0.0
 30
0.0
  9
$PUCSXDIR
 10
1.0
 20
0.0
 30
0.0
  9
$PUCSYDIR
 10
0.0
 20
1.0
 30
0.0
  9
$PUCSORTHOREF
  2

  9
$PUCSORTHOVIEW
 70
     0
  9
$PUCSORGTOP
 10
0.0
 20
0.0
 30
0.0
  9
$PUCSORGBOTTOM
 10
0.0
 20
0.0
 30
0.0
  9
$PUCSORGLEFT
 10
0.0
 20
0.0
 30
0.0
  9
$PUCSORGRIGHT
 10
0.0
 20
0.0
 30
0.0
  9
$PUCSORGFRONT
 10
0.0
 20
0.0
 30
0.0
  9
$PUCSORGBACK
 10
0.0
 20
0.0
 30
0.0
  9
$USERI1
 70
     0
  9
$USERI2
 70
     0
  9
$USERI3
 70
     0
  9
$USERI4
 70
     0
  9
$USERI5
 70
     0
  9
$USERR1
 40
0.0
  9
$USERR2
 40
0.0
  9
$USERR3
 40
0.0
  9
$USERR4
 40
0.0
  9
$USERR5
 40
0.0
  9
$WORLDVIEW
 70
     1
  9
$SHADEDGE
 70
     3
  9
$SHADEDIF
 70
    70
  9
$TILEMODE
 70
     1
  9
$MAXACTVP
 70
    64
  9
$PINSBASE
 10
0.0
 20
0.0
 30
0.0
  9
$PLIMCHECK
 70
     0
  9
$PEXTMIN
 10
0.0
 20
0.0
 30
0.0
  9
$PEXTMAX
 10
0.0
 20
0.0
 30
0.0
  9
$PLIMMIN
 10
0.0
 20
0.0
  9
$PLIMMAX
 10
12.0
 20
9.0
  9
$UNITMODE
 70
     0
  9
$VISRETAIN
 70
     1
  9
$PLINEGEN
 70
     0
  9
$PSLTSCALE
 70
     1
  9
$TREEDEPTH
 70
  3020
  9
$CMLSTYLE
  2
Standard
  9
$CMLJUST
 70
     0
  9
$CMLSCALE
 40
20.0
  9
$PROXYGRAPHICS
 70
     1
  9
$MEASUREMENT
 70
     0
  9
$CELWEIGHT
370
    -1
  9
$ENDCAPS
280
     0
  9
$JOINSTYLE
280
     0
  9
$LWDISPLAY
290
     0
  9
$INSUNITS
 70
     4
  9
$HYPERLINKBASE
  1

  9
$STYLESHEET
  1

  9
$XEDIT
290
     1
  9
$CEPSNTYPE
380
     0
  9
$PSTYLEMODE
290
     1
  9
$FINGERPRINTGUID
  2
{65CFBF12-1059-4896-95DE-1C806D254FE3}
  9
$VERSIONGUID
  2
{5EE91043-F0A5-4C05-B820-3F87C12B062F}
  9
$EXTNAMES
290
     1
  9
$PSVPSCALE
 40
0.0
  9
$OLESTARTUP
290
     0
  0
ENDSEC
  0
SECTION
  2
CLASSES
  0
CLASS
  1
ACDBDICTIONARYWDFLT
  2
AcDbDictionaryWithDefault
  3
ObjectDBX Classes
 90
        0
280
     0
281
     0
  0
CLASS
  1
ACDBPLACEHOLDER
  2
AcDbPlaceHolder
  3
ObjectDBX Classes
 90
        0
280
     0
281
     0
  0
CLASS
  1
LAYOUT
  2
AcDbLayout
  3
ObjectDBX Classes
 90
        0
280
     0
281
     0
  0
CLASS
  1
DICTIONARYVAR
  2
AcDbDictionaryVar
  3
ObjectDBX Classes
 90
        0
280
     0
281
     0
  0
CLASS
  1
TABLESTYLE
  2
AcDbTableStyle
  3
ObjectDBX Classes
 90
     4095
280
     0
281
     0
  0
CLASS
  1
MATERIAL
  2
AcDbMaterial
  3
ObjectDBX Classes
 90
     1153
280
     0
281
     0
  0
CLASS
  1
VISUALSTYLE
  2
AcDbVisualStyle
  3
ObjectDBX Classes
 90
     4095
280
     0
281
     0
  0
CLASS
  1
SCALE
  2
AcDbScale
  3
ObjectDBX Classes
 90
     1153
280
     0
281
     0
  0
CLASS
  1
MLEADERSTYLE
  2
AcDbMLeaderStyle
  3
ACDB_MLEADERSTYLE_CLASS
 90
     4095
280
     0
281
     0
  0
CLASS
  1
CELLSTYLEMAP
  2
AcDbCellStyleMap
  3
ObjectDBX Classes
 90
     1152
280
     0
281
     0
  0
CLASS
  1
RASTERVARIABLES
  2
AcDbRasterVariables
  3
ISM
 90
        0
280
     0
281
     0
  0
CLASS
  1
IMAGEDEF
  2
AcDbRasterImageDef
  3
ISM
 90
        0
280
     0
281
     0
  0
CLASS
  1
IMAGEDEF_REACTOR
  2
AcDbRasterImageDefReactor
  3
ISM
 90
        1
280
     0
281
     0
  0
CLASS
  1
IMAGE
  2
AcDbRasterImage
  3
ISM
 90
      127
280
     0
281
     1
  0
CLASS
  1
SORTENTSTABLE
  2
AcDbSortentsTable
  3
ObjectDBX Classes
 90
        0
280
     0
281
     0
  0
CLASS
  1
DIMASSOC
  2
AcDbDimAssoc
  3
"AcDbDimAssoc|Product Desc:     AcDim ARX App For Dimension|Company:          Autodesk, Inc.|WEB Address:      www.autodesk.com"
 90
        0
280
     0
281
     0
  0
CLASS
  1
ACAD_EVALUATION_GRAPH
  2
AcDbEvalGraph
  3
ObjectDBX Classes
 90
     1153
280
     1
281
     0
  0
CLASS
  1
ACAECUSTOBJ
  2
AcAeEditorObj
  3
AcAeEditorObj
 90
     1024
280
     1
281
     0
  0
CLASS
  1
ACDB_DYNAMICBLOCKPURGEPREVENTER_VERSION
  2
AcDbDynamicBlockPurgePreventer
  3
ObjectDBX Classes
 90
     1153
280
     1
281
     0
  0
ENDSEC
  0
SECTION
  2
TABLES
  0
TABLE
  2
VPORT
  5
8
102
{ACAD_XDICTIONARY
360
4241
102
}
330
0
100
AcDbSymbolTable
 70
     1
  0
VPORT
  5
EA
330
8
100
AcDbSymbolTableRecord
100
AcDbViewportTableRecord
  2
*Active
 70
     0
 10
0.0
 20
0.0
 11
1.0
 21
1.0
 12
24031.80186755113
 22
1459.441896477882
 13
0.0
 23
0.0
 14
10.0
 24
10.0
 15
10.0
 25
10.0
 16
0.0
 26
0.0
 36
1.0
 17
0.0
 27
0.0
 37
0.0
 40
1989.71143969977
 41
2.241573033707865
 42
50.0
 43
0.0
 44
0.0
 50
0.0
 51
0.0
 71
     0
 72
  1000
 73
     1
 74
     3
 75
     0
 76
     0
 77
     0
 78
     0
281
     0
 65
     1
110
0.0
120
0.0
130
0.0
111
1.0
121
0.0
131
0.0
112
0.0
122
1.0
132
0.0
 79
     0
146
0.0
  0
ENDTAB
  0
TABLE
  2
LTYPE
  5
5
330
0
100
AcDbSymbolTable
 70
     3
  0
LTYPE
  5
14
330
5
100
AcDbSymbolTableRecord
100
AcDbLinetypeTableRecord
  2
ByBlock
 70
     0
  3

 72
    65
 73
     0
 40
0.0
  0
LTYPE
  5
15
330
5
100
AcDbSymbolTableRecord
100
AcDbLinetypeTableRecord
  2
ByLayer
 70
     0
  3

 72
    65
 73
     0
 40
0.0
  0
LTYPE
  5
16
330
5
100
AcDbSymbolTableRecord
100
AcDbLinetypeTableRecord
  2
Continuous
 70
     0
  3
Solid line
 72
    65
 73
     0
 40
0.0
  0
LTYPE
  5
2CD
330
5
100
AcDbSymbolTableRecord
100
AcDbLinetypeTableRecord
  2
ACAD_ISO04W100
 70
     0
  3
ISO long-dash dot ____ . ____ . ____ . ____ . _
 72
    65
 73
     4
 40
30.0
 49
24.0
 74
     0
 49
-3.0
 74
     0
 49
0.0
 74
     0
 49
-3.0
 74
     0
  0
LTYPE
  5
2E1
330
5
100
AcDbSymbolTableRecord
100
AcDbLinetypeTableRecord
  2
ACAD_ISO02W100
 70
     0
  3
ISO dash __ __ __ __ __ __ __ __ __ __ __ __ __
 72
    65
 73
     2
 40
15.0
 49
12.0
 74
     0
 49
-3.0
 74
     0
  0
ENDTAB
  0
TABLE
  2
LAYER
  5
2
102
{ACAD_XDICTIONARY
360
1B6
102
}
330
0
100
AcDbSymbolTable
 70
     3
  0
LAYER
  5
10
102
{ACAD_XDICTIONARY
360
13C
102
}
330
2
100
AcDbSymbolTableRecord
100
AcDbLayerTableRecord
  2
0
 70
     0
 62
     7
  6
Continuous
370
    -3
390
F
  0
LAYER
  5
1B4
330
2
100
AcDbSymbolTableRecord
100
AcDbLayerTableRecord
  2
Trazo
 70
     0
 62
   250
  6
Continuous
370
    -3
390
F
1001
AcAecLayerStandard
1000

1000

  0
LAYER
  5
282
330
2
100
AcDbSymbolTableRecord
100
AcDbLayerTableRecord
  2
Defpoints
 70
     0
 62
     1
  6
Continuous
290
     0
370
    -3
390
F
  0
ENDTAB
  0
TABLE
  2
STYLE
  5
3
330
0
100
AcDbSymbolTable
 70
     2
  0
STYLE
  5
11
330
3
100
AcDbSymbolTableRecord
100
AcDbTextStyleTableRecord
  2
Standard
 70
     0
 40
0.0
 41
1.0
 50
0.0
 71
     0
 42
2.5
  3
arial.ttf
  4

1001
ACAD
1000
Arial
1071
       34
  0
STYLE
  5
456
330
3
100
AcDbSymbolTableRecord
100
AcDbTextStyleTableRecord
  2
style1
 70
     0
 40
0.0
 41
1.0
 50
0.0
 71
     0
 42
2.5
  3
arial.ttf
  4

1001
ACAD
1000
Arial
1071
       34
  0
ENDTAB
  0
TABLE
  2
VIEW
  5
6
330
0
100
AcDbSymbolTable
 70
     0
  0
ENDTAB
  0
TABLE
  2
UCS
  5
7
330
0
100
AcDbSymbolTable
 70
     0
  0
ENDTAB
  0
TABLE
  2
APPID
  5
9
330
0
100
AcDbSymbolTable
 70
    13
  0
APPID
  5
12
330
9
100
AcDbSymbolTableRecord
100
AcDbRegAppTableRecord
  2
ACAD
 70
     0
  0
APPID
  5
9E
330
9
100
AcDbSymbolTableRecord
100
AcDbRegAppTableRecord
  2
ACAD_PSEXT
 70
     0
  0
APPID
  5
133
330
9
100
AcDbSymbolTableRecord
100
AcDbRegAppTableRecord
  2
AcadAnnoPO
 70
     0
  0
APPID
  5
134
330
9
100
AcDbSymbolTableRecord
100
AcDbRegAppTableRecord
  2
AcadAnnotative
 70
     0
  0
APPID
  5
135
330
9
100
AcDbSymbolTableRecord
100
AcDbRegAppTableRecord
  2
ACAD_DSTYLE_DIMJAG
 70
     0
  0
APPID
  5
136
330
9
100
AcDbSymbolTableRecord
100
AcDbRegAppTableRecord
  2
ACAD_DSTYLE_DIMTALN
 70
     0
  0
APPID
  5
165
330
9
100
AcDbSymbolTableRecord
100
AcDbRegAppTableRecord
  2
ACAD_MLEADERVER
 70
     0
  0
APPID
  5
1B5
330
9
100
AcDbSymbolTableRecord
100
AcDbRegAppTableRecord
  2
AcAecLayerStandard
 70
     0
  0
APPID
  5
1BA
330
9
100
AcDbSymbolTableRecord
100
AcDbRegAppTableRecord
  2
ACAD_EXEMPT_FROM_CAD_STANDARDS
 70
     0
  0
APPID
  5
3F3E
330
9
100
AcDbSymbolTableRecord
100
AcDbRegAppTableRecord
  2
ACAUTHENVIRON
 70
     0
  0
APPID
  5
3FA2
330
9
100
AcDbSymbolTableRecord
100
AcDbRegAppTableRecord
  2
AcDbDynamicBlockTrueName
 70
     0
  0
APPID
  5
3FA3
330
9
100
AcDbSymbolTableRecord
100
AcDbRegAppTableRecord
  2
AcDbDynamicBlockGUID
 70
     0
  0
APPID
  5
3FA5
330
9
100
AcDbSymbolTableRecord
100
AcDbRegAppTableRecord
  2
AcDbBlockRepETag
 70
     0
  0
ENDTAB
  0
TABLE
  2
DIMSTYLE
  5
A
330
0
100
AcDbSymbolTable
 70
     1
100
AcDbDimStyleTable
  0
DIMSTYLE
105
27
102
{ACAD_REACTORS
330
41CC
330
41E2
330
41E3
330
420B
102
}
330
A
100
AcDbSymbolTableRecord
100
AcDbDimStyleTableRecord
  2
ISO-25
 70
     0
 41
2.5
 42
0.625
 43
3.75
 44
1.25
 73
     0
 74
     0
 77
     1
 78
     8
140
2.5
141
2.5
143
0.03937007874016
147
0.625
171
     3
172
     1
178
     0
271
     2
272
     2
274
     3
278
    44
283
     0
284
     8
340
456
1001
ACAD_DSTYLE_DIMJAG
1070
   388
1040
1.5
1001
ACAD_DSTYLE_DIMTALN
1070
   392
1070
     0
  0
ENDTAB
  0
TABLE
  2
BLOCK_RECORD
  5
1
330
0
100
AcDbSymbolTable
 70
     7
  0
BLOCK_RECORD
  5
1F
102
{ACAD_XDICTIONARY
360
1CC
102
}
330
1
100
AcDbSymbolTableRecord
100
AcDbBlockTableRecord
  2
*Model_Space
340
22
  0
BLOCK_RECORD
  5
D2
330
1
100
AcDbSymbolTableRecord
100
AcDbBlockTableRecord
  2
*Paper_Space
340
D3
  0
BLOCK_RECORD
  5
D6
330
1
100
AcDbSymbolTableRecord
100
AcDbBlockTableRecord
  2
*Paper_Space0
340
D7
  0
BLOCK_RECORD
  5
3D45
330
1
100
AcDbSymbolTableRecord
100
AcDbBlockTableRecord
  2
S 300
340
0
310
2800000020000000200000000100080000000000000400000000000000000000000000000000000000000000000080000080000000808000800000008000800080800000C0C0C000C0DCC000F0CAA6000020400000206000002080000020A0000020C0000020E00000400000004020000040400000406000004080000040A0
310
000040C0000040E00000600000006020000060400000606000006080000060A0000060C0000060E00000800000008020000080400000806000008080000080A0000080C0000080E00000A0000000A0200000A0400000A0600000A0800000A0A00000A0C00000A0E00000C0000000C0200000C0400000C0600000C0800000C0
310
A00000C0C00000C0E00000E0000000E0200000E0400000E0600000E0800000E0A00000E0C00000E0E00040000000400020004000400040006000400080004000A0004000C0004000E00040200000402020004020400040206000402080004020A0004020C0004020E000404000004040200040404000404060004040800040
310
40A0004040C0004040E00040600000406020004060400040606000406080004060A0004060C0004060E00040800000408020004080400040806000408080004080A0004080C0004080E00040A0000040A0200040A0400040A0600040A0800040A0A00040A0C00040A0E00040C0000040C0200040C0400040C0600040C08000
310
40C0A00040C0C00040C0E00040E0000040E0200040E0400040E0600040E0800040E0A00040E0C00040E0E00080000000800020008000400080006000800080008000A0008000C0008000E00080200000802020008020400080206000802080008020A0008020C0008020E00080400000804020008040400080406000804080
310
008040A0008040C0008040E00080600000806020008060400080606000806080008060A0008060C0008060E00080800000808020008080400080806000808080008080A0008080C0008080E00080A0000080A0200080A0400080A0600080A0800080A0A00080A0C00080A0E00080C0000080C0200080C0400080C0600080C0
310
800080C0A00080C0C00080C0E00080E0000080E0200080E0400080E0600080E0800080E0A00080E0C00080E0E000C0000000C0002000C0004000C0006000C0008000C000A000C000C000C000E000C0200000C0202000C0204000C0206000C0208000C020A000C020C000C020E000C0400000C0402000C0404000C0406000C0
310
408000C040A000C040C000C040E000C0600000C0602000C0604000C0606000C0608000C060A000C060C000C060E000C0800000C0802000C0804000C0806000C0808000C080A000C080C000C080E000C0A00000C0A02000C0A04000C0A06000C0A08000C0A0A000C0A0C000C0A0E000C0C00000C0C02000C0C04000C0C06000
310
C0C08000C0C0A000F0FBFF00A4A0A000808080000000FF0000FF000000FFFF00FF000000FF00FF00FFFF0000FFFFFF0000000000000000000000000000000000000000000000000000000000000000000000000000000000FF00FFFFFFFFFFFFFFFFFFFF0000000000000000000000000000000000000000FF00FFFF0000FF
310
FF000000FF0000000000000000000000000000000000000000FFFFFFFFFF000000000000FF0000000000000000000000000000000000000000FFFFFFFFFFFFFFFFFFFFFFFFFFFFFFFF00000000000000000000000000000000FF00FFFFFFFFFFFFFFFFFFFFFFFFFFFFFF000000000000000000000000000000FF00FFFF00FF
310
FFFF0000FFFF0000000000000000000000000000000000000000FF00FFFF00FFFFFFFFFFFFFFFF00000000000000000000000000000000000000FF00FFFF00FFFFFFFFFFFFFFFFFFFFFFFFFF0000000000000000000000000000FF00FFFF000000FFFFFFFFFF0000000000000000000000000000000000000000FF00FFFF00
310
FFFFFFFFFFFFFFFFFFFFFFFFFFFF00000000000000000000000000FF00FFFF00FFFFFFFFFFFFFFFFFFFFFFFFFFFF00000000000000000000000000FF00FFFF00FFFFFFFFFFFFFF0000000000000000000000000000000000000000FF00FFFF00FFFFFFFFFFFFFFFFFFFFFFFF000000000000000000000000FFFFFFFFFFFFFF
310
FF00FFFFFFFFFFFFFFFFFFFFFFFF0000000000000000000000FFFFFFFFFF52FF0000FFFF0000FFFF0000000000000000000000000000000000000000FF0052FF0000FFFF0000FFFFFF00000000000000000000000000000000000000FF0052FF0000FFFF0000FF52FF00000000000000000000000000000000000000FF0052
310
FF0000FFFF0000FF52FF00000000000000000000000000000000000000FF0052FF0000FFFF0000FF52FF00000000000000000000000000000000000000FF0052FF0000FFFF0000FF52FFFFFFFFFFFF0000000000000000000000000000FF0052FF0000FFFF0000FF520000000000000000000000000000000000000000FF00
310
52FF0000FFFF0000FF520000000000000000000000000000000000000000FF0052FF0000FFFF0000FF520000000000000000000000000000000000000000FF0052FF0000FFFF0000FF520000000000000000000000000000000000000000FF00FFFF0000FFFF0000FF520000000000000000000000000000000000000000FF
310
00FFFF0000FFFF0000FF520000000000000000000000000000000000000000FF0052FFFF00FFFF00FFFF520000000000000000000000000000000000000000FF00525252FFFFFFFFFFFFFFFFFFFFFFFFFF0000000000000000000000000000FFFFFFFFFFFFFFFFFFFFFFFFFFFFFFFFFFFF0000000000000000000000000000
310
00000000000000FF000000000000000000000000000000000000000000000000000000000000000000000000000000000000000000000000
102
{BLKREFS
331
41E4
102
}
1001
AcDbDynamicBlockGUID
1000
{E724AE7D-362F-4E62-A545-739869DB7A27}
1001
AcDbBlockRepETag
1070
     1
1071
      182
1001
ACAD
1000
DesignCenter Data
1002
{
1070
     1
1070
     4
1002
}
  0
BLOCK_RECORD
  5
3DFF
330
1
100
AcDbSymbolTableRecord
100
AcDbBlockTableRecord
  2
S 300_1
340
0
310
2800000020000000200000000100080000000000000400000000000000000000000000000000000000000000000080000080000000808000800000008000800080800000C0C0C000C0DCC000F0CAA6000020400000206000002080000020A0000020C0000020E00000400000004020000040400000406000004080000040A0
310
000040C0000040E00000600000006020000060400000606000006080000060A0000060C0000060E00000800000008020000080400000806000008080000080A0000080C0000080E00000A0000000A0200000A0400000A0600000A0800000A0A00000A0C00000A0E00000C0000000C0200000C0400000C0600000C0800000C0
310
A00000C0C00000C0E00000E0000000E0200000E0400000E0600000E0800000E0A00000E0C00000E0E00040000000400020004000400040006000400080004000A0004000C0004000E00040200000402020004020400040206000402080004020A0004020C0004020E000404000004040200040404000404060004040800040
310
40A0004040C0004040E00040600000406020004060400040606000406080004060A0004060C0004060E00040800000408020004080400040806000408080004080A0004080C0004080E00040A0000040A0200040A0400040A0600040A0800040A0A00040A0C00040A0E00040C0000040C0200040C0400040C0600040C08000
310
40C0A00040C0C00040C0E00040E0000040E0200040E0400040E0600040E0800040E0A00040E0C00040E0E00080000000800020008000400080006000800080008000A0008000C0008000E00080200000802020008020400080206000802080008020A0008020C0008020E00080400000804020008040400080406000804080
310
008040A0008040C0008040E00080600000806020008060400080606000806080008060A0008060C0008060E00080800000808020008080400080806000808080008080A0008080C0008080E00080A0000080A0200080A0400080A0600080A0800080A0A00080A0C00080A0E00080C0000080C0200080C0400080C0600080C0
310
800080C0A00080C0C00080C0E00080E0000080E0200080E0400080E0600080E0800080E0A00080E0C00080E0E000C0000000C0002000C0004000C0006000C0008000C000A000C000C000C000E000C0200000C0202000C0204000C0206000C0208000C020A000C020C000C020E000C0400000C0402000C0404000C0406000C0
310
408000C040A000C040C000C040E000C0600000C0602000C0604000C0606000C0608000C060A000C060C000C060E000C0800000C0802000C0804000C0806000C0808000C080A000C080C000C080E000C0A00000C0A02000C0A04000C0A06000C0A08000C0A0A000C0A0C000C0A0E000C0C00000C0C02000C0C04000C0C06000
310
C0C08000C0C0A000F0FBFF00A4A0A000808080000000FF0000FF000000FFFF00FF000000FF00FF00FFFF0000FFFFFF0000000000000000000000000000000000000000000000000000000000000000000000000000000000000000000000000000000000000000000000000000000000000000000000000000000000000000
310
00000000000000000000000000000000000000000000000000000000000000000000000000000000000000000000000000000000000000000000000000000000000000000000000000000000000000000000000000000000000000000000000000000000000000000000000000000000000000000000000000000000000000
310
000000FF0000000000000000000000000000000000000000000000000000000000FFFFFFFFFFFFFFFFFFFFFFFFFFFFFFFF0000000000000000000000000000FFFF0000FF0000FFFF00000000000000FFFF000000000000000000000000FFFF00000000FF00000000FF000000000000FF000000000000000000000000FF0000
310
00000000FF0000000000FF0000000000FF000000000000000000000000FF000000000000FF000000000000FF00000000FF00000000000000000000FFFF00000000000000FF000000000000FF00000000FF00000000000000000000FFFF00000000000000FF000000000000FF00000000FF00000000000000000000FFFF0000
310
00000000FFFFFF000000000000FF000000FF0000000000000000FFFFFFFFFFFFFFFFFFFFFFFFFFFFFFFFFFFFFFFF000000FF00000000000000000000FFFF0000000000FFFFFFFF0000000000FFFF000000FF00000000000000000000FFFF000000000000FFFF00000000000000FF000000FF00000000000000000000FFFF00
310
00000000FFFFFFFF0000000000FF00000000FF000000000000000000000000FF00000000FFFFFFFFFF00000000FF00000000FF000000000000000000000000FF00000000FFFFFF0000000000FF0000000000FF00000000000000000000000000FF0000FF0000FF00000000FF000000000000FF000000000000000000000000
310
0000FFFF000000FF000000FF00000000000000FF00000000FFFFFFFFFFFFFF0000FFFFFFFFFFFFFFFFFFFFFFFFFFFFFFFFFFFFFFFF0000FFFFFFFFFFFFFFFFFFFF000000000000FF00000000000000000000000000000000FF0000000000000000000000000000000000000000000000000000000000000000000000000000
310
00000000000000000000000000000000000000000000000000000000000000000000000000000000000000000000000000000000000000000000000000000000000000000000000000000000000000000000000000000000000000000000000000000000000000000000000000000000000000000000000000000000000000
310
0000000000000000000000000000000000000000000000000000000000000000000000000000000000000000000000000000000000000000
102
{BLKREFS
331
420C
102
}
1001
ACAD
1000
DesignCenter Data
1002
{
1070
     1
1070
     4
1002
}
  0
BLOCK_RECORD
  5
40AD
330
1
100
AcDbSymbolTableRecord
100
AcDbBlockTableRecord
  2
*D9
340
0
  0
BLOCK_RECORD
  5
40B9
330
1
100
AcDbSymbolTableRecord
100
AcDbBlockTableRecord
  2
*D10
340
0
  0
BLOCK_RECORD
  5
40C5
330
1
100
AcDbSymbolTableRecord
100
AcDbBlockTableRecord
  2
*D11
340
0
  0
BLOCK_RECORD
  5
40F2
330
1
100
AcDbSymbolTableRecord
100
AcDbBlockTableRecord
  2
*D12
340
0
  0
ENDTAB
  0
ENDSEC
  0
SECTION
  2
BLOCKS
  0
BLOCK
  5
20
330
1F
100
AcDbEntity
  8
0
100
AcDbBlockBegin
  2
*Model_Space
 70
     0
 10
0.0
 20
0.0
 30
0.0
  3
*Model_Space
  1

  0
ENDBLK
  5
21
330
1F
100
AcDbEntity
  8
0
100
AcDbBlockEnd
  0
BLOCK
  5
D4
330
D2
100
AcDbEntity
 67
     1
  8
0
100
AcDbBlockBegin
  2
*Paper_Space
 70
     0
 10
0.0
 20
0.0
 30
0.0
  3
*Paper_Space
  1

  0
ENDBLK
  5
D5
330
D2
100
AcDbEntity
 67
     1
  8
0
100
AcDbBlockEnd
  0
BLOCK
  5
D8
330
D6
100
AcDbEntity
  8
0
100
AcDbBlockBegin
  2
*Paper_Space0
 70
     0
 10
0.0
 20
0.0
 30
0.0
  3
*Paper_Space0
  1

  0
ENDBLK
  5
D9
330
D6
100
AcDbEntity
  8
0
100
AcDbBlockEnd
  0
BLOCK
  5
3D46
330
3D45
100
AcDbEntity
  8
0
 48
0.13
100
AcDbBlockBegin
  2
S 300
 70
     0
 10
0.0
 20
0.0
 30
0.0
  3
S 300
  1

  0
LWPOLYLINE
  5
412E
330
3D45
100
AcDbEntity
  8
0
 48
0.13
100
AcDbPolyline
 90
        4
 70
     0
 43
0.0
 10
23009.41346369152
 20
1364.77854220931
 10
23009.41346369152
 20
2386.571742530414
 10
23609.39173141222
 20
2386.571742530414
 10
23609.39173141222
 20
2336.551236042668
1001
AcDbBlockRepETag
1070
     1
1071
        0
1005
412E
  0
LWPOLYLINE
  5
412F
330
3D45
100
AcDbEntity
  8
0
 48
0.13
100
AcDbPolyline
 90
        2
 70
     0
 43
0.0
 10
23609.39173141222
 20
2308.472741187351
 10
23609.39173141222
 20
1490.280674752012
1001
AcDbBlockRepETag
1070
     1
1071
        1
1005
412F
  0
HATCH
  5
4130
330
3D45
100
AcDbEntity
  8
Trazo
 48
0.13
100
AcDbHatch
 10
0.0
 20
0.0
 30
0.0
210
0.0
220
0.0
230
1.0
  2
ANSI37
 70
     0
 71
     0
 91
       11
 92
        7
 72
     1
 73
     1
 93
        9
 10
23288.7542716365
 20
2353.708169739473
 42
0.0
 10
23243.45924740864
 20
2353.708169739473
 42
0.0
 10
23243.45924740864
 20
2386.571742530414
 42
0.0
 10
23009.41346369152
 20
2386.571742530414
 42
0.0
 10
23009.41346369152
 20
2172.966758053128
 42
0.0
 10
23052.9363381511
 20
2172.966758053128
 42
0.0
 10
23052.93633815111
 20
2243.887478321964
 42
-0.2608604086290961
 10
23069.78419832813
 20
2274.369121930997
 42
-0.1027871237343226
 10
23288.7542716365
 20
2334.375656730401
 42
0.0
 97
        0
 92
        7
 72
     1
 73
     1
 93
       14
 10
23609.39173141222
 20
2386.571742530414
 42
0.0
 10
23366.80067793469
 20
2386.571742530414
 42
0.0
 10
23366.80067793469
 20
2353.708169739473
 42
0.0
 10
23323.40523295769
 20
2353.708169739474
 42
0.0
 10
23323.4052329577
 20
2334.257914368095
 42
-0.0985991186370992
 10
23548.47572701479
 20
2274.369121931249
 42
-0.2663200096837265
 10
23565.3122121602
 20
2243.159637080483
 42
0.0
 10
23565.3122121602
 20
1490.280674752013
 42
0.0
 10
23609.39173141221
 20
1490.280674752012
 42
0.0
 10
23609.39173141222
 20
2308.472741187351
 42
0.0
 10
23623.64336990246
 20
2308.472741187351
 42
0.0
 10
23623.64336990246
 20
2333.681899820119
 42
0.0
 10
23623.64336990245
 20
2336.551236042668
 42
0.0
 10
23609.39173141222
 20
2336.551236042668
 42
0.0
 97
        0
 92
        7
 72
     0
 73
     1
 93
       10
 10
23052.93633815111
 20
2172.966758053128
 10
23049.01316660941
 20
2172.966758053127
 10
23049.01316660941
 20
2164.150612104926
 10
23009.41346369152
 20
2164.150612104926
 10
23009.41346369152
 20
1364.77854220931
 10
23016.41870502024
 20
1364.77854220931
 10
23016.41870502024
 20
1368.762269736136
 10
23029.66376665722
 20
1368.762269736136
 10
23029.66376665722
 20
1373.970905647007
 10
23052.9363381511
 20
1373.970905647007
 97
        0
 92
        7
 72
     0
 73
     1
 93
       10
 10
23052.93633815111
 20
1316.819388977144
 10
23029.66376665722
 20
1316.819388977144
 10
23029.66376665722
 20
1320.07228244404
 10
23016.41870502024
 20
1320.07228244404
 10
23016.41870502024
 20
1322.949417409836
 10
23009.41346369152
 20
1322.949417409836
 10
23009.41346369152
 20
1063.671472441978
 10
23041.84851640358
 20
1063.671472441978
 10
23041.84851640358
 20
1026.02887332181
 10
23052.9363381511
 20
1026.02887332181
 97
        0
 92
        7
 72
     1
 73
     1
 93
        9
 10
23055.23402884989
 20
901.3309909888585
 42
0.0
 10
23043.03768254039
 20
901.3309909888585
 42
0.0
 10
23043.03768254039
 20
867.088090461668
 42
0.0
 10
23009.41346369152
 20
867.0880904616678
 42
0.0
 10
23009.41346369152
 20
648.051120994558
 42
0.0
 10
23059.623439654
 20
648.051120994558
 42
0.0
 10
23059.623439654
 20
720.3781212252893
 42
-0.2238027544372029
 10
23068.16081934316
 20
724.1463208948751
 42
-0.1061959415747009
 10
23055.23402884989
 20
747.595627930717
 42
0.0
 97
        0
 92
        7
 72
     1
 73
     1
 93
        4
 10
23305.12996267166
 20
666.5262918728721
 42
-0.0910423282996161
 10
23101.95493872782
 20
703.7653885451316
 42
0.0
 10
23101.95493872782
 20
648.0511209945581
 42
0.0
 10
23305.12996267166
 20
648.051120994558
 42
0.0
 97
        0
 92
        7
 72
     1
 73
     1
 93
        8
 10
23609.39173141222
 20
663.7174944251574
 42
0.0
 10
23622.09873325653
 20
663.7174944251573
 42
0.0
 10
23622.09873325653
 20
676.6988088600006
 42
0.0
 10
23535.644680434
 20
676.6988088600006
 42
-0.2858925313417037
 10
23497.19650064507
 20
699.8053896611465
 42
-0.0858373582180219
 10
23305.12996267166
 20
666.5262918728721
 42
0.0
 10
23305.12996267166
 20
648.051120994558
 42
0.0
 10
23609.39173141222
 20
648.051120994558
 42
0.0
 97
        0
 92
        7
 72
     1
 73
     1
 93
        7
 10
23609.39173141222
 20
891.5032728948962
 42
0.0
 10
23565.3122121602
 20
891.5032728948961
 42
0.0
 10
23565.3122121602
 20
748.3169670238372
 42
-0.1985438529784265
 10
23537.87803153599
 20
716.1081735152884
 42
-0.0130559549223098
 10
23510.29654628232
 20
704.6621674314588
 42
0.2619910644211594
 10
23535.25564504517
 20
689.6801232948437
 42
0.0
 10
23609.39173141222
 20
689.6801232948437
 42
0.0
 97
        0
 92
        7
 72
     0
 73
     1
 93
        4
 10
23609.39173141222
 20
1066.448946091406
 10
23565.3122121602
 20
1066.448946091406
 10
23565.3122121602
 20
926.2930498037302
 10
23609.39173141221
 20
926.2930498037304
 97
        0
 92
        7
 72
     0
 73
     1
 93
        4
 10
23609.39173141222
 20
1293.536769552019
 10
23565.31221216021
 20
1293.536769552019
 10
23565.31221216021
 20
1090.272067133471
 10
23609.39173141221
 20
1090.272067133471
 97
        0
 92
        7
 72
     0
 73
     1
 93
        4
 10
23609.39173141222
 20
1462.113870898989
 10
23565.31221216021
 20
1462.113870898987
 10
23565.31221216021
 20
1327.037204828478
 10
23609.39173141222
 20
1327.037204828478
 97
        0
 75
     0
 76
     1
 52
0.0
 41
5.0
 77
     0
 78
     2
 53
45.0
 43
23009.41346369152
 44
648.051120994558
 45
-11.22532015133644
 46
11.22532015133644
 79
     0
 53
135.0
 43
23009.41346369152
 44
648.051120994558
 45
-11.22532015133644
 46
-11.22532015133644
 79
     0
 47
4.093563646543395
 98
       11
 10
23089.91300822729
 20
2340.13325395263
 10
23434.12873056336
 20
2360.601065079025
 10
23028.44593220029
 20
1996.273900299786
 10
23028.44593220029
 20
1157.093352639951
 10
23024.34811955654
 20
760.0176773855401
 10
23155.47792530536
 20
665.8657081852998
 10
23450.51995273104
 20
661.7721459600216
 10
23589.84535536004
 20
735.4562913609243
 10
23589.84535536004
 20
1017.912186288702
 10
23606.23660593505
 20
1206.21611201624
 10
23585.74757112361
 20
1382.239351067941
1001
ACAD
1010
0.0
1020
0.0
1030
0.0
1001
AcDbBlockRepETag
1070
     1
1071
        2
1005
4130
  0
LWPOLYLINE
  5
4131
330
3D45
100
AcDbEntity
  8
0
 48
0.13
100
AcDbPolyline
 90
        2
 70
     0
 43
0.0
 10
23609.39173141222
 20
1462.113870898988
 10
23609.39173141222
 20
1327.037204828478
1001
AcDbBlockRepETag
1070
     1
1071
        3
1005
4131
  0
LWPOLYLINE
  5
4132
330
3D45
100
AcDbEntity
  8
0
 48
0.13
100
AcDbPolyline
 90
        2
 70
     0
 43
0.0
 10
23609.39173141222
 20
1293.536769552019
 10
23609.39173141222
 20
1090.272067133471
1001
AcDbBlockRepETag
1070
     1
1071
        4
1005
4132
  0
LWPOLYLINE
  5
4133
330
3D45
100
AcDbEntity
  8
0
 48
0.13
100
AcDbPolyline
 90
        2
 70
     0
 43
0.0
 10
23609.39173141222
 20
1066.448946091406
 10
23609.39173141222
 20
926.2930498037304
1001
AcDbBlockRepETag
1070
     1
1071
        5
1005
4133
  0
LWPOLYLINE
  5
4134
330
3D45
100
AcDbEntity
  8
0
 48
0.13
100
AcDbPolyline
 90
        2
 70
     0
 43
0.0
 10
23609.39173141222
 20
891.5032728948966
 10
23609.39173141222
 20
689.6801232948437
1001
AcDbBlockRepETag
1070
     1
1071
        6
1005
4134
  0
LWPOLYLINE
  5
4135
330
3D45
100
AcDbEntity
  8
0
 48
0.13
100
AcDbPolyline
 90
        3
 70
     0
 43
0.0
 10
23609.39173141222
 20
663.7174944251574
 10
23609.39173141222
 20
648.051120994558
 10
23101.95493872782
 20
648.051120994558
1001
AcDbBlockRepETag
1070
     1
1071
        7
1005
4135
  0
LWPOLYLINE
  5
4136
330
3D45
100
AcDbEntity
  8
0
 48
0.13
100
AcDbPolyline
 90
        3
 70
     0
 43
0.0
 10
23059.623439654
 20
648.051120994558
 10
23009.41346369152
 20
648.051120994558
 10
23009.41346369152
 20
1322.949417409836
1001
AcDbBlockRepETag
1070
     1
1071
        8
1005
4136
  0
ARC
  5
4137
330
3D45
100
AcDbEntity
  8
0
 48
0.13
100
AcDbCircle
 10
23309.40259755187
 20
966.4332754283323
 30
0.0
 40
1451.477435641813
100
AcDbArc
 50
78.07222731181756
 51
101.9277726881827
1001
AcDbBlockRepETag
1070
     1
1071
        9
1005
4137
  0
LWPOLYLINE
  5
4138
330
3D45
100
AcDbEntity
  8
0
 48
0.13
100
AcDbPolyline
 90
        4
 70
     1
 43
0.0
 10
23243.45924740864
 20
2386.571742530414
 10
23366.80067793469
 20
2386.571742530414
 10
23366.80067793469
 20
2353.708169739473
 10
23243.45924740864
 20
2353.708169739473
1001
AcDbBlockRepETag
1070
     1
1071
       10
1005
4138
  0
LINE
  5
4139
330
3D45
100
AcDbEntity
  8
0
 48
0.13
100
AcDbLine
 10
23243.45924740864
 20
2361.614892444674
 30
0.0
 11
23273.7542716365
 21
2361.614892444674
 31
0.0
1001
AcDbBlockRepETag
1070
     1
1071
       11
1005
4139
  0
LINE
  5
413A
330
3D45
100
AcDbEntity
  8
0
 48
0.13
100
AcDbLine
 10
23307.87029163557
 20
2361.614892444674
 30
0.0
 11
23366.80067793469
 21
2361.614892444674
 31
0.0
1001
AcDbBlockRepETag
1070
     1
1071
       12
1005
413A
  0
LWPOLYLINE
  5
413B
330
3D45
100
AcDbEntity
  8
0
 48
0.13
100
AcDbPolyline
 90
        4
 70
     1
 43
0.0
 10
23288.7542716365
 20
2370.339553821817
 10
23322.87029163557
 20
2370.339553821817
 10
23322.87029163557
 20
2353.708169739473
 10
23288.7542716365
 20
2353.708169739473
1001
AcDbBlockRepETag
1070
     1
1071
       13
1005
413B
  0
LWPOLYLINE
  5
413C
330
3D45
100
AcDbEntity
  8
0
 48
0.13
100
AcDbPolyline
 90
        4
 70
     1
 43
0.0
 10
23288.7542716365
 20
2353.708169739473
 10
23323.4052329577
 20
2353.708169739473
 10
23323.4052329577
 20
2334.375656730401
 10
23288.7542716365
 20
2334.375656730401
1001
AcDbBlockRepETag
1070
     1
1071
       14
1005
413C
  0
ARC
  5
413D
330
3D45
100
AcDbEntity
  8
0
 48
0.13
100
AcDbCircle
 10
23323.67582997352
 20
1777.417736855892
 30
0.0
 40
558.0516461293041
100
AcDbArc
 50
93.58777920952234
 51
117.062413015271
1001
AcDbBlockRepETag
1070
     1
1071
       15
1005
413D
  0
LINE
  5
413E
330
3D45
100
AcDbEntity
  8
0
 48
0.13
100
AcDbLine
 10
23052.93633815111
 20
2243.887478321964
 30
0.0
 11
23052.93633815111
 21
1374.492921334551
 31
0.0
1001
AcDbBlockRepETag
1070
     1
1071
       16
1005
413E
  0
ARC
  5
413F
330
3D45
100
AcDbEntity
  8
0
 48
0.13
100
AcDbCircle
 10
23088.58500523278
 20
2244.080602302171
 30
0.0
 40
35.64919019517852
100
AcDbArc
 50
121.8288614250842
 51
180.3103925517418
1001
AcDbBlockRepETag
1070
     1
1071
       17
1005
413F
  0
LINE
  5
4140
330
3D45
100
AcDbEntity
  8
0
 48
0.13
100
AcDbLine
 10
22999.67191200142
 20
2196.087967658801
 30
0.0
 11
22999.67191200142
 21
2144.00172240768
 31
0.0
1001
AcDbBlockRepETag
1070
     1
1071
       18
1005
4140
  0
LINE
  5
4141
330
3D45
100
AcDbEntity
  8
0
 48
0.13
100
AcDbLine
 10
22999.67191200142
 20
2144.00172240768
 30
0.0
 11
23009.41346369152
 21
2144.00172240768
 31
0.0
1001
AcDbBlockRepETag
1070
     1
1071
       19
1005
4141
  0
LINE
  5
4142
330
3D45
100
AcDbEntity
  8
0
 48
0.13
100
AcDbLine
 10
22999.67191200142
 20
2196.087967658801
 30
0.0
 11
23009.41346369152
 21
2202.439950782966
 31
0.0
1001
AcDbBlockRepETag
1070
     1
1071
       20
1005
4142
  0
LINE
  5
4143
330
3D45
100
AcDbEntity
  8
0
  6
ACAD_ISO04W100
 48
3.0
100
AcDbLine
 10
23068.34440605661
 20
2172.966758053128
 30
0.0
 11
22979.07016298729
 21
2172.966758053128
 31
0.0
1001
AcDbBlockRepETag
1070
     1
1071
       21
1005
4143
  0
LINE
  5
4144
330
3D45
100
AcDbEntity
  8
0
 48
0.13
100
AcDbLine
 10
23009.41346369152
 20
2164.150612104926
 30
0.0
 11
23049.01316660941
 21
2164.150612104926
 31
0.0
1001
AcDbBlockRepETag
1070
     1
1071
       22
1005
4144
  0
LINE
  5
4145
330
3D45
100
AcDbEntity
  8
0
 48
0.13
100
AcDbLine
 10
23049.01316660941
 20
2164.150612104926
 30
0.0
 11
23049.01316660941
 21
2172.966758053128
 31
0.0
1001
AcDbBlockRepETag
1070
     1
1071
       23
1005
4145
  0
LWPOLYLINE
  5
4146
330
3D45
100
AcDbEntity
  8
0
 48
0.13
100
AcDbPolyline
 90
        4
 70
     1
 43
0.0
 10
23029.66376665722
 20
1373.970905647007
 10
23073.59909274391
 20
1373.970905647007
 10
23073.59909274391
 20
1316.819388977144
 10
23029.66376665722
 20
1316.819388977144
1001
AcDbBlockRepETag
1070
     1
1071
       24
1005
4146
  0
LWPOLYLINE
  5
4147
330
3D45
100
AcDbEntity
  8
0
 48
0.13
100
AcDbPolyline
 90
        4
 70
     1
 43
0.0
 10
23029.66376665722
 20
1368.762269736136
 10
23016.41870502024
 20
1368.762269736136
 10
23016.41870502024
 20
1320.07228244404
 10
23029.66376665722
 20
1320.07228244404
1001
AcDbBlockRepETag
1070
     1
1071
       25
1005
4147
  0
LWPOLYLINE
  5
4148
330
3D45
100
AcDbEntity
  8
0
 48
0.13
100
AcDbPolyline
 90
        4
 70
     1
 43
0.0
 10
23016.41870502024
 20
1364.77854220931
 10
23004.01204937566
 20
1364.77854220931
 10
23004.01204937566
 20
1322.949417409836
 10
23016.41870502024
 20
1322.949417409836
1001
AcDbBlockRepETag
1070
     1
1071
       26
1005
4148
  0
LWPOLYLINE
  5
4149
330
3D45
100
AcDbEntity
  8
0
 48
0.13
100
AcDbPolyline
 90
        4
 70
     1
 43
0.0
 10
22994.70705963613
 20
1374.959178826971
 10
23004.01204937566
 20
1374.959178826971
 10
23004.01204937566
 20
1311.219556188003
 10
22994.70705963613
 20
1311.219556188003
1001
AcDbBlockRepETag
1070
     1
1071
       27
1005
4149
  0
LWPOLYLINE
  5
414A
330
3D45
100
AcDbEntity
  8
0
 48
0.13
100
AcDbPolyline
 90
        4
 70
     1
 43
0.0
 10
22985.4020698966
 20
1374.959178826971
 10
22994.70705963613
 20
1374.959178826971
 10
22994.70705963613
 20
1311.219556188003
 10
22985.4020698966
 20
1311.219556188003
1001
AcDbBlockRepETag
1070
     1
1071
       28
1005
414A
  0
LINE
  5
414B
330
3D45
100
AcDbEntity
  8
0
  6
ACAD_ISO04W100
 48
3.0
100
AcDbLine
 10
23084.10991768279
 20
1345.395147312076
 30
0.0
 11
22933.44606147378
 21
1345.395147312076
 31
0.0
1001
AcDbBlockRepETag
1070
     1
1071
       29
1005
414B
  0
LWPOLYLINE
  5
414C
330
3D45
100
AcDbEntity
  8
0
 48
0.13
100
AcDbPolyline
 90
        6
 70
     1
 43
0.0
 10
22964.03054440278
 20
1063.671472441978
 10
22970.64396782043
 20
1063.671472441978
 10
22970.64396782043
 20
864.6521251806321
 10
22964.03054440278
 20
864.6521251806321
 42
-0.414213562373095
 10
22960.03054440278
 20
868.6521251806321
 10
22960.03054440278
 20
1059.671472441978
 42
-0.414213562373095
1001
AcDbBlockRepETag
1070
     1
1071
       30
1005
414C
  0
HATCH
  5
414D
330
3D45
100
AcDbEntity
  8
Trazo
 48
0.13
100
AcDbHatch
 10
0.0
 20
0.0
 30
0.0
210
0.0
220
0.0
230
1.0
  2
ANSI37
 70
     0
 71
     0
 91
        2
 92
        7
 72
     0
 73
     1
 93
        4
 10
22993.90393782206
 20
1063.671472441978
 10
22970.64396782043
 20
1063.671472441978
 10
22970.64396782043
 20
963.6799321553343
 10
22993.90393782206
 20
963.6799321553342
 97
        0
 92
        7
 72
     0
 73
     1
 93
        4
 10
22993.90393782206
 20
963.6799321553343
 10
22970.64396782043
 20
963.6799321553343
 10
22970.64396782043
 20
864.6521251806323
 10
22993.90393782206
 20
864.6521251806323
 97
        0
 75
     0
 76
     1
 52
0.0
 41
2.0
 77
     0
 78
     2
 53
45.0
 43
22970.64396782043
 44
864.6521251806323
 45
-4.490128060534576
 46
4.490128060534577
 79
     0
 53
135.0
 43
22970.64396782043
 44
864.6521251806323
 45
-4.490128060534577
 46
-4.490128060534576
 79
     0
 47
1.210842403987217
 98
        2
 10
22982.0057647602
 20
995.5384220523083
 10
22984.42995244212
 20
938.6288223038482
1001
ACAD
1010
0.0
1020
0.0
1030
0.0
1001
AcDbBlockRepETag
1070
     1
1071
       31
1005
414D
  0
LWPOLYLINE
  5
414E
330
3D45
100
AcDbEntity
  8
0
 48
0.13
100
AcDbPolyline
 90
        4
 70
     1
 43
0.0
 10
22970.64396782043
 20
864.6521251806321
 10
22993.90393782206
 20
864.6521251806321
 10
22993.90393782206
 20
1063.671472441978
 10
22970.64396782043
 20
1063.671472441978
1001
AcDbBlockRepETag
1070
     1
1071
       32
1005
414E
  0
LINE
  5
414F
330
3D45
100
AcDbEntity
  8
0
 48
0.13
100
AcDbLine
 10
22993.90393782206
 20
864.6521251806321
 30
0.0
 11
23009.41346369152
 21
864.6521251806321
 31
0.0
1001
AcDbBlockRepETag
1070
     1
1071
       33
1005
414F
  0
LINE
  5
4150
330
3D45
100
AcDbEntity
  8
0
 48
0.13
100
AcDbLine
 10
22993.90393782206
 20
886.0175796356348
 30
0.0
 11
23009.41346369152
 21
886.0175796356348
 31
0.0
1001
AcDbBlockRepETag
1070
     1
1071
       34
1005
4150
  0
LINE
  5
4151
330
3D45
100
AcDbEntity
  8
0
 48
0.13
100
AcDbLine
 10
22993.90393782206
 20
1063.671472441978
 30
0.0
 11
23009.41346369152
 21
1063.671472441978
 31
0.0
1001
AcDbBlockRepETag
1070
     1
1071
       35
1005
4151
  0
LINE
  5
4152
330
3D45
100
AcDbEntity
  8
0
 48
0.13
100
AcDbLine
 10
22993.90393782206
 20
1044.778745036375
 30
0.0
 11
23009.41346369152
 21
1044.778745036375
 31
0.0
1001
AcDbBlockRepETag
1070
     1
1071
       36
1005
4152
  0
LINE
  5
4153
330
3D45
100
AcDbEntity
  8
0
 48
0.13
100
AcDbLine
 10
23009.41346369152
 20
1063.671472441978
 30
0.0
 11
23041.84851640358
 21
1063.671472441978
 31
0.0
1001
AcDbBlockRepETag
1070
     1
1071
       37
1005
4153
  0
LINE
  5
4154
330
3D45
100
AcDbEntity
  8
0
 48
0.13
100
AcDbLine
 10
23041.84851640358
 20
1063.671472441978
 30
0.0
 11
23041.84851640358
 21
1026.02887332181
 31
0.0
1001
AcDbBlockRepETag
1070
     1
1071
       38
1005
4154
  0
LINE
  5
4155
330
3D45
100
AcDbEntity
  8
0
 48
0.13
100
AcDbLine
 10
23062.88827893258
 20
1026.02887332181
 30
0.0
 11
23009.41346369152
 21
1026.02887332181
 31
0.0
1001
AcDbBlockRepETag
1070
     1
1071
       39
1005
4155
  0
LINE
  5
4156
330
3D45
100
AcDbEntity
  8
0
 48
0.13
100
AcDbLine
 10
23052.93633815111
 20
1316.819388977144
 30
0.0
 11
23052.93633815111
 21
1026.02887332181
 31
0.0
1001
AcDbBlockRepETag
1070
     1
1071
       40
1005
4156
  0
LINE
  5
4157
330
3D45
100
AcDbEntity
  8
0
 48
0.13
100
AcDbLine
 10
23062.88827893258
 20
1026.02887332181
 30
0.0
 11
23062.88827893258
 21
901.3309909888585
 31
0.0
1001
AcDbBlockRepETag
1070
     1
1071
       41
1005
4157
  0
LINE
  5
4158
330
3D45
100
AcDbEntity
  8
0
 48
0.13
100
AcDbLine
 10
23062.88827893258
 20
901.3309909888585
 30
0.0
 11
23009.41346369152
 21
901.3309909888585
 31
0.0
1001
AcDbBlockRepETag
1070
     1
1071
       42
1005
4158
  0
LINE
  5
4159
330
3D45
100
AcDbEntity
  8
0
 48
0.13
100
AcDbLine
 10
23027.35594691087
 20
1016.470713921867
 30
0.0
 11
23027.35594691087
 21
913.399247633045
 31
0.0
1001
AcDbBlockRepETag
1070
     1
1071
       43
1005
4159
  0
LINE
  5
415A
330
3D45
100
AcDbEntity
  8
0
 48
0.13
100
AcDbLine
 10
23027.35594691087
 20
913.399247633045
 30
0.0
 11
23009.41346369152
 21
905.6303780011585
 31
0.0
1001
AcDbBlockRepETag
1070
     1
1071
       44
1005
415A
  0
LINE
  5
415B
330
3D45
100
AcDbEntity
  8
0
 48
0.13
100
AcDbLine
 10
23027.35594691087
 20
1016.470713921867
 30
0.0
 11
23009.41346369152
 21
1024.239583553753
 31
0.0
1001
AcDbBlockRepETag
1070
     1
1071
       45
1005
415B
  0
LINE
  5
415C
330
3D45
100
AcDbEntity
  8
0
  6
ACAD_ISO04W100
 48
3.0
100
AcDbLine
 10
23078.77405505357
 20
963.6799321553343
 30
0.0
 11
22942.80203142757
 21
963.6799321553343
 31
0.0
1001
AcDbBlockRepETag
1070
     1
1071
       46
1005
415C
  0
LINE
  5
415D
330
3D45
100
AcDbEntity
  8
0
 48
0.13
100
AcDbLine
 10
23055.23402884989
 20
901.3309909888585
 30
0.0
 11
23055.23402884989
 21
747.595627930717
 31
0.0
1001
AcDbBlockRepETag
1070
     1
1071
       47
1005
415D
  0
LWPOLYLINE
  5
415E
330
3D45
100
AcDbEntity
  8
0
 48
0.13
100
AcDbPolyline
 90
        4
 70
     1
 43
0.0
 10
23009.41346369152
 20
901.3309909888585
 10
23043.03768254039
 20
901.3309909888585
 10
23043.03768254039
 20
867.0880904616679
 10
23009.41346369152
 20
867.0880904616679
1001
AcDbBlockRepETag
1070
     1
1071
       48
1005
415E
  0
ARC
  5
415F
330
3D45
100
AcDbEntity
  8
0
 48
0.13
100
AcDbCircle
 10
23116.27779530174
 20
765.9592419482228
 30
0.0
 40
63.7460880557509
100
AcDbArc
 50
196.742706298279
 51
256.5213477486282
1001
AcDbBlockRepETag
1070
     1
1071
       49
1005
415F
  0
LINE
  5
4160
330
3D45
100
AcDbEntity
  8
0
 48
0.13
100
AcDbLine
 10
23059.623439654
 20
720.3781212252893
 30
0.0
 11
23059.623439654
 21
624.1538231674544
 31
0.0
1001
AcDbBlockRepETag
1070
     1
1071
       50
1005
4160
  0
LINE
  5
4161
330
3D45
100
AcDbEntity
  8
0
 48
0.13
100
AcDbLine
 10
23059.623439654
 20
624.1538231674544
 30
0.0
 11
23069.17653522977
 21
624.1538231674544
 31
0.0
1001
AcDbBlockRepETag
1070
     1
1071
       51
1005
4161
  0
LINE
  5
4162
330
3D45
100
AcDbEntity
  8
0
 48
0.13
100
AcDbLine
 10
23093.22026222065
 20
624.1538231674544
 30
0.0
 11
23101.95493872782
 21
624.1538231674544
 31
0.0
1001
AcDbBlockRepETag
1070
     1
1071
       52
1005
4162
  0
LINE
  5
4163
330
3D45
100
AcDbEntity
  8
0
 48
0.13
100
AcDbLine
 10
23101.95493872782
 20
624.1538231674544
 30
0.0
 11
23101.95493872782
 21
703.735792437916
 31
0.0
1001
AcDbBlockRepETag
1070
     1
1071
       53
1005
4163
  0
ARC
  5
4164
330
3D45
100
AcDbEntity
  8
0
 48
0.13
100
AcDbCircle
 10
23304.95251307136
 20
1238.435089726392
 30
0.0
 40
571.9088253826991
100
AcDbArc
 50
249.1524050746269
 51
294.0339173853034
1001
AcDbBlockRepETag
1070
     1
1071
       54
1005
4164
  0
ARC
  5
4165
330
3D45
100
AcDbEntity
  8
0
 48
0.13
100
AcDbCircle
 10
23067.89058265227
 20
713.2031701244542
 30
0.0
 40
10.94648695487585
100
AcDbArc
 50
88.58539136023214
 51
139.0456915633046
1001
AcDbBlockRepETag
1070
     1
1071
       55
1005
4165
  0
LINE
  5
4166
330
3D45
100
AcDbEntity
  8
0
 48
0.13
100
AcDbLine
 10
23059.623439654
 20
641.3528506940484
 30
0.0
 11
23101.95493872782
 21
641.3528506940467
 31
0.0
1001
AcDbBlockRepETag
1070
     1
1071
       56
1005
4166
  0
ARC
  5
4167
330
3D45
100
AcDbEntity
  8
0
 48
0.13
100
AcDbCircle
 10
23081.19839872521
 20
622.0459074587984
 30
0.0
 40
12.2052656889471
100
AcDbArc
 50
9.945156118243057
 51
170.054843881754
1001
AcDbBlockRepETag
1070
     1
1071
       57
1005
4167
  0
LINE
  5
4168
330
3D45
100
AcDbEntity
  8
0
 48
0.13
100
AcDbLine
 10
23081.19839872521
 20
622.0459074587984
 30
0.0
 11
23081.19839872521
 21
655.227867129779
 31
0.0
1001
AcDbBlockRepETag
1070
     1
1071
       58
1005
4168
  0
LWPOLYLINE
  5
4169
330
3D45
100
AcDbEntity
  8
0
 48
0.13
100
AcDbPolyline
 90
        4
 70
     1
 43
0.0
 10
23288.7542716365
 20
2334.375656730401
 10
23319.39934617787
 20
2334.375656730401
 10
23319.39934617787
 20
1375.151000396466
 10
23288.7542716365
 20
1375.151000396466
1001
AcDbBlockRepETag
1070
     1
1071
       59
1005
4169
  0
LINE
  5
416A
330
3D45
100
AcDbEntity
  8
0
  6
ACAD_ISO04W100
 48
3.0
100
AcDbLine
 10
23305.12996267166
 20
648.051120994558
 30
0.0
 11
23305.12996267166
 21
2443.189530413482
 31
0.0
1001
AcDbBlockRepETag
1070
     1
1071
       60
1005
416A
  0
LWPOLYLINE
  5
416B
330
3D45
100
AcDbEntity
  8
0
 48
0.13
100
AcDbPolyline
 90
        4
 70
     1
 43
0.0
 10
23399.05125947262
 20
648.051120994558
 10
23475.66877108099
 20
648.051120994558
 10
23475.66877108099
 20
624.3845947058112
 10
23399.05125947262
 20
624.3845947058112
1001
AcDbBlockRepETag
1070
     1
1071
       61
1005
416B
  0
LINE
  5
416C
330
3D45
100
AcDbEntity
  8
0
 48
0.13
100
AcDbLine
 10
23535.25564504517
 20
689.6801232948437
 30
0.0
 11
23638.26295450273
 21
689.6801232948437
 31
0.0
1001
AcDbBlockRepETag
1070
     1
1071
       62
1005
416C
  0
LINE
  5
416D
330
3D45
100
AcDbEntity
  8
0
 48
0.13
100
AcDbLine
 10
23638.26295450273
 20
689.6801232948437
 30
0.0
 11
23638.26295450273
 21
663.7174944251574
 31
0.0
1001
AcDbBlockRepETag
1070
     1
1071
       63
1005
416D
  0
LINE
  5
416E
330
3D45
100
AcDbEntity
  8
0
 48
0.13
100
AcDbLine
 10
23638.26295450273
 20
663.7174944251574
 30
0.0
 11
23526.38117173018
 21
663.7174944251574
 31
0.0
1001
AcDbBlockRepETag
1070
     1
1071
       64
1005
416E
  0
LINE
  5
416F
330
3D45
100
AcDbEntity
  8
0
 48
0.13
100
AcDbLine
 10
23622.09873325653
 20
663.7174944251574
 30
0.0
 11
23622.09873325653
 21
689.6801232948437
 31
0.0
1001
AcDbBlockRepETag
1070
     1
1071
       65
1005
416F
  0
LINE
  5
4170
330
3D45
100
AcDbEntity
  8
0
  6
ACAD_ISO04W100
 48
3.0
100
AcDbLine
 10
23638.26295450273
 20
676.6988088600006
 30
0.0
 11
23534.30480662466
 21
676.6988088600006
 31
0.0
1001
AcDbBlockRepETag
1070
     1
1071
       66
1005
4170
  0
ARC
  5
4171
330
3D45
100
AcDbEntity
  8
0
 48
0.13
100
AcDbCircle
 10
23536.09113646305
 20
719.353126360582
 30
0.0
 40
29.68476304181435
100
AcDbArc
 50
212.448475586782
 51
268.3871707366627
1001
AcDbBlockRepETag
1070
     1
1071
       67
1005
4171
  0
ARC
  5
4172
330
3D45
100
AcDbEntity
  8
0
  6
ACAD_ISO04W100
 48
3.0
100
AcDbCircle
 10
23534.97474352921
 20
719.1252698139115
 30
0.0
 40
42.43174995837589
100
AcDbArc
 50
209.7387128849812
 51
269.0953436487407
1001
AcDbBlockRepETag
1070
     1
1071
       68
1005
4172
  0
ARC
  5
4173
330
3D45
100
AcDbEntity
  8
0
 48
0.13
100
AcDbCircle
 10
23540.50680333265
 20
727.1913047341218
 30
0.0
 40
65.02659504623374
100
AcDbArc
 50
211.5691790612968
 51
257.4536968598534
1001
AcDbBlockRepETag
1070
     1
1071
       69
1005
4173
  0
LINE
  5
4174
330
3D45
100
AcDbEntity
  8
0
 48
0.13
100
AcDbLine
 10
23467.84260633647
 20
706.4169679670349
 30
0.0
 11
23504.06362586152
 21
722.8077923166006
 31
0.0
1001
AcDbBlockRepETag
1070
     1
1071
       70
1005
4174
  0
LINE
  5
4175
330
3D45
100
AcDbEntity
  8
0
 48
0.13
100
AcDbLine
 10
23518.94150107944
 20
706.9353399163151
 30
0.0
 11
23518.94150107944
 21
718.1688819802262
 31
0.0
1001
AcDbBlockRepETag
1070
     1
1071
       71
1005
4175
  0
ARC
  5
4176
330
3D45
100
AcDbEntity
  8
0
 48
0.13
100
AcDbCircle
 10
23508.35203434853
 20
710.3839859650838
 30
0.0
 40
13.1431127063404
100
AcDbArc
 50
36.32163999803296
 51
109.0434812079961
1001
AcDbBlockRepETag
1070
     1
1071
       72
1005
4176
  0
LINE
  5
4177
330
3D45
100
AcDbEntity
  8
0
 48
0.13
100
AcDbLine
 10
23565.3122121602
 20
891.5032728948963
 30
0.0
 11
23565.3122121602
 21
748.3169670238372
 31
0.0
1001
AcDbBlockRepETag
1070
     1
1071
       73
1005
4177
  0
ARC
  5
4178
330
3D45
100
AcDbEntity
  8
0
 48
0.13
100
AcDbCircle
 10
23512.63756498446
 20
765.3950814800869
 30
0.0
 40
55.3740051691193
100
AcDbArc
 50
297.1175761281757
 51
342.0363275868365
1001
AcDbBlockRepETag
1070
     1
1071
       74
1005
4178
  0
LINE
  5
4179
330
3D45
100
AcDbEntity
  8
0
 48
0.13
100
AcDbLine
 10
23642.92916351978
 20
891.5032728948963
 30
0.0
 11
23508.70462010573
 21
891.5032728948963
 31
0.0
1001
AcDbBlockRepETag
1070
     1
1071
       75
1005
4179
  0
LINE
  5
417A
330
3D45
100
AcDbEntity
  8
0
 48
0.13
100
AcDbLine
 10
23642.92916351978
 20
891.5032728948963
 30
0.0
 11
23642.92916351978
 21
926.2930498037304
 31
0.0
1001
AcDbBlockRepETag
1070
     1
1071
       76
1005
417A
  0
LINE
  5
417B
330
3D45
100
AcDbEntity
  8
0
 48
0.13
100
AcDbLine
 10
23642.92916351978
 20
926.2930498037304
 30
0.0
 11
23506.52800639754
 21
926.2930498037304
 31
0.0
1001
AcDbBlockRepETag
1070
     1
1071
       77
1005
417B
  0
LINE
  5
417C
330
3D45
100
AcDbEntity
  8
0
 48
0.13
100
AcDbLine
 10
23617.17257111372
 20
926.2930498037304
 30
0.0
 11
23617.17257111372
 21
891.5032728948963
 31
0.0
1001
AcDbBlockRepETag
1070
     1
1071
       78
1005
417C
  0
LINE
  5
417D
330
3D45
100
AcDbEntity
  8
0
  6
ACAD_ISO04W100
 48
3.0
100
AcDbLine
 10
23664.65406707766
 20
908.8981613493133
 30
0.0
 11
23513.20966528706
 21
908.8981613493133
 31
0.0
1001
AcDbBlockRepETag
1070
     1
1071
       79
1005
417D
  0
LINE
  5
417E
330
3D45
100
AcDbEntity
  8
0
 48
0.13
100
AcDbLine
 10
23506.52800639754
 20
926.2930498037304
 30
0.0
 11
23182.95265943274
 21
863.644579300447
 31
0.0
1001
AcDbBlockRepETag
1070
     1
1071
       80
1005
417E
  0
LINE
  5
417F
330
3D45
100
AcDbEntity
  8
0
 48
0.13
100
AcDbLine
 10
23508.70462010573
 20
891.5032728948963
 30
0.0
 11
23191.58443576966
 21
832.5562270745262
 31
0.0
1001
AcDbBlockRepETag
1070
     1
1071
       81
1005
417F
  0
ARC
  5
4180
330
3D45
100
AcDbEntity
  8
0
 48
0.13
100
AcDbCircle
 10
23184.83812358138
 20
847.4255885047874
 30
0.0
 40
16.32821599212538
100
AcDbArc
 50
96.63089380085178
 51
294.4040606375215
1001
AcDbBlockRepETag
1070
     1
1071
       82
1005
4180
  0
LINE
  5
4181
330
3D45
100
AcDbEntity
  8
0
 48
0.13
100
AcDbLine
 10
23494.80649145885
 20
970.4283802917607
 30
0.0
 11
23171.23114449404
 21
907.7799097884774
 31
0.0
1001
AcDbBlockRepETag
1070
     1
1071
       83
1005
4181
  0
LINE
  5
4182
330
3D45
100
AcDbEntity
  8
0
 48
0.13
100
AcDbLine
 10
23496.98310516704
 20
935.6386033829267
 30
0.0
 11
23179.86292083096
 21
874.36765340281
 31
0.0
1001
AcDbBlockRepETag
1070
     1
1071
       84
1005
4182
  0
ARC
  5
4183
330
3D45
100
AcDbEntity
  8
0
 48
0.13
100
AcDbCircle
 10
23496.3035148413
 20
953.0590630849196
 30
0.0
 40
17.43371042662663
100
AcDbArc
 50
272.2340353567409
 51
94.92602433982547
1001
AcDbBlockRepETag
1070
     1
1071
       85
1005
4183
  0
ARC
  5
4184
330
3D45
100
AcDbEntity
  8
0
 48
0.13
100
AcDbCircle
 10
23172.01934810168
 20
890.1624338625011
 30
0.0
 40
17.63509917549171
100
AcDbArc
 50
92.56169750711052
 51
296.40865944744
1001
AcDbBlockRepETag
1070
     1
1071
       86
1005
4184
  0
LINE
  5
4185
330
3D45
100
AcDbEntity
  8
0
 48
0.13
100
AcDbLine
 10
23205.73039987973
 20
868.5053096556289
 30
0.0
 11
23260.56359118648
 21
891.5890366648338
 31
0.0
1001
AcDbBlockRepETag
1070
     1
1071
       87
1005
4185
  0
LINE
  5
4186
330
3D45
100
AcDbEntity
  8
0
 48
0.13
100
AcDbLine
 10
23457.02343792962
 20
927.1112796136578
 30
0.0
 11
23468.24163179807
 21
918.1228037848781
 31
0.0
1001
AcDbBlockRepETag
1070
     1
1071
       88
1005
4186
  0
LINE
  5
4187
330
3D45
100
AcDbEntity
  8
0
 48
0.13
100
AcDbLine
 10
23171.23114449404
 20
907.7799097884767
 30
0.0
 11
23447.78042400749
 21
1027.912641299064
 31
0.0
1001
AcDbBlockRepETag
1070
     1
1071
       89
1005
4187
  0
LINE
  5
4188
330
3D45
100
AcDbEntity
  8
0
 48
0.13
100
AcDbLine
 10
23318.01881797644
 20
939.1041450401191
 30
0.0
 11
23517.08966828742
 21
1019.404059441275
 31
0.0
1001
AcDbBlockRepETag
1070
     1
1071
       90
1005
4188
  0
LINE
  5
4189
330
3D45
100
AcDbEntity
  8
0
 48
0.13
100
AcDbLine
 10
23177.91327995805
 20
1053.806753060652
 30
0.0
 11
23518.46875754527
 21
1020.281702030072
 31
0.0
1001
AcDbBlockRepETag
1070
     1
1071
       91
1005
4189
  0
LINE
  5
418A
330
3D45
100
AcDbEntity
  8
0
 48
0.13
100
AcDbLine
 10
23175.28803495489
 20
1090.897927689449
 30
0.0
 11
23513.49762152444
 21
1056.762052678248
 31
0.0
1001
AcDbBlockRepETag
1070
     1
1071
       92
1005
418A
  0
ARC
  5
418B
330
3D45
100
AcDbEntity
  8
0
 48
0.13
100
AcDbCircle
 10
23506.69730895271
 20
1037.256500935709
 30
0.0
 40
20.65697944652369
100
AcDbArc
 50
300.2047711066955
 51
70.77967142285361
1001
AcDbBlockRepETag
1070
     1
1071
       93
1005
418B
  0
ARC
  5
418C
330
3D45
100
AcDbEntity
  8
0
 48
0.13
100
AcDbCircle
 10
23184.98377400411
 20
1072.945681919174
 30
0.0
 40
20.40319788432489
100
AcDbArc
 50
118.3728177553491
 51
249.724258786433
1001
AcDbBlockRepETag
1070
     1
1071
       94
1005
418C
  0
LINE
  5
418D
330
3D45
100
AcDbEntity
  8
0
 48
0.13
100
AcDbLine
 10
23175.28803495489
 20
1090.897927689449
 30
0.0
 11
23320.32863301068
 21
1114.016473369057
 31
0.0
1001
AcDbBlockRepETag
1070
     1
1071
       95
1005
418D
  0
LINE
  5
418E
330
3D45
100
AcDbEntity
  8
0
 48
0.13
100
AcDbLine
 10
23312.19184892307
 20
1075.735091470791
 30
0.0
 11
23505.04802220909
 21
1103.858851912694
 31
0.0
1001
AcDbBlockRepETag
1070
     1
1071
       96
1005
418E
  0
LINE
  5
418F
330
3D45
100
AcDbEntity
  8
0
 48
0.13
100
AcDbLine
 10
23433.39359116316
 20
1090.272067133471
 30
0.0
 11
23633.39151773113
 21
1090.272067133471
 31
0.0
1001
AcDbBlockRepETag
1070
     1
1071
       97
1005
418F
  0
LINE
  5
4190
330
3D45
100
AcDbEntity
  8
0
 48
0.13
100
AcDbLine
 10
23633.39151773113
 20
1090.272067133471
 30
0.0
 11
23633.39151773113
 21
1066.448946091406
 31
0.0
1001
AcDbBlockRepETag
1070
     1
1071
       98
1005
4190
  0
LINE
  5
4191
330
3D45
100
AcDbEntity
  8
0
 48
0.13
100
AcDbLine
 10
23633.39151773113
 20
1066.448946091406
 30
0.0
 11
23426.03557717863
 21
1066.448946091406
 31
0.0
1001
AcDbBlockRepETag
1070
     1
1071
       99
1005
4191
  0
LINE
  5
4192
330
3D45
100
AcDbEntity
  8
0
 48
0.13
100
AcDbLine
 10
23622.1191617559
 20
1066.448946091406
 30
0.0
 11
23622.1191617559
 21
1090.272067133471
 31
0.0
1001
AcDbBlockRepETag
1070
     1
1071
      100
1005
4192
  0
LINE
  5
4193
330
3D45
100
AcDbEntity
  8
0
 48
0.13
100
AcDbLine
 10
23565.3122121602
 20
926.2930498037304
 30
0.0
 11
23565.3122121602
 21
1066.448946091406
 31
0.0
1001
AcDbBlockRepETag
1070
     1
1071
      101
1005
4193
  0
LINE
  5
4194
330
3D45
100
AcDbEntity
  8
0
 48
0.13
100
AcDbLine
 10
23565.31221216021
 20
1090.272067133471
 30
0.0
 11
23565.31221216021
 21
1293.536769552019
 31
0.0
1001
AcDbBlockRepETag
1070
     1
1071
      102
1005
4194
  0
LINE
  5
4195
330
3D45
100
AcDbEntity
  8
0
 48
0.13
100
AcDbLine
 10
23565.31221216021
 20
1327.037204828478
 30
0.0
 11
23565.3122121602
 21
2245.001567523759
 31
0.0
1001
AcDbBlockRepETag
1070
     1
1071
      103
1005
4195
  0
LINE
  5
4196
330
3D45
100
AcDbEntity
  8
0
 48
0.13
100
AcDbLine
 10
23181.50683434531
 20
1162.9880918516
 30
0.0
 11
23508.68381489068
 21
1139.44991028932
 31
0.0
1001
AcDbBlockRepETag
1070
     1
1071
      104
1005
4196
  0
LINE
  5
4197
330
3D45
100
AcDbEntity
  8
0
 48
0.13
100
AcDbLine
 10
23174.27623061033
 20
1127.711623408371
 30
0.0
 11
23512.35670800564
 21
1103.279960597004
 31
0.0
1001
AcDbBlockRepETag
1070
     1
1071
      105
1005
4197
  0
ARC
  5
4198
330
3D45
100
AcDbEntity
  8
0
 48
0.13
100
AcDbCircle
 10
23507.00184984284
 20
1121.0076568218
 30
0.0
 40
18.51879368053917
100
AcDbArc
 50
286.8075560799276
 51
84.78894313177915
1001
AcDbBlockRepETag
1070
     1
1071
      106
1005
4198
  0
ARC
  5
4199
330
3D45
100
AcDbEntity
  8
0
 48
0.13
100
AcDbCircle
 10
23182.34302199815
 20
1144.437437589873
 30
0.0
 40
18.56949065884386
100
AcDbArc
 50
92.5809124437535
 51
244.2521778775156
1001
AcDbBlockRepETag
1070
     1
1071
      107
1005
4199
  0
LINE
  5
419A
330
3D45
100
AcDbEntity
  8
0
 48
0.13
100
AcDbLine
 10
23181.50683434531
 20
1209.58097498376
 30
0.0
 11
23508.68381489068
 21
1186.042793421479
 31
0.0
1001
AcDbBlockRepETag
1070
     1
1071
      108
1005
419A
  0
LINE
  5
419B
330
3D45
100
AcDbEntity
  8
0
 48
0.13
100
AcDbLine
 10
23174.27623061033
 20
1174.30450654053
 30
0.0
 11
23512.35670800564
 21
1149.872843729164
 31
0.0
1001
AcDbBlockRepETag
1070
     1
1071
      109
1005
419B
  0
ARC
  5
419C
330
3D45
100
AcDbEntity
  8
0
 48
0.13
100
AcDbCircle
 10
23507.00184984284
 20
1167.60053995396
 30
0.0
 40
18.51879368053917
100
AcDbArc
 50
286.8075560799276
 51
84.78894313177913
1001
AcDbBlockRepETag
1070
     1
1071
      110
1005
419C
  0
ARC
  5
419D
330
3D45
100
AcDbEntity
  8
0
 48
0.13
100
AcDbCircle
 10
23182.34302199815
 20
1191.030320722033
 30
0.0
 40
18.56949065884386
100
AcDbArc
 50
92.58091244375349
 51
244.2521778775156
1001
AcDbBlockRepETag
1070
     1
1071
      111
1005
419D
  0
LINE
  5
419E
330
3D45
100
AcDbEntity
  8
0
 48
0.13
100
AcDbLine
 10
23181.50683434531
 20
1258.626122645087
 30
0.0
 11
23508.68381489068
 21
1235.087941082807
 31
0.0
1001
AcDbBlockRepETag
1070
     1
1071
      112
1005
419E
  0
LINE
  5
419F
330
3D45
100
AcDbEntity
  8
0
 48
0.13
100
AcDbLine
 10
23174.27623061033
 20
1223.349654201857
 30
0.0
 11
23512.35670800564
 21
1198.917991390491
 31
0.0
1001
AcDbBlockRepETag
1070
     1
1071
      113
1005
419F
  0
ARC
  5
41A0
330
3D45
100
AcDbEntity
  8
0
 48
0.13
100
AcDbCircle
 10
23507.00184984284
 20
1216.645687615287
 30
0.0
 40
18.51879368053917
100
AcDbArc
 50
286.8075560799276
 51
84.78894313177918
1001
AcDbBlockRepETag
1070
     1
1071
      114
1005
41A0
  0
ARC
  5
41A1
330
3D45
100
AcDbEntity
  8
0
 48
0.13
100
AcDbCircle
 10
23182.34302199815
 20
1240.07546838336
 30
0.0
 40
18.56949065884386
100
AcDbArc
 50
92.58091244375353
 51
244.2521778775156
1001
AcDbBlockRepETag
1070
     1
1071
      115
1005
41A1
  0
LINE
  5
41A2
330
3D45
100
AcDbEntity
  8
0
 48
0.13
100
AcDbLine
 10
23181.50683434531
 20
1304.140591833703
 30
0.0
 11
23508.68381489068
 21
1280.602410271423
 31
0.0
1001
AcDbBlockRepETag
1070
     1
1071
      116
1005
41A2
  0
LINE
  5
41A3
330
3D45
100
AcDbEntity
  8
0
 48
0.13
100
AcDbLine
 10
23174.27623061033
 20
1268.864123390474
 30
0.0
 11
23512.35670800564
 21
1244.432460579107
 31
0.0
1001
AcDbBlockRepETag
1070
     1
1071
      117
1005
41A3
  0
ARC
  5
41A4
330
3D45
100
AcDbEntity
  8
0
 48
0.13
100
AcDbCircle
 10
23507.00184984284
 20
1262.160156803903
 30
0.0
 40
18.51879368053917
100
AcDbArc
 50
286.8075560799277
 51
84.78894313177918
1001
AcDbBlockRepETag
1070
     1
1071
      118
1005
41A4
  0
ARC
  5
41A5
330
3D45
100
AcDbEntity
  8
0
 48
0.13
100
AcDbCircle
 10
23182.34302199815
 20
1285.589937571976
 30
0.0
 40
18.56949065884386
100
AcDbArc
 50
92.58091244375349
 51
244.2521778775156
1001
AcDbBlockRepETag
1070
     1
1071
      119
1005
41A5
  0
LINE
  5
41A6
330
3D45
100
AcDbEntity
  8
0
 48
0.13
100
AcDbLine
 10
23181.50683434531
 20
1304.140591833703
 30
0.0
 11
23499.58070684822
 21
1327.037204828478
 31
0.0
1001
AcDbBlockRepETag
1070
     1
1071
      120
1005
41A6
  0
LINE
  5
41A7
330
3D45
100
AcDbEntity
  8
0
 48
0.13
100
AcDbLine
 10
23446.77534469359
 20
1285.505928737314
 30
0.0
 11
23510.80843440653
 21
1293.536769552019
 31
0.0
1001
AcDbBlockRepETag
1070
     1
1071
      121
1005
41A7
  0
LINE
  5
41A8
330
3D45
100
AcDbEntity
  8
0
 48
0.13
100
AcDbLine
 10
23510.80843440653
 20
1293.536769552019
 30
0.0
 11
23642.78548692595
 21
1293.536769552019
 31
0.0
1001
AcDbBlockRepETag
1070
     1
1071
      122
1005
41A8
  0
LINE
  5
41A9
330
3D45
100
AcDbEntity
  8
0
 48
0.13
100
AcDbLine
 10
23642.78548692595
 20
1293.536769552019
 30
0.0
 11
23642.78548692595
 21
1327.037204828478
 31
0.0
1001
AcDbBlockRepETag
1070
     1
1071
      123
1005
41A9
  0
LINE
  5
41AA
330
3D45
100
AcDbEntity
  8
0
 48
0.13
100
AcDbLine
 10
23642.78548692595
 20
1327.037204828478
 30
0.0
 11
23499.58070684821
 21
1327.037204828478
 31
0.0
1001
AcDbBlockRepETag
1070
     1
1071
      124
1005
41AA
  0
LINE
  5
41AB
330
3D45
100
AcDbEntity
  8
0
 48
0.13
100
AcDbLine
 10
23620.17943351262
 20
1293.536769552019
 30
0.0
 11
23620.17943351262
 21
1327.037204828478
 31
0.0
1001
AcDbBlockRepETag
1070
     1
1071
      125
1005
41AB
  0
LINE
  5
41AC
330
3D45
100
AcDbEntity
  8
0
 48
0.13
100
AcDbLine
 10
23565.31221216021
 20
1490.280674752013
 30
0.0
 11
23623.282199661
 21
1490.280674752013
 31
0.0
1001
AcDbBlockRepETag
1070
     1
1071
      126
1005
41AC
  0
LINE
  5
41AD
330
3D45
100
AcDbEntity
  8
0
 48
0.13
100
AcDbLine
 10
23623.282199661
 20
1490.280674752013
 30
0.0
 11
23623.282199661
 21
1462.113870898988
 31
0.0
1001
AcDbBlockRepETag
1070
     1
1071
      127
1005
41AD
  0
LINE
  5
41AE
330
3D45
100
AcDbEntity
  8
0
 48
0.13
100
AcDbLine
 10
23623.282199661
 20
1462.113870898988
 30
0.0
 11
23565.31221216021
 21
1462.113870898987
 31
0.0
1001
AcDbBlockRepETag
1070
     1
1071
      128
1005
41AE
  0
LWPOLYLINE
  5
41AF
330
3D45
100
AcDbEntity
  8
0
 48
0.13
100
AcDbPolyline
 90
        4
 70
     1
 43
0.0
 10
23565.31221216021
 20
1490.280674752013
 10
23561.00218413986
 20
1490.280674752013
 10
23561.00218413986
 20
1462.113870898987
 10
23565.31221216021
 20
1462.113870898987
1001
AcDbBlockRepETag
1070
     1
1071
      129
1005
41AF
  0
LWPOLYLINE
  5
41B0
330
3D45
100
AcDbEntity
  8
0
 48
0.13
100
AcDbPolyline
 90
        4
 70
     1
 43
0.0
 10
23623.282199661
 20
1488.494704300846
 10
23642.35752892891
 20
1488.494704300846
 10
23642.35752892891
 20
1464.428913468845
 10
23623.282199661
 20
1464.428913468845
1001
AcDbBlockRepETag
1070
     1
1071
      130
1005
41B0
  0
LINE
  5
41B1
330
3D45
100
AcDbEntity
  8
0
  6
ACAD_ISO04W100
 48
3.0
100
AcDbLine
 10
23658.36480509748
 20
1476.461808884846
 30
0.0
 11
23548.14456123476
 21
1476.461808884846
 31
0.0
1001
AcDbBlockRepETag
1070
     1
1071
      131
1005
41B1
  0
LINE
  5
41B2
330
3D45
100
AcDbEntity
  8
0
 48
0.13
100
AcDbLine
 10
23623.64336990245
 20
2336.551236042668
 30
0.0
 11
23537.06374892424
 21
2336.551236042668
 31
0.0
1001
AcDbBlockRepETag
1070
     1
1071
      132
1005
41B2
  0
LINE
  5
41B3
330
3D45
100
AcDbEntity
  8
0
 48
0.13
100
AcDbLine
 10
23623.64336990245
 20
2336.551236042668
 30
0.0
 11
23623.64336990245
 21
2308.472741187351
 31
0.0
1001
AcDbBlockRepETag
1070
     1
1071
      133
1005
41B3
  0
LINE
  5
41B4
330
3D45
100
AcDbEntity
  8
0
 48
0.13
100
AcDbLine
 10
23623.64336990245
 20
2308.472741187351
 30
0.0
 11
23543.01353160729
 21
2308.472741187351
 31
0.0
1001
AcDbBlockRepETag
1070
     1
1071
      134
1005
41B4
  0
LWPOLYLINE
  5
41B5
330
3D45
100
AcDbEntity
  8
0
 48
0.13
100
AcDbPolyline
 90
        4
 70
     1
 43
0.0
 10
23623.64336990246
 20
2333.681899820119
 10
23641.90303674456
 20
2333.681899820119
 10
23641.90303674456
 20
2310.317309669174
 10
23623.64336990246
 20
2310.317309669174
1001
AcDbBlockRepETag
1070
     1
1071
      135
1005
41B5
  0
ARC
  5
41B6
330
3D45
100
AcDbEntity
  8
0
 48
0.13
100
AcDbCircle
 10
23285.56751717225
 20
1739.190802258119
 30
0.0
 40
596.268866075336
100
AcDbArc
 50
63.83726089345731
 51
86.5445919062477
1001
AcDbBlockRepETag
1070
     1
1071
      136
1005
41B6
  0
ARC
  5
41B7
330
3D45
100
AcDbEntity
  8
0
 48
0.13
100
AcDbCircle
 10
23529.67492011054
 20
2244.080602302171
 30
0.0
 40
35.64919019517852
100
AcDbArc
 50
1.480350360358983
 51
58.17113857480181
1001
AcDbBlockRepETag
1070
     1
1071
      137
1005
41B7
  0
ARC
  5
41B8
330
3D45
100
AcDbEntity
  8
0
 48
0.13
100
AcDbCircle
 10
23545.11456690546
 20
2267.721404075961
 30
0.0
 40
69.29907242331565
100
AcDbArc
 50
96.6714004183599
 51
148.2598251815766
1001
AcDbBlockRepETag
1070
     1
1071
      138
1005
41B8
  0
ARC
  5
41B9
330
3D45
100
AcDbEntity
  8
0
 48
0.13
100
AcDbCircle
 10
23544.2104357672
 20
2272.725735387287
 30
0.0
 40
35.76703794330506
100
AcDbArc
 50
91.91769759153938
 51
147.0347896258043
1001
AcDbBlockRepETag
1070
     1
1071
      139
1005
41B9
  0
LINE
  5
41BA
330
3D45
100
AcDbEntity
  8
0
  6
ACAD_ISO04W100
 48
3.0
100
AcDbLine
 10
23641.90303674456
 20
2321.999604744647
 30
0.0
 11
23538.79176902808
 21
2321.999604744647
 31
0.0
1001
AcDbBlockRepETag
1070
     1
1071
      140
1005
41BA
  0
ARC
  5
41BB
330
3D45
100
AcDbEntity
  8
0
 48
0.13
100
AcDbCircle
 10
23543.28342134126
 20
2275.953178931779
 30
0.0
 40
46.26497887865553
100
AcDbArc
 50
95.57135729600608
 51
152.2077226760502
1001
AcDbBlockRepETag
1070
     1
1071
      141
1005
41BB
  0
LINE
  5
41BC
330
3D45
100
AcDbEntity
  8
0
  6
ACAD_ISO04W100
 48
3.0
100
AcDbLine
 10
23620.17943351262
 20
1310.286987190249
 30
0.0
 11
23467.86520789397
 21
1310.286987190249
 31
0.0
1001
AcDbBlockRepETag
1070
     1
1071
      142
1005
41BC
  0
LINE
  5
41BD
330
3D45
100
AcDbEntity
  8
0
  6
ACAD_ISO04W100
 48
4.0
100
AcDbLine
 10
23467.86520789397
 20
1310.286987190249
 30
0.0
 11
23190.1432788756
 21
1288.614114617917
 31
0.0
1001
AcDbBlockRepETag
1070
     1
1071
      143
1005
41BD
  0
LINE
  5
41BE
330
3D45
100
AcDbEntity
  8
0
  6
ACAD_ISO04W100
 48
3.0
100
AcDbLine
 10
23190.1432788756
 20
1288.614114617917
 30
0.0
 11
23509.32229377304
 21
1262.424477258125
 31
0.0
1001
AcDbBlockRepETag
1070
     1
1071
      144
1005
41BE
  0
LINE
  5
41BF
330
3D45
100
AcDbEntity
  8
0
  6
ACAD_ISO04W100
 48
3.0
100
AcDbLine
 10
23509.32229377304
 20
1262.424477258125
 30
0.0
 11
23179.81544951147
 21
1240.599779458299
 31
0.0
1001
AcDbBlockRepETag
1070
     1
1071
      145
1005
41BF
  0
LINE
  5
41C0
330
3D45
100
AcDbEntity
  8
0
  6
ACAD_ISO04W100
 48
3.0
100
AcDbLine
 10
23179.81544951147
 20
1240.599779458299
 30
0.0
 11
23508.13062985193
 21
1214.410142098507
 31
0.0
1001
AcDbBlockRepETag
1070
     1
1071
      146
1005
41C0
  0
LINE
  5
41C1
330
3D45
100
AcDbEntity
  8
0
  6
ACAD_ISO04W100
 48
3.0
100
AcDbLine
 10
23508.13062985193
 20
1214.410142098507
 30
0.0
 11
23182.55022341853
 21
1190.07527112745
 31
0.0
1001
AcDbBlockRepETag
1070
     1
1071
      147
1005
41C1
  0
LINE
  5
41C2
330
3D45
100
AcDbEntity
  8
0
  6
ACAD_ISO04W100
 48
3.0
100
AcDbLine
 10
23182.55022341853
 20
1190.07527112745
 30
0.0
 11
23507.00184984284
 21
1167.60053995396
 31
0.0
1001
AcDbBlockRepETag
1070
     1
1071
      148
1005
41C2
  0
LINE
  5
41C3
330
3D45
100
AcDbEntity
  8
0
  6
ACAD_ISO04W100
 48
3.0
100
AcDbLine
 10
23507.00184984284
 20
1167.60053995396
 30
0.0
 11
23183.31779262982
 21
1145.923538235144
 31
0.0
1001
AcDbBlockRepETag
1070
     1
1071
      149
1005
41C3
  0
LINE
  5
41C4
330
3D45
100
AcDbEntity
  8
0
  6
ACAD_ISO04W100
 48
3.0
100
AcDbLine
 10
23183.31779262982
 20
1145.923538235144
 30
0.0
 11
23508.05794351636
 21
1120.924340465738
 31
0.0
1001
AcDbBlockRepETag
1070
     1
1071
      150
1005
41C4
  0
LINE
  5
41C5
330
3D45
100
AcDbEntity
  8
0
  6
ACAD_ISO04W100
 48
3.0
100
AcDbLine
 10
23508.05794351636
 20
1120.924340465738
 30
0.0
 11
23184.90667785796
 21
1075.290884486893
 31
0.0
1001
AcDbBlockRepETag
1070
     1
1071
      151
1005
41C5
  0
LINE
  5
41C6
330
3D45
100
AcDbEntity
  8
0
  6
ACAD_ISO04W100
 48
3.0
100
AcDbLine
 10
23184.90667785796
 20
1075.290884486893
 30
0.0
 11
23506.50654159686
 21
1038.230513758285
 31
0.0
1001
AcDbBlockRepETag
1070
     1
1071
      152
1005
41C6
  0
LINE
  5
41C7
330
3D45
100
AcDbEntity
  8
0
  6
ACAD_ISO04W100
 48
3.0
100
AcDbLine
 10
23506.50654159686
 20
1038.230513758285
 30
0.0
 11
23183.93152762869
 21
895.0131772307695
 31
0.0
1001
AcDbBlockRepETag
1070
     1
1071
      153
1005
41C7
  0
LINE
  5
41C8
330
3D45
100
AcDbEntity
  8
0
  6
ACAD_ISO04W100
 48
3.0
100
AcDbLine
 10
23183.93152762869
 20
895.0131772307695
 30
0.0
 11
23496.3035148413
 21
953.0590630849196
 31
0.0
1001
AcDbBlockRepETag
1070
     1
1071
      154
1005
41C8
  0
LINE
  5
41C9
330
3D45
100
AcDbEntity
  8
0
  6
ACAD_ISO04W100
 48
3.0
100
AcDbLine
 10
23496.3035148413
 20
953.0590630849196
 30
0.0
 11
23190.83416654697
 21
848.0175902724304
 31
0.0
1001
AcDbBlockRepETag
1070
     1
1071
      155
1005
41C9
  0
LINE
  5
41CA
330
3D45
100
AcDbEntity
  8
0
  6
ACAD_ISO04W100
 48
3.0
100
AcDbLine
 10
23190.83416654697
 20
848.0175902724304
 30
0.0
 11
23513.20966528706
 21
908.8981613493133
 31
0.0
1001
AcDbBlockRepETag
1070
     1
1071
      156
1005
41CA
  0
LINE
  5
41CB
330
3D45
100
AcDbEntity
  8
0
  6
ACAD_ISO04W100
 48
4.0
100
AcDbLine
 10
23622.1191617559
 20
1078.360506612438
 30
0.0
 11
23406.9309354953
 21
1078.360506612438
 31
0.0
1001
AcDbBlockRepETag
1070
     1
1071
      157
1005
41CB
  0
DIMENSION
  5
41CC
330
3D45
100
AcDbEntity
  8
0
100
AcDbDimension
  2
*D9
 10
23009.41346369152
 20
481.5803318461876
 30
0.0
 11
23309.40259755187
 21
493.9485105637866
 31
0.0
 71
     5
 42
599.9782677206967
  3
ISO-25
100
AcDbAlignedDimension
 13
23609.39173141222
 23
648.051120994558
 33
0.0
 14
23009.41346369152
 24
648.676120994558
 34
0.0
100
AcDbRotatedDimension
1001
ACAD
1000
DSTYLE
1002
{
1070
   280
1070
     0
1070
   271
1070
     0
1070
   140
1040
23.0
1070
    41
1040
23.0
1002
}
1001
AcDbBlockRepETag
1070
     1
1071
      158
1005
41CC
  0
MTEXT
  5
41CD
330
3D45
100
AcDbEntity
  8
0
100
AcDbMText
 10
23821.20355154717
 20
708.6585179019612
 30
0.0
 40
20.0
 41
0.0
 71
     5
 72
     1
  1
{\H1.0833x;Entrada de agua fría/\Pvaciado}
  7
style1
 73
     1
 44
1.0
1001
AcDbBlockRepETag
1070
     1
1071
      159
1005
41CD
  0
LINE
  5
41CE
330
3D45
100
AcDbEntity
  8
0
 48
0.13
100
AcDbLine
 10
23638.26295450273
 20
676.6988088600006
 30
0.0
 11
23687.63283112344
 21
707.2672928369284
 31
0.0
1001
AcDbBlockRepETag
1070
     1
1071
      160
1005
41CE
  0
LINE
  5
41CF
330
3D45
100
AcDbEntity
  8
0
 48
0.13
100
AcDbLine
 10
23687.63283112344
 20
707.2672928369284
 30
0.0
 11
23972.03341377973
 21
707.2672928369284
 31
0.0
1001
AcDbBlockRepETag
1070
     1
1071
      161
1005
41CF
  0
MTEXT
  5
41D0
330
3D45
100
AcDbEntity
  8
0
100
AcDbMText
 10
23827.53826945545
 20
937.255635164704
 30
0.0
 40
20.0
 41
0.0
 71
     5
 72
     1
  1
{\H1.0833x;Retorno del acumulador\P del agua caliente}
  7
style1
 73
     1
 44
1.0
1001
AcDbBlockRepETag
1070
     1
1071
      162
1005
41D0
  0
LINE
  5
41D1
330
3D45
100
AcDbEntity
  8
0
 48
0.13
100
AcDbLine
 10
23642.92916351978
 20
908.8981613493133
 30
0.0
 11
23692.29904014049
 21
939.4666453262412
 31
0.0
1001
AcDbBlockRepETag
1070
     1
1071
      163
1005
41D1
  0
LINE
  5
41D2
330
3D45
100
AcDbEntity
  8
0
 48
0.13
100
AcDbLine
 10
23692.29904014049
 20
939.4666453262412
 30
0.0
 11
23993.61373109272
 21
939.4666453262412
 31
0.0
1001
AcDbBlockRepETag
1070
     1
1071
      164
1005
41D2
  0
MTEXT
  5
41D3
330
3D45
100
AcDbEntity
  8
0
100
AcDbMText
 10
23880.72069927838
 20
1129.296749413397
 30
0.0
 40
20.0
 41
0.0
 71
     5
 72
     1
  1
{\H1.0833x;Punto de medición para la sonda\Pde temperatura del agua \Pcaliente de la instalación solar}
  7
style1
 73
     1
 44
1.0
1001
AcDbBlockRepETag
1070
     1
1071
      165
1005
41D3
  0
LINE
  5
41D4
330
3D45
100
AcDbEntity
  8
0
 48
0.13
100
AcDbLine
 10
23633.39151773113
 20
1078.360506612438
 30
0.0
 11
23682.76139435184
 21
1108.928990589366
 31
0.0
1001
AcDbBlockRepETag
1070
     1
1071
      166
1005
41D4
  0
LINE
  5
41D5
330
3D45
100
AcDbEntity
  8
0
 48
0.13
100
AcDbLine
 10
23682.76139435184
 20
1108.928990589366
 30
0.0
 11
24091.78670100052
 21
1108.928990589366
 31
0.0
1001
AcDbBlockRepETag
1070
     1
1071
      167
1005
41D5
  0
MTEXT
  5
41D6
330
3D45
100
AcDbEntity
  8
0
100
AcDbMText
 10
23847.65585684927
 20
1338.992495558905
 30
0.0
 40
20.0
 41
0.0
 71
     5
 72
     1
  1
{\H1.0833x;Alimentación del acumulador \Pde agua caliente }
  7
style1
 73
     1
 44
1.0
1001
AcDbBlockRepETag
1070
     1
1071
      168
1005
41D6
  0
LINE
  5
41D7
330
3D45
100
AcDbEntity
  8
0
 48
0.13
100
AcDbLine
 10
23642.78548692595
 20
1310.286987190249
 30
0.0
 11
23692.15536354666
 21
1340.855471167176
 31
0.0
1001
AcDbBlockRepETag
1070
     1
1071
      169
1005
41D7
  0
LINE
  5
41D8
330
3D45
100
AcDbEntity
  8
0
 48
0.13
100
AcDbLine
 10
23692.15536354666
 20
1340.855471167176
 30
0.0
 11
24043.4754264276
 21
1340.855471167176
 31
0.0
1001
AcDbBlockRepETag
1070
     1
1071
      170
1005
41D8
  0
MTEXT
  5
41D9
330
3D45
100
AcDbEntity
  8
0
100
AcDbMText
 10
23831.59716046586
 20
1789.104413655148
 30
0.0
 40
20.0
 41
0.0
 71
     5
 72
     1
  1
{\H1.0833x;Entrada de recirculación}
  7
style1
 73
     1
 44
1.0
1001
AcDbBlockRepETag
1070
     1
1071
      171
1005
41D9
  0
LINE
  5
41DA
330
3D45
100
AcDbEntity
  8
0
 48
0.13
100
AcDbLine
 10
23642.35752892891
 20
1476.461808884846
 30
0.0
 11
23691.72740554963
 21
1767.030292861773
 31
0.0
1001
AcDbBlockRepETag
1070
     1
1071
      172
1005
41DA
  0
LINE
  5
41DB
330
3D45
100
AcDbEntity
  8
0
 48
0.13
100
AcDbLine
 10
23691.72740554963
 20
1767.030292861773
 30
0.0
 11
23994.43696261466
 21
1767.030292861773
 31
0.0
1001
AcDbBlockRepETag
1070
     1
1071
      173
1005
41DB
  0
MTEXT
  5
41DC
330
3D45
100
AcDbEntity
  8
0
100
AcDbMText
 10
23838.4003814414
 20
2371.97990611185
 30
0.0
 40
20.0
 41
0.0
 71
     5
 72
     1
  1
{\H1.0833x;Salida de agua caliente}
  7
style1
 73
     1
 44
1.0
1001
AcDbBlockRepETag
1070
     1
1071
      174
1005
41DC
  0
LINE
  5
41DD
330
3D45
100
AcDbEntity
  8
0
 48
0.13
100
AcDbLine
 10
23642.35752892891
 20
2321.999604744647
 30
0.0
 11
23691.72740554963
 21
2352.568088721574
 31
0.0
1001
AcDbBlockRepETag
1070
     1
1071
      175
1005
41DD
  0
LINE
  5
41DE
330
3D45
100
AcDbEntity
  8
0
 48
0.13
100
AcDbLine
 10
23691.72740554963
 20
2352.568088721574
 30
0.0
 11
23991.15920829072
 21
2352.568088721574
 31
0.0
1001
AcDbBlockRepETag
1070
     1
1071
      176
1005
41DE
  0
MTEXT
  5
41DF
330
3D45
100
AcDbEntity
  8
0
100
AcDbMText
 10
22770.70853276213
 20
1376.759252063322
 30
0.0
 40
20.0
 41
0.0
 71
     5
 72
     1
  1
{\H1.0833x;Conexión del elemento\Pcalefactor eléctrico}
  7
style1
 73
     1
 44
1.0
1001
AcDbBlockRepETag
1070
     1
1071
      177
1005
41DF
  0
LINE
  5
41E0
330
3D45
100
AcDbEntity
  8
0
 48
0.13
100
AcDbLine
 10
22952.68468161334
 20
1345.395147312076
 30
0.0
 11
22903.31480499263
 21
1375.963631289003
 31
0.0
1001
AcDbBlockRepETag
1070
     1
1071
      178
1005
41E0
  0
LINE
  5
41E1
330
3D45
100
AcDbEntity
  8
0
 48
0.13
100
AcDbLine
 10
22903.31480499263
 20
1375.963631289003
 30
0.0
 11
22623.83309823384
 21
1375.963631289003
 31
0.0
1001
AcDbBlockRepETag
1070
     1
1071
      179
1005
41E1
  0
DIMENSION
  5
41E2
330
3D45
100
AcDbEntity
  8
0
100
AcDbDimension
  2
*D10
 10
22840.07370554935
 20
2417.902966937779
 30
0.0
 11
22840.07370554935
 21
1521.028395052617
 31
0.0
 70
   128
 71
     5
 42
1793.749143770324
  3
ISO-25
100
AcDbAlignedDimension
 13
23060.248439654
 23
624.1538231674544
 33
0.0
 14
23305.12996267166
 24
2417.902966937779
 34
0.0
 50
270.0
100
AcDbRotatedDimension
1001
ACAD
1000
DSTYLE
1002
{
1070
    41
1040
23.0
1070
   140
1040
23.0
1070
   271
1070
     0
1002
}
1001
AcDbBlockRepETag
1070
     1
1071
      180
1005
41E2
  0
DIMENSION
  5
41E3
330
3D45
100
AcDbEntity
  8
0
100
AcDbDimension
  2
*D11
 10
22840.07370554935
 20
624.1538231674544
 30
0.0
 11
22840.07370554935
 21
523.3399531794327
 31
0.0
 70
   128
  1
15-20
 71
     5
 42
15.6175875869335
  3
ISO-25
100
AcDbAlignedDimension
 13
23010.03846369152
 23
608.536235580521
 33
0.0
 14
23010.03846369152
 24
624.1538231674544
 34
0.0
 50
270.0
100
AcDbRotatedDimension
1001
ACAD
1000
DSTYLE
1002
{
1070
    41
1040
23.0
1070
   140
1040
23.0
1070
   271
1070
     0
1002
}
1001
AcDbBlockRepETag
1070
     1
1071
      181
1005
41E3
  0
ENDBLK
  5
3D47
330
3D45
100
AcDbEntity
  8
0
 48
0.13
100
AcDbBlockEnd
  0
BLOCK
  5
3E00
330
3DFF
100
AcDbEntity
  8
0
 48
0.13
100
AcDbBlockBegin
  2
S 300_1
 70
     0
 10
0.0
 20
0.0
 30
0.0
  3
S 300_1
  1

  0
CIRCLE
  5
41E5
330
3DFF
100
AcDbEntity
  8
0
  6
ACAD_ISO02W100
 48
4.0
100
AcDbCircle
 10
24957.74799356984
 20
1334.990441185232
 30
0.0
 40
49.59100670793254
  0
CIRCLE
  5
41E6
330
3DFF
100
AcDbEntity
  8
0
  6
ACAD_ISO02W100
 48
4.0
100
AcDbCircle
 10
24957.74799356984
 20
1334.990441185232
 30
0.0
 40
22.0256959838219
  0
ARC
  5
41E7
330
3DFF
100
AcDbEntity
  8
0
 48
0.13
100
AcDbCircle
 10
24957.74799356984
 20
1334.990441185232
 30
0.0
 40
300.0000000000001
100
AcDbArc
 50
186.8724618931391
 51
357.0301395348833
  0
ARC
  5
41E8
330
3DFF
100
AcDbEntity
  8
0
 48
0.13
100
AcDbCircle
 10
24957.74799356984
 20
1334.990441185232
 30
0.0
 40
300.0000000000001
100
AcDbArc
 50
3.118907905009513
 51
174.1241437739673
  0
LINE
  5
41E9
330
3DFF
100
AcDbEntity
  8
0
 48
0.13
100
AcDbLine
 10
24675.35854131458
 20
1436.263326277849
 30
0.0
 11
24626.4217958772
 21
1436.263326277849
 31
0.0
  0
ARC
  5
41EA
330
3DFF
100
AcDbEntity
  8
0
 48
0.13
100
AcDbCircle
 10
24626.4217958772
 20
1431.57367411958
 30
0.0
 40
4.68965215826854
100
AcDbArc
 50
90.0
 51
180.0
  0
LINE
  5
41EB
330
3DFF
100
AcDbEntity
  8
0
 48
0.13
100
AcDbLine
 10
24621.73214371893
 20
1431.57367411958
 30
0.0
 11
24621.73214371894
 21
1232.750554579851
 31
0.0
  0
ARC
  5
41EC
330
3DFF
100
AcDbEntity
  8
0
 48
0.13
100
AcDbCircle
 10
24626.42179587721
 20
1232.750554579851
 30
0.0
 40
4.68965215826854
100
AcDbArc
 50
180.0
 51
270.0
  0
LINE
  5
41ED
330
3DFF
100
AcDbEntity
  8
0
 48
0.13
100
AcDbLine
 10
24626.42179587721
 20
1228.060902421582
 30
0.0
 11
24677.45159020405
 21
1228.060902421582
 31
0.0
  0
LWPOLYLINE
  5
41EE
330
3DFF
100
AcDbEntity
  8
0
 48
0.13
100
AcDbPolyline
 90
        6
 70
     1
 43
0.0
 10
24650.24260899134
 20
1365.702452633705
 10
24666.64762822586
 20
1365.702452633705
 10
24666.64762822586
 20
1299.092538569543
 10
24650.24260899134
 20
1299.092538569543
 42
-0.414213562373095
 10
24643.98973944697
 20
1305.345408113902
 10
24643.98973944697
 20
1359.449583089347
 42
-0.414213562373095
  0
LINE
  5
41EF
330
3DFF
100
AcDbEntity
  8
0
 48
0.13
100
AcDbLine
 10
25286.15476979735
 20
1334.990441185232
 30
0.0
 11
24579.47972156187
 21
1334.990441185232
 31
0.0
  0
LINE
  5
41F0
330
3DFF
100
AcDbEntity
  8
0
 48
0.13
100
AcDbLine
 10
24957.74799356984
 20
1006.649921890377
 30
0.0
 11
24957.74799356984
 21
1672.78324551597
 31
0.0
  0
LWPOLYLINE
  5
41F1
330
3DFF
100
AcDbEntity
  8
0
 48
0.13
100
AcDbPolyline
 90
        4
 70
     1
 43
0.0
 10
25252.26979217975
 20
1351.312940882631
 10
25278.35273771923
 20
1351.312940882631
 10
25278.35273771923
 20
1319.447250439581
 10
25252.26979217975
 20
1319.447250439581
  0
CIRCLE
  5
41F2
330
3DFF
100
AcDbEntity
  8
0
  6
ACAD_ISO02W100
 48
4.0
100
AcDbCircle
 10
24957.74799356984
 20
1465.751354934111
 30
0.0
 40
49.59100670793254
  0
CIRCLE
  5
41F3
330
3DFF
100
AcDbEntity
  8
0
  6
ACAD_ISO02W100
 48
4.0
100
AcDbCircle
 10
24957.74799356984
 20
1465.751354934111
 30
0.0
 40
22.0256959838219
  0
LINE
  5
41F4
330
3DFF
100
AcDbEntity
  8
0
 48
0.13
100
AcDbLine
 10
25041.78508302223
 20
1465.751354934111
 30
0.0
 11
24887.691819428
 21
1465.751354934111
 31
0.0
  0
LINE
  5
41F5
330
3DFF
100
AcDbEntity
  8
0
 48
0.13
100
AcDbLine
 10
24957.74799356984
 20
1465.751354934111
 30
0.0
 11
24696.19112069251
 21
1654.317030666055
 31
0.0
  0
LINE
  5
41F6
330
3DFF
100
AcDbEntity
  8
0
 48
0.13
100
AcDbLine
 10
24696.19112069251
 20
1654.317030666055
 30
0.0
 11
24394.37892534503
 21
1654.317030666055
 31
0.0
  0
MTEXT
  5
41F7
330
3DFF
100
AcDbEntity
  8
0
100
AcDbMText
 10
24539.75191079077
 20
1660.317352294569
 30
0.0
 40
20.0
 41
0.0
 71
     5
 72
     1
  1
{\H1.0833x;Ánodos de magnesio\P o ánodos inertes}
  7
style1
 73
     1
 44
1.0
  0
CIRCLE
  5
41F8
330
3DFF
100
AcDbEntity
  8
0
  6
ACAD_ISO02W100
 48
4.0
100
AcDbCircle
 10
24957.74799356984
 20
1334.990441185232
 30
0.0
 40
49.59100670793254
  0
CIRCLE
  5
41F9
330
3DFF
100
AcDbEntity
  8
0
  6
ACAD_ISO02W100
 48
4.0
100
AcDbCircle
 10
24957.74799356984
 20
1334.990441185232
 30
0.0
 40
22.0256959838219
  0
ARC
  5
41FA
330
3DFF
100
AcDbEntity
  8
0
 48
0.13
100
AcDbCircle
 10
24957.74799356984
 20
1334.990441185232
 30
0.0
 40
300.0000000000001
100
AcDbArc
 50
186.8724618931391
 51
357.0301395348833
  0
ARC
  5
41FB
330
3DFF
100
AcDbEntity
  8
0
 48
0.13
100
AcDbCircle
 10
24957.74799356984
 20
1334.990441185232
 30
0.0
 40
300.0000000000001
100
AcDbArc
 50
3.118907905009513
 51
174.1241437739673
  0
LINE
  5
41FC
330
3DFF
100
AcDbEntity
  8
0
 48
0.13
100
AcDbLine
 10
24675.35854131458
 20
1436.263326277849
 30
0.0
 11
24626.4217958772
 21
1436.263326277849
 31
0.0
  0
ARC
  5
41FD
330
3DFF
100
AcDbEntity
  8
0
 48
0.13
100
AcDbCircle
 10
24626.4217958772
 20
1431.57367411958
 30
0.0
 40
4.68965215826854
100
AcDbArc
 50
90.0
 51
180.0
  0
LINE
  5
41FE
330
3DFF
100
AcDbEntity
  8
0
 48
0.13
100
AcDbLine
 10
24621.73214371893
 20
1431.57367411958
 30
0.0
 11
24621.73214371894
 21
1232.750554579851
 31
0.0
  0
ARC
  5
41FF
330
3DFF
100
AcDbEntity
  8
0
 48
0.13
100
AcDbCircle
 10
24626.42179587721
 20
1232.750554579851
 30
0.0
 40
4.68965215826854
100
AcDbArc
 50
180.0
 51
270.0
  0
LINE
  5
4200
330
3DFF
100
AcDbEntity
  8
0
 48
0.13
100
AcDbLine
 10
24626.42179587721
 20
1228.060902421582
 30
0.0
 11
24677.45159020405
 21
1228.060902421582
 31
0.0
  0
LWPOLYLINE
  5
4201
330
3DFF
100
AcDbEntity
  8
0
 48
0.13
100
AcDbPolyline
 90
        6
 70
     1
 43
0.0
 10
24650.24260899134
 20
1365.702452633705
 10
24666.64762822586
 20
1365.702452633705
 10
24666.64762822586
 20
1299.092538569543
 10
24650.24260899134
 20
1299.092538569543
 42
-0.414213562373095
 10
24643.98973944697
 20
1305.345408113902
 10
24643.98973944697
 20
1359.449583089347
 42
-0.414213562373095
  0
LINE
  5
4202
330
3DFF
100
AcDbEntity
  8
0
 48
0.13
100
AcDbLine
 10
25286.15476979735
 20
1334.990441185232
 30
0.0
 11
24579.47972156187
 21
1334.990441185232
 31
0.0
  0
LINE
  5
4203
330
3DFF
100
AcDbEntity
  8
0
 48
0.13
100
AcDbLine
 10
24957.74799356984
 20
1006.649921890377
 30
0.0
 11
24957.74799356984
 21
1672.78324551597
 31
0.0
  0
LWPOLYLINE
  5
4204
330
3DFF
100
AcDbEntity
  8
0
 48
0.13
100
AcDbPolyline
 90
        4
 70
     1
 43
0.0
 10
25252.26979217975
 20
1351.312940882631
 10
25278.35273771923
 20
1351.312940882631
 10
25278.35273771923
 20
1319.447250439581
 10
25252.26979217975
 20
1319.447250439581
  0
CIRCLE
  5
4205
330
3DFF
100
AcDbEntity
  8
0
  6
ACAD_ISO02W100
 48
4.0
100
AcDbCircle
 10
24957.74799356984
 20
1465.751354934111
 30
0.0
 40
49.59100670793254
  0
CIRCLE
  5
4206
330
3DFF
100
AcDbEntity
  8
0
  6
ACAD_ISO02W100
 48
4.0
100
AcDbCircle
 10
24957.74799356984
 20
1465.751354934111
 30
0.0
 40
22.0256959838219
  0
LINE
  5
4207
330
3DFF
100
AcDbEntity
  8
0
 48
0.13
100
AcDbLine
 10
25041.78508302223
 20
1465.751354934111
 30
0.0
 11
24887.691819428
 21
1465.751354934111
 31
0.0
  0
LINE
  5
4208
330
3DFF
100
AcDbEntity
  8
0
 48
0.13
100
AcDbLine
 10
24957.74799356984
 20
1465.751354934111
 30
0.0
 11
24696.19112069251
 21
1654.317030666055
 31
0.0
  0
LINE
  5
4209
330
3DFF
100
AcDbEntity
  8
0
 48
0.13
100
AcDbLine
 10
24696.19112069251
 20
1654.317030666055
 30
0.0
 11
24394.37892534503
 21
1654.317030666055
 31
0.0
  0
MTEXT
  5
420A
330
3DFF
100
AcDbEntity
  8
0
100
AcDbMText
 10
24539.75191079077
 20
1660.317352294569
 30
0.0
 40
20.0
 41
0.0
 71
     5
 72
     1
  1
{\H1.0833x;Ánodos de magnesio\P o ánodos inertes}
  7
style1
 73
     1
 44
1.0
  0
DIMENSION
  5
420B
330
3DFF
100
AcDbEntity
  8
0
100
AcDbDimension
  2
*D12
 10
25441.5199009034
 20
1034.990441185232
 30
0.0
 11
25429.1517221858
 21
1334.990441185236
 31
0.0
 71
     5
 42
600.0
  3
ISO-25
100
AcDbAlignedDimension
 13
24957.74799356984
 23
1634.990441185232
 33
0.0
 14
24957.74799356984
 24
1034.990441185232
 34
0.0
 50
90.0
100
AcDbRotatedDimension
1001
ACAD
1000
DSTYLE
1002
{
1070
   280
1070
     0
1070
   271
1070
     0
1070
   140
1040
23.0
1070
    41
1040
23.0
1002
}
1001
AcDbBlockRepETag
1070
     1
1071
      158
1005
0
  0
ENDBLK
  5
3E01
330
3DFF
100
AcDbEntity
  8
0
 48
0.13
100
AcDbBlockEnd
  0
BLOCK
  5
40AE
330
40AD
100
AcDbEntity
  8
0
 48
0.13
100
AcDbBlockBegin
  2
*D9
 70
     1
 10
0.0
 20
0.0
 30
0.0
  3
*D9
  1

  0
LINE
  5
40D3
330
40AD
100
AcDbEntity
  8
0
 62
     0
370
    -2
100
AcDbLine
 10
23609.39173141222
 20
647.426120994558
 30
0.0
 11
23609.39173141222
 21
480.3303318461876
 31
0.0
  0
LINE
  5
40D4
330
40AD
100
AcDbEntity
  8
0
 62
     0
370
    -2
100
AcDbLine
 10
23009.41346369152
 20
648.051120994558
 30
0.0
 11
23009.41346369152
 21
480.3303318461876
 31
0.0
  0
LINE
  5
40D5
330
40AD
100
AcDbEntity
  8
0
 62
     0
370
    -2
100
AcDbLine
 10
23586.39173141222
 20
481.5803318461876
 30
0.0
 11
23032.41346369152
 21
481.5803318461876
 31
0.0
  0
SOLID
  5
40D6
330
40AD
100
AcDbEntity
  8
0
 62
     0
100
AcDbTrace
 10
23586.39173141222
 20
485.4136651795209
 30
0.0
 11
23586.39173141222
 21
477.7469985128543
 31
0.0
 12
23609.39173141222
 22
481.5803318461876
 32
0.0
 13
23609.39173141222
 23
481.5803318461876
 33
0.0
  0
SOLID
  5
40D7
330
40AD
100
AcDbEntity
  8
0
 62
     0
100
AcDbTrace
 10
23032.41346369152
 20
485.4136651795209
 30
0.0
 11
23032.41346369152
 21
477.7469985128543
 31
0.0
 12
23009.41346369152
 22
481.5803318461876
 32
0.0
 13
23009.41346369152
 23
481.5803318461876
 33
0.0
  0
MTEXT
  5
40D8
330
40AD
100
AcDbEntity
  8
0
 62
     0
100
AcDbMText
 10
23309.40259755187
 20
493.9485105637866
 30
0.0
 40
23.0
 41
0.0
 71
     5
 72
     1
  1
600
  7
style1
 73
     1
 44
1.0
  0
POINT
  5
40D9
330
40AD
100
AcDbEntity
  8
Defpoints
 62
     0
100
AcDbPoint
 10
23609.39173141222
 20
648.051120994558
 30
0.0
  0
POINT
  5
40DA
330
40AD
100
AcDbEntity
  8
Defpoints
 62
     0
100
AcDbPoint
 10
23009.41346369152
 20
648.676120994558
 30
0.0
  0
POINT
  5
40DB
330
40AD
100
AcDbEntity
  8
Defpoints
 62
     0
100
AcDbPoint
 10
23009.41346369152
 20
481.5803318461876
 30
0.0
  0
ENDBLK
  5
40AF
330
40AD
100
AcDbEntity
  8
0
 48
0.13
100
AcDbBlockEnd
  0
BLOCK
  5
40BA
330
40B9
100
AcDbEntity
  8
0
 48
0.13
100
AcDbBlockBegin
  2
*D10
 70
     1
 10
0.0
 20
0.0
 30
0.0
  3
*D10
  1

  0
LINE
  5
40DC
330
40B9
100
AcDbEntity
  8
0
 62
     0
370
    -2
100
AcDbLine
 10
23059.623439654
 20
624.1538231674544
 30
0.0
 11
22838.82370554935
 21
624.1538231674544
 31
0.0
  0
LINE
  5
40DD
330
40B9
100
AcDbEntity
  8
0
 62
     0
370
    -2
100
AcDbLine
 10
23304.50496267166
 20
2417.902966937779
 30
0.0
 11
22838.82370554935
 21
2417.902966937779
 31
0.0
  0
LINE
  5
40DE
330
40B9
100
AcDbEntity
  8
0
 62
     0
370
    -2
100
AcDbLine
 10
22840.07370554935
 20
647.1538231674544
 30
0.0
 11
22840.07370554935
 21
2394.902966937779
 31
0.0
  0
SOLID
  5
40DF
330
40B9
100
AcDbEntity
  8
0
 62
     0
100
AcDbTrace
 10
22836.24037221602
 20
647.1538231674544
 30
0.0
 11
22843.90703888268
 21
647.1538231674544
 31
0.0
 12
22840.07370554935
 22
624.1538231674544
 32
0.0
 13
22840.07370554935
 23
624.1538231674544
 33
0.0
  0
SOLID
  5
40E0
330
40B9
100
AcDbEntity
  8
0
 62
     0
100
AcDbTrace
 10
22836.24037221602
 20
2394.902966937779
 30
0.0
 11
22843.90703888268
 21
2394.902966937779
 31
0.0
 12
22840.07370554935
 22
2417.902966937779
 32
0.0
 13
22840.07370554935
 23
2417.902966937779
 33
0.0
  0
MTEXT
  5
40E1
330
40B9
100
AcDbEntity
  8
0
 62
     0
100
AcDbMText
 10
22827.70552683175
 20
1521.028395052617
 30
0.0
 40
23.0
 41
0.0
 71
     5
 72
     1
  1
1794
  7
style1
 11
6.123233995736766E-17
 21
1.0
 31
0.0
 73
     1
 44
1.0
  0
POINT
  5
40E2
330
40B9
100
AcDbEntity
  8
Defpoints
 62
     0
100
AcDbPoint
 10
23060.248439654
 20
624.1538231674544
 30
0.0
  0
POINT
  5
40E3
330
40B9
100
AcDbEntity
  8
Defpoints
 62
     0
100
AcDbPoint
 10
23305.12996267166
 20
2417.902966937779
 30
0.0
  0
POINT
  5
40E4
330
40B9
100
AcDbEntity
  8
Defpoints
 62
     0
100
AcDbPoint
 10
22840.07370554935
 20
2417.902966937779
 30
0.0
  0
ENDBLK
  5
40BB
330
40B9
100
AcDbEntity
  8
0
 48
0.13
100
AcDbBlockEnd
  0
BLOCK
  5
40C6
330
40C5
100
AcDbEntity
  8
0
 48
0.13
100
AcDbBlockBegin
  2
*D11
 70
     1
 10
0.0
 20
0.0
 30
0.0
  3
*D11
  1

  0
LINE
  5
40E5
330
40C5
100
AcDbEntity
  8
0
 62
     0
370
    -2
100
AcDbLine
 10
23009.41346369152
 20
608.536235580521
 30
0.0
 11
22838.82370554935
 21
608.536235580521
 31
0.0
  0
LINE
  5
40E6
330
40C5
100
AcDbEntity
  8
0
 62
     0
370
    -2
100
AcDbLine
 10
23009.41346369152
 20
624.1538231674544
 30
0.0
 11
22838.82370554935
 21
624.1538231674544
 31
0.0
  0
LINE
  5
40E7
330
40C5
100
AcDbEntity
  8
0
 62
     0
370
    -2
100
AcDbLine
 10
22840.07370554935
 20
647.1538231674544
 30
0.0
 11
22840.07370554935
 21
670.1538231674544
 31
0.0
  0
LINE
  5
40E8
330
40C5
100
AcDbEntity
  8
0
 62
     0
370
    -2
100
AcDbLine
 10
22840.07370554935
 20
585.536235580521
 30
0.0
 11
22840.07370554935
 21
484.1436707783375
 31
0.0
  0
LINE
  5
40E9
330
40C5
100
AcDbEntity
  8
0
 62
     0
370
    -2
100
AcDbLine
 10
22840.07370554935
 20
624.1538231674544
 30
0.0
 11
22840.07370554935
 21
608.536235580521
 31
0.0
  0
SOLID
  5
40EA
330
40C5
100
AcDbEntity
  8
0
 62
     0
100
AcDbTrace
 10
22836.24037221602
 20
647.1538231674544
 30
0.0
 11
22843.90703888268
 21
647.1538231674544
 31
0.0
 12
22840.07370554935
 22
624.1538231674544
 32
0.0
 13
22840.07370554935
 23
624.1538231674544
 33
0.0
  0
SOLID
  5
40EB
330
40C5
100
AcDbEntity
  8
0
 62
     0
100
AcDbTrace
 10
22836.24037221602
 20
585.536235580521
 30
0.0
 11
22843.90703888268
 21
585.536235580521
 31
0.0
 12
22840.07370554935
 22
608.536235580521
 32
0.0
 13
22840.07370554935
 23
608.536235580521
 33
0.0
  0
MTEXT
  5
40EC
330
40C5
100
AcDbEntity
  8
0
 62
     0
100
AcDbMText
 10
22827.70552683175
 20
523.3399531794327
 30
0.0
 40
23.0
 41
0.0
 71
     5
 72
     1
  1
15-20
  7
style1
 11
6.123233995736766E-17
 21
1.0
 31
0.0
 73
     1
 44
1.0
  0
POINT
  5
40ED
330
40C5
100
AcDbEntity
  8
Defpoints
 62
     0
100
AcDbPoint
 10
23010.03846369152
 20
608.536235580521
 30
0.0
  0
POINT
  5
40EE
330
40C5
100
AcDbEntity
  8
Defpoints
 62
     0
100
AcDbPoint
 10
23010.03846369152
 20
624.1538231674544
 30
0.0
  0
POINT
  5
40EF
330
40C5
100
AcDbEntity
  8
Defpoints
 62
     0
100
AcDbPoint
 10
22840.07370554935
 20
624.1538231674544
 30
0.0
  0
ENDBLK
  5
40C7
330
40C5
100
AcDbEntity
  8
0
 48
0.13
100
AcDbBlockEnd
  0
BLOCK
  5
40F3
330
40F2
100
AcDbEntity
  8
0
 48
0.13
100
AcDbBlockBegin
  2
*D12
 70
     1
 10
0.0
 20
0.0
 30
0.0
  3
*D12
  1

  0
LINE
  5
4122
330
40F2
100
AcDbEntity
  8
0
 62
     0
370
    -2
100
AcDbLine
 10
24958.37299356984
 20
1634.990441185232
 30
0.0
 11
25442.7699009034
 21
1634.990441185232
 31
0.0
  0
LINE
  5
4123
330
40F2
100
AcDbEntity
  8
0
 62
     0
370
    -2
100
AcDbLine
 10
24958.37299356984
 20
1034.990441185232
 30
0.0
 11
25442.7699009034
 21
1034.990441185232
 31
0.0
  0
LINE
  5
4124
330
40F2
100
AcDbEntity
  8
0
 62
     0
370
    -2
100
AcDbLine
 10
25441.5199009034
 20
1611.990441185232
 30
0.0
 11
25441.5199009034
 21
1057.990441185232
 31
0.0
  0
SOLID
  5
4125
330
40F2
100
AcDbEntity
  8
0
 62
     0
100
AcDbTrace
 10
25437.68656757007
 20
1611.990441185232
 30
0.0
 11
25445.35323423674
 21
1611.990441185232
 31
0.0
 12
25441.5199009034
 22
1634.990441185232
 32
0.0
 13
25441.5199009034
 23
1634.990441185232
 33
0.0
  0
SOLID
  5
4126
330
40F2
100
AcDbEntity
  8
0
 62
     0
100
AcDbTrace
 10
25437.68656757007
 20
1057.990441185232
 30
0.0
 11
25445.35323423674
 21
1057.990441185232
 31
0.0
 12
25441.5199009034
 22
1034.990441185232
 32
0.0
 13
25441.5199009034
 23
1034.990441185232
 33
0.0
  0
MTEXT
  5
4127
330
40F2
100
AcDbEntity
  8
0
 62
     0
100
AcDbMText
 10
25429.1517221858
 20
1334.990441185236
 30
0.0
 40
23.0
 41
0.0
 71
     5
 72
     1
  1
600
  7
style1
 11
6.123233995736766E-17
 21
1.0
 31
0.0
 73
     1
 44
1.0
  0
POINT
  5
4128
330
40F2
100
AcDbEntity
  8
Defpoints
 62
     0
100
AcDbPoint
 10
24957.74799356984
 20
1634.990441185232
 30
0.0
  0
POINT
  5
4129
330
40F2
100
AcDbEntity
  8
Defpoints
 62
     0
100
AcDbPoint
 10
24957.74799356984
 20
1034.990441185232
 30
0.0
  0
POINT
  5
412A
330
40F2
100
AcDbEntity
  8
Defpoints
 62
     0
100
AcDbPoint
 10
25441.5199009034
 20
1034.990441185232
 30
0.0
  0
ENDBLK
  5
40F4
330
40F2
100
AcDbEntity
  8
0
 48
0.13
100
AcDbBlockEnd
  0
ENDSEC
  0
SECTION
  2
ENTITIES
  0
INSERT
  5
41E4
330
1F
100
AcDbEntity
  8
0
100
AcDbBlockReference
  2
S 300
 10
0.0
 20
0.0
 30
0.0
  0
INSERT
  5
420C
330
1F
100
AcDbEntity
  8
0
100
AcDbBlockReference
  2
S 300_1
 10
0.0
 20
0.0
 30
0.0
  0
ENDSEC
  0
SECTION
  2
OBJECTS
  0
DICTIONARY
  5
C
330
0
100
AcDbDictionary
281
     1
  3
ACAD_COLOR
350
6B
  3
ACAD_GROUP
350
D
  3
ACAD_IMAGE_DICT
350
1AD
  3
ACAD_IMAGE_VARS
350
1AE
  3
ACAD_LAYOUT
350
1A
  3
ACAD_MATERIAL
350
6A
  3
ACAD_MLEADERSTYLE
350
12D
  3
ACAD_MLINESTYLE
350
17
  3
ACAD_PLOTSETTINGS
350
19
  3
ACAD_PLOTSTYLENAME
350
E
  3
ACAD_SCALELIST
350
10C
  3
ACAD_TABLESTYLE
350
7E
  3
ACAD_VISUALSTYLE
350
EF
  3
ACDBHEADERROUNDTRIPXREC
350
423D
  3
AcDbVariableDictionary
350
5E
  3
DWGPROPS
350
4240
  0
DICTIONARY
  5
4241
330
8
100
AcDbDictionary
280
     1
281
     1
  3
ACAD_XREC_ROUNDTRIP
360
4242
  0
DICTIONARY
  5
1B6
330
2
100
AcDbDictionary
280
     1
281
     1
  3
ACAD_LAYERFILTERS
360
1B8
  3
ACAD_LAYERSTATES
360
285
  3
ACLYDICTIONARY
360
1B7
  0
DICTIONARY
  5
13C
330
10
100
AcDbDictionary
280
     1
281
     1
  3
ADSK_XREC_LAYER_RECONCILED
360
1B2
  0
DICTIONARY
  5
1CC
330
1F
100
AcDbDictionary
280
     1
281
     1
  3
ACAD_SORTENTS
360
1CD
  0
DICTIONARY
  5
6B
102
{ACAD_REACTORS
330
C
102
}
330
C
100
AcDbDictionary
281
     1
  0
DICTIONARY
  5
D
102
{ACAD_REACTORS
330
C
102
}
330
C
100
AcDbDictionary
281
     1
  0
DICTIONARY
  5
1AD
102
{ACAD_REACTORS
330
C
102
}
330
C
100
AcDbDictionary
281
     1
  3
DimSK300_3ZB
350
2697
  3
DimZWC28_28_3_MFK
350
1AE7
  3
GWS_S 120 K_DIM
350
1AF
  3
GZK_30-8 EC_DIM
350
779
  3
GZT_ZSC30_3_MFA_DIM
350
1C86
  3
GZT_ZW 24 AE_DIM
350
2052
  3
OZK_CGA 25_DIM
350
1319
  0
RASTERVARIABLES
  5
1AE
102
{ACAD_REACTORS
330
C
102
}
330
C
100
AcDbRasterVariables
 90
        0
 70
     1
 71
     1
 72
     1
  0
DICTIONARY
  5
1A
102
{ACAD_REACTORS
330
C
102
}
330
C
100
AcDbDictionary
281
     1
  3
Layout1
350
D3
  3
Layout2
350
D7
  3
Model
350
22
  0
DICTIONARY
  5
6A
102
{ACAD_REACTORS
330
C
102
}
330
C
100
AcDbDictionary
281
     1
  3
ByBlock
350
ED
  3
ByLayer
350
EC
  3
Global
350
EE
  0
DICTIONARY
  5
12D
102
{ACAD_REACTORS
330
C
102
}
330
C
100
AcDbDictionary
281
     1
  3
Standard
350
12E
  0
DICTIONARY
  5
17
102
{ACAD_REACTORS
330
C
102
}
330
C
100
AcDbDictionary
281
     1
  3
Standard
350
18
  0
DICTIONARY
  5
19
102
{ACAD_REACTORS
330
C
102
}
330
C
100
AcDbDictionary
281
     1
  0
ACDBDICTIONARYWDFLT
  5
E
102
{ACAD_REACTORS
330
C
102
}
330
C
100
AcDbDictionary
281
     1
  3
Normal
350
F
100
AcDbDictionaryWithDefault
340
F
  0
DICTIONARY
  5
10C
102
{ACAD_REACTORS
330
C
102
}
330
C
100
AcDbDictionary
281
     1
  3
A0
350
10D
  3
A1
350
188
  3
A2
350
189
  3
A3
350
18A
  3
A4
350
18B
  3
A5
350
18C
  3
A6
350
18D
  3
A7
350
18E
  3
A8
350
18F
  3
A9
350
190
  3
B0
350
191
  3
B1
350
192
  3
B2
350
193
  3
B3
350
194
  3
B4
350
195
  3
B5
350
196
  3
B6
350
197
  3
B7
350
198
  3
B8
350
199
  3
B9
350
19A
  3
C0
350
19B
  3
C1
350
19C
  3
C2
350
19D
  3
C3
350
19E
  3
C4
350
19F
  3
C5
350
1A0
  3
C6
350
1A1
  3
C7
350
1A2
  3
C8
350
1A3
  3
C9
350
1A4
  3
D0
350
1A5
  3
D1
350
1A6
  3
D2
350
1A7
  0
DICTIONARY
  5
7E
102
{ACAD_REACTORS
330
C
102
}
330
C
100
AcDbDictionary
281
     1
  3
Standard
350
7F
  0
DICTIONARY
  5
EF
102
{ACAD_REACTORS
330
C
102
}
330
C
100
AcDbDictionary
281
     1
  3
2dWireframe
350
F5
  3
3D Hidden
350
F7
  3
3dWireframe
350
F6
  3
Basic
350
F4
  3
Brighten
350
FB
  3
ColorChange
350
FF
  3
Conceptual
350
F8
  3
Dim
350
FA
  3
EdgeColorOff
350
4233
  3
Facepattern
350
FE
  3
Flat
350
F0
  3
FlatWithEdges
350
F1
  3
Gouraud
350
F2
  3
GouraudWithEdges
350
F3
  3
Hidden
350
4230
  3
JitterOff
350
4231
  3
Linepattern
350
FD
  3
OverhangOff
350
4232
  3
Realistic
350
F9
  3
Shaded
350
4238
  3
Shaded with edges
350
4237
  3
Shades of Gray
350
4234
  3
Sketchy
350
4235
  3
Thicken
350
FC
  3
Wireframe
350
422F
  3
X-Ray
350
4236
  0
DICTIONARY
  5
423D
102
{ACAD_REACTORS
330
C
102
}
330
C
100
AcDbDictionary
281
     1
  3
COLORDICT
350
423E
  3
MATERIALDICT
350
423F
  0
DICTIONARY
  5
5E
102
{ACAD_REACTORS
330
C
102
}
330
C
100
AcDbDictionary
281
     1
  3
CANNOSCALE
350
4243
  3
CMLEADERSTYLE
350
145
  3
CTABLESTYLE
350
84
  3
DIMASSOC
350
5F
  3
HIDETEXT
350
63
  3
INDEXCTL
350
3331
  3
LIGHTINGUNITS
350
2CA1
  3
MSLTSCALE
350
2CA0
  3
PSOLHEIGHT
350
423A
  3
PSOLWIDTH
350
4239
  3
SORTENTS
350
3330
  0
XRECORD
  5
4240
102
{ACAD_REACTORS
330
C
102
}
330
C
100
AcDbXrecord
280
     1
  1
DWGPROPS COOKIE
  2

  3

  4

  6

  7

  8
acae2
  9

300
=
301
=
302
=
303
=
304
=
305
=
306
=
307
=
308
=
309
=
 40
0.0
 41
2454651.611380683
 42
2460388.30042772
  1

 90
        0
  0
XRECORD
  5
4242
102
{ACAD_REACTORS
330
4241
102
}
330
4241
100
AcDbXrecord
280
     1
102
VTR_0.000_0.000_1.000_1.000_VISUALSTYLE
340
F5
102
VTR_0.000_0.000_1.000_1.000_GRIDDISPLAY
 70
     2
102
VTR_0.000_0.000_1.000_1.000_GRIDMAJOR
 70
     5
102
VTR_0.000_0.000_1.000_1.000_DEFAULTLIGHTING
280
     1
102
VTR_0.000_0.000_1.000_1.000_DEFAULTLIGHTINGTYPE
 70
     1
102
VTR_0.000_0.000_1.000_1.000_BRIGHTNESS
141
0.0
102
VTR_0.000_0.000_1.000_1.000_CONTRAST
142
0.0
  0
DICTIONARY
  5
1B8
102
{ACAD_REACTORS
330
1B6
102
}
330
1B6
100
AcDbDictionary
281
     1
  0
DICTIONARY
  5
285
102
{ACAD_REACTORS
330
1B6
102
}
330
1B6
100
AcDbDictionary
281
     1
  0
DICTIONARY
  5
1B7
102
{ACAD_REACTORS
330
1B6
102
}
330
1B6
100
AcDbDictionary
281
     1
1001
ACAD
1000
<All
  0
XRECORD
  5
1B2
102
{ACAD_REACTORS
330
13C
102
}
330
13C
100
AcDbXrecord
280
     1
290
     1
  0
SORTENTSTABLE
  5
1CD
102
{ACAD_REACTORS
330
1CC
102
}
330
1CC
100
AcDbSortentsTable
330
1F
331
0
  5
409D
  0
IMAGEDEF
  5
2697
102
{ACAD_REACTORS
330
1AD
102
}
330
1AD
100
AcDbRasterImageDef
 90
        0
  1
C:\Users\Vanina\Documents\Vanina\ACAE\Junkers\cad's\solar\acumuladores intercambiadores\DimSK300_3ZB.jpg
 10
720.0
 20
540.0
 11
0.3527777777777777
 21
0.3527777777777777
280
     1
281
     5
  0
IMAGEDEF
  5
1AE7
102
{ACAD_REACTORS
330
1AD
102
}
330
1AD
100
AcDbRasterImageDef
 90
        0
  1
C:\Users\Vanina\Documents\Vanina\ACAE\Junkers\cad's\calefacción\calderas murales a gas\ceraclass excellence\DimZWC28_28_3_MFK.jpg
 10
720.0
 20
540.0
 11
0.3527777777777777
 21
0.3527777777777777
280
     1
281
     5
  0
IMAGEDEF
  5
1AF
102
{ACAD_REACTORS
330
1AD
102
}
330
1AD
100
AcDbRasterImageDef
 90
        0
  1
C:\Users\Vanina\Documents\Vanina\ACAE\Junkers\cad's\acs\acumuladores directos a gas\GWS_S 120 K_DIM.jpg
 10
720.0
 20
540.0
 11
0.3527777777777777
 21
0.3527777777777777
280
     1
281
     5
  0
IMAGEDEF
  5
779
102
{ACAD_REACTORS
330
1AD
102
}
330
1AD
100
AcDbRasterImageDef
 90
        0
  1
C:\Users\Vanina\Documents\Vanina\ACAE\Junkers\cad's\calefacción\calderas de pie a gas\GZK_30-8 EC_DIM.jpg
 10
720.0
 20
540.0
 11
0.3527777777777777
 21
0.3527777777777777
280
     1
281
     5
  0
IMAGEDEF
  5
1C86
102
{ACAD_REACTORS
330
1AD
102
}
330
1AD
100
AcDbRasterImageDef
 90
        0
  1
C:\Users\Vanina\Documents\Vanina\ACAE\Junkers\cad's\calefacción\calderas murales a gas\ceraclass excellence\GZT_ZSC30_3_MFA_DIM.jpg
 10
720.0
 20
540.0
 11
0.3527777777777777
 21
0.3527777777777777
280
     1
281
     5
  0
IMAGEDEF
  5
2052
102
{ACAD_REACTORS
330
1AD
102
}
330
1AD
100
AcDbRasterImageDef
 90
        0
  1
C:\Users\Vanina\Documents\Vanina\ACAE\Junkers\cad's\calefacción\calderas murales a gas\ceraclass midi\GZT_ZW 24 AE_DIM.jpg
 10
720.0
 20
540.0
 11
0.3527777777777777
 21
0.3527777777777777
280
     1
281
     5
  0
IMAGEDEF
  5
1319
102
{ACAD_REACTORS
330
1AD
102
}
330
1AD
100
AcDbRasterImageDef
 90
        0
  1
C:\Users\Vanina\Documents\Vanina\ACAE\Junkers\cad's\calefacción\calderas gasoleo\OZK_CGA 25_DIM.jpg
 10
720.0
 20
540.0
 11
0.3527777777777777
 21
0.3527777777777777
280
     1
281
     5
  0
LAYOUT
  5
D3
102
{ACAD_REACTORS
330
1A
102
}
330
1A
100
AcDbPlotSettings
  1

  2
C:\Documents and Settings\basas\Application Data\Autodesk\AutoCAD 2005\R16.1\enu\plotters\Default Windows System Printer.pc3
  4

  6

 40
0.0
 41
0.0
 42
0.0
 43
0.0
 44
0.0
 45
0.0
 46
0.0
 47
0.0
 48
0.0
 49
0.0
140
0.0
141
0.0
142
1.0
143
1.0
 70
   688
 72
     0
 73
     0
 74
     5
  7

 75
    16
147
1.0
148
0.0
149
0.0
100
AcDbLayout
  1
Layout1
 70
     1
 71
     1
 10
0.0
 20
0.0
 11
12.0
 21
9.0
 12
0.0
 22
0.0
 32
0.0
 14
0.0
 24
0.0
 34
0.0
 15
0.0
 25
0.0
 35
0.0
146
0.0
 13
0.0
 23
0.0
 33
0.0
 16
1.0
 26
0.0
 36
0.0
 17
0.0
 27
1.0
 37
0.0
 76
     0
330
D2
  0
LAYOUT
  5
D7
102
{ACAD_REACTORS
330
1A
102
}
330
1A
100
AcDbPlotSettings
  1

  2
C:\Documents and Settings\basas\Application Data\Autodesk\AutoCAD 2005\R16.1\enu\plotters\Default Windows System Printer.pc3
  4

  6

 40
0.0
 41
0.0
 42
0.0
 43
0.0
 44
0.0
 45
0.0
 46
0.0
 47
0.0
 48
0.0
 49
0.0
140
0.0
141
0.0
142
1.0
143
1.0
 70
   688
 72
     0
 73
     0
 74
     5
  7

 75
    16
147
1.0
148
0.0
149
0.0
100
AcDbLayout
  1
Layout2
 70
     1
 71
     2
 10
0.0
 20
0.0
 11
12.0
 21
9.0
 12
0.0
 22
0.0
 32
0.0
 14
0.0
 24
0.0
 34
0.0
 15
0.0
 25
0.0
 35
0.0
146
0.0
 13
0.0
 23
0.0
 33
0.0
 16
1.0
 26
0.0
 36
0.0
 17
0.0
 27
1.0
 37
0.0
 76
     0
330
D6
  0
LAYOUT
  5
22
102
{ACAD_REACTORS
330
1A
102
}
330
1A
100
AcDbPlotSettings
  1

  2
none_device
  4
ISO_A4_(210.00_x_297.00_MM)
  6

 40
7.5
 41
20.0
 42
7.5
 43
20.0
 44
210.0
 45
297.0
 46
11.54999923706055
 47
-13.65000009536743
 48
0.0
 49
0.0
140
0.0
141
0.0
142
1.0
143
8.704084754739808
 70
 11952
 72
     1
 73
     0
 74
     0
  7

 75
     0
147
0.1148885871608098
148
0.0
149
0.0
100
AcDbLayout
  1
Model
 70
     1
 71
     0
 10
0.0
 20
0.0
 11
12.0
 21
9.0
 12
0.0
 22
0.0
 32
0.0
 14
0.0
 24
0.0
 34
0.0
 15
0.0
 25
0.0
 35
0.0
146
0.0
 13
0.0
 23
0.0
 33
0.0
 16
1.0
 26
0.0
 36
0.0
 17
0.0
 27
1.0
 37
0.0
 76
     0
330
1F
331
EA
1001
ACAD_PSEXT
1000
None
1000
None
1000
Not applicable
1000
The layout will not be plotted unless a new plotter configuration name is selected.
1070
     0
  0
MATERIAL
  5
ED
102
{ACAD_REACTORS
330
6A
102
}
102
{ACAD_XDICTIONARY
360
4244
102
}
330
6A
100
AcDbMaterial
  1
ByBlock
 73
     2
 78
     2
172
     2
176
     2
270
     2
274
     2
  0
MATERIAL
  5
EC
102
{ACAD_REACTORS
330
6A
102
}
102
{ACAD_XDICTIONARY
360
4246
102
}
330
6A
100
AcDbMaterial
  1
ByLayer
 73
     2
 78
     2
172
     2
176
     2
270
     2
274
     2
  0
MATERIAL
  5
EE
102
{ACAD_REACTORS
330
6A
102
}
102
{ACAD_XDICTIONARY
360
4248
102
}
330
6A
100
AcDbMaterial
  1
Global
 73
     2
 43
0.0007999999797903
 43
0.0
 43
0.0
 43
0.0
 43
0.0
 43
0.0007999999797903
 43
0.0
 43
0.0
 43
0.0
 43
0.0
 43
1.0
 43
0.0
 43
0.0
 43
0.0
 43
0.0
 43
1.0
 78
     2
172
     2
 49
0.0007999999797903
 49
0.0
 49
0.0
 49
0.0
 49
0.0
 49
0.0007999999797903
 49
0.0
 49
0.0
 49
0.0
 49
0.0
 49
1.0
 49
0.0
 49
0.0
 49
0.0
 49
0.0
 49
1.0
176
     2
142
0.0007999999797903
142
0.0
142
0.0
142
0.0
142
0.0
142
0.0007999999797903
142
0.0
142
0.0
142
0.0
142
0.0
142
1.0
142
0.0
142
0.0
142
0.0
142
0.0
142
1.0
270
     2
144
0.0007999999797903
144
0.0
144
0.0
144
0.0
144
0.0
144
0.0007999999797903
144
0.0
144
0.0
144
0.0
144
0.0
144
1.0
144
0.0
144
0.0
144
0.0
144
0.0
144
1.0
274
     2
1001
ACAD
1070
    -1
1070
     3
1070
     0
1000

1071
        0
1070
     0
  0
MLEADERSTYLE
  5
12E
102
{ACAD_REACTORS
330
12D
102
}
102
{ACAD_XDICTIONARY
360
424A
102
}
330
12D
100
AcDbMLeaderStyle
170
     2
171
     1
172
     0
 90
        2
 40
0.0
 41
0.0
173
     1
 91
-1056964608
340
14
 92
       -2
290
     1
 42
2.0
291
     1
 43
8.0
  3
Standard
341
0
 44
4.0
300

342
11
174
     1
178
     1
175
     1
176
     0
 93
-1056964608
 45
4.0
292
     0
297
     0
 46
4.0
343
0
 94
-1056964608
 47
1.0
 49
1.0
140
1.0
293
     1
141
0.0
294
     1
177
     0
142
1.0
295
     0
296
     0
143
3.75
1001
ACAD_MLEADERVER
1070
     2
  0
MLINESTYLE
  5
18
102
{ACAD_REACTORS
330
17
102
}
330
17
100
AcDbMlineStyle
  2
STANDARD
 70
     0
  3

 62
   256
 51
90.0
 52
90.0
 71
     2
 49
0.5
 62
   256
  6
BYLAYER
 49
-0.5
 62
   256
  6
BYLAYER
  0
ACDBPLACEHOLDER
  5
F
102
{ACAD_REACTORS
330
E
102
}
330
E
  0
SCALE
  5
10D
102
{ACAD_REACTORS
330
10C
102
}
330
10C
100
AcDbScale
 70
     0
300
1:1
140
1.0
141
1.0
290
     1
  0
SCALE
  5
188
102
{ACAD_REACTORS
330
10C
102
}
330
10C
100
AcDbScale
 70
     0
300
1:2
140
1.0
141
2.0
290
     0
  0
SCALE
  5
189
102
{ACAD_REACTORS
330
10C
102
}
330
10C
100
AcDbScale
 70
     0
300
1:4
140
1.0
141
4.0
290
     0
  0
SCALE
  5
18A
102
{ACAD_REACTORS
330
10C
102
}
330
10C
100
AcDbScale
 70
     0
300
1:5
140
1.0
141
5.0
290
     0
  0
SCALE
  5
18B
102
{ACAD_REACTORS
330
10C
102
}
330
10C
100
AcDbScale
 70
     0
300
1:8
140
1.0
141
8.0
290
     0
  0
SCALE
  5
18C
102
{ACAD_REACTORS
330
10C
102
}
330
10C
100
AcDbScale
 70
     0
300
1:10
140
1.0
141
10.0
290
     0
  0
SCALE
  5
18D
102
{ACAD_REACTORS
330
10C
102
}
330
10C
100
AcDbScale
 70
     0
300
1:16
140
1.0
141
16.0
290
     0
  0
SCALE
  5
18E
102
{ACAD_REACTORS
330
10C
102
}
330
10C
100
AcDbScale
 70
     0
300
1:20
140
1.0
141
20.0
290
     0
  0
SCALE
  5
18F
102
{ACAD_REACTORS
330
10C
102
}
330
10C
100
AcDbScale
 70
     0
300
1:30
140
1.0
141
30.0
290
     0
  0
SCALE
  5
190
102
{ACAD_REACTORS
330
10C
102
}
330
10C
100
AcDbScale
 70
     0
300
1:40
140
1.0
141
40.0
290
     0
  0
SCALE
  5
191
102
{ACAD_REACTORS
330
10C
102
}
330
10C
100
AcDbScale
 70
     0
300
1:50
140
1.0
141
50.0
290
     0
  0
SCALE
  5
192
102
{ACAD_REACTORS
330
10C
102
}
330
10C
100
AcDbScale
 70
     0
300
1:100
140
1.0
141
100.0
290
     0
  0
SCALE
  5
193
102
{ACAD_REACTORS
330
10C
102
}
330
10C
100
AcDbScale
 70
     0
300
2:1
140
2.0
141
1.0
290
     0
  0
SCALE
  5
194
102
{ACAD_REACTORS
330
10C
102
}
330
10C
100
AcDbScale
 70
     0
300
4:1
140
4.0
141
1.0
290
     0
  0
SCALE
  5
195
102
{ACAD_REACTORS
330
10C
102
}
330
10C
100
AcDbScale
 70
     0
300
8:1
140
8.0
141
1.0
290
     0
  0
SCALE
  5
196
102
{ACAD_REACTORS
330
10C
102
}
330
10C
100
AcDbScale
 70
     0
300
10:1
140
10.0
141
1.0
290
     0
  0
SCALE
  5
197
102
{ACAD_REACTORS
330
10C
102
}
330
10C
100
AcDbScale
 70
     0
300
100:1
140
100.0
141
1.0
290
     0
  0
SCALE
  5
198
102
{ACAD_REACTORS
330
10C
102
}
330
10C
100
AcDbScale
 70
     0
300
1/128" = 1'-0"
140
0.0078125
141
12.0
290
     0
  0
SCALE
  5
199
102
{ACAD_REACTORS
330
10C
102
}
330
10C
100
AcDbScale
 70
     0
300
1/64" = 1'-0"
140
0.015625
141
12.0
290
     0
  0
SCALE
  5
19A
102
{ACAD_REACTORS
330
10C
102
}
330
10C
100
AcDbScale
 70
     0
300
1/32" = 1'-0"
140
0.03125
141
12.0
290
     0
  0
SCALE
  5
19B
102
{ACAD_REACTORS
330
10C
102
}
330
10C
100
AcDbScale
 70
     0
300
1/16" = 1'-0"
140
0.0625
141
12.0
290
     0
  0
SCALE
  5
19C
102
{ACAD_REACTORS
330
10C
102
}
330
10C
100
AcDbScale
 70
     0
300
3/32" = 1'-0"
140
0.09375
141
12.0
290
     0
  0
SCALE
  5
19D
102
{ACAD_REACTORS
330
10C
102
}
330
10C
100
AcDbScale
 70
     0
300
1/8" = 1'-0"
140
0.125
141
12.0
290
     0
  0
SCALE
  5
19E
102
{ACAD_REACTORS
330
10C
102
}
330
10C
100
AcDbScale
 70
     0
300
3/16" = 1'-0"
140
0.1875
141
12.0
290
     0
  0
SCALE
  5
19F
102
{ACAD_REACTORS
330
10C
102
}
330
10C
100
AcDbScale
 70
     0
300
1/4" = 1'-0"
140
0.25
141
12.0
290
     0
  0
SCALE
  5
1A0
102
{ACAD_REACTORS
330
10C
102
}
330
10C
100
AcDbScale
 70
     0
300
3/8" = 1'-0"
140
0.375
141
12.0
290
     0
  0
SCALE
  5
1A1
102
{ACAD_REACTORS
330
10C
102
}
330
10C
100
AcDbScale
 70
     0
300
1/2" = 1'-0"
140
0.5
141
12.0
290
     0
  0
SCALE
  5
1A2
102
{ACAD_REACTORS
330
10C
102
}
330
10C
100
AcDbScale
 70
     0
300
3/4" = 1'-0"
140
0.75
141
12.0
290
     0
  0
SCALE
  5
1A3
102
{ACAD_REACTORS
330
10C
102
}
330
10C
100
AcDbScale
 70
     0
300
1" = 1'-0"
140
1.0
141
12.0
290
     0
  0
SCALE
  5
1A4
102
{ACAD_REACTORS
330
10C
102
}
330
10C
100
AcDbScale
 70
     0
300
1-1/2" = 1'-0"
140
1.5
141
12.0
290
     0
  0
SCALE
  5
1A5
102
{ACAD_REACTORS
330
10C
102
}
330
10C
100
AcDbScale
 70
     0
300
3" = 1'-0"
140
3.0
141
12.0
290
     0
  0
SCALE
  5
1A6
102
{ACAD_REACTORS
330
10C
102
}
330
10C
100
AcDbScale
 70
     0
300
6" = 1'-0"
140
6.0
141
12.0
290
     0
  0
SCALE
  5
1A7
102
{ACAD_REACTORS
330
10C
102
}
330
10C
100
AcDbScale
 70
     0
300
1'-0" = 1'-0"
140
12.0
141
12.0
290
     0
  0
TABLESTYLE
  5
7F
102
{ACAD_REACTORS
330
7E
102
}
102
{ACAD_XDICTIONARY
360
162
102
}
330
7E
100
AcDbTableStyle
  3
Standard
 70
     0
 71
     0
 40
1.5
 41
1.5
280
     0
281
     0
  7
Standard
140
4.5
170
     2
 62
     0
 63
   257
283
     0
274
    -2
284
     1
 64
     0
275
    -2
285
     1
 65
     0
276
    -2
286
     1
 66
     0
277
    -2
287
     1
 67
     0
278
    -2
288
     1
 68
     0
279
    -2
289
     1
 69
     0
  7
Standard
140
6.0
170
     5
 62
     0
 63
   257
283
     0
274
    -2
284
     1
 64
     0
275
    -2
285
     1
 65
     0
276
    -2
286
     1
 66
     0
277
    -2
287
     1
 67
     0
278
    -2
288
     1
 68
     0
279
    -2
289
     1
 69
     0
  7
Standard
140
4.5
170
     5
 62
     0
 63
   257
283
     0
274
    -2
284
     1
 64
     0
275
    -2
285
     1
 65
     0
276
    -2
286
     1
 66
     0
277
    -2
287
     1
 67
     0
278
    -2
288
     1
 68
     0
279
    -2
289
     1
 69
     0
  0
VISUALSTYLE
  5
F5
102
{ACAD_REACTORS
330
EF
102
}
102
{ACAD_XDICTIONARY
360
424C
102
}
330
EF
100
AcDbVisualStyle
  2
2dWireframe
 70
     4
 71
     0
 72
     2
 73
     1
 90
        0
 40
-0.6
 41
-30.0
 62
     5
 63
     7
 74
     1
 91
        4
 64
     7
 65
   257
 75
     1
175
     1
 42
1.0
 92
        0
 66
   257
 43
1.0
 76
     1
 77
     6
 78
     2
 67
     7
 79
     5
170
     0
171
     0
290
     0
174
     0
 93
        1
 44
0.0
173
     0
291
     0
 45
0.0
1001
ACAD
1000
AcDbSavedByObjectVersion
1070
     0
  0
VISUALSTYLE
  5
F7
102
{ACAD_REACTORS
330
EF
102
}
102
{ACAD_XDICTIONARY
360
424E
102
}
330
EF
100
AcDbVisualStyle
  2
3D Hidden
 70
     6
 71
     1
 72
     2
 73
     2
 90
        0
 40
-0.6
 41
-30.0
 62
     5
 63
     7
 74
     2
 91
        2
 64
     7
 65
   257
 75
     2
175
     1
 42
40.0
 92
        0
 66
   257
 43
1.0
 76
     1
 77
     6
 78
     2
 67
     7
 79
     3
170
     0
171
     0
290
     0
174
     0
 93
        1
 44
0.0
173
     0
291
     0
 45
0.0
1001
ACAD
1000
AcDbSavedByObjectVersion
1070
     0
  0
VISUALSTYLE
  5
F6
102
{ACAD_REACTORS
330
EF
102
}
102
{ACAD_XDICTIONARY
360
4250
102
}
330
EF
100
AcDbVisualStyle
  2
3dWireframe
 70
     5
 71
     0
 72
     2
 73
     1
 90
        0
 40
-0.6
 41
-30.0
 62
     5
 63
     7
 74
     1
 91
        4
 64
     7
 65
   257
 75
     1
175
     1
 42
1.0
 92
        0
 66
   257
 43
1.0
 76
     1
 77
     6
 78
     2
 67
     7
 79
     5
170
     0
171
     0
290
     0
174
     0
 93
        1
 44
0.0
173
     0
291
     0
 45
0.0
1001
ACAD
1000
AcDbSavedByObjectVersion
1070
     0
  0
VISUALSTYLE
  5
F4
102
{ACAD_REACTORS
330
EF
102
}
102
{ACAD_XDICTIONARY
360
4252
102
}
330
EF
100
AcDbVisualStyle
  2
Basic
 70
     7
 71
     1
 72
     0
 73
     1
 90
        0
 40
-0.6
 41
-30.0
 62
     5
 63
     7
 74
     0
 91
        4
 64
     7
 65
   257
 75
     1
175
     1
 42
1.0
 92
        8
 66
     7
 43
1.0
 76
     1
 77
     6
 78
     2
 67
     7
 79
     5
170
     0
171
     0
290
     0
174
     0
 93
        1
 44
0.0
173
     0
291
     1
 45
0.0
1001
ACAD
1000
AcDbSavedByObjectVersion
1070
     0
  0
VISUALSTYLE
  5
FB
102
{ACAD_REACTORS
330
EF
102
}
102
{ACAD_XDICTIONARY
360
4254
102
}
330
EF
100
AcDbVisualStyle
  2
Brighten
 70
    12
 71
     2
 72
     2
 73
     1
 90
        0
 40
-0.6
 41
-30.0
 62
     5
 63
     7
 74
     1
 91
        4
 64
     7
 65
   257
 75
     1
175
     1
 42
1.0
 92
        8
 66
     7
 43
1.0
 76
     1
 77
     6
 78
     2
 67
     7
 79
     5
170
     0
171
     0
290
     0
174
     0
 93
        1
 44
50.0
173
     0
291
     1
 45
0.0
1001
ACAD
1000
AcDbSavedByObjectVersion
1070
     0
  0
VISUALSTYLE
  5
FF
102
{ACAD_REACTORS
330
EF
102
}
102
{ACAD_XDICTIONARY
360
4256
102
}
330
EF
100
AcDbVisualStyle
  2
ColorChange
 70
    16
 71
     2
 72
     2
 73
     3
 90
        0
 40
-0.6
 41
-30.0
 62
     5
 63
     8
 74
     1
 91
        4
 64
     7
 65
   257
 75
     1
175
     1
 42
1.0
 92
        8
 66
     8
 43
1.0
 76
     1
 77
     6
 78
     2
 67
     7
 79
     5
170
     0
171
     0
290
     0
174
     0
 93
        1
 44
0.0
173
     0
291
     1
 45
0.0
1001
ACAD
1000
AcDbSavedByObjectVersion
1070
     0
  0
VISUALSTYLE
  5
F8
102
{ACAD_REACTORS
330
EF
102
}
102
{ACAD_XDICTIONARY
360
4258
102
}
330
EF
100
AcDbVisualStyle
  2
Conceptual
 70
     9
 71
     3
 72
     2
 73
     1
 90
        0
 40
-0.6
 41
-30.0
 62
     5
 63
     7
 74
     2
 91
        2
 64
     7
 65
   257
 75
     1
175
     1
 42
40.0
 92
        8
 66
     7
 43
1.0
 76
     1
 77
     6
 78
     2
 67
     7
 79
     3
170
     0
171
     0
290
     0
174
     0
 93
        1
 44
0.0
173
     0
291
     0
 45
0.0
1001
ACAD
1000
AcDbSavedByObjectVersion
1070
     0
  0
VISUALSTYLE
  5
FA
102
{ACAD_REACTORS
330
EF
102
}
102
{ACAD_XDICTIONARY
360
425A
102
}
330
EF
100
AcDbVisualStyle
  2
Dim
 70
    11
 71
     2
 72
     2
 73
     1
 90
        0
 40
-0.6
 41
-30.0
 62
     5
 63
     7
 74
     1
 91
        4
 64
     7
 65
   257
 75
     1
175
     1
 42
1.0
 92
        8
 66
     7
 43
1.0
 76
     1
 77
     6
 78
     2
 67
     7
 79
     5
170
     0
171
     0
290
     0
174
     0
 93
        1
 44
-50.0
173
     0
291
     1
 45
0.0
1001
ACAD
1000
AcDbSavedByObjectVersion
1070
     0
  0
VISUALSTYLE
  5
4233
102
{ACAD_REACTORS
330
EF
102
}
102
{ACAD_XDICTIONARY
360
4274
102
}
330
EF
100
AcDbVisualStyle
  2
EdgeColorOff
 70
    22
 71
     2
 72
     2
 73
     0
 90
        0
 40
0.6
 41
30.0
 62
     5
 63
     7
 74
     1
 91
        4
 64
     7
 65
   257
 75
     1
175
     1
 42
1.0
 92
        8
 66
     7
 43
1.0
 76
     1
 77
     6
 78
     2
 67
     7
 79
     5
170
     0
171
     0
290
     0
174
     0
 93
        1
 44
0.0
173
     0
291
     1
 45
0.0
1001
ACAD
1000
AcDbSavedByObjectVersion
1070
     0
  0
VISUALSTYLE
  5
FE
102
{ACAD_REACTORS
330
EF
102
}
102
{ACAD_XDICTIONARY
360
425C
102
}
330
EF
100
AcDbVisualStyle
  2
Facepattern
 70
    15
 71
     2
 72
     2
 73
     1
 90
        0
 40
-0.6
 41
-30.0
 62
     5
 63
     7
 74
     1
 91
        4
 64
     7
 65
   257
 75
     1
175
     1
 42
1.0
 92
        8
 66
     7
 43
1.0
 76
     1
 77
     6
 78
     2
 67
     7
 79
     5
170
     0
171
     0
290
     0
174
     0
 93
        1
 44
0.0
173
     0
291
     1
 45
0.0
1001
ACAD
1000
AcDbSavedByObjectVersion
1070
     0
  0
VISUALSTYLE
  5
F0
102
{ACAD_REACTORS
330
EF
102
}
102
{ACAD_XDICTIONARY
360
425E
102
}
330
EF
100
AcDbVisualStyle
  2
Flat
 70
     0
 71
     2
 72
     1
 73
     1
 90
        2
 40
-0.6
 41
30.0
 62
     5
 63
     7
 74
     0
 91
        4
 64
     7
 65
   257
 75
     1
175
     1
 42
1.0
 92
        8
 66
     7
 43
1.0
 76
     1
 77
     6
 78
     2
 67
     7
 79
     5
170
     0
171
     0
290
     0
174
     0
 93
        1
 44
0.0
173
     0
291
     1
 45
0.0
1001
ACAD
1000
AcDbSavedByObjectVersion
1070
     0
  0
VISUALSTYLE
  5
F1
102
{ACAD_REACTORS
330
EF
102
}
102
{ACAD_XDICTIONARY
360
4260
102
}
330
EF
100
AcDbVisualStyle
  2
FlatWithEdges
 70
     1
 71
     2
 72
     1
 73
     1
 90
        2
 40
-0.6
 41
30.0
 62
     5
 63
     7
 74
     1
 91
        4
 64
     7
 65
   257
 75
     1
175
     1
 42
1.0
 92
        0
 66
   257
 43
1.0
 76
     1
 77
     6
 78
     2
 67
     7
 79
     5
170
     0
171
     0
290
     0
174
     0
 93
        1
 44
0.0
173
     0
291
     1
 45
0.0
1001
ACAD
1000
AcDbSavedByObjectVersion
1070
     0
  0
VISUALSTYLE
  5
F2
102
{ACAD_REACTORS
330
EF
102
}
102
{ACAD_XDICTIONARY
360
4262
102
}
330
EF
100
AcDbVisualStyle
  2
Gouraud
 70
     2
 71
     2
 72
     2
 73
     1
 90
        2
 40
-0.6
 41
30.0
 62
     5
 63
     7
 74
     0
 91
        4
 64
     7
 65
   257
 75
     1
175
     1
 42
1.0
 92
        0
 66
     7
 43
1.0
 76
     1
 77
     6
 78
     2
 67
     7
 79
     5
170
     0
171
     0
290
     0
174
     0
 93
        1
 44
0.0
173
     0
291
     1
 45
0.0
1001
ACAD
1000
AcDbSavedByObjectVersion
1070
     0
  0
VISUALSTYLE
  5
F3
102
{ACAD_REACTORS
330
EF
102
}
102
{ACAD_XDICTIONARY
360
4264
102
}
330
EF
100
AcDbVisualStyle
  2
GouraudWithEdges
 70
     3
 71
     2
 72
     2
 73
     1
 90
        2
 40
-0.6
 41
30.0
 62
     5
 63
     7
 74
     1
 91
        4
 64
     7
 65
   257
 75
     1
175
     1
 42
1.0
 92
        0
 66
   257
 43
1.0
 76
     1
 77
     6
 78
     2
 67
     7
 79
     5
170
     0
171
     0
290
     0
174
     0
 93
        1
 44
0.0
173
     0
291
     1
 45
0.0
1001
ACAD
1000
AcDbSavedByObjectVersion
1070
     0
  0
VISUALSTYLE
  5
4230
102
{ACAD_REACTORS
330
EF
102
}
102
{ACAD_XDICTIONARY
360
426E
102
}
330
EF
100
AcDbVisualStyle
  2
Hidden
 70
     6
 71
     1
 72
     2
 73
     2
 90
        0
 40
0.6
 41
30.0
 62
     5
 63
     7
 74
     2
 91
        2
 64
     7
 65
   257
 75
     2
175
     1
 42
40.0
 92
        0
 66
   257
 43
1.0
 76
     1
 77
     6
 78
     2
 67
     7
 79
     3
170
     0
171
     0
290
     0
174
     0
 93
        1
 44
0.0
173
     0
291
     0
 45
0.0
1001
ACAD
1000
AcDbSavedByObjectVersion
1070
     0
  0
VISUALSTYLE
  5
4231
102
{ACAD_REACTORS
330
EF
102
}
102
{ACAD_XDICTIONARY
360
4270
102
}
330
EF
100
AcDbVisualStyle
  2
JitterOff
 70
    20
 71
     2
 72
     2
 73
     0
 90
        0
 40
0.6
 41
30.0
 62
     5
 63
     7
 74
     1
 91
        4
 64
     7
 65
   257
 75
     1
175
     1
 42
1.0
 92
       10
 66
     7
 43
1.0
 76
     1
 77
     6
 78
     2
 67
     7
 79
     5
170
     0
171
     0
290
     0
174
     0
 93
        1
 44
0.0
173
     0
291
     1
 45
0.0
1001
ACAD
1000
AcDbSavedByObjectVersion
1070
     0
  0
VISUALSTYLE
  5
FD
102
{ACAD_REACTORS
330
EF
102
}
102
{ACAD_XDICTIONARY
360
4266
102
}
330
EF
100
AcDbVisualStyle
  2
Linepattern
 70
    14
 71
     2
 72
     2
 73
     1
 90
        0
 40
-0.6
 41
-30.0
 62
     5
 63
     7
 74
     1
 91
        4
 64
     7
 65
   257
 75
     7
175
     7
 42
1.0
 92
        8
 66
     7
 43
1.0
 76
     1
 77
     6
 78
     2
 67
     7
 79
     5
170
     0
171
     0
290
     0
174
     0
 93
        1
 44
0.0
173
     0
291
     1
 45
0.0
1001
ACAD
1000
AcDbSavedByObjectVersion
1070
     0
  0
VISUALSTYLE
  5
4232
102
{ACAD_REACTORS
330
EF
102
}
102
{ACAD_XDICTIONARY
360
4272
102
}
330
EF
100
AcDbVisualStyle
  2
OverhangOff
 70
    21
 71
     2
 72
     2
 73
     0
 90
        0
 40
0.6
 41
30.0
 62
     5
 63
     7
 74
     1
 91
        4
 64
     7
 65
   257
 75
     1
175
     1
 42
1.0
 92
        9
 66
     7
 43
1.0
 76
     1
 77
     6
 78
     2
 67
     7
 79
     5
170
     0
171
     0
290
     0
174
     0
 93
        1
 44
0.0
173
     0
291
     1
 45
0.0
1001
ACAD
1000
AcDbSavedByObjectVersion
1070
     0
  0
VISUALSTYLE
  5
F9
102
{ACAD_REACTORS
330
EF
102
}
102
{ACAD_XDICTIONARY
360
4268
102
}
330
EF
100
AcDbVisualStyle
  2
Realistic
 70
     8
 71
     2
 72
     2
 73
     1
 90
        0
 40
-0.6
 41
-30.0
 62
     5
 63
     7
 74
     1
 91
        0
 64
     7
 65
   257
 75
     1
175
     1
 42
1.0
 92
        8
 66
     8
 43
1.0
 76
     1
 77
     6
 78
     2
 67
     7
 79
     5
170
     0
171
     0
290
     0
174
     0
 93
       13
 44
0.0
173
     0
291
     0
 45
0.0
1001
ACAD
1000
AcDbSavedByObjectVersion
1070
     0
  0
VISUALSTYLE
  5
4238
102
{ACAD_REACTORS
330
EF
102
}
102
{ACAD_XDICTIONARY
360
427E
102
}
330
EF
100
AcDbVisualStyle
  2
Shaded
 70
    27
 71
     2
 72
     2
 73
     1
 90
        2
 40
0.6
 41
30.0
 62
     5
 63
     7
 74
     0
 91
        4
 64
     7
 65
   257
 75
     1
175
     1
 42
1.0
 92
        8
 66
   257
 43
1.0
 76
     1
 77
     6
 78
     2
 67
     8
 79
     3
170
     0
171
     0
290
     0
174
     0
 93
        5
 44
0.0
173
     0
291
     0
 45
0.0
1001
ACAD
1000
AcDbSavedByObjectVersion
1070
     0
  0
VISUALSTYLE
  5
4237
102
{ACAD_REACTORS
330
EF
102
}
102
{ACAD_XDICTIONARY
360
427C
102
}
330
EF
100
AcDbVisualStyle
  2
Shaded with edges
 70
    26
 71
     2
 72
     2
 73
     1
 90
        2
 40
0.6
 41
30.0
 62
     5
 63
     7
 74
     1
 91
       10
 64
     7
 65
   257
 75
     2
175
     1
 42
1.0
 92
        8
 66
   257
 43
1.0
 76
     1
 77
     6
 78
     2
 67
     7
 79
     3
170
     0
171
     0
290
     0
174
     0
 93
        5
 44
0.0
173
     0
291
     0
 45
0.0
1001
ACAD
1000
AcDbSavedByObjectVersion
1070
     0
  0
VISUALSTYLE
  5
4234
102
{ACAD_REACTORS
330
EF
102
}
102
{ACAD_XDICTIONARY
360
4276
102
}
330
EF
100
AcDbVisualStyle
  2
Shades of Gray
 70
    23
 71
     2
 72
     2
 73
     3
 90
        0
 40
0.6
 41
30.0
 62
     5
 63
     7
 74
     2
 91
        2
 64
     7
 65
     7
 75
     1
175
     1
 42
40.0
 92
        8
 66
     7
 43
1.0
 76
     1
 77
     6
 78
     2
 67
     7
 79
     3
170
     0
171
     0
290
     0
174
     0
 93
        1
 44
0.0
173
     0
291
     0
 45
0.0
1001
ACAD
1000
AcDbSavedByObjectVersion
1070
     0
  0
VISUALSTYLE
  5
4235
102
{ACAD_REACTORS
330
EF
102
}
102
{ACAD_XDICTIONARY
360
4278
102
}
330
EF
100
AcDbVisualStyle
  2
Sketchy
 70
    24
 71
     1
 72
     2
 73
     2
 90
        0
 40
0.6
 41
30.0
 62
     5
 63
     7
 74
     2
 91
        2
 64
     7
 65
     7
 75
     1
175
     1
 42
40.0
 92
       11
 66
     7
 43
1.0
 76
     1
 77
     6
 78
     2
 67
     7
 79
     6
170
     0
171
     0
290
     0
174
     0
 93
        1
 44
0.0
173
     0
291
     0
 45
0.0
1001
ACAD
1000
AcDbSavedByObjectVersion
1070
     0
  0
VISUALSTYLE
  5
FC
102
{ACAD_REACTORS
330
EF
102
}
102
{ACAD_XDICTIONARY
360
426A
102
}
330
EF
100
AcDbVisualStyle
  2
Thicken
 70
    13
 71
     2
 72
     2
 73
     1
 90
        0
 40
-0.6
 41
-30.0
 62
     5
 63
     7
 74
     1
 91
        4
 64
     7
 65
   257
 75
     1
175
     1
 42
1.0
 92
       12
 66
     7
 43
1.0
 76
     1
 77
     6
 78
     2
 67
     7
 79
     5
170
     0
171
     0
290
     0
174
     0
 93
        1
 44
0.0
173
     0
291
     1
 45
0.0
1001
ACAD
1000
AcDbSavedByObjectVersion
1070
     0
  0
VISUALSTYLE
  5
422F
102
{ACAD_REACTORS
330
EF
102
}
102
{ACAD_XDICTIONARY
360
426C
102
}
330
EF
100
AcDbVisualStyle
  2
Wireframe
 70
     5
 71
     0
 72
     2
 73
     0
 90
        0
 40
0.6
 41
30.0
 62
     5
 63
     7
 74
     1
 91
        4
 64
     7
 65
   257
 75
     1
175
     1
 42
1.0
 92
        0
 66
   257
 43
1.0
 76
     1
 77
     6
 78
     2
 67
     7
 79
     3
170
     0
171
     0
290
     0
174
     0
 93
        1
 44
0.0
173
     0
291
     0
 45
0.0
1001
ACAD
1000
AcDbSavedByObjectVersion
1070
     0
  0
VISUALSTYLE
  5
4236
102
{ACAD_REACTORS
330
EF
102
}
102
{ACAD_XDICTIONARY
360
427A
102
}
330
EF
100
AcDbVisualStyle
  2
X-Ray
 70
    25
 71
     2
 72
     2
 73
     1
 90
        1
 40
0.5
 41
30.0
 62
     5
 63
     7
 74
     1
 91
        0
 64
     7
 65
   257
 75
     1
175
     1
 42
1.0
 92
        8
 66
     7
 43
1.0
 76
     1
 77
     6
 78
     2
 67
     7
 79
     3
170
     0
171
     0
290
     0
174
     0
 93
       13
 44
0.0
173
     0
291
     0
 45
0.0
1001
ACAD
1000
AcDbSavedByObjectVersion
1070
     0
  0
XRECORD
  5
423E
102
{ACAD_REACTORS
330
423D
102
}
330
423D
100
AcDbXrecord
280
     1
340
6B
  0
XRECORD
  5
423F
102
{ACAD_REACTORS
330
423D
102
}
330
423D
100
AcDbXrecord
280
     1
340
6A
  0
DICTIONARYVAR
  5
4243
102
{ACAD_REACTORS
330
5E
102
}
330
5E
100
DictionaryVariables
280
     0
  1
1:1
  0
DICTIONARYVAR
  5
145
102
{ACAD_REACTORS
330
5E
102
}
330
5E
100
DictionaryVariables
280
     0
  1
Standard
  0
DICTIONARYVAR
  5
84
102
{ACAD_REACTORS
330
5E
102
}
330
5E
100
DictionaryVariables
280
     0
  1
Standard
  0
DICTIONARYVAR
  5
5F
102
{ACAD_REACTORS
330
5E
102
}
330
5E
100
DictionaryVariables
280
     0
  1
2
  0
DICTIONARYVAR
  5
63
102
{ACAD_REACTORS
330
5E
102
}
330
5E
100
DictionaryVariables
280
     0
  1
1
  0
DICTIONARYVAR
  5
3331
102
{ACAD_REACTORS
330
5E
102
}
330
5E
100
DictionaryVariables
280
     0
  1
0
  0
DICTIONARYVAR
  5
2CA1
102
{ACAD_REACTORS
330
5E
102
}
330
5E
100
DictionaryVariables
280
     0
  1
2
  0
DICTIONARYVAR
  5
2CA0
102
{ACAD_REACTORS
330
5E
102
}
330
5E
100
DictionaryVariables
280
     0
  1
1
  0
DICTIONARYVAR
  5
423A
102
{ACAD_REACTORS
330
5E
102
}
330
5E
100
DictionaryVariables
280
     0
  1
80.000000
  0
DICTIONARYVAR
  5
4239
102
{ACAD_REACTORS
330
5E
102
}
330
5E
100
DictionaryVariables
280
     0
  1
5.000000
  0
DICTIONARYVAR
  5
3330
102
{ACAD_REACTORS
330
5E
102
}
330
5E
100
DictionaryVariables
280
     0
  1
127
  0
DICTIONARY
  5
4244
330
ED
100
AcDbDictionary
280
     1
281
     1
  3
ACAD_XREC_ROUNDTRIP
360
4245
  0
DICTIONARY
  5
4246
330
EC
100
AcDbDictionary
280
     1
281
     1
  3
ACAD_XREC_ROUNDTRIP
360
4247
  0
DICTIONARY
  5
4248
330
EE
100
AcDbDictionary
280
     1
281
     1
  3
ACAD_XREC_ROUNDTRIP
360
4249
  0
DICTIONARY
  5
424A
330
12E
100
AcDbDictionary
280
     1
281
     1
  3
ACAD_XREC_ROUNDTRIP
360
424B
  0
DICTIONARY
  5
162
330
7F
100
AcDbDictionary
280
     1
281
     1
  3
ACAD_ROUNDTRIP_2008_TABLESTYLE_CELLSTYLEMAP
360
4210
  0
DICTIONARY
  5
424C
330
F5
100
AcDbDictionary
280
     1
281
     1
  3
ACAD_XREC_ROUNDTRIP
360
424D
  0
DICTIONARY
  5
424E
330
F7
100
AcDbDictionary
280
     1
281
     1
  3
ACAD_XREC_ROUNDTRIP
360
424F
  0
DICTIONARY
  5
4250
330
F6
100
AcDbDictionary
280
     1
281
     1
  3
ACAD_XREC_ROUNDTRIP
360
4251
  0
DICTIONARY
  5
4252
330
F4
100
AcDbDictionary
280
     1
281
     1
  3
ACAD_XREC_ROUNDTRIP
360
4253
  0
DICTIONARY
  5
4254
330
FB
100
AcDbDictionary
280
     1
281
     1
  3
ACAD_XREC_ROUNDTRIP
360
4255
  0
DICTIONARY
  5
4256
330
FF
100
AcDbDictionary
280
     1
281
     1
  3
ACAD_XREC_ROUNDTRIP
360
4257
  0
DICTIONARY
  5
4258
330
F8
100
AcDbDictionary
280
     1
281
     1
  3
ACAD_XREC_ROUNDTRIP
360
4259
  0
DICTIONARY
  5
425A
330
FA
100
AcDbDictionary
280
     1
281
     1
  3
ACAD_XREC_ROUNDTRIP
360
425B
  0
DICTIONARY
  5
4274
330
4233
100
AcDbDictionary
280
     1
281
     1
  3
ACAD_XREC_ROUNDTRIP
360
4275
  0
DICTIONARY
  5
425C
330
FE
100
AcDbDictionary
280
     1
281
     1
  3
ACAD_XREC_ROUNDTRIP
360
425D
  0
DICTIONARY
  5
425E
330
F0
100
AcDbDictionary
280
     1
281
     1
  3
ACAD_XREC_ROUNDTRIP
360
425F
  0
DICTIONARY
  5
4260
330
F1
100
AcDbDictionary
280
     1
281
     1
  3
ACAD_XREC_ROUNDTRIP
360
4261
  0
DICTIONARY
  5
4262
330
F2
100
AcDbDictionary
280
     1
281
     1
  3
ACAD_XREC_ROUNDTRIP
360
4263
  0
DICTIONARY
  5
4264
330
F3
100
AcDbDictionary
280
     1
281
     1
  3
ACAD_XREC_ROUNDTRIP
360
4265
  0
DICTIONARY
  5
426E
330
4230
100
AcDbDictionary
280
     1
281
     1
  3
ACAD_XREC_ROUNDTRIP
360
426F
  0
DICTIONARY
  5
4270
330
4231
100
AcDbDictionary
280
     1
281
     1
  3
ACAD_XREC_ROUNDTRIP
360
4271
  0
DICTIONARY
  5
4266
330
FD
100
AcDbDictionary
280
     1
281
     1
  3
ACAD_XREC_ROUNDTRIP
360
4267
  0
DICTIONARY
  5
4272
330
4232
100
AcDbDictionary
280
     1
281
     1
  3
ACAD_XREC_ROUNDTRIP
360
4273
  0
DICTIONARY
  5
4268
330
F9
100
AcDbDictionary
280
     1
281
     1
  3
ACAD_XREC_ROUNDTRIP
360
4269
  0
DICTIONARY
  5
427E
330
4238
100
AcDbDictionary
280
     1
281
     1
  3
ACAD_XREC_ROUNDTRIP
360
427F
  0
DICTIONARY
  5
427C
330
4237
100
AcDbDictionary
280
     1
281
     1
  3
ACAD_XREC_ROUNDTRIP
360
427D
  0
DICTIONARY
  5
4276
330
4234
100
AcDbDictionary
280
     1
281
     1
  3
ACAD_XREC_ROUNDTRIP
360
4277
  0
DICTIONARY
  5
4278
330
4235
100
AcDbDictionary
280
     1
281
     1
  3
ACAD_XREC_ROUNDTRIP
360
4279
  0
DICTIONARY
  5
426A
330
FC
100
AcDbDictionary
280
     1
281
     1
  3
ACAD_XREC_ROUNDTRIP
360
426B
  0
DICTIONARY
  5
426C
330
422F
100
AcDbDictionary
280
     1
281
     1
  3
ACAD_XREC_ROUNDTRIP
360
426D
  0
DICTIONARY
  5
427A
330
4236
100
AcDbDictionary
280
     1
281
     1
  3
ACAD_XREC_ROUNDTRIP
360
427B
  0
XRECORD
  5
4245
102
{ACAD_REACTORS
330
4244
102
}
330
4244
100
AcDbXrecord
280
     1
102
MATERIAL
148
0.0
149
0.0
149
0.0
 93
        0
 94
       63
282
     0
 72
     1
 77
     1
171
     1
175
     1
179
     1
273
     0
  0
XRECORD
  5
4247
102
{ACAD_REACTORS
330
4246
102
}
330
4246
100
AcDbXrecord
280
     1
102
MATERIAL
148
0.0
149
0.0
149
0.0
 93
        0
 94
       63
282
     0
 72
     1
 77
     1
171
     1
175
     1
179
     1
273
     0
  0
XRECORD
  5
4249
102
{ACAD_REACTORS
330
4248
102
}
330
4248
100
AcDbXrecord
280
     1
102
MATERIAL
148
0.0
149
0.0
149
0.0
 93
        0
 94
       63
282
     0
 72
     1
 77
     1
171
     1
175
     1
179
     1
273
     0
  0
XRECORD
  5
424B
102
{ACAD_REACTORS
330
424A
102
}
330
424A
100
AcDbXrecord
280
     1
102
ACAD_ROUNDTRIP_2010_MLEADER_STYLE
  0
CELLSTYLEMAP
  5
4210
102
{ACAD_REACTORS
330
162
102
}
330
162
100
AcDbCellStyleMap
 90
        3
300
CELLSTYLE
  1
TABLEFORMAT_BEGIN
 90
        5
170
     1
 91
        0
 92
        0
 62
   257
 93
        1
300
CONTENTFORMAT
  1
CONTENTFORMAT_BEGIN
 90
        0
 91
        0
 92
      512
 93
        0
300

 40
0.0
140
1.0
 94
        5
 62
     0
340
11
144
4.5
309
CONTENTFORMAT_END
171
     1
301
MARGIN
  1
CELLMARGIN_BEGIN
 40
1.5
 40
1.5
 40
1.5
 40
1.5
 40
4.5
 40
4.5
309
CELLMARGIN_END
 94
        6
 95
        1
302
GRIDFORMAT
  1
GRIDFORMAT_BEGIN
 90
        0
 91
        1
 62
     0
 92
       -2
340
14
 93
        0
 40
1.125
309
GRIDFORMAT_END
 95
        2
302
GRIDFORMAT
  1
GRIDFORMAT_BEGIN
 90
        0
 91
        1
 62
     0
 92
       -2
340
14
 93
        0
 40
1.125
309
GRIDFORMAT_END
 95
        4
302
GRIDFORMAT
  1
GRIDFORMAT_BEGIN
 90
        0
 91
        1
 62
     0
 92
       -2
340
14
 93
        0
 40
1.125
309
GRIDFORMAT_END
 95
        8
302
GRIDFORMAT
  1
GRIDFORMAT_BEGIN
 90
        0
 91
        1
 62
     0
 92
       -2
340
14
 93
        0
 40
1.125
309
GRIDFORMAT_END
 95
       16
302
GRIDFORMAT
  1
GRIDFORMAT_BEGIN
 90
        0
 91
        1
 62
     0
 92
       -2
340
14
 93
        0
 40
1.125
309
GRIDFORMAT_END
 95
       32
302
GRIDFORMAT
  1
GRIDFORMAT_BEGIN
 90
        0
 91
        1
 62
     0
 92
       -2
340
14
 93
        0
 40
1.125
309
GRIDFORMAT_END
309
TABLEFORMAT_END
  1
CELLSTYLE_BEGIN
 90
        2
 91
        1
300
_HEADER
309
CELLSTYLE_END
300
CELLSTYLE
  1
TABLEFORMAT_BEGIN
 90
        5
170
     1
 91
        0
 92
        0
 62
   257
 93
        1
300
CONTENTFORMAT
  1
CONTENTFORMAT_BEGIN
 90
        0
 91
        0
 92
      512
 93
        0
300

 40
0.0
140
1.0
 94
        2
 62
     0
340
11
144
4.5
309
CONTENTFORMAT_END
171
     1
301
MARGIN
  1
CELLMARGIN_BEGIN
 40
1.5
 40
1.5
 40
1.5
 40
1.5
 40
4.5
 40
4.5
309
CELLMARGIN_END
 94
        6
 95
        1
302
GRIDFORMAT
  1
GRIDFORMAT_BEGIN
 90
        0
 91
        1
 62
     0
 92
       -2
340
14
 93
        0
 40
1.125
309
GRIDFORMAT_END
 95
        2
302
GRIDFORMAT
  1
GRIDFORMAT_BEGIN
 90
        0
 91
        1
 62
     0
 92
       -2
340
14
 93
        0
 40
1.125
309
GRIDFORMAT_END
 95
        4
302
GRIDFORMAT
  1
GRIDFORMAT_BEGIN
 90
        0
 91
        1
 62
     0
 92
       -2
340
14
 93
        0
 40
1.125
309
GRIDFORMAT_END
 95
        8
302
GRIDFORMAT
  1
GRIDFORMAT_BEGIN
 90
        0
 91
        1
 62
     0
 92
       -2
340
14
 93
        0
 40
1.125
309
GRIDFORMAT_END
 95
       16
302
GRIDFORMAT
  1
GRIDFORMAT_BEGIN
 90
        0
 91
        1
 62
     0
 92
       -2
340
14
 93
        0
 40
1.125
309
GRIDFORMAT_END
 95
       32
302
GRIDFORMAT
  1
GRIDFORMAT_BEGIN
 90
        0
 91
        1
 62
     0
 92
       -2
340
14
 93
        0
 40
1.125
309
GRIDFORMAT_END
309
TABLEFORMAT_END
  1
CELLSTYLE_BEGIN
 90
        3
 91
        2
300
_DATA
309
CELLSTYLE_END
300
CELLSTYLE
  1
TABLEFORMAT_BEGIN
 90
        5
170
     1
 91
        0
 92
    32768
 62
   257
 93
        1
300
CONTENTFORMAT
  1
CONTENTFORMAT_BEGIN
 90
        0
 91
        0
 92
      512
 93
        0
300

 40
0.0
140
1.0
 94
        5
 62
     0
340
11
144
6.0
309
CONTENTFORMAT_END
171
     1
301
MARGIN
  1
CELLMARGIN_BEGIN
 40
1.5
 40
1.5
 40
1.5
 40
1.5
 40
4.5
 40
4.5
309
CELLMARGIN_END
 94
        6
 95
        1
302
GRIDFORMAT
  1
GRIDFORMAT_BEGIN
 90
        0
 91
        1
 62
     0
 92
       -2
340
14
 93
        0
 40
1.125
309
GRIDFORMAT_END
 95
        2
302
GRIDFORMAT
  1
GRIDFORMAT_BEGIN
 90
        0
 91
        1
 62
     0
 92
       -2
340
14
 93
        0
 40
1.125
309
GRIDFORMAT_END
 95
        4
302
GRIDFORMAT
  1
GRIDFORMAT_BEGIN
 90
        0
 91
        1
 62
     0
 92
       -2
340
14
 93
        0
 40
1.125
309
GRIDFORMAT_END
 95
        8
302
GRIDFORMAT
  1
GRIDFORMAT_BEGIN
 90
        0
 91
        1
 62
     0
 92
       -2
340
14
 93
        0
 40
1.125
309
GRIDFORMAT_END
 95
       16
302
GRIDFORMAT
  1
GRIDFORMAT_BEGIN
 90
        0
 91
        1
 62
     0
 92
       -2
340
14
 93
        0
 40
1.125
309
GRIDFORMAT_END
 95
       32
302
GRIDFORMAT
  1
GRIDFORMAT_BEGIN
 90
        0
 91
        1
 62
     0
 92
       -2
340
14
 93
        0
 40
1.125
309
GRIDFORMAT_END
309
TABLEFORMAT_END
  1
CELLSTYLE_BEGIN
 90
        1
 91
        1
300
_TITLE
309
CELLSTYLE_END
  0
XRECORD
  5
424D
102
{ACAD_REACTORS
330
424C
102
}
330
424C
100
AcDbXrecord
280
     1
102
RTVSPropertyOp0
 70
     1
102
RTVSPropertyOp1
 70
     1
102
RTVSPropertyOp2
 70
     1
102
RTVSPropertyOp3
 70
     1
102
RTVSPropertyOp4
 70
     1
102
RTVSPropertyOp5
 70
     1
102
RTVSPropertyOp6
 70
     1
102
RTVSPropertyOp7
 70
     1
102
RTVSPropertyOp8
 70
     1
102
RTVSPropertyOp9
 70
     1
102
RTVSPropertyOp10
 70
     1
102
RTVSPropertyOp11
 70
     1
102
RTVSPropertyOp12
 70
     1
102
RTVSPropertyOp13
 70
     1
102
RTVSPropertyOp14
 70
     1
102
RTVSPropertyOp15
 70
     1
102
RTVSPropertyOp16
 70
     1
102
RTVSPropertyOp17
 70
     1
102
RTVSPropertyOp18
 70
     1
102
RTVSPropertyOp19
 70
     1
102
RTVSPropertyOp20
 70
     1
102
RTVSPropertyOp21
 70
     1
102
RTVSPropertyOp22
 70
     1
102
RTVSPropertyOp23
 70
     1
102
RTVSPropertyOp24
 70
     1
102
RTVSPropertyOp25
 70
     1
102
RTVSPropertyOp26
 70
     1
102
RTVSPropertyOp27
 70
     1
102
RTVSPropertyOp28
 70
     1
102
RTVSPropertyOp29
 70
     1
102
RTVSPropertyOp30
 70
     1
102
RTVSPropertyOp31
 70
     1
102
RTVSPropertyOp32
 70
     1
102
RTVSPropertyOp33
 70
     1
102
RTVSPropertyOp34
 70
     1
102
RTVSPropertyOp35
 70
     1
102
RTVSPropertyOp36
 70
     1
102
RTVSPropertyOp37
 70
     1
102
RTVSPropertyOp38
 70
     1
102
RTVSPropertyOp39
 70
     1
102
RTVSPropertyOp40
 70
     1
102
RTVSPropertyOp41
 70
     1
102
RTVSPropertyOp42
 70
     1
102
RTVSPropertyOp43
 70
     1
102
RTVSPropertyOp44
 70
     1
102
RTVSPropertyOp45
 70
     1
102
RTVSPropertyOp46
 70
     1
102
RTVSPropertyOp47
 70
     1
102
RTVSPropertyOp48
 70
     1
102
RTVSPropertyOp49
 70
     1
102
RTVSPropertyOp50
 70
     1
102
RTVSPropertyOp51
 70
     0
102
RTVSPropertyOp52
 70
     0
102
RTVSPropertyOp53
 70
     1
102
RTVSPropertyOp54
 70
     1
102
RTVSPropertyOp55
 70
     1
102
RTVSPropertyOp56
 70
     1
102
RTVSPropertyOp57
 70
     1
102
RTVSPost2010Prop28
280
     1
102
RTVSPost2010PropOp28
 70
     1
102
RTVSPost2010Prop29
280
     1
102
RTVSPost2010PropOp29
 70
     1
102
RTVSPost2010Prop30
280
     0
102
RTVSPost2010PropOp30
 70
     1
102
RTVSPost2010Prop31
280
     0
102
RTVSPost2010PropOp31
 70
     1
102
RTVSPost2010Prop32
280
     0
102
RTVSPost2010PropOp32
 70
     1
102
RTVSPost2010Prop33
280
     0
102
RTVSPost2010PropOp33
 70
     1
102
RTVSPost2010Prop34
280
     0
102
RTVSPost2010PropOp34
 70
     1
102
RTVSPost2010Prop35
280
     0
102
RTVSPost2010PropOp35
 70
     1
102
RTVSPost2010Prop36
280
     0
102
RTVSPost2010PropOp36
 70
     1
102
RTVSPost2010Prop37
 90
       50
102
RTVSPost2010PropOp37
 70
     1
102
RTVSPost2010Prop38
140
0.0
102
RTVSPost2010PropOp38
 70
     1
102
RTVSPost2010Prop39
140
1.0
102
RTVSPost2010PropOp39
 70
     1
102
RTVSPost2010Prop40
 90
        0
102
RTVSPost2010PropOp40
 70
     1
102
RTVSPost2010Prop41ColorIndex
 90
       18
102
RTVSPost2010Prop41ColorRGB
 90
        0
102
RTVSPost2010PropOp41
 70
     1
102
RTVSPost2010Prop42
 90
       50
102
RTVSPost2010PropOp42
 70
     1
102
RTVSPost2010Prop43
 90
        3
102
RTVSPost2010PropOp43
 70
     1
102
RTVSPost2010Prop44ColorIndex
 90
        5
102
RTVSPost2010Prop44ColorRGB
 90
      255
102
RTVSPost2010PropOp44
 70
     1
102
RTVSPost2010Prop45
280
     0
102
RTVSPost2010PropOp45
 70
     1
102
RTVSPost2010Prop46
 90
       50
102
RTVSPost2010PropOp46
 70
     1
102
RTVSPost2010Prop47
 90
       50
102
RTVSPost2010PropOp47
 70
     1
102
RTVSPost2010Prop48
 90
       50
102
RTVSPost2010PropOp48
 70
     1
102
RTVSPost2010Prop49
280
     0
102
RTVSPost2010PropOp49
 70
     1
102
RTVSPost2010Prop50
 90
       50
102
RTVSPost2010PropOp50
 70
     1
102
RTVSPost2010Prop51ColorIndex
 90
      256
102
RTVSPost2010Prop51ColorRGB
 90
-16777216
102
RTVSPost2010PropOp51
 70
     0
102
RTVSPost2010Prop52
140
1.0
102
RTVSPost2010PropOp52
 70
     0
102
RTVSPost2010Prop53
 90
        2
102
RTVSPost2010PropOp53
 70
     1
102
RTVSPost2010Prop54
  1
strokes_ogs.tif
102
RTVSPost2010PropOp54
 70
     1
102
RTVSPost2010Prop55
280
     0
102
RTVSPost2010PropOp55
 70
     1
102
RTVSPost2010Prop56
140
1.0
102
RTVSPost2010PropOp56
 70
     1
102
RTVSPost2010Prop57
140
1.0
102
RTVSPost2010PropOp57
 70
     1
  0
XRECORD
  5
424F
102
{ACAD_REACTORS
330
424E
102
}
330
424E
100
AcDbXrecord
280
     1
102
RTVSPropertyOp0
 70
     1
102
RTVSPropertyOp1
 70
     1
102
RTVSPropertyOp2
 70
     1
102
RTVSPropertyOp3
 70
     1
102
RTVSPropertyOp4
 70
     1
102
RTVSPropertyOp5
 70
     1
102
RTVSPropertyOp6
 70
     1
102
RTVSPropertyOp7
 70
     1
102
RTVSPropertyOp8
 70
     1
102
RTVSPropertyOp9
 70
     1
102
RTVSPropertyOp10
 70
     1
102
RTVSPropertyOp11
 70
     1
102
RTVSPropertyOp12
 70
     1
102
RTVSPropertyOp13
 70
     1
102
RTVSPropertyOp14
 70
     1
102
RTVSPropertyOp15
 70
     1
102
RTVSPropertyOp16
 70
     1
102
RTVSPropertyOp17
 70
     1
102
RTVSPropertyOp18
 70
     1
102
RTVSPropertyOp19
 70
     1
102
RTVSPropertyOp20
 70
     1
102
RTVSPropertyOp21
 70
     1
102
RTVSPropertyOp22
 70
     1
102
RTVSPropertyOp23
 70
     1
102
RTVSPropertyOp24
 70
     1
102
RTVSPropertyOp25
 70
     1
102
RTVSPropertyOp26
 70
     1
102
RTVSPropertyOp27
 70
     1
102
RTVSPropertyOp28
 70
     1
102
RTVSPropertyOp29
 70
     1
102
RTVSPropertyOp30
 70
     1
102
RTVSPropertyOp31
 70
     1
102
RTVSPropertyOp32
 70
     1
102
RTVSPropertyOp33
 70
     1
102
RTVSPropertyOp34
 70
     1
102
RTVSPropertyOp35
 70
     1
102
RTVSPropertyOp36
 70
     1
102
RTVSPropertyOp37
 70
     1
102
RTVSPropertyOp38
 70
     1
102
RTVSPropertyOp39
 70
     1
102
RTVSPropertyOp40
 70
     1
102
RTVSPropertyOp41
 70
     1
102
RTVSPropertyOp42
 70
     1
102
RTVSPropertyOp43
 70
     1
102
RTVSPropertyOp44
 70
     1
102
RTVSPropertyOp45
 70
     1
102
RTVSPropertyOp46
 70
     1
102
RTVSPropertyOp47
 70
     1
102
RTVSPropertyOp48
 70
     1
102
RTVSPropertyOp49
 70
     1
102
RTVSPropertyOp50
 70
     1
102
RTVSPropertyOp51
 70
     0
102
RTVSPropertyOp52
 70
     0
102
RTVSPropertyOp53
 70
     1
102
RTVSPropertyOp54
 70
     1
102
RTVSPropertyOp55
 70
     1
102
RTVSPropertyOp56
 70
     1
102
RTVSPropertyOp57
 70
     1
102
RTVSPost2010Prop28
280
     0
102
RTVSPost2010PropOp28
 70
     1
102
RTVSPost2010Prop29
280
     1
102
RTVSPost2010PropOp29
 70
     1
102
RTVSPost2010Prop30
280
     1
102
RTVSPost2010PropOp30
 70
     1
102
RTVSPost2010Prop31
280
     0
102
RTVSPost2010PropOp31
 70
     1
102
RTVSPost2010Prop32
280
     0
102
RTVSPost2010PropOp32
 70
     1
102
RTVSPost2010Prop33
280
     0
102
RTVSPost2010PropOp33
 70
     1
102
RTVSPost2010Prop34
280
     0
102
RTVSPost2010PropOp34
 70
     1
102
RTVSPost2010Prop35
280
     0
102
RTVSPost2010PropOp35
 70
     1
102
RTVSPost2010Prop36
280
     0
102
RTVSPost2010PropOp36
 70
     1
102
RTVSPost2010Prop37
 90
       50
102
RTVSPost2010PropOp37
 70
     1
102
RTVSPost2010Prop38
140
0.0
102
RTVSPost2010PropOp38
 70
     1
102
RTVSPost2010Prop39
140
1.0
102
RTVSPost2010PropOp39
 70
     1
102
RTVSPost2010Prop40
 90
        0
102
RTVSPost2010PropOp40
 70
     1
102
RTVSPost2010Prop41ColorIndex
 90
       18
102
RTVSPost2010Prop41ColorRGB
 90
        0
102
RTVSPost2010PropOp41
 70
     1
102
RTVSPost2010Prop42
 90
       50
102
RTVSPost2010PropOp42
 70
     1
102
RTVSPost2010Prop43
 90
        3
102
RTVSPost2010PropOp43
 70
     1
102
RTVSPost2010Prop44ColorIndex
 90
        5
102
RTVSPost2010Prop44ColorRGB
 90
      255
102
RTVSPost2010PropOp44
 70
     1
102
RTVSPost2010Prop45
280
     0
102
RTVSPost2010PropOp45
 70
     1
102
RTVSPost2010Prop46
 90
       50
102
RTVSPost2010PropOp46
 70
     1
102
RTVSPost2010Prop47
 90
       50
102
RTVSPost2010PropOp47
 70
     1
102
RTVSPost2010Prop48
 90
       50
102
RTVSPost2010PropOp48
 70
     1
102
RTVSPost2010Prop49
280
     0
102
RTVSPost2010PropOp49
 70
     1
102
RTVSPost2010Prop50
 90
       50
102
RTVSPost2010PropOp50
 70
     1
102
RTVSPost2010Prop51ColorIndex
 90
      256
102
RTVSPost2010Prop51ColorRGB
 90
-16777216
102
RTVSPost2010PropOp51
 70
     0
102
RTVSPost2010Prop52
140
1.0
102
RTVSPost2010PropOp52
 70
     0
102
RTVSPost2010Prop53
 90
        2
102
RTVSPost2010PropOp53
 70
     1
102
RTVSPost2010Prop54
  1
strokes_ogs.tif
102
RTVSPost2010PropOp54
 70
     1
102
RTVSPost2010Prop55
280
     0
102
RTVSPost2010PropOp55
 70
     1
102
RTVSPost2010Prop56
140
1.0
102
RTVSPost2010PropOp56
 70
     1
102
RTVSPost2010Prop57
140
1.0
102
RTVSPost2010PropOp57
 70
     1
  0
XRECORD
  5
4251
102
{ACAD_REACTORS
330
4250
102
}
330
4250
100
AcDbXrecord
280
     1
102
RTVSPropertyOp0
 70
     1
102
RTVSPropertyOp1
 70
     1
102
RTVSPropertyOp2
 70
     1
102
RTVSPropertyOp3
 70
     1
102
RTVSPropertyOp4
 70
     1
102
RTVSPropertyOp5
 70
     1
102
RTVSPropertyOp6
 70
     1
102
RTVSPropertyOp7
 70
     1
102
RTVSPropertyOp8
 70
     1
102
RTVSPropertyOp9
 70
     1
102
RTVSPropertyOp10
 70
     1
102
RTVSPropertyOp11
 70
     1
102
RTVSPropertyOp12
 70
     1
102
RTVSPropertyOp13
 70
     1
102
RTVSPropertyOp14
 70
     1
102
RTVSPropertyOp15
 70
     1
102
RTVSPropertyOp16
 70
     1
102
RTVSPropertyOp17
 70
     1
102
RTVSPropertyOp18
 70
     1
102
RTVSPropertyOp19
 70
     1
102
RTVSPropertyOp20
 70
     1
102
RTVSPropertyOp21
 70
     1
102
RTVSPropertyOp22
 70
     1
102
RTVSPropertyOp23
 70
     1
102
RTVSPropertyOp24
 70
     1
102
RTVSPropertyOp25
 70
     1
102
RTVSPropertyOp26
 70
     1
102
RTVSPropertyOp27
 70
     1
102
RTVSPropertyOp28
 70
     1
102
RTVSPropertyOp29
 70
     1
102
RTVSPropertyOp30
 70
     1
102
RTVSPropertyOp31
 70
     1
102
RTVSPropertyOp32
 70
     1
102
RTVSPropertyOp33
 70
     1
102
RTVSPropertyOp34
 70
     1
102
RTVSPropertyOp35
 70
     1
102
RTVSPropertyOp36
 70
     1
102
RTVSPropertyOp37
 70
     1
102
RTVSPropertyOp38
 70
     1
102
RTVSPropertyOp39
 70
     1
102
RTVSPropertyOp40
 70
     1
102
RTVSPropertyOp41
 70
     1
102
RTVSPropertyOp42
 70
     1
102
RTVSPropertyOp43
 70
     1
102
RTVSPropertyOp44
 70
     1
102
RTVSPropertyOp45
 70
     1
102
RTVSPropertyOp46
 70
     1
102
RTVSPropertyOp47
 70
     1
102
RTVSPropertyOp48
 70
     1
102
RTVSPropertyOp49
 70
     1
102
RTVSPropertyOp50
 70
     1
102
RTVSPropertyOp51
 70
     0
102
RTVSPropertyOp52
 70
     0
102
RTVSPropertyOp53
 70
     1
102
RTVSPropertyOp54
 70
     1
102
RTVSPropertyOp55
 70
     1
102
RTVSPropertyOp56
 70
     1
102
RTVSPropertyOp57
 70
     1
102
RTVSPost2010Prop28
280
     0
102
RTVSPost2010PropOp28
 70
     1
102
RTVSPost2010Prop29
280
     1
102
RTVSPost2010PropOp29
 70
     1
102
RTVSPost2010Prop30
280
     1
102
RTVSPost2010PropOp30
 70
     1
102
RTVSPost2010Prop31
280
     0
102
RTVSPost2010PropOp31
 70
     1
102
RTVSPost2010Prop32
280
     0
102
RTVSPost2010PropOp32
 70
     1
102
RTVSPost2010Prop33
280
     0
102
RTVSPost2010PropOp33
 70
     1
102
RTVSPost2010Prop34
280
     0
102
RTVSPost2010PropOp34
 70
     1
102
RTVSPost2010Prop35
280
     0
102
RTVSPost2010PropOp35
 70
     1
102
RTVSPost2010Prop36
280
     0
102
RTVSPost2010PropOp36
 70
     1
102
RTVSPost2010Prop37
 90
       50
102
RTVSPost2010PropOp37
 70
     1
102
RTVSPost2010Prop38
140
0.0
102
RTVSPost2010PropOp38
 70
     1
102
RTVSPost2010Prop39
140
1.0
102
RTVSPost2010PropOp39
 70
     1
102
RTVSPost2010Prop40
 90
        0
102
RTVSPost2010PropOp40
 70
     1
102
RTVSPost2010Prop41ColorIndex
 90
       18
102
RTVSPost2010Prop41ColorRGB
 90
        0
102
RTVSPost2010PropOp41
 70
     1
102
RTVSPost2010Prop42
 90
       50
102
RTVSPost2010PropOp42
 70
     1
102
RTVSPost2010Prop43
 90
        3
102
RTVSPost2010PropOp43
 70
     1
102
RTVSPost2010Prop44ColorIndex
 90
        5
102
RTVSPost2010Prop44ColorRGB
 90
      255
102
RTVSPost2010PropOp44
 70
     1
102
RTVSPost2010Prop45
280
     0
102
RTVSPost2010PropOp45
 70
     1
102
RTVSPost2010Prop46
 90
       50
102
RTVSPost2010PropOp46
 70
     1
102
RTVSPost2010Prop47
 90
       50
102
RTVSPost2010PropOp47
 70
     1
102
RTVSPost2010Prop48
 90
       50
102
RTVSPost2010PropOp48
 70
     1
102
RTVSPost2010Prop49
280
     0
102
RTVSPost2010PropOp49
 70
     1
102
RTVSPost2010Prop50
 90
       50
102
RTVSPost2010PropOp50
 70
     1
102
RTVSPost2010Prop51ColorIndex
 90
      256
102
RTVSPost2010Prop51ColorRGB
 90
-16777216
102
RTVSPost2010PropOp51
 70
     0
102
RTVSPost2010Prop52
140
1.0
102
RTVSPost2010PropOp52
 70
     0
102
RTVSPost2010Prop53
 90
        2
102
RTVSPost2010PropOp53
 70
     1
102
RTVSPost2010Prop54
  1
strokes_ogs.tif
102
RTVSPost2010PropOp54
 70
     1
102
RTVSPost2010Prop55
280
     0
102
RTVSPost2010PropOp55
 70
     1
102
RTVSPost2010Prop56
140
1.0
102
RTVSPost2010PropOp56
 70
     1
102
RTVSPost2010Prop57
140
1.0
102
RTVSPost2010PropOp57
 70
     1
  0
XRECORD
  5
4253
102
{ACAD_REACTORS
330
4252
102
}
330
4252
100
AcDbXrecord
280
     1
102
RTVSPropertyOp0
 70
     1
102
RTVSPropertyOp1
 70
     1
102
RTVSPropertyOp2
 70
     1
102
RTVSPropertyOp3
 70
     1
102
RTVSPropertyOp4
 70
     1
102
RTVSPropertyOp5
 70
     1
102
RTVSPropertyOp6
 70
     1
102
RTVSPropertyOp7
 70
     1
102
RTVSPropertyOp8
 70
     1
102
RTVSPropertyOp9
 70
     1
102
RTVSPropertyOp10
 70
     1
102
RTVSPropertyOp11
 70
     1
102
RTVSPropertyOp12
 70
     1
102
RTVSPropertyOp13
 70
     1
102
RTVSPropertyOp14
 70
     1
102
RTVSPropertyOp15
 70
     1
102
RTVSPropertyOp16
 70
     1
102
RTVSPropertyOp17
 70
     1
102
RTVSPropertyOp18
 70
     1
102
RTVSPropertyOp19
 70
     1
102
RTVSPropertyOp20
 70
     1
102
RTVSPropertyOp21
 70
     1
102
RTVSPropertyOp22
 70
     1
102
RTVSPropertyOp23
 70
     1
102
RTVSPropertyOp24
 70
     1
102
RTVSPropertyOp25
 70
     1
102
RTVSPropertyOp26
 70
     1
102
RTVSPropertyOp27
 70
     1
102
RTVSPropertyOp28
 70
     1
102
RTVSPropertyOp29
 70
     1
102
RTVSPropertyOp30
 70
     1
102
RTVSPropertyOp31
 70
     1
102
RTVSPropertyOp32
 70
     1
102
RTVSPropertyOp33
 70
     1
102
RTVSPropertyOp34
 70
     1
102
RTVSPropertyOp35
 70
     1
102
RTVSPropertyOp36
 70
     1
102
RTVSPropertyOp37
 70
     1
102
RTVSPropertyOp38
 70
     1
102
RTVSPropertyOp39
 70
     1
102
RTVSPropertyOp40
 70
     1
102
RTVSPropertyOp41
 70
     1
102
RTVSPropertyOp42
 70
     1
102
RTVSPropertyOp43
 70
     1
102
RTVSPropertyOp44
 70
     1
102
RTVSPropertyOp45
 70
     1
102
RTVSPropertyOp46
 70
     1
102
RTVSPropertyOp47
 70
     1
102
RTVSPropertyOp48
 70
     1
102
RTVSPropertyOp49
 70
     1
102
RTVSPropertyOp50
 70
     1
102
RTVSPropertyOp51
 70
     0
102
RTVSPropertyOp52
 70
     0
102
RTVSPropertyOp53
 70
     1
102
RTVSPropertyOp54
 70
     1
102
RTVSPropertyOp55
 70
     1
102
RTVSPropertyOp56
 70
     1
102
RTVSPropertyOp57
 70
     1
102
RTVSPost2010Prop28
280
     0
102
RTVSPost2010PropOp28
 70
     1
102
RTVSPost2010Prop29
280
     1
102
RTVSPost2010PropOp29
 70
     1
102
RTVSPost2010Prop30
280
     1
102
RTVSPost2010PropOp30
 70
     1
102
RTVSPost2010Prop31
280
     0
102
RTVSPost2010PropOp31
 70
     1
102
RTVSPost2010Prop32
280
     0
102
RTVSPost2010PropOp32
 70
     1
102
RTVSPost2010Prop33
280
     0
102
RTVSPost2010PropOp33
 70
     1
102
RTVSPost2010Prop34
280
     0
102
RTVSPost2010PropOp34
 70
     1
102
RTVSPost2010Prop35
280
     0
102
RTVSPost2010PropOp35
 70
     1
102
RTVSPost2010Prop36
280
     0
102
RTVSPost2010PropOp36
 70
     1
102
RTVSPost2010Prop37
 90
       50
102
RTVSPost2010PropOp37
 70
     1
102
RTVSPost2010Prop38
140
0.0
102
RTVSPost2010PropOp38
 70
     1
102
RTVSPost2010Prop39
140
1.0
102
RTVSPost2010PropOp39
 70
     1
102
RTVSPost2010Prop40
 90
        0
102
RTVSPost2010PropOp40
 70
     1
102
RTVSPost2010Prop41ColorIndex
 90
       18
102
RTVSPost2010Prop41ColorRGB
 90
        0
102
RTVSPost2010PropOp41
 70
     1
102
RTVSPost2010Prop42
 90
       50
102
RTVSPost2010PropOp42
 70
     1
102
RTVSPost2010Prop43
 90
        3
102
RTVSPost2010PropOp43
 70
     1
102
RTVSPost2010Prop44ColorIndex
 90
        5
102
RTVSPost2010Prop44ColorRGB
 90
      255
102
RTVSPost2010PropOp44
 70
     1
102
RTVSPost2010Prop45
280
     0
102
RTVSPost2010PropOp45
 70
     1
102
RTVSPost2010Prop46
 90
       50
102
RTVSPost2010PropOp46
 70
     1
102
RTVSPost2010Prop47
 90
       50
102
RTVSPost2010PropOp47
 70
     1
102
RTVSPost2010Prop48
 90
       50
102
RTVSPost2010PropOp48
 70
     1
102
RTVSPost2010Prop49
280
     0
102
RTVSPost2010PropOp49
 70
     1
102
RTVSPost2010Prop50
 90
       50
102
RTVSPost2010PropOp50
 70
     1
102
RTVSPost2010Prop51ColorIndex
 90
      256
102
RTVSPost2010Prop51ColorRGB
 90
-16777216
102
RTVSPost2010PropOp51
 70
     0
102
RTVSPost2010Prop52
140
1.0
102
RTVSPost2010PropOp52
 70
     0
102
RTVSPost2010Prop53
 90
        2
102
RTVSPost2010PropOp53
 70
     1
102
RTVSPost2010Prop54
  1
strokes_ogs.tif
102
RTVSPost2010PropOp54
 70
     1
102
RTVSPost2010Prop55
280
     0
102
RTVSPost2010PropOp55
 70
     1
102
RTVSPost2010Prop56
140
1.0
102
RTVSPost2010PropOp56
 70
     1
102
RTVSPost2010Prop57
140
1.0
102
RTVSPost2010PropOp57
 70
     1
  0
XRECORD
  5
4255
102
{ACAD_REACTORS
330
4254
102
}
330
4254
100
AcDbXrecord
280
     1
102
RTVSPropertyOp0
 70
     1
102
RTVSPropertyOp1
 70
     1
102
RTVSPropertyOp2
 70
     1
102
RTVSPropertyOp3
 70
     1
102
RTVSPropertyOp4
 70
     1
102
RTVSPropertyOp5
 70
     1
102
RTVSPropertyOp6
 70
     1
102
RTVSPropertyOp7
 70
     1
102
RTVSPropertyOp8
 70
     1
102
RTVSPropertyOp9
 70
     1
102
RTVSPropertyOp10
 70
     1
102
RTVSPropertyOp11
 70
     1
102
RTVSPropertyOp12
 70
     1
102
RTVSPropertyOp13
 70
     1
102
RTVSPropertyOp14
 70
     1
102
RTVSPropertyOp15
 70
     1
102
RTVSPropertyOp16
 70
     1
102
RTVSPropertyOp17
 70
     1
102
RTVSPropertyOp18
 70
     1
102
RTVSPropertyOp19
 70
     1
102
RTVSPropertyOp20
 70
     1
102
RTVSPropertyOp21
 70
     1
102
RTVSPropertyOp22
 70
     1
102
RTVSPropertyOp23
 70
     1
102
RTVSPropertyOp24
 70
     1
102
RTVSPropertyOp25
 70
     1
102
RTVSPropertyOp26
 70
     1
102
RTVSPropertyOp27
 70
     1
102
RTVSPropertyOp28
 70
     1
102
RTVSPropertyOp29
 70
     1
102
RTVSPropertyOp30
 70
     1
102
RTVSPropertyOp31
 70
     1
102
RTVSPropertyOp32
 70
     1
102
RTVSPropertyOp33
 70
     1
102
RTVSPropertyOp34
 70
     1
102
RTVSPropertyOp35
 70
     1
102
RTVSPropertyOp36
 70
     1
102
RTVSPropertyOp37
 70
     1
102
RTVSPropertyOp38
 70
     1
102
RTVSPropertyOp39
 70
     1
102
RTVSPropertyOp40
 70
     1
102
RTVSPropertyOp41
 70
     1
102
RTVSPropertyOp42
 70
     1
102
RTVSPropertyOp43
 70
     1
102
RTVSPropertyOp44
 70
     1
102
RTVSPropertyOp45
 70
     1
102
RTVSPropertyOp46
 70
     1
102
RTVSPropertyOp47
 70
     1
102
RTVSPropertyOp48
 70
     1
102
RTVSPropertyOp49
 70
     1
102
RTVSPropertyOp50
 70
     1
102
RTVSPropertyOp51
 70
     0
102
RTVSPropertyOp52
 70
     0
102
RTVSPropertyOp53
 70
     1
102
RTVSPropertyOp54
 70
     1
102
RTVSPropertyOp55
 70
     1
102
RTVSPropertyOp56
 70
     1
102
RTVSPropertyOp57
 70
     1
102
RTVSPost2010Prop28
280
     0
102
RTVSPost2010PropOp28
 70
     1
102
RTVSPost2010Prop29
280
     1
102
RTVSPost2010PropOp29
 70
     1
102
RTVSPost2010Prop30
280
     1
102
RTVSPost2010PropOp30
 70
     1
102
RTVSPost2010Prop31
280
     0
102
RTVSPost2010PropOp31
 70
     1
102
RTVSPost2010Prop32
280
     0
102
RTVSPost2010PropOp32
 70
     1
102
RTVSPost2010Prop33
280
     0
102
RTVSPost2010PropOp33
 70
     1
102
RTVSPost2010Prop34
280
     0
102
RTVSPost2010PropOp34
 70
     1
102
RTVSPost2010Prop35
280
     0
102
RTVSPost2010PropOp35
 70
     1
102
RTVSPost2010Prop36
280
     0
102
RTVSPost2010PropOp36
 70
     1
102
RTVSPost2010Prop37
 90
       50
102
RTVSPost2010PropOp37
 70
     1
102
RTVSPost2010Prop38
140
0.0
102
RTVSPost2010PropOp38
 70
     1
102
RTVSPost2010Prop39
140
1.0
102
RTVSPost2010PropOp39
 70
     1
102
RTVSPost2010Prop40
 90
        0
102
RTVSPost2010PropOp40
 70
     1
102
RTVSPost2010Prop41ColorIndex
 90
       18
102
RTVSPost2010Prop41ColorRGB
 90
        0
102
RTVSPost2010PropOp41
 70
     1
102
RTVSPost2010Prop42
 90
       50
102
RTVSPost2010PropOp42
 70
     1
102
RTVSPost2010Prop43
 90
        3
102
RTVSPost2010PropOp43
 70
     1
102
RTVSPost2010Prop44ColorIndex
 90
        5
102
RTVSPost2010Prop44ColorRGB
 90
      255
102
RTVSPost2010PropOp44
 70
     1
102
RTVSPost2010Prop45
280
     0
102
RTVSPost2010PropOp45
 70
     1
102
RTVSPost2010Prop46
 90
       50
102
RTVSPost2010PropOp46
 70
     1
102
RTVSPost2010Prop47
 90
       50
102
RTVSPost2010PropOp47
 70
     1
102
RTVSPost2010Prop48
 90
       50
102
RTVSPost2010PropOp48
 70
     1
102
RTVSPost2010Prop49
280
     0
102
RTVSPost2010PropOp49
 70
     1
102
RTVSPost2010Prop50
 90
       50
102
RTVSPost2010PropOp50
 70
     1
102
RTVSPost2010Prop51ColorIndex
 90
      256
102
RTVSPost2010Prop51ColorRGB
 90
-16777216
102
RTVSPost2010PropOp51
 70
     0
102
RTVSPost2010Prop52
140
1.0
102
RTVSPost2010PropOp52
 70
     0
102
RTVSPost2010Prop53
 90
        2
102
RTVSPost2010PropOp53
 70
     1
102
RTVSPost2010Prop54
  1
strokes_ogs.tif
102
RTVSPost2010PropOp54
 70
     1
102
RTVSPost2010Prop55
280
     0
102
RTVSPost2010PropOp55
 70
     1
102
RTVSPost2010Prop56
140
1.0
102
RTVSPost2010PropOp56
 70
     1
102
RTVSPost2010Prop57
140
1.0
102
RTVSPost2010PropOp57
 70
     1
  0
XRECORD
  5
4257
102
{ACAD_REACTORS
330
4256
102
}
330
4256
100
AcDbXrecord
280
     1
102
RTVSPropertyOp0
 70
     1
102
RTVSPropertyOp1
 70
     1
102
RTVSPropertyOp2
 70
     1
102
RTVSPropertyOp3
 70
     1
102
RTVSPropertyOp4
 70
     1
102
RTVSPropertyOp5
 70
     1
102
RTVSPropertyOp6
 70
     1
102
RTVSPropertyOp7
 70
     1
102
RTVSPropertyOp8
 70
     1
102
RTVSPropertyOp9
 70
     1
102
RTVSPropertyOp10
 70
     1
102
RTVSPropertyOp11
 70
     1
102
RTVSPropertyOp12
 70
     1
102
RTVSPropertyOp13
 70
     1
102
RTVSPropertyOp14
 70
     1
102
RTVSPropertyOp15
 70
     1
102
RTVSPropertyOp16
 70
     1
102
RTVSPropertyOp17
 70
     1
102
RTVSPropertyOp18
 70
     1
102
RTVSPropertyOp19
 70
     1
102
RTVSPropertyOp20
 70
     1
102
RTVSPropertyOp21
 70
     1
102
RTVSPropertyOp22
 70
     1
102
RTVSPropertyOp23
 70
     1
102
RTVSPropertyOp24
 70
     1
102
RTVSPropertyOp25
 70
     1
102
RTVSPropertyOp26
 70
     1
102
RTVSPropertyOp27
 70
     1
102
RTVSPropertyOp28
 70
     1
102
RTVSPropertyOp29
 70
     1
102
RTVSPropertyOp30
 70
     1
102
RTVSPropertyOp31
 70
     1
102
RTVSPropertyOp32
 70
     1
102
RTVSPropertyOp33
 70
     1
102
RTVSPropertyOp34
 70
     1
102
RTVSPropertyOp35
 70
     1
102
RTVSPropertyOp36
 70
     1
102
RTVSPropertyOp37
 70
     1
102
RTVSPropertyOp38
 70
     1
102
RTVSPropertyOp39
 70
     1
102
RTVSPropertyOp40
 70
     1
102
RTVSPropertyOp41
 70
     1
102
RTVSPropertyOp42
 70
     1
102
RTVSPropertyOp43
 70
     1
102
RTVSPropertyOp44
 70
     1
102
RTVSPropertyOp45
 70
     1
102
RTVSPropertyOp46
 70
     1
102
RTVSPropertyOp47
 70
     1
102
RTVSPropertyOp48
 70
     1
102
RTVSPropertyOp49
 70
     1
102
RTVSPropertyOp50
 70
     1
102
RTVSPropertyOp51
 70
     0
102
RTVSPropertyOp52
 70
     0
102
RTVSPropertyOp53
 70
     1
102
RTVSPropertyOp54
 70
     1
102
RTVSPropertyOp55
 70
     1
102
RTVSPropertyOp56
 70
     1
102
RTVSPropertyOp57
 70
     1
102
RTVSPost2010Prop28
280
     0
102
RTVSPost2010PropOp28
 70
     1
102
RTVSPost2010Prop29
280
     1
102
RTVSPost2010PropOp29
 70
     1
102
RTVSPost2010Prop30
280
     1
102
RTVSPost2010PropOp30
 70
     1
102
RTVSPost2010Prop31
280
     0
102
RTVSPost2010PropOp31
 70
     1
102
RTVSPost2010Prop32
280
     0
102
RTVSPost2010PropOp32
 70
     1
102
RTVSPost2010Prop33
280
     0
102
RTVSPost2010PropOp33
 70
     1
102
RTVSPost2010Prop34
280
     0
102
RTVSPost2010PropOp34
 70
     1
102
RTVSPost2010Prop35
280
     0
102
RTVSPost2010PropOp35
 70
     1
102
RTVSPost2010Prop36
280
     0
102
RTVSPost2010PropOp36
 70
     1
102
RTVSPost2010Prop37
 90
       50
102
RTVSPost2010PropOp37
 70
     1
102
RTVSPost2010Prop38
140
0.0
102
RTVSPost2010PropOp38
 70
     1
102
RTVSPost2010Prop39
140
1.0
102
RTVSPost2010PropOp39
 70
     1
102
RTVSPost2010Prop40
 90
        0
102
RTVSPost2010PropOp40
 70
     1
102
RTVSPost2010Prop41ColorIndex
 90
       18
102
RTVSPost2010Prop41ColorRGB
 90
        0
102
RTVSPost2010PropOp41
 70
     1
102
RTVSPost2010Prop42
 90
       50
102
RTVSPost2010PropOp42
 70
     1
102
RTVSPost2010Prop43
 90
        3
102
RTVSPost2010PropOp43
 70
     1
102
RTVSPost2010Prop44ColorIndex
 90
        5
102
RTVSPost2010Prop44ColorRGB
 90
      255
102
RTVSPost2010PropOp44
 70
     1
102
RTVSPost2010Prop45
280
     0
102
RTVSPost2010PropOp45
 70
     1
102
RTVSPost2010Prop46
 90
       50
102
RTVSPost2010PropOp46
 70
     1
102
RTVSPost2010Prop47
 90
       50
102
RTVSPost2010PropOp47
 70
     1
102
RTVSPost2010Prop48
 90
       50
102
RTVSPost2010PropOp48
 70
     1
102
RTVSPost2010Prop49
280
     0
102
RTVSPost2010PropOp49
 70
     1
102
RTVSPost2010Prop50
 90
       50
102
RTVSPost2010PropOp50
 70
     1
102
RTVSPost2010Prop51ColorIndex
 90
      256
102
RTVSPost2010Prop51ColorRGB
 90
-16777216
102
RTVSPost2010PropOp51
 70
     0
102
RTVSPost2010Prop52
140
1.0
102
RTVSPost2010PropOp52
 70
     0
102
RTVSPost2010Prop53
 90
        2
102
RTVSPost2010PropOp53
 70
     1
102
RTVSPost2010Prop54
  1
strokes_ogs.tif
102
RTVSPost2010PropOp54
 70
     1
102
RTVSPost2010Prop55
280
     0
102
RTVSPost2010PropOp55
 70
     1
102
RTVSPost2010Prop56
140
1.0
102
RTVSPost2010PropOp56
 70
     1
102
RTVSPost2010Prop57
140
1.0
102
RTVSPost2010PropOp57
 70
     1
  0
XRECORD
  5
4259
102
{ACAD_REACTORS
330
4258
102
}
330
4258
100
AcDbXrecord
280
     1
102
RTVSPropertyOp0
 70
     1
102
RTVSPropertyOp1
 70
     1
102
RTVSPropertyOp2
 70
     1
102
RTVSPropertyOp3
 70
     1
102
RTVSPropertyOp4
 70
     1
102
RTVSPropertyOp5
 70
     1
102
RTVSPropertyOp6
 70
     1
102
RTVSPropertyOp7
 70
     1
102
RTVSPropertyOp8
 70
     1
102
RTVSPropertyOp9
 70
     1
102
RTVSPropertyOp10
 70
     1
102
RTVSPropertyOp11
 70
     1
102
RTVSPropertyOp12
 70
     1
102
RTVSPropertyOp13
 70
     1
102
RTVSPropertyOp14
 70
     1
102
RTVSPropertyOp15
 70
     1
102
RTVSPropertyOp16
 70
     1
102
RTVSPropertyOp17
 70
     1
102
RTVSPropertyOp18
 70
     1
102
RTVSPropertyOp19
 70
     1
102
RTVSPropertyOp20
 70
     1
102
RTVSPropertyOp21
 70
     1
102
RTVSPropertyOp22
 70
     1
102
RTVSPropertyOp23
 70
     1
102
RTVSPropertyOp24
 70
     1
102
RTVSPropertyOp25
 70
     1
102
RTVSPropertyOp26
 70
     1
102
RTVSPropertyOp27
 70
     1
102
RTVSPropertyOp28
 70
     1
102
RTVSPropertyOp29
 70
     1
102
RTVSPropertyOp30
 70
     1
102
RTVSPropertyOp31
 70
     1
102
RTVSPropertyOp32
 70
     1
102
RTVSPropertyOp33
 70
     1
102
RTVSPropertyOp34
 70
     1
102
RTVSPropertyOp35
 70
     1
102
RTVSPropertyOp36
 70
     1
102
RTVSPropertyOp37
 70
     1
102
RTVSPropertyOp38
 70
     1
102
RTVSPropertyOp39
 70
     1
102
RTVSPropertyOp40
 70
     1
102
RTVSPropertyOp41
 70
     1
102
RTVSPropertyOp42
 70
     1
102
RTVSPropertyOp43
 70
     1
102
RTVSPropertyOp44
 70
     1
102
RTVSPropertyOp45
 70
     1
102
RTVSPropertyOp46
 70
     1
102
RTVSPropertyOp47
 70
     1
102
RTVSPropertyOp48
 70
     1
102
RTVSPropertyOp49
 70
     1
102
RTVSPropertyOp50
 70
     1
102
RTVSPropertyOp51
 70
     0
102
RTVSPropertyOp52
 70
     0
102
RTVSPropertyOp53
 70
     1
102
RTVSPropertyOp54
 70
     1
102
RTVSPropertyOp55
 70
     1
102
RTVSPropertyOp56
 70
     1
102
RTVSPropertyOp57
 70
     1
102
RTVSPost2010Prop28
280
     0
102
RTVSPost2010PropOp28
 70
     1
102
RTVSPost2010Prop29
280
     1
102
RTVSPost2010PropOp29
 70
     1
102
RTVSPost2010Prop30
280
     1
102
RTVSPost2010PropOp30
 70
     1
102
RTVSPost2010Prop31
280
     0
102
RTVSPost2010PropOp31
 70
     1
102
RTVSPost2010Prop32
280
     0
102
RTVSPost2010PropOp32
 70
     1
102
RTVSPost2010Prop33
280
     0
102
RTVSPost2010PropOp33
 70
     1
102
RTVSPost2010Prop34
280
     0
102
RTVSPost2010PropOp34
 70
     1
102
RTVSPost2010Prop35
280
     0
102
RTVSPost2010PropOp35
 70
     1
102
RTVSPost2010Prop36
280
     0
102
RTVSPost2010PropOp36
 70
     1
102
RTVSPost2010Prop37
 90
       50
102
RTVSPost2010PropOp37
 70
     1
102
RTVSPost2010Prop38
140
0.0
102
RTVSPost2010PropOp38
 70
     1
102
RTVSPost2010Prop39
140
1.0
102
RTVSPost2010PropOp39
 70
     1
102
RTVSPost2010Prop40
 90
        0
102
RTVSPost2010PropOp40
 70
     1
102
RTVSPost2010Prop41ColorIndex
 90
       18
102
RTVSPost2010Prop41ColorRGB
 90
        0
102
RTVSPost2010PropOp41
 70
     1
102
RTVSPost2010Prop42
 90
       50
102
RTVSPost2010PropOp42
 70
     1
102
RTVSPost2010Prop43
 90
        3
102
RTVSPost2010PropOp43
 70
     1
102
RTVSPost2010Prop44ColorIndex
 90
        5
102
RTVSPost2010Prop44ColorRGB
 90
      255
102
RTVSPost2010PropOp44
 70
     1
102
RTVSPost2010Prop45
280
     0
102
RTVSPost2010PropOp45
 70
     1
102
RTVSPost2010Prop46
 90
       50
102
RTVSPost2010PropOp46
 70
     1
102
RTVSPost2010Prop47
 90
       50
102
RTVSPost2010PropOp47
 70
     1
102
RTVSPost2010Prop48
 90
       50
102
RTVSPost2010PropOp48
 70
     1
102
RTVSPost2010Prop49
280
     0
102
RTVSPost2010PropOp49
 70
     1
102
RTVSPost2010Prop50
 90
       50
102
RTVSPost2010PropOp50
 70
     1
102
RTVSPost2010Prop51ColorIndex
 90
      256
102
RTVSPost2010Prop51ColorRGB
 90
-16777216
102
RTVSPost2010PropOp51
 70
     0
102
RTVSPost2010Prop52
140
1.0
102
RTVSPost2010PropOp52
 70
     0
102
RTVSPost2010Prop53
 90
        2
102
RTVSPost2010PropOp53
 70
     1
102
RTVSPost2010Prop54
  1
strokes_ogs.tif
102
RTVSPost2010PropOp54
 70
     1
102
RTVSPost2010Prop55
280
     0
102
RTVSPost2010PropOp55
 70
     1
102
RTVSPost2010Prop56
140
1.0
102
RTVSPost2010PropOp56
 70
     1
102
RTVSPost2010Prop57
140
1.0
102
RTVSPost2010PropOp57
 70
     1
  0
XRECORD
  5
425B
102
{ACAD_REACTORS
330
425A
102
}
330
425A
100
AcDbXrecord
280
     1
102
RTVSPropertyOp0
 70
     1
102
RTVSPropertyOp1
 70
     1
102
RTVSPropertyOp2
 70
     1
102
RTVSPropertyOp3
 70
     1
102
RTVSPropertyOp4
 70
     1
102
RTVSPropertyOp5
 70
     1
102
RTVSPropertyOp6
 70
     1
102
RTVSPropertyOp7
 70
     1
102
RTVSPropertyOp8
 70
     1
102
RTVSPropertyOp9
 70
     1
102
RTVSPropertyOp10
 70
     1
102
RTVSPropertyOp11
 70
     1
102
RTVSPropertyOp12
 70
     1
102
RTVSPropertyOp13
 70
     1
102
RTVSPropertyOp14
 70
     1
102
RTVSPropertyOp15
 70
     1
102
RTVSPropertyOp16
 70
     1
102
RTVSPropertyOp17
 70
     1
102
RTVSPropertyOp18
 70
     1
102
RTVSPropertyOp19
 70
     1
102
RTVSPropertyOp20
 70
     1
102
RTVSPropertyOp21
 70
     1
102
RTVSPropertyOp22
 70
     1
102
RTVSPropertyOp23
 70
     1
102
RTVSPropertyOp24
 70
     1
102
RTVSPropertyOp25
 70
     1
102
RTVSPropertyOp26
 70
     1
102
RTVSPropertyOp27
 70
     1
102
RTVSPropertyOp28
 70
     1
102
RTVSPropertyOp29
 70
     1
102
RTVSPropertyOp30
 70
     1
102
RTVSPropertyOp31
 70
     1
102
RTVSPropertyOp32
 70
     1
102
RTVSPropertyOp33
 70
     1
102
RTVSPropertyOp34
 70
     1
102
RTVSPropertyOp35
 70
     1
102
RTVSPropertyOp36
 70
     1
102
RTVSPropertyOp37
 70
     1
102
RTVSPropertyOp38
 70
     1
102
RTVSPropertyOp39
 70
     1
102
RTVSPropertyOp40
 70
     1
102
RTVSPropertyOp41
 70
     1
102
RTVSPropertyOp42
 70
     1
102
RTVSPropertyOp43
 70
     1
102
RTVSPropertyOp44
 70
     1
102
RTVSPropertyOp45
 70
     1
102
RTVSPropertyOp46
 70
     1
102
RTVSPropertyOp47
 70
     1
102
RTVSPropertyOp48
 70
     1
102
RTVSPropertyOp49
 70
     1
102
RTVSPropertyOp50
 70
     1
102
RTVSPropertyOp51
 70
     0
102
RTVSPropertyOp52
 70
     0
102
RTVSPropertyOp53
 70
     1
102
RTVSPropertyOp54
 70
     1
102
RTVSPropertyOp55
 70
     1
102
RTVSPropertyOp56
 70
     1
102
RTVSPropertyOp57
 70
     1
102
RTVSPost2010Prop28
280
     0
102
RTVSPost2010PropOp28
 70
     1
102
RTVSPost2010Prop29
280
     1
102
RTVSPost2010PropOp29
 70
     1
102
RTVSPost2010Prop30
280
     1
102
RTVSPost2010PropOp30
 70
     1
102
RTVSPost2010Prop31
280
     0
102
RTVSPost2010PropOp31
 70
     1
102
RTVSPost2010Prop32
280
     0
102
RTVSPost2010PropOp32
 70
     1
102
RTVSPost2010Prop33
280
     0
102
RTVSPost2010PropOp33
 70
     1
102
RTVSPost2010Prop34
280
     0
102
RTVSPost2010PropOp34
 70
     1
102
RTVSPost2010Prop35
280
     0
102
RTVSPost2010PropOp35
 70
     1
102
RTVSPost2010Prop36
280
     0
102
RTVSPost2010PropOp36
 70
     1
102
RTVSPost2010Prop37
 90
       50
102
RTVSPost2010PropOp37
 70
     1
102
RTVSPost2010Prop38
140
0.0
102
RTVSPost2010PropOp38
 70
     1
102
RTVSPost2010Prop39
140
1.0
102
RTVSPost2010PropOp39
 70
     1
102
RTVSPost2010Prop40
 90
        0
102
RTVSPost2010PropOp40
 70
     1
102
RTVSPost2010Prop41ColorIndex
 90
       18
102
RTVSPost2010Prop41ColorRGB
 90
        0
102
RTVSPost2010PropOp41
 70
     1
102
RTVSPost2010Prop42
 90
       50
102
RTVSPost2010PropOp42
 70
     1
102
RTVSPost2010Prop43
 90
        3
102
RTVSPost2010PropOp43
 70
     1
102
RTVSPost2010Prop44ColorIndex
 90
        5
102
RTVSPost2010Prop44ColorRGB
 90
      255
102
RTVSPost2010PropOp44
 70
     1
102
RTVSPost2010Prop45
280
     0
102
RTVSPost2010PropOp45
 70
     1
102
RTVSPost2010Prop46
 90
       50
102
RTVSPost2010PropOp46
 70
     1
102
RTVSPost2010Prop47
 90
       50
102
RTVSPost2010PropOp47
 70
     1
102
RTVSPost2010Prop48
 90
       50
102
RTVSPost2010PropOp48
 70
     1
102
RTVSPost2010Prop49
280
     0
102
RTVSPost2010PropOp49
 70
     1
102
RTVSPost2010Prop50
 90
       50
102
RTVSPost2010PropOp50
 70
     1
102
RTVSPost2010Prop51ColorIndex
 90
      256
102
RTVSPost2010Prop51ColorRGB
 90
-16777216
102
RTVSPost2010PropOp51
 70
     0
102
RTVSPost2010Prop52
140
1.0
102
RTVSPost2010PropOp52
 70
     0
102
RTVSPost2010Prop53
 90
        2
102
RTVSPost2010PropOp53
 70
     1
102
RTVSPost2010Prop54
  1
strokes_ogs.tif
102
RTVSPost2010PropOp54
 70
     1
102
RTVSPost2010Prop55
280
     0
102
RTVSPost2010PropOp55
 70
     1
102
RTVSPost2010Prop56
140
1.0
102
RTVSPost2010PropOp56
 70
     1
102
RTVSPost2010Prop57
140
1.0
102
RTVSPost2010PropOp57
 70
     1
  0
XRECORD
  5
4275
102
{ACAD_REACTORS
330
4274
102
}
330
4274
100
AcDbXrecord
280
     1
102
RTVSPropertyOp0
 70
     0
102
RTVSPropertyOp1
 70
     0
102
RTVSPropertyOp2
 70
     0
102
RTVSPropertyOp3
 70
     0
102
RTVSPropertyOp4
 70
     0
102
RTVSPropertyOp5
 70
     0
102
RTVSPropertyOp6
 70
     0
102
RTVSPropertyOp7
 70
     0
102
RTVSPropertyOp8
 70
     0
102
RTVSPropertyOp9
 70
     0
102
RTVSPropertyOp10
 70
     0
102
RTVSPropertyOp11
 70
     0
102
RTVSPropertyOp12
 70
     0
102
RTVSPropertyOp13
 70
     0
102
RTVSPropertyOp14
 70
     2
102
RTVSPropertyOp15
 70
     0
102
RTVSPropertyOp16
 70
     0
102
RTVSPropertyOp17
 70
     0
102
RTVSPropertyOp18
 70
     0
102
RTVSPropertyOp19
 70
     0
102
RTVSPropertyOp20
 70
     0
102
RTVSPropertyOp21
 70
     0
102
RTVSPropertyOp22
 70
     0
102
RTVSPropertyOp23
 70
     0
102
RTVSPropertyOp24
 70
     0
102
RTVSPropertyOp25
 70
     0
102
RTVSPropertyOp26
 70
     0
102
RTVSPropertyOp27
 70
     0
102
RTVSPropertyOp28
 70
     0
102
RTVSPropertyOp29
 70
     0
102
RTVSPropertyOp30
 70
     0
102
RTVSPropertyOp31
 70
     0
102
RTVSPropertyOp32
 70
     0
102
RTVSPropertyOp33
 70
     0
102
RTVSPropertyOp34
 70
     0
102
RTVSPropertyOp35
 70
     0
102
RTVSPropertyOp36
 70
     0
102
RTVSPropertyOp37
 70
     0
102
RTVSPropertyOp38
 70
     0
102
RTVSPropertyOp39
 70
     0
102
RTVSPropertyOp40
 70
     0
102
RTVSPropertyOp41
 70
     0
102
RTVSPropertyOp42
 70
     0
102
RTVSPropertyOp43
 70
     0
102
RTVSPropertyOp44
 70
     0
102
RTVSPropertyOp45
 70
     0
102
RTVSPropertyOp46
 70
     0
102
RTVSPropertyOp47
 70
     0
102
RTVSPropertyOp48
 70
     0
102
RTVSPropertyOp49
 70
     0
102
RTVSPropertyOp50
 70
     0
102
RTVSPropertyOp51
 70
     0
102
RTVSPropertyOp52
 70
     0
102
RTVSPropertyOp53
 70
     0
102
RTVSPropertyOp54
 70
     0
102
RTVSPropertyOp55
 70
     0
102
RTVSPropertyOp56
 70
     0
102
RTVSPropertyOp57
 70
     0
102
RTVSPost2010Prop28
280
     0
102
RTVSPost2010PropOp28
 70
     0
102
RTVSPost2010Prop29
280
     1
102
RTVSPost2010PropOp29
 70
     0
102
RTVSPost2010Prop30
280
     1
102
RTVSPost2010PropOp30
 70
     0
102
RTVSPost2010Prop31
280
     0
102
RTVSPost2010PropOp31
 70
     0
102
RTVSPost2010Prop32
280
     0
102
RTVSPost2010PropOp32
 70
     0
102
RTVSPost2010Prop33
280
     0
102
RTVSPost2010PropOp33
 70
     0
102
RTVSPost2010Prop34
280
     0
102
RTVSPost2010PropOp34
 70
     0
102
RTVSPost2010Prop35
280
     0
102
RTVSPost2010PropOp35
 70
     0
102
RTVSPost2010Prop36
280
     0
102
RTVSPost2010PropOp36
 70
     0
102
RTVSPost2010Prop37
 90
       50
102
RTVSPost2010PropOp37
 70
     0
102
RTVSPost2010Prop38
140
0.0
102
RTVSPost2010PropOp38
 70
     0
102
RTVSPost2010Prop39
140
1.0
102
RTVSPost2010PropOp39
 70
     0
102
RTVSPost2010Prop40
 90
        0
102
RTVSPost2010PropOp40
 70
     0
102
RTVSPost2010Prop41ColorIndex
 90
       18
102
RTVSPost2010Prop41ColorRGB
 90
        0
102
RTVSPost2010PropOp41
 70
     0
102
RTVSPost2010Prop42
 90
       50
102
RTVSPost2010PropOp42
 70
     0
102
RTVSPost2010Prop43
 90
        3
102
RTVSPost2010PropOp43
 70
     0
102
RTVSPost2010Prop44ColorIndex
 90
        5
102
RTVSPost2010Prop44ColorRGB
 90
      255
102
RTVSPost2010PropOp44
 70
     0
102
RTVSPost2010Prop45
280
     0
102
RTVSPost2010PropOp45
 70
     0
102
RTVSPost2010Prop46
 90
       50
102
RTVSPost2010PropOp46
 70
     0
102
RTVSPost2010Prop47
 90
       50
102
RTVSPost2010PropOp47
 70
     0
102
RTVSPost2010Prop48
 90
       50
102
RTVSPost2010PropOp48
 70
     0
102
RTVSPost2010Prop49
280
     0
102
RTVSPost2010PropOp49
 70
     0
102
RTVSPost2010Prop50
 90
       50
102
RTVSPost2010PropOp50
 70
     0
102
RTVSPost2010Prop51ColorIndex
 90
      256
102
RTVSPost2010Prop51ColorRGB
 90
-16777216
102
RTVSPost2010PropOp51
 70
     0
102
RTVSPost2010Prop52
140
1.0
102
RTVSPost2010PropOp52
 70
     0
102
RTVSPost2010Prop53
 90
        2
102
RTVSPost2010PropOp53
 70
     0
102
RTVSPost2010Prop54
  1
strokes_ogs.tif
102
RTVSPost2010PropOp54
 70
     0
102
RTVSPost2010Prop55
280
     0
102
RTVSPost2010PropOp55
 70
     0
102
RTVSPost2010Prop56
140
1.0
102
RTVSPost2010PropOp56
 70
     0
102
RTVSPost2010Prop57
140
1.0
102
RTVSPost2010PropOp57
 70
     0
  0
XRECORD
  5
425D
102
{ACAD_REACTORS
330
425C
102
}
330
425C
100
AcDbXrecord
280
     1
102
RTVSPropertyOp0
 70
     1
102
RTVSPropertyOp1
 70
     1
102
RTVSPropertyOp2
 70
     1
102
RTVSPropertyOp3
 70
     1
102
RTVSPropertyOp4
 70
     1
102
RTVSPropertyOp5
 70
     1
102
RTVSPropertyOp6
 70
     1
102
RTVSPropertyOp7
 70
     1
102
RTVSPropertyOp8
 70
     1
102
RTVSPropertyOp9
 70
     1
102
RTVSPropertyOp10
 70
     1
102
RTVSPropertyOp11
 70
     1
102
RTVSPropertyOp12
 70
     1
102
RTVSPropertyOp13
 70
     1
102
RTVSPropertyOp14
 70
     1
102
RTVSPropertyOp15
 70
     1
102
RTVSPropertyOp16
 70
     1
102
RTVSPropertyOp17
 70
     1
102
RTVSPropertyOp18
 70
     1
102
RTVSPropertyOp19
 70
     1
102
RTVSPropertyOp20
 70
     1
102
RTVSPropertyOp21
 70
     1
102
RTVSPropertyOp22
 70
     1
102
RTVSPropertyOp23
 70
     1
102
RTVSPropertyOp24
 70
     1
102
RTVSPropertyOp25
 70
     1
102
RTVSPropertyOp26
 70
     1
102
RTVSPropertyOp27
 70
     1
102
RTVSPropertyOp28
 70
     1
102
RTVSPropertyOp29
 70
     1
102
RTVSPropertyOp30
 70
     1
102
RTVSPropertyOp31
 70
     1
102
RTVSPropertyOp32
 70
     1
102
RTVSPropertyOp33
 70
     1
102
RTVSPropertyOp34
 70
     1
102
RTVSPropertyOp35
 70
     1
102
RTVSPropertyOp36
 70
     1
102
RTVSPropertyOp37
 70
     1
102
RTVSPropertyOp38
 70
     1
102
RTVSPropertyOp39
 70
     1
102
RTVSPropertyOp40
 70
     1
102
RTVSPropertyOp41
 70
     1
102
RTVSPropertyOp42
 70
     1
102
RTVSPropertyOp43
 70
     1
102
RTVSPropertyOp44
 70
     1
102
RTVSPropertyOp45
 70
     1
102
RTVSPropertyOp46
 70
     1
102
RTVSPropertyOp47
 70
     1
102
RTVSPropertyOp48
 70
     1
102
RTVSPropertyOp49
 70
     1
102
RTVSPropertyOp50
 70
     1
102
RTVSPropertyOp51
 70
     0
102
RTVSPropertyOp52
 70
     0
102
RTVSPropertyOp53
 70
     1
102
RTVSPropertyOp54
 70
     1
102
RTVSPropertyOp55
 70
     1
102
RTVSPropertyOp56
 70
     1
102
RTVSPropertyOp57
 70
     1
102
RTVSPost2010Prop28
280
     0
102
RTVSPost2010PropOp28
 70
     1
102
RTVSPost2010Prop29
280
     1
102
RTVSPost2010PropOp29
 70
     1
102
RTVSPost2010Prop30
280
     1
102
RTVSPost2010PropOp30
 70
     1
102
RTVSPost2010Prop31
280
     0
102
RTVSPost2010PropOp31
 70
     1
102
RTVSPost2010Prop32
280
     0
102
RTVSPost2010PropOp32
 70
     1
102
RTVSPost2010Prop33
280
     0
102
RTVSPost2010PropOp33
 70
     1
102
RTVSPost2010Prop34
280
     0
102
RTVSPost2010PropOp34
 70
     1
102
RTVSPost2010Prop35
280
     0
102
RTVSPost2010PropOp35
 70
     1
102
RTVSPost2010Prop36
280
     0
102
RTVSPost2010PropOp36
 70
     1
102
RTVSPost2010Prop37
 90
       50
102
RTVSPost2010PropOp37
 70
     1
102
RTVSPost2010Prop38
140
0.0
102
RTVSPost2010PropOp38
 70
     1
102
RTVSPost2010Prop39
140
1.0
102
RTVSPost2010PropOp39
 70
     1
102
RTVSPost2010Prop40
 90
        0
102
RTVSPost2010PropOp40
 70
     1
102
RTVSPost2010Prop41ColorIndex
 90
       18
102
RTVSPost2010Prop41ColorRGB
 90
        0
102
RTVSPost2010PropOp41
 70
     1
102
RTVSPost2010Prop42
 90
       50
102
RTVSPost2010PropOp42
 70
     1
102
RTVSPost2010Prop43
 90
        3
102
RTVSPost2010PropOp43
 70
     1
102
RTVSPost2010Prop44ColorIndex
 90
        5
102
RTVSPost2010Prop44ColorRGB
 90
      255
102
RTVSPost2010PropOp44
 70
     1
102
RTVSPost2010Prop45
280
     0
102
RTVSPost2010PropOp45
 70
     1
102
RTVSPost2010Prop46
 90
       50
102
RTVSPost2010PropOp46
 70
     1
102
RTVSPost2010Prop47
 90
       50
102
RTVSPost2010PropOp47
 70
     1
102
RTVSPost2010Prop48
 90
       50
102
RTVSPost2010PropOp48
 70
     1
102
RTVSPost2010Prop49
280
     0
102
RTVSPost2010PropOp49
 70
     1
102
RTVSPost2010Prop50
 90
       50
102
RTVSPost2010PropOp50
 70
     1
102
RTVSPost2010Prop51ColorIndex
 90
      256
102
RTVSPost2010Prop51ColorRGB
 90
-16777216
102
RTVSPost2010PropOp51
 70
     0
102
RTVSPost2010Prop52
140
1.0
102
RTVSPost2010PropOp52
 70
     0
102
RTVSPost2010Prop53
 90
        2
102
RTVSPost2010PropOp53
 70
     1
102
RTVSPost2010Prop54
  1
strokes_ogs.tif
102
RTVSPost2010PropOp54
 70
     1
102
RTVSPost2010Prop55
280
     0
102
RTVSPost2010PropOp55
 70
     1
102
RTVSPost2010Prop56
140
1.0
102
RTVSPost2010PropOp56
 70
     1
102
RTVSPost2010Prop57
140
1.0
102
RTVSPost2010PropOp57
 70
     1
  0
XRECORD
  5
425F
102
{ACAD_REACTORS
330
425E
102
}
330
425E
100
AcDbXrecord
280
     1
102
RTVSPropertyOp0
 70
     1
102
RTVSPropertyOp1
 70
     1
102
RTVSPropertyOp2
 70
     1
102
RTVSPropertyOp3
 70
     1
102
RTVSPropertyOp4
 70
     1
102
RTVSPropertyOp5
 70
     1
102
RTVSPropertyOp6
 70
     1
102
RTVSPropertyOp7
 70
     1
102
RTVSPropertyOp8
 70
     1
102
RTVSPropertyOp9
 70
     1
102
RTVSPropertyOp10
 70
     1
102
RTVSPropertyOp11
 70
     1
102
RTVSPropertyOp12
 70
     1
102
RTVSPropertyOp13
 70
     1
102
RTVSPropertyOp14
 70
     1
102
RTVSPropertyOp15
 70
     1
102
RTVSPropertyOp16
 70
     1
102
RTVSPropertyOp17
 70
     1
102
RTVSPropertyOp18
 70
     1
102
RTVSPropertyOp19
 70
     1
102
RTVSPropertyOp20
 70
     1
102
RTVSPropertyOp21
 70
     1
102
RTVSPropertyOp22
 70
     1
102
RTVSPropertyOp23
 70
     1
102
RTVSPropertyOp24
 70
     1
102
RTVSPropertyOp25
 70
     1
102
RTVSPropertyOp26
 70
     1
102
RTVSPropertyOp27
 70
     1
102
RTVSPropertyOp28
 70
     1
102
RTVSPropertyOp29
 70
     1
102
RTVSPropertyOp30
 70
     1
102
RTVSPropertyOp31
 70
     1
102
RTVSPropertyOp32
 70
     1
102
RTVSPropertyOp33
 70
     1
102
RTVSPropertyOp34
 70
     1
102
RTVSPropertyOp35
 70
     1
102
RTVSPropertyOp36
 70
     1
102
RTVSPropertyOp37
 70
     1
102
RTVSPropertyOp38
 70
     1
102
RTVSPropertyOp39
 70
     1
102
RTVSPropertyOp40
 70
     1
102
RTVSPropertyOp41
 70
     1
102
RTVSPropertyOp42
 70
     1
102
RTVSPropertyOp43
 70
     1
102
RTVSPropertyOp44
 70
     1
102
RTVSPropertyOp45
 70
     1
102
RTVSPropertyOp46
 70
     1
102
RTVSPropertyOp47
 70
     1
102
RTVSPropertyOp48
 70
     1
102
RTVSPropertyOp49
 70
     1
102
RTVSPropertyOp50
 70
     1
102
RTVSPropertyOp51
 70
     0
102
RTVSPropertyOp52
 70
     0
102
RTVSPropertyOp53
 70
     1
102
RTVSPropertyOp54
 70
     1
102
RTVSPropertyOp55
 70
     1
102
RTVSPropertyOp56
 70
     1
102
RTVSPropertyOp57
 70
     1
102
RTVSPost2010Prop28
280
     0
102
RTVSPost2010PropOp28
 70
     1
102
RTVSPost2010Prop29
280
     1
102
RTVSPost2010PropOp29
 70
     1
102
RTVSPost2010Prop30
280
     1
102
RTVSPost2010PropOp30
 70
     1
102
RTVSPost2010Prop31
280
     0
102
RTVSPost2010PropOp31
 70
     1
102
RTVSPost2010Prop32
280
     0
102
RTVSPost2010PropOp32
 70
     1
102
RTVSPost2010Prop33
280
     0
102
RTVSPost2010PropOp33
 70
     1
102
RTVSPost2010Prop34
280
     0
102
RTVSPost2010PropOp34
 70
     1
102
RTVSPost2010Prop35
280
     0
102
RTVSPost2010PropOp35
 70
     1
102
RTVSPost2010Prop36
280
     0
102
RTVSPost2010PropOp36
 70
     1
102
RTVSPost2010Prop37
 90
       50
102
RTVSPost2010PropOp37
 70
     1
102
RTVSPost2010Prop38
140
0.0
102
RTVSPost2010PropOp38
 70
     1
102
RTVSPost2010Prop39
140
1.0
102
RTVSPost2010PropOp39
 70
     1
102
RTVSPost2010Prop40
 90
        0
102
RTVSPost2010PropOp40
 70
     1
102
RTVSPost2010Prop41ColorIndex
 90
       18
102
RTVSPost2010Prop41ColorRGB
 90
        0
102
RTVSPost2010PropOp41
 70
     1
102
RTVSPost2010Prop42
 90
       50
102
RTVSPost2010PropOp42
 70
     1
102
RTVSPost2010Prop43
 90
        3
102
RTVSPost2010PropOp43
 70
     1
102
RTVSPost2010Prop44ColorIndex
 90
        5
102
RTVSPost2010Prop44ColorRGB
 90
      255
102
RTVSPost2010PropOp44
 70
     1
102
RTVSPost2010Prop45
280
     0
102
RTVSPost2010PropOp45
 70
     1
102
RTVSPost2010Prop46
 90
       50
102
RTVSPost2010PropOp46
 70
     1
102
RTVSPost2010Prop47
 90
       50
102
RTVSPost2010PropOp47
 70
     1
102
RTVSPost2010Prop48
 90
       50
102
RTVSPost2010PropOp48
 70
     1
102
RTVSPost2010Prop49
280
     0
102
RTVSPost2010PropOp49
 70
     1
102
RTVSPost2010Prop50
 90
       50
102
RTVSPost2010PropOp50
 70
     1
102
RTVSPost2010Prop51ColorIndex
 90
      256
102
RTVSPost2010Prop51ColorRGB
 90
-16777216
102
RTVSPost2010PropOp51
 70
     0
102
RTVSPost2010Prop52
140
1.0
102
RTVSPost2010PropOp52
 70
     0
102
RTVSPost2010Prop53
 90
        2
102
RTVSPost2010PropOp53
 70
     1
102
RTVSPost2010Prop54
  1
strokes_ogs.tif
102
RTVSPost2010PropOp54
 70
     1
102
RTVSPost2010Prop55
280
     0
102
RTVSPost2010PropOp55
 70
     1
102
RTVSPost2010Prop56
140
1.0
102
RTVSPost2010PropOp56
 70
     1
102
RTVSPost2010Prop57
140
1.0
102
RTVSPost2010PropOp57
 70
     1
  0
XRECORD
  5
4261
102
{ACAD_REACTORS
330
4260
102
}
330
4260
100
AcDbXrecord
280
     1
102
RTVSPropertyOp0
 70
     1
102
RTVSPropertyOp1
 70
     1
102
RTVSPropertyOp2
 70
     1
102
RTVSPropertyOp3
 70
     1
102
RTVSPropertyOp4
 70
     1
102
RTVSPropertyOp5
 70
     1
102
RTVSPropertyOp6
 70
     1
102
RTVSPropertyOp7
 70
     1
102
RTVSPropertyOp8
 70
     1
102
RTVSPropertyOp9
 70
     1
102
RTVSPropertyOp10
 70
     1
102
RTVSPropertyOp11
 70
     1
102
RTVSPropertyOp12
 70
     1
102
RTVSPropertyOp13
 70
     1
102
RTVSPropertyOp14
 70
     1
102
RTVSPropertyOp15
 70
     1
102
RTVSPropertyOp16
 70
     1
102
RTVSPropertyOp17
 70
     1
102
RTVSPropertyOp18
 70
     1
102
RTVSPropertyOp19
 70
     1
102
RTVSPropertyOp20
 70
     1
102
RTVSPropertyOp21
 70
     1
102
RTVSPropertyOp22
 70
     1
102
RTVSPropertyOp23
 70
     1
102
RTVSPropertyOp24
 70
     1
102
RTVSPropertyOp25
 70
     1
102
RTVSPropertyOp26
 70
     1
102
RTVSPropertyOp27
 70
     1
102
RTVSPropertyOp28
 70
     1
102
RTVSPropertyOp29
 70
     1
102
RTVSPropertyOp30
 70
     1
102
RTVSPropertyOp31
 70
     1
102
RTVSPropertyOp32
 70
     1
102
RTVSPropertyOp33
 70
     1
102
RTVSPropertyOp34
 70
     1
102
RTVSPropertyOp35
 70
     1
102
RTVSPropertyOp36
 70
     1
102
RTVSPropertyOp37
 70
     1
102
RTVSPropertyOp38
 70
     1
102
RTVSPropertyOp39
 70
     1
102
RTVSPropertyOp40
 70
     1
102
RTVSPropertyOp41
 70
     1
102
RTVSPropertyOp42
 70
     1
102
RTVSPropertyOp43
 70
     1
102
RTVSPropertyOp44
 70
     1
102
RTVSPropertyOp45
 70
     1
102
RTVSPropertyOp46
 70
     1
102
RTVSPropertyOp47
 70
     1
102
RTVSPropertyOp48
 70
     1
102
RTVSPropertyOp49
 70
     1
102
RTVSPropertyOp50
 70
     1
102
RTVSPropertyOp51
 70
     0
102
RTVSPropertyOp52
 70
     0
102
RTVSPropertyOp53
 70
     1
102
RTVSPropertyOp54
 70
     1
102
RTVSPropertyOp55
 70
     1
102
RTVSPropertyOp56
 70
     1
102
RTVSPropertyOp57
 70
     1
102
RTVSPost2010Prop28
280
     0
102
RTVSPost2010PropOp28
 70
     1
102
RTVSPost2010Prop29
280
     1
102
RTVSPost2010PropOp29
 70
     1
102
RTVSPost2010Prop30
280
     1
102
RTVSPost2010PropOp30
 70
     1
102
RTVSPost2010Prop31
280
     0
102
RTVSPost2010PropOp31
 70
     1
102
RTVSPost2010Prop32
280
     0
102
RTVSPost2010PropOp32
 70
     1
102
RTVSPost2010Prop33
280
     0
102
RTVSPost2010PropOp33
 70
     1
102
RTVSPost2010Prop34
280
     0
102
RTVSPost2010PropOp34
 70
     1
102
RTVSPost2010Prop35
280
     0
102
RTVSPost2010PropOp35
 70
     1
102
RTVSPost2010Prop36
280
     0
102
RTVSPost2010PropOp36
 70
     1
102
RTVSPost2010Prop37
 90
       50
102
RTVSPost2010PropOp37
 70
     1
102
RTVSPost2010Prop38
140
0.0
102
RTVSPost2010PropOp38
 70
     1
102
RTVSPost2010Prop39
140
1.0
102
RTVSPost2010PropOp39
 70
     1
102
RTVSPost2010Prop40
 90
        0
102
RTVSPost2010PropOp40
 70
     1
102
RTVSPost2010Prop41ColorIndex
 90
       18
102
RTVSPost2010Prop41ColorRGB
 90
        0
102
RTVSPost2010PropOp41
 70
     1
102
RTVSPost2010Prop42
 90
       50
102
RTVSPost2010PropOp42
 70
     1
102
RTVSPost2010Prop43
 90
        3
102
RTVSPost2010PropOp43
 70
     1
102
RTVSPost2010Prop44ColorIndex
 90
        5
102
RTVSPost2010Prop44ColorRGB
 90
      255
102
RTVSPost2010PropOp44
 70
     1
102
RTVSPost2010Prop45
280
     0
102
RTVSPost2010PropOp45
 70
     1
102
RTVSPost2010Prop46
 90
       50
102
RTVSPost2010PropOp46
 70
     1
102
RTVSPost2010Prop47
 90
       50
102
RTVSPost2010PropOp47
 70
     1
102
RTVSPost2010Prop48
 90
       50
102
RTVSPost2010PropOp48
 70
     1
102
RTVSPost2010Prop49
280
     0
102
RTVSPost2010PropOp49
 70
     1
102
RTVSPost2010Prop50
 90
       50
102
RTVSPost2010PropOp50
 70
     1
102
RTVSPost2010Prop51ColorIndex
 90
      256
102
RTVSPost2010Prop51ColorRGB
 90
-16777216
102
RTVSPost2010PropOp51
 70
     0
102
RTVSPost2010Prop52
140
1.0
102
RTVSPost2010PropOp52
 70
     0
102
RTVSPost2010Prop53
 90
        2
102
RTVSPost2010PropOp53
 70
     1
102
RTVSPost2010Prop54
  1
strokes_ogs.tif
102
RTVSPost2010PropOp54
 70
     1
102
RTVSPost2010Prop55
280
     0
102
RTVSPost2010PropOp55
 70
     1
102
RTVSPost2010Prop56
140
1.0
102
RTVSPost2010PropOp56
 70
     1
102
RTVSPost2010Prop57
140
1.0
102
RTVSPost2010PropOp57
 70
     1
  0
XRECORD
  5
4263
102
{ACAD_REACTORS
330
4262
102
}
330
4262
100
AcDbXrecord
280
     1
102
RTVSPropertyOp0
 70
     1
102
RTVSPropertyOp1
 70
     1
102
RTVSPropertyOp2
 70
     1
102
RTVSPropertyOp3
 70
     1
102
RTVSPropertyOp4
 70
     1
102
RTVSPropertyOp5
 70
     1
102
RTVSPropertyOp6
 70
     1
102
RTVSPropertyOp7
 70
     1
102
RTVSPropertyOp8
 70
     1
102
RTVSPropertyOp9
 70
     1
102
RTVSPropertyOp10
 70
     1
102
RTVSPropertyOp11
 70
     1
102
RTVSPropertyOp12
 70
     1
102
RTVSPropertyOp13
 70
     1
102
RTVSPropertyOp14
 70
     1
102
RTVSPropertyOp15
 70
     1
102
RTVSPropertyOp16
 70
     1
102
RTVSPropertyOp17
 70
     1
102
RTVSPropertyOp18
 70
     1
102
RTVSPropertyOp19
 70
     1
102
RTVSPropertyOp20
 70
     1
102
RTVSPropertyOp21
 70
     1
102
RTVSPropertyOp22
 70
     1
102
RTVSPropertyOp23
 70
     1
102
RTVSPropertyOp24
 70
     1
102
RTVSPropertyOp25
 70
     1
102
RTVSPropertyOp26
 70
     1
102
RTVSPropertyOp27
 70
     1
102
RTVSPropertyOp28
 70
     1
102
RTVSPropertyOp29
 70
     1
102
RTVSPropertyOp30
 70
     1
102
RTVSPropertyOp31
 70
     1
102
RTVSPropertyOp32
 70
     1
102
RTVSPropertyOp33
 70
     1
102
RTVSPropertyOp34
 70
     1
102
RTVSPropertyOp35
 70
     1
102
RTVSPropertyOp36
 70
     1
102
RTVSPropertyOp37
 70
     1
102
RTVSPropertyOp38
 70
     1
102
RTVSPropertyOp39
 70
     1
102
RTVSPropertyOp40
 70
     1
102
RTVSPropertyOp41
 70
     1
102
RTVSPropertyOp42
 70
     1
102
RTVSPropertyOp43
 70
     1
102
RTVSPropertyOp44
 70
     1
102
RTVSPropertyOp45
 70
     1
102
RTVSPropertyOp46
 70
     1
102
RTVSPropertyOp47
 70
     1
102
RTVSPropertyOp48
 70
     1
102
RTVSPropertyOp49
 70
     1
102
RTVSPropertyOp50
 70
     1
102
RTVSPropertyOp51
 70
     0
102
RTVSPropertyOp52
 70
     0
102
RTVSPropertyOp53
 70
     1
102
RTVSPropertyOp54
 70
     1
102
RTVSPropertyOp55
 70
     1
102
RTVSPropertyOp56
 70
     1
102
RTVSPropertyOp57
 70
     1
102
RTVSPost2010Prop28
280
     0
102
RTVSPost2010PropOp28
 70
     1
102
RTVSPost2010Prop29
280
     1
102
RTVSPost2010PropOp29
 70
     1
102
RTVSPost2010Prop30
280
     1
102
RTVSPost2010PropOp30
 70
     1
102
RTVSPost2010Prop31
280
     0
102
RTVSPost2010PropOp31
 70
     1
102
RTVSPost2010Prop32
280
     0
102
RTVSPost2010PropOp32
 70
     1
102
RTVSPost2010Prop33
280
     0
102
RTVSPost2010PropOp33
 70
     1
102
RTVSPost2010Prop34
280
     0
102
RTVSPost2010PropOp34
 70
     1
102
RTVSPost2010Prop35
280
     0
102
RTVSPost2010PropOp35
 70
     1
102
RTVSPost2010Prop36
280
     0
102
RTVSPost2010PropOp36
 70
     1
102
RTVSPost2010Prop37
 90
       50
102
RTVSPost2010PropOp37
 70
     1
102
RTVSPost2010Prop38
140
0.0
102
RTVSPost2010PropOp38
 70
     1
102
RTVSPost2010Prop39
140
1.0
102
RTVSPost2010PropOp39
 70
     1
102
RTVSPost2010Prop40
 90
        0
102
RTVSPost2010PropOp40
 70
     1
102
RTVSPost2010Prop41ColorIndex
 90
       18
102
RTVSPost2010Prop41ColorRGB
 90
        0
102
RTVSPost2010PropOp41
 70
     1
102
RTVSPost2010Prop42
 90
       50
102
RTVSPost2010PropOp42
 70
     1
102
RTVSPost2010Prop43
 90
        3
102
RTVSPost2010PropOp43
 70
     1
102
RTVSPost2010Prop44ColorIndex
 90
        5
102
RTVSPost2010Prop44ColorRGB
 90
      255
102
RTVSPost2010PropOp44
 70
     1
102
RTVSPost2010Prop45
280
     0
102
RTVSPost2010PropOp45
 70
     1
102
RTVSPost2010Prop46
 90
       50
102
RTVSPost2010PropOp46
 70
     1
102
RTVSPost2010Prop47
 90
       50
102
RTVSPost2010PropOp47
 70
     1
102
RTVSPost2010Prop48
 90
       50
102
RTVSPost2010PropOp48
 70
     1
102
RTVSPost2010Prop49
280
     0
102
RTVSPost2010PropOp49
 70
     1
102
RTVSPost2010Prop50
 90
       50
102
RTVSPost2010PropOp50
 70
     1
102
RTVSPost2010Prop51ColorIndex
 90
      256
102
RTVSPost2010Prop51ColorRGB
 90
-16777216
102
RTVSPost2010PropOp51
 70
     0
102
RTVSPost2010Prop52
140
1.0
102
RTVSPost2010PropOp52
 70
     0
102
RTVSPost2010Prop53
 90
        2
102
RTVSPost2010PropOp53
 70
     1
102
RTVSPost2010Prop54
  1
strokes_ogs.tif
102
RTVSPost2010PropOp54
 70
     1
102
RTVSPost2010Prop55
280
     0
102
RTVSPost2010PropOp55
 70
     1
102
RTVSPost2010Prop56
140
1.0
102
RTVSPost2010PropOp56
 70
     1
102
RTVSPost2010Prop57
140
1.0
102
RTVSPost2010PropOp57
 70
     1
  0
XRECORD
  5
4265
102
{ACAD_REACTORS
330
4264
102
}
330
4264
100
AcDbXrecord
280
     1
102
RTVSPropertyOp0
 70
     1
102
RTVSPropertyOp1
 70
     1
102
RTVSPropertyOp2
 70
     1
102
RTVSPropertyOp3
 70
     1
102
RTVSPropertyOp4
 70
     1
102
RTVSPropertyOp5
 70
     1
102
RTVSPropertyOp6
 70
     1
102
RTVSPropertyOp7
 70
     1
102
RTVSPropertyOp8
 70
     1
102
RTVSPropertyOp9
 70
     1
102
RTVSPropertyOp10
 70
     1
102
RTVSPropertyOp11
 70
     1
102
RTVSPropertyOp12
 70
     1
102
RTVSPropertyOp13
 70
     1
102
RTVSPropertyOp14
 70
     1
102
RTVSPropertyOp15
 70
     1
102
RTVSPropertyOp16
 70
     1
102
RTVSPropertyOp17
 70
     1
102
RTVSPropertyOp18
 70
     1
102
RTVSPropertyOp19
 70
     1
102
RTVSPropertyOp20
 70
     1
102
RTVSPropertyOp21
 70
     1
102
RTVSPropertyOp22
 70
     1
102
RTVSPropertyOp23
 70
     1
102
RTVSPropertyOp24
 70
     1
102
RTVSPropertyOp25
 70
     1
102
RTVSPropertyOp26
 70
     1
102
RTVSPropertyOp27
 70
     1
102
RTVSPropertyOp28
 70
     1
102
RTVSPropertyOp29
 70
     1
102
RTVSPropertyOp30
 70
     1
102
RTVSPropertyOp31
 70
     1
102
RTVSPropertyOp32
 70
     1
102
RTVSPropertyOp33
 70
     1
102
RTVSPropertyOp34
 70
     1
102
RTVSPropertyOp35
 70
     1
102
RTVSPropertyOp36
 70
     1
102
RTVSPropertyOp37
 70
     1
102
RTVSPropertyOp38
 70
     1
102
RTVSPropertyOp39
 70
     1
102
RTVSPropertyOp40
 70
     1
102
RTVSPropertyOp41
 70
     1
102
RTVSPropertyOp42
 70
     1
102
RTVSPropertyOp43
 70
     1
102
RTVSPropertyOp44
 70
     1
102
RTVSPropertyOp45
 70
     1
102
RTVSPropertyOp46
 70
     1
102
RTVSPropertyOp47
 70
     1
102
RTVSPropertyOp48
 70
     1
102
RTVSPropertyOp49
 70
     1
102
RTVSPropertyOp50
 70
     1
102
RTVSPropertyOp51
 70
     0
102
RTVSPropertyOp52
 70
     0
102
RTVSPropertyOp53
 70
     1
102
RTVSPropertyOp54
 70
     1
102
RTVSPropertyOp55
 70
     1
102
RTVSPropertyOp56
 70
     1
102
RTVSPropertyOp57
 70
     1
102
RTVSPost2010Prop28
280
     0
102
RTVSPost2010PropOp28
 70
     1
102
RTVSPost2010Prop29
280
     1
102
RTVSPost2010PropOp29
 70
     1
102
RTVSPost2010Prop30
280
     1
102
RTVSPost2010PropOp30
 70
     1
102
RTVSPost2010Prop31
280
     0
102
RTVSPost2010PropOp31
 70
     1
102
RTVSPost2010Prop32
280
     0
102
RTVSPost2010PropOp32
 70
     1
102
RTVSPost2010Prop33
280
     0
102
RTVSPost2010PropOp33
 70
     1
102
RTVSPost2010Prop34
280
     0
102
RTVSPost2010PropOp34
 70
     1
102
RTVSPost2010Prop35
280
     0
102
RTVSPost2010PropOp35
 70
     1
102
RTVSPost2010Prop36
280
     0
102
RTVSPost2010PropOp36
 70
     1
102
RTVSPost2010Prop37
 90
       50
102
RTVSPost2010PropOp37
 70
     1
102
RTVSPost2010Prop38
140
0.0
102
RTVSPost2010PropOp38
 70
     1
102
RTVSPost2010Prop39
140
1.0
102
RTVSPost2010PropOp39
 70
     1
102
RTVSPost2010Prop40
 90
        0
102
RTVSPost2010PropOp40
 70
     1
102
RTVSPost2010Prop41ColorIndex
 90
       18
102
RTVSPost2010Prop41ColorRGB
 90
        0
102
RTVSPost2010PropOp41
 70
     1
102
RTVSPost2010Prop42
 90
       50
102
RTVSPost2010PropOp42
 70
     1
102
RTVSPost2010Prop43
 90
        3
102
RTVSPost2010PropOp43
 70
     1
102
RTVSPost2010Prop44ColorIndex
 90
        5
102
RTVSPost2010Prop44ColorRGB
 90
      255
102
RTVSPost2010PropOp44
 70
     1
102
RTVSPost2010Prop45
280
     0
102
RTVSPost2010PropOp45
 70
     1
102
RTVSPost2010Prop46
 90
       50
102
RTVSPost2010PropOp46
 70
     1
102
RTVSPost2010Prop47
 90
       50
102
RTVSPost2010PropOp47
 70
     1
102
RTVSPost2010Prop48
 90
       50
102
RTVSPost2010PropOp48
 70
     1
102
RTVSPost2010Prop49
280
     0
102
RTVSPost2010PropOp49
 70
     1
102
RTVSPost2010Prop50
 90
       50
102
RTVSPost2010PropOp50
 70
     1
102
RTVSPost2010Prop51ColorIndex
 90
      256
102
RTVSPost2010Prop51ColorRGB
 90
-16777216
102
RTVSPost2010PropOp51
 70
     0
102
RTVSPost2010Prop52
140
1.0
102
RTVSPost2010PropOp52
 70
     0
102
RTVSPost2010Prop53
 90
        2
102
RTVSPost2010PropOp53
 70
     1
102
RTVSPost2010Prop54
  1
strokes_ogs.tif
102
RTVSPost2010PropOp54
 70
     1
102
RTVSPost2010Prop55
280
     0
102
RTVSPost2010PropOp55
 70
     1
102
RTVSPost2010Prop56
140
1.0
102
RTVSPost2010PropOp56
 70
     1
102
RTVSPost2010Prop57
140
1.0
102
RTVSPost2010PropOp57
 70
     1
  0
XRECORD
  5
426F
102
{ACAD_REACTORS
330
426E
102
}
330
426E
100
AcDbXrecord
280
     1
102
RTVSPropertyOp0
 70
     1
102
RTVSPropertyOp1
 70
     1
102
RTVSPropertyOp2
 70
     1
102
RTVSPropertyOp3
 70
     1
102
RTVSPropertyOp4
 70
     1
102
RTVSPropertyOp5
 70
     1
102
RTVSPropertyOp6
 70
     1
102
RTVSPropertyOp7
 70
     1
102
RTVSPropertyOp8
 70
     1
102
RTVSPropertyOp9
 70
     1
102
RTVSPropertyOp10
 70
     1
102
RTVSPropertyOp11
 70
     1
102
RTVSPropertyOp12
 70
     1
102
RTVSPropertyOp13
 70
     1
102
RTVSPropertyOp14
 70
     1
102
RTVSPropertyOp15
 70
     1
102
RTVSPropertyOp16
 70
     1
102
RTVSPropertyOp17
 70
     1
102
RTVSPropertyOp18
 70
     1
102
RTVSPropertyOp19
 70
     1
102
RTVSPropertyOp20
 70
     1
102
RTVSPropertyOp21
 70
     1
102
RTVSPropertyOp22
 70
     1
102
RTVSPropertyOp23
 70
     1
102
RTVSPropertyOp24
 70
     1
102
RTVSPropertyOp25
 70
     1
102
RTVSPropertyOp26
 70
     1
102
RTVSPropertyOp27
 70
     1
102
RTVSPropertyOp28
 70
     1
102
RTVSPropertyOp29
 70
     1
102
RTVSPropertyOp30
 70
     1
102
RTVSPropertyOp31
 70
     1
102
RTVSPropertyOp32
 70
     1
102
RTVSPropertyOp33
 70
     1
102
RTVSPropertyOp34
 70
     1
102
RTVSPropertyOp35
 70
     1
102
RTVSPropertyOp36
 70
     1
102
RTVSPropertyOp37
 70
     1
102
RTVSPropertyOp38
 70
     1
102
RTVSPropertyOp39
 70
     1
102
RTVSPropertyOp40
 70
     1
102
RTVSPropertyOp41
 70
     1
102
RTVSPropertyOp42
 70
     1
102
RTVSPropertyOp43
 70
     1
102
RTVSPropertyOp44
 70
     1
102
RTVSPropertyOp45
 70
     1
102
RTVSPropertyOp46
 70
     1
102
RTVSPropertyOp47
 70
     1
102
RTVSPropertyOp48
 70
     1
102
RTVSPropertyOp49
 70
     1
102
RTVSPropertyOp50
 70
     1
102
RTVSPropertyOp51
 70
     0
102
RTVSPropertyOp52
 70
     0
102
RTVSPropertyOp53
 70
     1
102
RTVSPropertyOp54
 70
     1
102
RTVSPropertyOp55
 70
     1
102
RTVSPropertyOp56
 70
     1
102
RTVSPropertyOp57
 70
     1
102
RTVSPost2010Prop28
280
     0
102
RTVSPost2010PropOp28
 70
     1
102
RTVSPost2010Prop29
280
     1
102
RTVSPost2010PropOp29
 70
     1
102
RTVSPost2010Prop30
280
     1
102
RTVSPost2010PropOp30
 70
     1
102
RTVSPost2010Prop31
280
     0
102
RTVSPost2010PropOp31
 70
     1
102
RTVSPost2010Prop32
280
     0
102
RTVSPost2010PropOp32
 70
     1
102
RTVSPost2010Prop33
280
     0
102
RTVSPost2010PropOp33
 70
     1
102
RTVSPost2010Prop34
280
     0
102
RTVSPost2010PropOp34
 70
     1
102
RTVSPost2010Prop35
280
     0
102
RTVSPost2010PropOp35
 70
     1
102
RTVSPost2010Prop36
280
     0
102
RTVSPost2010PropOp36
 70
     1
102
RTVSPost2010Prop37
 90
       50
102
RTVSPost2010PropOp37
 70
     1
102
RTVSPost2010Prop38
140
0.0
102
RTVSPost2010PropOp38
 70
     1
102
RTVSPost2010Prop39
140
1.0
102
RTVSPost2010PropOp39
 70
     1
102
RTVSPost2010Prop40
 90
        0
102
RTVSPost2010PropOp40
 70
     1
102
RTVSPost2010Prop41ColorIndex
 90
       18
102
RTVSPost2010Prop41ColorRGB
 90
        0
102
RTVSPost2010PropOp41
 70
     1
102
RTVSPost2010Prop42
 90
       50
102
RTVSPost2010PropOp42
 70
     1
102
RTVSPost2010Prop43
 90
        3
102
RTVSPost2010PropOp43
 70
     1
102
RTVSPost2010Prop44ColorIndex
 90
        5
102
RTVSPost2010Prop44ColorRGB
 90
      255
102
RTVSPost2010PropOp44
 70
     1
102
RTVSPost2010Prop45
280
     0
102
RTVSPost2010PropOp45
 70
     1
102
RTVSPost2010Prop46
 90
       50
102
RTVSPost2010PropOp46
 70
     1
102
RTVSPost2010Prop47
 90
       50
102
RTVSPost2010PropOp47
 70
     1
102
RTVSPost2010Prop48
 90
       50
102
RTVSPost2010PropOp48
 70
     1
102
RTVSPost2010Prop49
280
     0
102
RTVSPost2010PropOp49
 70
     1
102
RTVSPost2010Prop50
 90
       50
102
RTVSPost2010PropOp50
 70
     1
102
RTVSPost2010Prop51ColorIndex
 90
      256
102
RTVSPost2010Prop51ColorRGB
 90
-16777216
102
RTVSPost2010PropOp51
 70
     0
102
RTVSPost2010Prop52
140
1.0
102
RTVSPost2010PropOp52
 70
     0
102
RTVSPost2010Prop53
 90
        2
102
RTVSPost2010PropOp53
 70
     1
102
RTVSPost2010Prop54
  1
strokes_ogs.tif
102
RTVSPost2010PropOp54
 70
     1
102
RTVSPost2010Prop55
280
     0
102
RTVSPost2010PropOp55
 70
     1
102
RTVSPost2010Prop56
140
1.0
102
RTVSPost2010PropOp56
 70
     1
102
RTVSPost2010Prop57
140
1.0
102
RTVSPost2010PropOp57
 70
     1
  0
XRECORD
  5
4271
102
{ACAD_REACTORS
330
4270
102
}
330
4270
100
AcDbXrecord
280
     1
102
RTVSPropertyOp0
 70
     0
102
RTVSPropertyOp1
 70
     0
102
RTVSPropertyOp2
 70
     0
102
RTVSPropertyOp3
 70
     0
102
RTVSPropertyOp4
 70
     0
102
RTVSPropertyOp5
 70
     0
102
RTVSPropertyOp6
 70
     0
102
RTVSPropertyOp7
 70
     0
102
RTVSPropertyOp8
 70
     0
102
RTVSPropertyOp9
 70
     0
102
RTVSPropertyOp10
 70
     0
102
RTVSPropertyOp11
 70
     0
102
RTVSPropertyOp12
 70
     0
102
RTVSPropertyOp13
 70
     0
102
RTVSPropertyOp14
 70
     2
102
RTVSPropertyOp15
 70
     0
102
RTVSPropertyOp16
 70
     0
102
RTVSPropertyOp17
 70
     0
102
RTVSPropertyOp18
 70
     0
102
RTVSPropertyOp19
 70
     0
102
RTVSPropertyOp20
 70
     0
102
RTVSPropertyOp21
 70
     0
102
RTVSPropertyOp22
 70
     0
102
RTVSPropertyOp23
 70
     0
102
RTVSPropertyOp24
 70
     0
102
RTVSPropertyOp25
 70
     0
102
RTVSPropertyOp26
 70
     0
102
RTVSPropertyOp27
 70
     0
102
RTVSPropertyOp28
 70
     0
102
RTVSPropertyOp29
 70
     0
102
RTVSPropertyOp30
 70
     0
102
RTVSPropertyOp31
 70
     0
102
RTVSPropertyOp32
 70
     0
102
RTVSPropertyOp33
 70
     0
102
RTVSPropertyOp34
 70
     0
102
RTVSPropertyOp35
 70
     0
102
RTVSPropertyOp36
 70
     0
102
RTVSPropertyOp37
 70
     0
102
RTVSPropertyOp38
 70
     0
102
RTVSPropertyOp39
 70
     0
102
RTVSPropertyOp40
 70
     0
102
RTVSPropertyOp41
 70
     0
102
RTVSPropertyOp42
 70
     0
102
RTVSPropertyOp43
 70
     0
102
RTVSPropertyOp44
 70
     0
102
RTVSPropertyOp45
 70
     0
102
RTVSPropertyOp46
 70
     0
102
RTVSPropertyOp47
 70
     0
102
RTVSPropertyOp48
 70
     0
102
RTVSPropertyOp49
 70
     0
102
RTVSPropertyOp50
 70
     0
102
RTVSPropertyOp51
 70
     0
102
RTVSPropertyOp52
 70
     0
102
RTVSPropertyOp53
 70
     0
102
RTVSPropertyOp54
 70
     0
102
RTVSPropertyOp55
 70
     0
102
RTVSPropertyOp56
 70
     0
102
RTVSPropertyOp57
 70
     0
102
RTVSPost2010Prop28
280
     0
102
RTVSPost2010PropOp28
 70
     0
102
RTVSPost2010Prop29
280
     1
102
RTVSPost2010PropOp29
 70
     0
102
RTVSPost2010Prop30
280
     1
102
RTVSPost2010PropOp30
 70
     0
102
RTVSPost2010Prop31
280
     0
102
RTVSPost2010PropOp31
 70
     0
102
RTVSPost2010Prop32
280
     0
102
RTVSPost2010PropOp32
 70
     0
102
RTVSPost2010Prop33
280
     0
102
RTVSPost2010PropOp33
 70
     0
102
RTVSPost2010Prop34
280
     0
102
RTVSPost2010PropOp34
 70
     0
102
RTVSPost2010Prop35
280
     0
102
RTVSPost2010PropOp35
 70
     0
102
RTVSPost2010Prop36
280
     0
102
RTVSPost2010PropOp36
 70
     0
102
RTVSPost2010Prop37
 90
       50
102
RTVSPost2010PropOp37
 70
     0
102
RTVSPost2010Prop38
140
0.0
102
RTVSPost2010PropOp38
 70
     0
102
RTVSPost2010Prop39
140
1.0
102
RTVSPost2010PropOp39
 70
     0
102
RTVSPost2010Prop40
 90
        0
102
RTVSPost2010PropOp40
 70
     0
102
RTVSPost2010Prop41ColorIndex
 90
       18
102
RTVSPost2010Prop41ColorRGB
 90
        0
102
RTVSPost2010PropOp41
 70
     0
102
RTVSPost2010Prop42
 90
       50
102
RTVSPost2010PropOp42
 70
     0
102
RTVSPost2010Prop43
 90
        3
102
RTVSPost2010PropOp43
 70
     0
102
RTVSPost2010Prop44ColorIndex
 90
        5
102
RTVSPost2010Prop44ColorRGB
 90
      255
102
RTVSPost2010PropOp44
 70
     0
102
RTVSPost2010Prop45
280
     0
102
RTVSPost2010PropOp45
 70
     0
102
RTVSPost2010Prop46
 90
       50
102
RTVSPost2010PropOp46
 70
     0
102
RTVSPost2010Prop47
 90
       50
102
RTVSPost2010PropOp47
 70
     0
102
RTVSPost2010Prop48
 90
       50
102
RTVSPost2010PropOp48
 70
     0
102
RTVSPost2010Prop49
280
     0
102
RTVSPost2010PropOp49
 70
     0
102
RTVSPost2010Prop50
 90
       50
102
RTVSPost2010PropOp50
 70
     0
102
RTVSPost2010Prop51ColorIndex
 90
      256
102
RTVSPost2010Prop51ColorRGB
 90
-16777216
102
RTVSPost2010PropOp51
 70
     0
102
RTVSPost2010Prop52
140
1.0
102
RTVSPost2010PropOp52
 70
     0
102
RTVSPost2010Prop53
 90
        2
102
RTVSPost2010PropOp53
 70
     0
102
RTVSPost2010Prop54
  1
strokes_ogs.tif
102
RTVSPost2010PropOp54
 70
     0
102
RTVSPost2010Prop55
280
     0
102
RTVSPost2010PropOp55
 70
     0
102
RTVSPost2010Prop56
140
1.0
102
RTVSPost2010PropOp56
 70
     0
102
RTVSPost2010Prop57
140
1.0
102
RTVSPost2010PropOp57
 70
     0
  0
XRECORD
  5
4267
102
{ACAD_REACTORS
330
4266
102
}
330
4266
100
AcDbXrecord
280
     1
102
RTVSPropertyOp0
 70
     1
102
RTVSPropertyOp1
 70
     1
102
RTVSPropertyOp2
 70
     1
102
RTVSPropertyOp3
 70
     1
102
RTVSPropertyOp4
 70
     1
102
RTVSPropertyOp5
 70
     1
102
RTVSPropertyOp6
 70
     1
102
RTVSPropertyOp7
 70
     1
102
RTVSPropertyOp8
 70
     1
102
RTVSPropertyOp9
 70
     1
102
RTVSPropertyOp10
 70
     1
102
RTVSPropertyOp11
 70
     1
102
RTVSPropertyOp12
 70
     1
102
RTVSPropertyOp13
 70
     1
102
RTVSPropertyOp14
 70
     1
102
RTVSPropertyOp15
 70
     1
102
RTVSPropertyOp16
 70
     1
102
RTVSPropertyOp17
 70
     1
102
RTVSPropertyOp18
 70
     1
102
RTVSPropertyOp19
 70
     1
102
RTVSPropertyOp20
 70
     1
102
RTVSPropertyOp21
 70
     1
102
RTVSPropertyOp22
 70
     1
102
RTVSPropertyOp23
 70
     1
102
RTVSPropertyOp24
 70
     1
102
RTVSPropertyOp25
 70
     1
102
RTVSPropertyOp26
 70
     1
102
RTVSPropertyOp27
 70
     1
102
RTVSPropertyOp28
 70
     1
102
RTVSPropertyOp29
 70
     1
102
RTVSPropertyOp30
 70
     1
102
RTVSPropertyOp31
 70
     1
102
RTVSPropertyOp32
 70
     1
102
RTVSPropertyOp33
 70
     1
102
RTVSPropertyOp34
 70
     1
102
RTVSPropertyOp35
 70
     1
102
RTVSPropertyOp36
 70
     1
102
RTVSPropertyOp37
 70
     1
102
RTVSPropertyOp38
 70
     1
102
RTVSPropertyOp39
 70
     1
102
RTVSPropertyOp40
 70
     1
102
RTVSPropertyOp41
 70
     1
102
RTVSPropertyOp42
 70
     1
102
RTVSPropertyOp43
 70
     1
102
RTVSPropertyOp44
 70
     1
102
RTVSPropertyOp45
 70
     1
102
RTVSPropertyOp46
 70
     1
102
RTVSPropertyOp47
 70
     1
102
RTVSPropertyOp48
 70
     1
102
RTVSPropertyOp49
 70
     1
102
RTVSPropertyOp50
 70
     1
102
RTVSPropertyOp51
 70
     0
102
RTVSPropertyOp52
 70
     0
102
RTVSPropertyOp53
 70
     1
102
RTVSPropertyOp54
 70
     1
102
RTVSPropertyOp55
 70
     1
102
RTVSPropertyOp56
 70
     1
102
RTVSPropertyOp57
 70
     1
102
RTVSPost2010Prop28
280
     0
102
RTVSPost2010PropOp28
 70
     1
102
RTVSPost2010Prop29
280
     1
102
RTVSPost2010PropOp29
 70
     1
102
RTVSPost2010Prop30
280
     1
102
RTVSPost2010PropOp30
 70
     1
102
RTVSPost2010Prop31
280
     0
102
RTVSPost2010PropOp31
 70
     1
102
RTVSPost2010Prop32
280
     0
102
RTVSPost2010PropOp32
 70
     1
102
RTVSPost2010Prop33
280
     0
102
RTVSPost2010PropOp33
 70
     1
102
RTVSPost2010Prop34
280
     0
102
RTVSPost2010PropOp34
 70
     1
102
RTVSPost2010Prop35
280
     0
102
RTVSPost2010PropOp35
 70
     1
102
RTVSPost2010Prop36
280
     0
102
RTVSPost2010PropOp36
 70
     1
102
RTVSPost2010Prop37
 90
       50
102
RTVSPost2010PropOp37
 70
     1
102
RTVSPost2010Prop38
140
0.0
102
RTVSPost2010PropOp38
 70
     1
102
RTVSPost2010Prop39
140
1.0
102
RTVSPost2010PropOp39
 70
     1
102
RTVSPost2010Prop40
 90
        0
102
RTVSPost2010PropOp40
 70
     1
102
RTVSPost2010Prop41ColorIndex
 90
       18
102
RTVSPost2010Prop41ColorRGB
 90
        0
102
RTVSPost2010PropOp41
 70
     1
102
RTVSPost2010Prop42
 90
       50
102
RTVSPost2010PropOp42
 70
     1
102
RTVSPost2010Prop43
 90
        3
102
RTVSPost2010PropOp43
 70
     1
102
RTVSPost2010Prop44ColorIndex
 90
        5
102
RTVSPost2010Prop44ColorRGB
 90
      255
102
RTVSPost2010PropOp44
 70
     1
102
RTVSPost2010Prop45
280
     0
102
RTVSPost2010PropOp45
 70
     1
102
RTVSPost2010Prop46
 90
       50
102
RTVSPost2010PropOp46
 70
     1
102
RTVSPost2010Prop47
 90
       50
102
RTVSPost2010PropOp47
 70
     1
102
RTVSPost2010Prop48
 90
       50
102
RTVSPost2010PropOp48
 70
     1
102
RTVSPost2010Prop49
280
     0
102
RTVSPost2010PropOp49
 70
     1
102
RTVSPost2010Prop50
 90
       50
102
RTVSPost2010PropOp50
 70
     1
102
RTVSPost2010Prop51ColorIndex
 90
      256
102
RTVSPost2010Prop51ColorRGB
 90
-16777216
102
RTVSPost2010PropOp51
 70
     0
102
RTVSPost2010Prop52
140
1.0
102
RTVSPost2010PropOp52
 70
     0
102
RTVSPost2010Prop53
 90
        2
102
RTVSPost2010PropOp53
 70
     1
102
RTVSPost2010Prop54
  1
strokes_ogs.tif
102
RTVSPost2010PropOp54
 70
     1
102
RTVSPost2010Prop55
280
     0
102
RTVSPost2010PropOp55
 70
     1
102
RTVSPost2010Prop56
140
1.0
102
RTVSPost2010PropOp56
 70
     1
102
RTVSPost2010Prop57
140
1.0
102
RTVSPost2010PropOp57
 70
     1
  0
XRECORD
  5
4273
102
{ACAD_REACTORS
330
4272
102
}
330
4272
100
AcDbXrecord
280
     1
102
RTVSPropertyOp0
 70
     0
102
RTVSPropertyOp1
 70
     0
102
RTVSPropertyOp2
 70
     0
102
RTVSPropertyOp3
 70
     0
102
RTVSPropertyOp4
 70
     0
102
RTVSPropertyOp5
 70
     0
102
RTVSPropertyOp6
 70
     0
102
RTVSPropertyOp7
 70
     0
102
RTVSPropertyOp8
 70
     0
102
RTVSPropertyOp9
 70
     0
102
RTVSPropertyOp10
 70
     0
102
RTVSPropertyOp11
 70
     0
102
RTVSPropertyOp12
 70
     0
102
RTVSPropertyOp13
 70
     0
102
RTVSPropertyOp14
 70
     2
102
RTVSPropertyOp15
 70
     0
102
RTVSPropertyOp16
 70
     0
102
RTVSPropertyOp17
 70
     0
102
RTVSPropertyOp18
 70
     0
102
RTVSPropertyOp19
 70
     0
102
RTVSPropertyOp20
 70
     0
102
RTVSPropertyOp21
 70
     0
102
RTVSPropertyOp22
 70
     0
102
RTVSPropertyOp23
 70
     0
102
RTVSPropertyOp24
 70
     0
102
RTVSPropertyOp25
 70
     0
102
RTVSPropertyOp26
 70
     0
102
RTVSPropertyOp27
 70
     0
102
RTVSPropertyOp28
 70
     0
102
RTVSPropertyOp29
 70
     0
102
RTVSPropertyOp30
 70
     0
102
RTVSPropertyOp31
 70
     0
102
RTVSPropertyOp32
 70
     0
102
RTVSPropertyOp33
 70
     0
102
RTVSPropertyOp34
 70
     0
102
RTVSPropertyOp35
 70
     0
102
RTVSPropertyOp36
 70
     0
102
RTVSPropertyOp37
 70
     0
102
RTVSPropertyOp38
 70
     0
102
RTVSPropertyOp39
 70
     0
102
RTVSPropertyOp40
 70
     0
102
RTVSPropertyOp41
 70
     0
102
RTVSPropertyOp42
 70
     0
102
RTVSPropertyOp43
 70
     0
102
RTVSPropertyOp44
 70
     0
102
RTVSPropertyOp45
 70
     0
102
RTVSPropertyOp46
 70
     0
102
RTVSPropertyOp47
 70
     0
102
RTVSPropertyOp48
 70
     0
102
RTVSPropertyOp49
 70
     0
102
RTVSPropertyOp50
 70
     0
102
RTVSPropertyOp51
 70
     0
102
RTVSPropertyOp52
 70
     0
102
RTVSPropertyOp53
 70
     0
102
RTVSPropertyOp54
 70
     0
102
RTVSPropertyOp55
 70
     0
102
RTVSPropertyOp56
 70
     0
102
RTVSPropertyOp57
 70
     0
102
RTVSPost2010Prop28
280
     0
102
RTVSPost2010PropOp28
 70
     0
102
RTVSPost2010Prop29
280
     1
102
RTVSPost2010PropOp29
 70
     0
102
RTVSPost2010Prop30
280
     1
102
RTVSPost2010PropOp30
 70
     0
102
RTVSPost2010Prop31
280
     0
102
RTVSPost2010PropOp31
 70
     0
102
RTVSPost2010Prop32
280
     0
102
RTVSPost2010PropOp32
 70
     0
102
RTVSPost2010Prop33
280
     0
102
RTVSPost2010PropOp33
 70
     0
102
RTVSPost2010Prop34
280
     0
102
RTVSPost2010PropOp34
 70
     0
102
RTVSPost2010Prop35
280
     0
102
RTVSPost2010PropOp35
 70
     0
102
RTVSPost2010Prop36
280
     0
102
RTVSPost2010PropOp36
 70
     0
102
RTVSPost2010Prop37
 90
       50
102
RTVSPost2010PropOp37
 70
     0
102
RTVSPost2010Prop38
140
0.0
102
RTVSPost2010PropOp38
 70
     0
102
RTVSPost2010Prop39
140
1.0
102
RTVSPost2010PropOp39
 70
     0
102
RTVSPost2010Prop40
 90
        0
102
RTVSPost2010PropOp40
 70
     0
102
RTVSPost2010Prop41ColorIndex
 90
       18
102
RTVSPost2010Prop41ColorRGB
 90
        0
102
RTVSPost2010PropOp41
 70
     0
102
RTVSPost2010Prop42
 90
       50
102
RTVSPost2010PropOp42
 70
     0
102
RTVSPost2010Prop43
 90
        3
102
RTVSPost2010PropOp43
 70
     0
102
RTVSPost2010Prop44ColorIndex
 90
        5
102
RTVSPost2010Prop44ColorRGB
 90
      255
102
RTVSPost2010PropOp44
 70
     0
102
RTVSPost2010Prop45
280
     0
102
RTVSPost2010PropOp45
 70
     0
102
RTVSPost2010Prop46
 90
       50
102
RTVSPost2010PropOp46
 70
     0
102
RTVSPost2010Prop47
 90
       50
102
RTVSPost2010PropOp47
 70
     0
102
RTVSPost2010Prop48
 90
       50
102
RTVSPost2010PropOp48
 70
     0
102
RTVSPost2010Prop49
280
     0
102
RTVSPost2010PropOp49
 70
     0
102
RTVSPost2010Prop50
 90
       50
102
RTVSPost2010PropOp50
 70
     0
102
RTVSPost2010Prop51ColorIndex
 90
      256
102
RTVSPost2010Prop51ColorRGB
 90
-16777216
102
RTVSPost2010PropOp51
 70
     0
102
RTVSPost2010Prop52
140
1.0
102
RTVSPost2010PropOp52
 70
     0
102
RTVSPost2010Prop53
 90
        2
102
RTVSPost2010PropOp53
 70
     0
102
RTVSPost2010Prop54
  1
strokes_ogs.tif
102
RTVSPost2010PropOp54
 70
     0
102
RTVSPost2010Prop55
280
     0
102
RTVSPost2010PropOp55
 70
     0
102
RTVSPost2010Prop56
140
1.0
102
RTVSPost2010PropOp56
 70
     0
102
RTVSPost2010Prop57
140
1.0
102
RTVSPost2010PropOp57
 70
     0
  0
XRECORD
  5
4269
102
{ACAD_REACTORS
330
4268
102
}
330
4268
100
AcDbXrecord
280
     1
102
RTVSPropertyOp0
 70
     1
102
RTVSPropertyOp1
 70
     1
102
RTVSPropertyOp2
 70
     1
102
RTVSPropertyOp3
 70
     1
102
RTVSPropertyOp4
 70
     1
102
RTVSPropertyOp5
 70
     1
102
RTVSPropertyOp6
 70
     1
102
RTVSPropertyOp7
 70
     1
102
RTVSPropertyOp8
 70
     1
102
RTVSPropertyOp9
 70
     1
102
RTVSPropertyOp10
 70
     1
102
RTVSPropertyOp11
 70
     1
102
RTVSPropertyOp12
 70
     1
102
RTVSPropertyOp13
 70
     1
102
RTVSPropertyOp14
 70
     1
102
RTVSPropertyOp15
 70
     1
102
RTVSPropertyOp16
 70
     1
102
RTVSPropertyOp17
 70
     1
102
RTVSPropertyOp18
 70
     1
102
RTVSPropertyOp19
 70
     1
102
RTVSPropertyOp20
 70
     1
102
RTVSPropertyOp21
 70
     1
102
RTVSPropertyOp22
 70
     1
102
RTVSPropertyOp23
 70
     1
102
RTVSPropertyOp24
 70
     1
102
RTVSPropertyOp25
 70
     1
102
RTVSPropertyOp26
 70
     1
102
RTVSPropertyOp27
 70
     1
102
RTVSPropertyOp28
 70
     1
102
RTVSPropertyOp29
 70
     1
102
RTVSPropertyOp30
 70
     1
102
RTVSPropertyOp31
 70
     1
102
RTVSPropertyOp32
 70
     1
102
RTVSPropertyOp33
 70
     1
102
RTVSPropertyOp34
 70
     1
102
RTVSPropertyOp35
 70
     1
102
RTVSPropertyOp36
 70
     1
102
RTVSPropertyOp37
 70
     1
102
RTVSPropertyOp38
 70
     1
102
RTVSPropertyOp39
 70
     1
102
RTVSPropertyOp40
 70
     1
102
RTVSPropertyOp41
 70
     1
102
RTVSPropertyOp42
 70
     1
102
RTVSPropertyOp43
 70
     1
102
RTVSPropertyOp44
 70
     1
102
RTVSPropertyOp45
 70
     1
102
RTVSPropertyOp46
 70
     1
102
RTVSPropertyOp47
 70
     1
102
RTVSPropertyOp48
 70
     1
102
RTVSPropertyOp49
 70
     1
102
RTVSPropertyOp50
 70
     1
102
RTVSPropertyOp51
 70
     0
102
RTVSPropertyOp52
 70
     0
102
RTVSPropertyOp53
 70
     1
102
RTVSPropertyOp54
 70
     1
102
RTVSPropertyOp55
 70
     1
102
RTVSPropertyOp56
 70
     1
102
RTVSPropertyOp57
 70
     1
102
RTVSPost2010Prop28
280
     0
102
RTVSPost2010PropOp28
 70
     1
102
RTVSPost2010Prop29
280
     1
102
RTVSPost2010PropOp29
 70
     1
102
RTVSPost2010Prop30
280
     1
102
RTVSPost2010PropOp30
 70
     1
102
RTVSPost2010Prop31
280
     0
102
RTVSPost2010PropOp31
 70
     1
102
RTVSPost2010Prop32
280
     0
102
RTVSPost2010PropOp32
 70
     1
102
RTVSPost2010Prop33
280
     0
102
RTVSPost2010PropOp33
 70
     1
102
RTVSPost2010Prop34
280
     0
102
RTVSPost2010PropOp34
 70
     1
102
RTVSPost2010Prop35
280
     0
102
RTVSPost2010PropOp35
 70
     1
102
RTVSPost2010Prop36
280
     0
102
RTVSPost2010PropOp36
 70
     1
102
RTVSPost2010Prop37
 90
       50
102
RTVSPost2010PropOp37
 70
     1
102
RTVSPost2010Prop38
140
0.0
102
RTVSPost2010PropOp38
 70
     1
102
RTVSPost2010Prop39
140
1.0
102
RTVSPost2010PropOp39
 70
     1
102
RTVSPost2010Prop40
 90
        0
102
RTVSPost2010PropOp40
 70
     1
102
RTVSPost2010Prop41ColorIndex
 90
       18
102
RTVSPost2010Prop41ColorRGB
 90
        0
102
RTVSPost2010PropOp41
 70
     1
102
RTVSPost2010Prop42
 90
       50
102
RTVSPost2010PropOp42
 70
     1
102
RTVSPost2010Prop43
 90
        3
102
RTVSPost2010PropOp43
 70
     1
102
RTVSPost2010Prop44ColorIndex
 90
        5
102
RTVSPost2010Prop44ColorRGB
 90
      255
102
RTVSPost2010PropOp44
 70
     1
102
RTVSPost2010Prop45
280
     0
102
RTVSPost2010PropOp45
 70
     1
102
RTVSPost2010Prop46
 90
       50
102
RTVSPost2010PropOp46
 70
     1
102
RTVSPost2010Prop47
 90
       50
102
RTVSPost2010PropOp47
 70
     1
102
RTVSPost2010Prop48
 90
       50
102
RTVSPost2010PropOp48
 70
     1
102
RTVSPost2010Prop49
280
     0
102
RTVSPost2010PropOp49
 70
     1
102
RTVSPost2010Prop50
 90
       50
102
RTVSPost2010PropOp50
 70
     1
102
RTVSPost2010Prop51ColorIndex
 90
      256
102
RTVSPost2010Prop51ColorRGB
 90
-16777216
102
RTVSPost2010PropOp51
 70
     0
102
RTVSPost2010Prop52
140
1.0
102
RTVSPost2010PropOp52
 70
     0
102
RTVSPost2010Prop53
 90
        2
102
RTVSPost2010PropOp53
 70
     1
102
RTVSPost2010Prop54
  1
strokes_ogs.tif
102
RTVSPost2010PropOp54
 70
     1
102
RTVSPost2010Prop55
280
     0
102
RTVSPost2010PropOp55
 70
     1
102
RTVSPost2010Prop56
140
1.0
102
RTVSPost2010PropOp56
 70
     1
102
RTVSPost2010Prop57
140
1.0
102
RTVSPost2010PropOp57
 70
     1
  0
XRECORD
  5
427F
102
{ACAD_REACTORS
330
427E
102
}
330
427E
100
AcDbXrecord
280
     1
102
RTVSPropertyOp0
 70
     1
102
RTVSPropertyOp1
 70
     1
102
RTVSPropertyOp2
 70
     1
102
RTVSPropertyOp3
 70
     1
102
RTVSPropertyOp4
 70
     1
102
RTVSPropertyOp5
 70
     1
102
RTVSPropertyOp6
 70
     1
102
RTVSPropertyOp7
 70
     1
102
RTVSPropertyOp8
 70
     1
102
RTVSPropertyOp9
 70
     1
102
RTVSPropertyOp10
 70
     1
102
RTVSPropertyOp11
 70
     1
102
RTVSPropertyOp12
 70
     1
102
RTVSPropertyOp13
 70
     1
102
RTVSPropertyOp14
 70
     1
102
RTVSPropertyOp15
 70
     1
102
RTVSPropertyOp16
 70
     1
102
RTVSPropertyOp17
 70
     1
102
RTVSPropertyOp18
 70
     1
102
RTVSPropertyOp19
 70
     1
102
RTVSPropertyOp20
 70
     1
102
RTVSPropertyOp21
 70
     1
102
RTVSPropertyOp22
 70
     1
102
RTVSPropertyOp23
 70
     1
102
RTVSPropertyOp24
 70
     1
102
RTVSPropertyOp25
 70
     1
102
RTVSPropertyOp26
 70
     1
102
RTVSPropertyOp27
 70
     1
102
RTVSPropertyOp28
 70
     1
102
RTVSPropertyOp29
 70
     1
102
RTVSPropertyOp30
 70
     1
102
RTVSPropertyOp31
 70
     1
102
RTVSPropertyOp32
 70
     1
102
RTVSPropertyOp33
 70
     1
102
RTVSPropertyOp34
 70
     1
102
RTVSPropertyOp35
 70
     1
102
RTVSPropertyOp36
 70
     1
102
RTVSPropertyOp37
 70
     1
102
RTVSPropertyOp38
 70
     1
102
RTVSPropertyOp39
 70
     1
102
RTVSPropertyOp40
 70
     1
102
RTVSPropertyOp41
 70
     1
102
RTVSPropertyOp42
 70
     1
102
RTVSPropertyOp43
 70
     1
102
RTVSPropertyOp44
 70
     1
102
RTVSPropertyOp45
 70
     1
102
RTVSPropertyOp46
 70
     1
102
RTVSPropertyOp47
 70
     1
102
RTVSPropertyOp48
 70
     1
102
RTVSPropertyOp49
 70
     1
102
RTVSPropertyOp50
 70
     1
102
RTVSPropertyOp51
 70
     0
102
RTVSPropertyOp52
 70
     0
102
RTVSPropertyOp53
 70
     1
102
RTVSPropertyOp54
 70
     1
102
RTVSPropertyOp55
 70
     1
102
RTVSPropertyOp56
 70
     1
102
RTVSPropertyOp57
 70
     1
102
RTVSPost2010Prop28
280
     0
102
RTVSPost2010PropOp28
 70
     1
102
RTVSPost2010Prop29
280
     1
102
RTVSPost2010PropOp29
 70
     1
102
RTVSPost2010Prop30
280
     1
102
RTVSPost2010PropOp30
 70
     1
102
RTVSPost2010Prop31
280
     0
102
RTVSPost2010PropOp31
 70
     1
102
RTVSPost2010Prop32
280
     0
102
RTVSPost2010PropOp32
 70
     1
102
RTVSPost2010Prop33
280
     0
102
RTVSPost2010PropOp33
 70
     1
102
RTVSPost2010Prop34
280
     0
102
RTVSPost2010PropOp34
 70
     1
102
RTVSPost2010Prop35
280
     0
102
RTVSPost2010PropOp35
 70
     1
102
RTVSPost2010Prop36
280
     0
102
RTVSPost2010PropOp36
 70
     1
102
RTVSPost2010Prop37
 90
       50
102
RTVSPost2010PropOp37
 70
     1
102
RTVSPost2010Prop38
140
0.0
102
RTVSPost2010PropOp38
 70
     1
102
RTVSPost2010Prop39
140
1.0
102
RTVSPost2010PropOp39
 70
     1
102
RTVSPost2010Prop40
 90
        0
102
RTVSPost2010PropOp40
 70
     1
102
RTVSPost2010Prop41ColorIndex
 90
       18
102
RTVSPost2010Prop41ColorRGB
 90
        0
102
RTVSPost2010PropOp41
 70
     1
102
RTVSPost2010Prop42
 90
       50
102
RTVSPost2010PropOp42
 70
     1
102
RTVSPost2010Prop43
 90
        3
102
RTVSPost2010PropOp43
 70
     1
102
RTVSPost2010Prop44ColorIndex
 90
        5
102
RTVSPost2010Prop44ColorRGB
 90
      255
102
RTVSPost2010PropOp44
 70
     1
102
RTVSPost2010Prop45
280
     0
102
RTVSPost2010PropOp45
 70
     1
102
RTVSPost2010Prop46
 90
       50
102
RTVSPost2010PropOp46
 70
     1
102
RTVSPost2010Prop47
 90
       50
102
RTVSPost2010PropOp47
 70
     1
102
RTVSPost2010Prop48
 90
       50
102
RTVSPost2010PropOp48
 70
     1
102
RTVSPost2010Prop49
280
     0
102
RTVSPost2010PropOp49
 70
     1
102
RTVSPost2010Prop50
 90
       50
102
RTVSPost2010PropOp50
 70
     1
102
RTVSPost2010Prop51ColorIndex
 90
      256
102
RTVSPost2010Prop51ColorRGB
 90
-16777216
102
RTVSPost2010PropOp51
 70
     0
102
RTVSPost2010Prop52
140
1.0
102
RTVSPost2010PropOp52
 70
     0
102
RTVSPost2010Prop53
 90
        2
102
RTVSPost2010PropOp53
 70
     1
102
RTVSPost2010Prop54
  1
strokes_ogs.tif
102
RTVSPost2010PropOp54
 70
     1
102
RTVSPost2010Prop55
280
     0
102
RTVSPost2010PropOp55
 70
     1
102
RTVSPost2010Prop56
140
1.0
102
RTVSPost2010PropOp56
 70
     1
102
RTVSPost2010Prop57
140
1.0
102
RTVSPost2010PropOp57
 70
     1
  0
XRECORD
  5
427D
102
{ACAD_REACTORS
330
427C
102
}
330
427C
100
AcDbXrecord
280
     1
102
RTVSPropertyOp0
 70
     1
102
RTVSPropertyOp1
 70
     1
102
RTVSPropertyOp2
 70
     1
102
RTVSPropertyOp3
 70
     1
102
RTVSPropertyOp4
 70
     1
102
RTVSPropertyOp5
 70
     1
102
RTVSPropertyOp6
 70
     1
102
RTVSPropertyOp7
 70
     1
102
RTVSPropertyOp8
 70
     1
102
RTVSPropertyOp9
 70
     1
102
RTVSPropertyOp10
 70
     1
102
RTVSPropertyOp11
 70
     1
102
RTVSPropertyOp12
 70
     1
102
RTVSPropertyOp13
 70
     1
102
RTVSPropertyOp14
 70
     1
102
RTVSPropertyOp15
 70
     1
102
RTVSPropertyOp16
 70
     1
102
RTVSPropertyOp17
 70
     1
102
RTVSPropertyOp18
 70
     1
102
RTVSPropertyOp19
 70
     1
102
RTVSPropertyOp20
 70
     1
102
RTVSPropertyOp21
 70
     1
102
RTVSPropertyOp22
 70
     1
102
RTVSPropertyOp23
 70
     1
102
RTVSPropertyOp24
 70
     1
102
RTVSPropertyOp25
 70
     1
102
RTVSPropertyOp26
 70
     1
102
RTVSPropertyOp27
 70
     1
102
RTVSPropertyOp28
 70
     1
102
RTVSPropertyOp29
 70
     1
102
RTVSPropertyOp30
 70
     1
102
RTVSPropertyOp31
 70
     1
102
RTVSPropertyOp32
 70
     1
102
RTVSPropertyOp33
 70
     1
102
RTVSPropertyOp34
 70
     1
102
RTVSPropertyOp35
 70
     1
102
RTVSPropertyOp36
 70
     1
102
RTVSPropertyOp37
 70
     1
102
RTVSPropertyOp38
 70
     1
102
RTVSPropertyOp39
 70
     1
102
RTVSPropertyOp40
 70
     1
102
RTVSPropertyOp41
 70
     1
102
RTVSPropertyOp42
 70
     1
102
RTVSPropertyOp43
 70
     1
102
RTVSPropertyOp44
 70
     1
102
RTVSPropertyOp45
 70
     1
102
RTVSPropertyOp46
 70
     1
102
RTVSPropertyOp47
 70
     1
102
RTVSPropertyOp48
 70
     1
102
RTVSPropertyOp49
 70
     1
102
RTVSPropertyOp50
 70
     1
102
RTVSPropertyOp51
 70
     0
102
RTVSPropertyOp52
 70
     0
102
RTVSPropertyOp53
 70
     1
102
RTVSPropertyOp54
 70
     1
102
RTVSPropertyOp55
 70
     1
102
RTVSPropertyOp56
 70
     1
102
RTVSPropertyOp57
 70
     1
102
RTVSPost2010Prop28
280
     0
102
RTVSPost2010PropOp28
 70
     1
102
RTVSPost2010Prop29
280
     1
102
RTVSPost2010PropOp29
 70
     1
102
RTVSPost2010Prop30
280
     1
102
RTVSPost2010PropOp30
 70
     1
102
RTVSPost2010Prop31
280
     0
102
RTVSPost2010PropOp31
 70
     1
102
RTVSPost2010Prop32
280
     0
102
RTVSPost2010PropOp32
 70
     1
102
RTVSPost2010Prop33
280
     0
102
RTVSPost2010PropOp33
 70
     1
102
RTVSPost2010Prop34
280
     0
102
RTVSPost2010PropOp34
 70
     1
102
RTVSPost2010Prop35
280
     0
102
RTVSPost2010PropOp35
 70
     1
102
RTVSPost2010Prop36
280
     0
102
RTVSPost2010PropOp36
 70
     1
102
RTVSPost2010Prop37
 90
       50
102
RTVSPost2010PropOp37
 70
     1
102
RTVSPost2010Prop38
140
0.0
102
RTVSPost2010PropOp38
 70
     1
102
RTVSPost2010Prop39
140
1.0
102
RTVSPost2010PropOp39
 70
     1
102
RTVSPost2010Prop40
 90
        0
102
RTVSPost2010PropOp40
 70
     1
102
RTVSPost2010Prop41ColorIndex
 90
       18
102
RTVSPost2010Prop41ColorRGB
 90
        0
102
RTVSPost2010PropOp41
 70
     1
102
RTVSPost2010Prop42
 90
       50
102
RTVSPost2010PropOp42
 70
     1
102
RTVSPost2010Prop43
 90
        3
102
RTVSPost2010PropOp43
 70
     1
102
RTVSPost2010Prop44ColorIndex
 90
        5
102
RTVSPost2010Prop44ColorRGB
 90
      255
102
RTVSPost2010PropOp44
 70
     1
102
RTVSPost2010Prop45
280
     0
102
RTVSPost2010PropOp45
 70
     1
102
RTVSPost2010Prop46
 90
       50
102
RTVSPost2010PropOp46
 70
     1
102
RTVSPost2010Prop47
 90
       50
102
RTVSPost2010PropOp47
 70
     1
102
RTVSPost2010Prop48
 90
       50
102
RTVSPost2010PropOp48
 70
     1
102
RTVSPost2010Prop49
280
     0
102
RTVSPost2010PropOp49
 70
     1
102
RTVSPost2010Prop50
 90
       50
102
RTVSPost2010PropOp50
 70
     1
102
RTVSPost2010Prop51ColorIndex
 90
      256
102
RTVSPost2010Prop51ColorRGB
 90
-16777216
102
RTVSPost2010PropOp51
 70
     0
102
RTVSPost2010Prop52
140
1.0
102
RTVSPost2010PropOp52
 70
     0
102
RTVSPost2010Prop53
 90
        2
102
RTVSPost2010PropOp53
 70
     1
102
RTVSPost2010Prop54
  1
strokes_ogs.tif
102
RTVSPost2010PropOp54
 70
     1
102
RTVSPost2010Prop55
280
     0
102
RTVSPost2010PropOp55
 70
     1
102
RTVSPost2010Prop56
140
1.0
102
RTVSPost2010PropOp56
 70
     1
102
RTVSPost2010Prop57
140
1.0
102
RTVSPost2010PropOp57
 70
     1
  0
XRECORD
  5
4277
102
{ACAD_REACTORS
330
4276
102
}
330
4276
100
AcDbXrecord
280
     1
102
RTVSPropertyOp0
 70
     1
102
RTVSPropertyOp1
 70
     1
102
RTVSPropertyOp2
 70
     1
102
RTVSPropertyOp3
 70
     1
102
RTVSPropertyOp4
 70
     1
102
RTVSPropertyOp5
 70
     1
102
RTVSPropertyOp6
 70
     1
102
RTVSPropertyOp7
 70
     1
102
RTVSPropertyOp8
 70
     1
102
RTVSPropertyOp9
 70
     1
102
RTVSPropertyOp10
 70
     1
102
RTVSPropertyOp11
 70
     1
102
RTVSPropertyOp12
 70
     1
102
RTVSPropertyOp13
 70
     1
102
RTVSPropertyOp14
 70
     1
102
RTVSPropertyOp15
 70
     1
102
RTVSPropertyOp16
 70
     1
102
RTVSPropertyOp17
 70
     1
102
RTVSPropertyOp18
 70
     1
102
RTVSPropertyOp19
 70
     1
102
RTVSPropertyOp20
 70
     1
102
RTVSPropertyOp21
 70
     1
102
RTVSPropertyOp22
 70
     1
102
RTVSPropertyOp23
 70
     1
102
RTVSPropertyOp24
 70
     1
102
RTVSPropertyOp25
 70
     1
102
RTVSPropertyOp26
 70
     1
102
RTVSPropertyOp27
 70
     1
102
RTVSPropertyOp28
 70
     1
102
RTVSPropertyOp29
 70
     1
102
RTVSPropertyOp30
 70
     1
102
RTVSPropertyOp31
 70
     1
102
RTVSPropertyOp32
 70
     1
102
RTVSPropertyOp33
 70
     1
102
RTVSPropertyOp34
 70
     1
102
RTVSPropertyOp35
 70
     1
102
RTVSPropertyOp36
 70
     1
102
RTVSPropertyOp37
 70
     1
102
RTVSPropertyOp38
 70
     1
102
RTVSPropertyOp39
 70
     1
102
RTVSPropertyOp40
 70
     1
102
RTVSPropertyOp41
 70
     1
102
RTVSPropertyOp42
 70
     1
102
RTVSPropertyOp43
 70
     1
102
RTVSPropertyOp44
 70
     1
102
RTVSPropertyOp45
 70
     1
102
RTVSPropertyOp46
 70
     1
102
RTVSPropertyOp47
 70
     1
102
RTVSPropertyOp48
 70
     1
102
RTVSPropertyOp49
 70
     1
102
RTVSPropertyOp50
 70
     1
102
RTVSPropertyOp51
 70
     0
102
RTVSPropertyOp52
 70
     0
102
RTVSPropertyOp53
 70
     1
102
RTVSPropertyOp54
 70
     1
102
RTVSPropertyOp55
 70
     1
102
RTVSPropertyOp56
 70
     1
102
RTVSPropertyOp57
 70
     1
102
RTVSPost2010Prop28
280
     0
102
RTVSPost2010PropOp28
 70
     1
102
RTVSPost2010Prop29
280
     1
102
RTVSPost2010PropOp29
 70
     1
102
RTVSPost2010Prop30
280
     1
102
RTVSPost2010PropOp30
 70
     1
102
RTVSPost2010Prop31
280
     0
102
RTVSPost2010PropOp31
 70
     1
102
RTVSPost2010Prop32
280
     0
102
RTVSPost2010PropOp32
 70
     1
102
RTVSPost2010Prop33
280
     0
102
RTVSPost2010PropOp33
 70
     1
102
RTVSPost2010Prop34
280
     0
102
RTVSPost2010PropOp34
 70
     1
102
RTVSPost2010Prop35
280
     0
102
RTVSPost2010PropOp35
 70
     1
102
RTVSPost2010Prop36
280
     0
102
RTVSPost2010PropOp36
 70
     1
102
RTVSPost2010Prop37
 90
       50
102
RTVSPost2010PropOp37
 70
     1
102
RTVSPost2010Prop38
140
0.0
102
RTVSPost2010PropOp38
 70
     1
102
RTVSPost2010Prop39
140
1.0
102
RTVSPost2010PropOp39
 70
     1
102
RTVSPost2010Prop40
 90
        0
102
RTVSPost2010PropOp40
 70
     1
102
RTVSPost2010Prop41ColorIndex
 90
       18
102
RTVSPost2010Prop41ColorRGB
 90
        0
102
RTVSPost2010PropOp41
 70
     1
102
RTVSPost2010Prop42
 90
       50
102
RTVSPost2010PropOp42
 70
     1
102
RTVSPost2010Prop43
 90
        3
102
RTVSPost2010PropOp43
 70
     1
102
RTVSPost2010Prop44ColorIndex
 90
        5
102
RTVSPost2010Prop44ColorRGB
 90
      255
102
RTVSPost2010PropOp44
 70
     1
102
RTVSPost2010Prop45
280
     0
102
RTVSPost2010PropOp45
 70
     1
102
RTVSPost2010Prop46
 90
       50
102
RTVSPost2010PropOp46
 70
     1
102
RTVSPost2010Prop47
 90
       50
102
RTVSPost2010PropOp47
 70
     1
102
RTVSPost2010Prop48
 90
       50
102
RTVSPost2010PropOp48
 70
     1
102
RTVSPost2010Prop49
280
     0
102
RTVSPost2010PropOp49
 70
     1
102
RTVSPost2010Prop50
 90
       50
102
RTVSPost2010PropOp50
 70
     1
102
RTVSPost2010Prop51ColorIndex
 90
      256
102
RTVSPost2010Prop51ColorRGB
 90
-16777216
102
RTVSPost2010PropOp51
 70
     0
102
RTVSPost2010Prop52
140
1.0
102
RTVSPost2010PropOp52
 70
     0
102
RTVSPost2010Prop53
 90
        2
102
RTVSPost2010PropOp53
 70
     1
102
RTVSPost2010Prop54
  1
strokes_ogs.tif
102
RTVSPost2010PropOp54
 70
     1
102
RTVSPost2010Prop55
280
     0
102
RTVSPost2010PropOp55
 70
     1
102
RTVSPost2010Prop56
140
1.0
102
RTVSPost2010PropOp56
 70
     1
102
RTVSPost2010Prop57
140
1.0
102
RTVSPost2010PropOp57
 70
     1
  0
XRECORD
  5
4279
102
{ACAD_REACTORS
330
4278
102
}
330
4278
100
AcDbXrecord
280
     1
102
RTVSPropertyOp0
 70
     1
102
RTVSPropertyOp1
 70
     1
102
RTVSPropertyOp2
 70
     1
102
RTVSPropertyOp3
 70
     1
102
RTVSPropertyOp4
 70
     1
102
RTVSPropertyOp5
 70
     1
102
RTVSPropertyOp6
 70
     1
102
RTVSPropertyOp7
 70
     1
102
RTVSPropertyOp8
 70
     1
102
RTVSPropertyOp9
 70
     1
102
RTVSPropertyOp10
 70
     1
102
RTVSPropertyOp11
 70
     1
102
RTVSPropertyOp12
 70
     1
102
RTVSPropertyOp13
 70
     1
102
RTVSPropertyOp14
 70
     1
102
RTVSPropertyOp15
 70
     1
102
RTVSPropertyOp16
 70
     1
102
RTVSPropertyOp17
 70
     1
102
RTVSPropertyOp18
 70
     1
102
RTVSPropertyOp19
 70
     1
102
RTVSPropertyOp20
 70
     1
102
RTVSPropertyOp21
 70
     1
102
RTVSPropertyOp22
 70
     1
102
RTVSPropertyOp23
 70
     1
102
RTVSPropertyOp24
 70
     1
102
RTVSPropertyOp25
 70
     1
102
RTVSPropertyOp26
 70
     1
102
RTVSPropertyOp27
 70
     1
102
RTVSPropertyOp28
 70
     1
102
RTVSPropertyOp29
 70
     1
102
RTVSPropertyOp30
 70
     1
102
RTVSPropertyOp31
 70
     1
102
RTVSPropertyOp32
 70
     1
102
RTVSPropertyOp33
 70
     1
102
RTVSPropertyOp34
 70
     1
102
RTVSPropertyOp35
 70
     1
102
RTVSPropertyOp36
 70
     1
102
RTVSPropertyOp37
 70
     1
102
RTVSPropertyOp38
 70
     1
102
RTVSPropertyOp39
 70
     1
102
RTVSPropertyOp40
 70
     1
102
RTVSPropertyOp41
 70
     1
102
RTVSPropertyOp42
 70
     1
102
RTVSPropertyOp43
 70
     1
102
RTVSPropertyOp44
 70
     1
102
RTVSPropertyOp45
 70
     1
102
RTVSPropertyOp46
 70
     1
102
RTVSPropertyOp47
 70
     1
102
RTVSPropertyOp48
 70
     1
102
RTVSPropertyOp49
 70
     1
102
RTVSPropertyOp50
 70
     1
102
RTVSPropertyOp51
 70
     0
102
RTVSPropertyOp52
 70
     0
102
RTVSPropertyOp53
 70
     1
102
RTVSPropertyOp54
 70
     1
102
RTVSPropertyOp55
 70
     1
102
RTVSPropertyOp56
 70
     1
102
RTVSPropertyOp57
 70
     1
102
RTVSPost2010Prop28
280
     0
102
RTVSPost2010PropOp28
 70
     1
102
RTVSPost2010Prop29
280
     1
102
RTVSPost2010PropOp29
 70
     1
102
RTVSPost2010Prop30
280
     1
102
RTVSPost2010PropOp30
 70
     1
102
RTVSPost2010Prop31
280
     0
102
RTVSPost2010PropOp31
 70
     1
102
RTVSPost2010Prop32
280
     0
102
RTVSPost2010PropOp32
 70
     1
102
RTVSPost2010Prop33
280
     0
102
RTVSPost2010PropOp33
 70
     1
102
RTVSPost2010Prop34
280
     0
102
RTVSPost2010PropOp34
 70
     1
102
RTVSPost2010Prop35
280
     0
102
RTVSPost2010PropOp35
 70
     1
102
RTVSPost2010Prop36
280
     0
102
RTVSPost2010PropOp36
 70
     1
102
RTVSPost2010Prop37
 90
       50
102
RTVSPost2010PropOp37
 70
     1
102
RTVSPost2010Prop38
140
0.0
102
RTVSPost2010PropOp38
 70
     1
102
RTVSPost2010Prop39
140
1.0
102
RTVSPost2010PropOp39
 70
     1
102
RTVSPost2010Prop40
 90
        0
102
RTVSPost2010PropOp40
 70
     1
102
RTVSPost2010Prop41ColorIndex
 90
       18
102
RTVSPost2010Prop41ColorRGB
 90
        0
102
RTVSPost2010PropOp41
 70
     1
102
RTVSPost2010Prop42
 90
       50
102
RTVSPost2010PropOp42
 70
     1
102
RTVSPost2010Prop43
 90
        3
102
RTVSPost2010PropOp43
 70
     1
102
RTVSPost2010Prop44ColorIndex
 90
        5
102
RTVSPost2010Prop44ColorRGB
 90
      255
102
RTVSPost2010PropOp44
 70
     1
102
RTVSPost2010Prop45
280
     0
102
RTVSPost2010PropOp45
 70
     1
102
RTVSPost2010Prop46
 90
       50
102
RTVSPost2010PropOp46
 70
     1
102
RTVSPost2010Prop47
 90
       50
102
RTVSPost2010PropOp47
 70
     1
102
RTVSPost2010Prop48
 90
       50
102
RTVSPost2010PropOp48
 70
     1
102
RTVSPost2010Prop49
280
     0
102
RTVSPost2010PropOp49
 70
     1
102
RTVSPost2010Prop50
 90
       50
102
RTVSPost2010PropOp50
 70
     1
102
RTVSPost2010Prop51ColorIndex
 90
      256
102
RTVSPost2010Prop51ColorRGB
 90
-16777216
102
RTVSPost2010PropOp51
 70
     0
102
RTVSPost2010Prop52
140
1.0
102
RTVSPost2010PropOp52
 70
     0
102
RTVSPost2010Prop53
 90
        2
102
RTVSPost2010PropOp53
 70
     1
102
RTVSPost2010Prop54
  1
strokes_ogs.tif
102
RTVSPost2010PropOp54
 70
     1
102
RTVSPost2010Prop55
280
     0
102
RTVSPost2010PropOp55
 70
     1
102
RTVSPost2010Prop56
140
1.0
102
RTVSPost2010PropOp56
 70
     1
102
RTVSPost2010Prop57
140
1.0
102
RTVSPost2010PropOp57
 70
     1
  0
XRECORD
  5
426B
102
{ACAD_REACTORS
330
426A
102
}
330
426A
100
AcDbXrecord
280
     1
102
RTVSPropertyOp0
 70
     1
102
RTVSPropertyOp1
 70
     1
102
RTVSPropertyOp2
 70
     1
102
RTVSPropertyOp3
 70
     1
102
RTVSPropertyOp4
 70
     1
102
RTVSPropertyOp5
 70
     1
102
RTVSPropertyOp6
 70
     1
102
RTVSPropertyOp7
 70
     1
102
RTVSPropertyOp8
 70
     1
102
RTVSPropertyOp9
 70
     1
102
RTVSPropertyOp10
 70
     1
102
RTVSPropertyOp11
 70
     1
102
RTVSPropertyOp12
 70
     1
102
RTVSPropertyOp13
 70
     1
102
RTVSPropertyOp14
 70
     1
102
RTVSPropertyOp15
 70
     1
102
RTVSPropertyOp16
 70
     1
102
RTVSPropertyOp17
 70
     1
102
RTVSPropertyOp18
 70
     1
102
RTVSPropertyOp19
 70
     1
102
RTVSPropertyOp20
 70
     1
102
RTVSPropertyOp21
 70
     1
102
RTVSPropertyOp22
 70
     1
102
RTVSPropertyOp23
 70
     1
102
RTVSPropertyOp24
 70
     1
102
RTVSPropertyOp25
 70
     1
102
RTVSPropertyOp26
 70
     1
102
RTVSPropertyOp27
 70
     1
102
RTVSPropertyOp28
 70
     1
102
RTVSPropertyOp29
 70
     1
102
RTVSPropertyOp30
 70
     1
102
RTVSPropertyOp31
 70
     1
102
RTVSPropertyOp32
 70
     1
102
RTVSPropertyOp33
 70
     1
102
RTVSPropertyOp34
 70
     1
102
RTVSPropertyOp35
 70
     1
102
RTVSPropertyOp36
 70
     1
102
RTVSPropertyOp37
 70
     1
102
RTVSPropertyOp38
 70
     1
102
RTVSPropertyOp39
 70
     1
102
RTVSPropertyOp40
 70
     1
102
RTVSPropertyOp41
 70
     1
102
RTVSPropertyOp42
 70
     1
102
RTVSPropertyOp43
 70
     1
102
RTVSPropertyOp44
 70
     1
102
RTVSPropertyOp45
 70
     1
102
RTVSPropertyOp46
 70
     1
102
RTVSPropertyOp47
 70
     1
102
RTVSPropertyOp48
 70
     1
102
RTVSPropertyOp49
 70
     1
102
RTVSPropertyOp50
 70
     1
102
RTVSPropertyOp51
 70
     0
102
RTVSPropertyOp52
 70
     0
102
RTVSPropertyOp53
 70
     1
102
RTVSPropertyOp54
 70
     1
102
RTVSPropertyOp55
 70
     1
102
RTVSPropertyOp56
 70
     1
102
RTVSPropertyOp57
 70
     1
102
RTVSPost2010Prop28
280
     0
102
RTVSPost2010PropOp28
 70
     1
102
RTVSPost2010Prop29
280
     1
102
RTVSPost2010PropOp29
 70
     1
102
RTVSPost2010Prop30
280
     1
102
RTVSPost2010PropOp30
 70
     1
102
RTVSPost2010Prop31
280
     0
102
RTVSPost2010PropOp31
 70
     1
102
RTVSPost2010Prop32
280
     0
102
RTVSPost2010PropOp32
 70
     1
102
RTVSPost2010Prop33
280
     0
102
RTVSPost2010PropOp33
 70
     1
102
RTVSPost2010Prop34
280
     0
102
RTVSPost2010PropOp34
 70
     1
102
RTVSPost2010Prop35
280
     0
102
RTVSPost2010PropOp35
 70
     1
102
RTVSPost2010Prop36
280
     0
102
RTVSPost2010PropOp36
 70
     1
102
RTVSPost2010Prop37
 90
       50
102
RTVSPost2010PropOp37
 70
     1
102
RTVSPost2010Prop38
140
0.0
102
RTVSPost2010PropOp38
 70
     1
102
RTVSPost2010Prop39
140
1.0
102
RTVSPost2010PropOp39
 70
     1
102
RTVSPost2010Prop40
 90
        0
102
RTVSPost2010PropOp40
 70
     1
102
RTVSPost2010Prop41ColorIndex
 90
       18
102
RTVSPost2010Prop41ColorRGB
 90
        0
102
RTVSPost2010PropOp41
 70
     1
102
RTVSPost2010Prop42
 90
       50
102
RTVSPost2010PropOp42
 70
     1
102
RTVSPost2010Prop43
 90
        3
102
RTVSPost2010PropOp43
 70
     1
102
RTVSPost2010Prop44ColorIndex
 90
        5
102
RTVSPost2010Prop44ColorRGB
 90
      255
102
RTVSPost2010PropOp44
 70
     1
102
RTVSPost2010Prop45
280
     0
102
RTVSPost2010PropOp45
 70
     1
102
RTVSPost2010Prop46
 90
       50
102
RTVSPost2010PropOp46
 70
     1
102
RTVSPost2010Prop47
 90
       50
102
RTVSPost2010PropOp47
 70
     1
102
RTVSPost2010Prop48
 90
       50
102
RTVSPost2010PropOp48
 70
     1
102
RTVSPost2010Prop49
280
     0
102
RTVSPost2010PropOp49
 70
     1
102
RTVSPost2010Prop50
 90
       50
102
RTVSPost2010PropOp50
 70
     1
102
RTVSPost2010Prop51ColorIndex
 90
      256
102
RTVSPost2010Prop51ColorRGB
 90
-16777216
102
RTVSPost2010PropOp51
 70
     0
102
RTVSPost2010Prop52
140
1.0
102
RTVSPost2010PropOp52
 70
     0
102
RTVSPost2010Prop53
 90
        2
102
RTVSPost2010PropOp53
 70
     1
102
RTVSPost2010Prop54
  1
strokes_ogs.tif
102
RTVSPost2010PropOp54
 70
     1
102
RTVSPost2010Prop55
280
     0
102
RTVSPost2010PropOp55
 70
     1
102
RTVSPost2010Prop56
140
1.0
102
RTVSPost2010PropOp56
 70
     1
102
RTVSPost2010Prop57
140
1.0
102
RTVSPost2010PropOp57
 70
     1
  0
XRECORD
  5
426D
102
{ACAD_REACTORS
330
426C
102
}
330
426C
100
AcDbXrecord
280
     1
102
RTVSPropertyOp0
 70
     1
102
RTVSPropertyOp1
 70
     1
102
RTVSPropertyOp2
 70
     1
102
RTVSPropertyOp3
 70
     1
102
RTVSPropertyOp4
 70
     1
102
RTVSPropertyOp5
 70
     1
102
RTVSPropertyOp6
 70
     1
102
RTVSPropertyOp7
 70
     1
102
RTVSPropertyOp8
 70
     1
102
RTVSPropertyOp9
 70
     1
102
RTVSPropertyOp10
 70
     1
102
RTVSPropertyOp11
 70
     1
102
RTVSPropertyOp12
 70
     1
102
RTVSPropertyOp13
 70
     1
102
RTVSPropertyOp14
 70
     1
102
RTVSPropertyOp15
 70
     1
102
RTVSPropertyOp16
 70
     1
102
RTVSPropertyOp17
 70
     1
102
RTVSPropertyOp18
 70
     1
102
RTVSPropertyOp19
 70
     1
102
RTVSPropertyOp20
 70
     1
102
RTVSPropertyOp21
 70
     1
102
RTVSPropertyOp22
 70
     1
102
RTVSPropertyOp23
 70
     1
102
RTVSPropertyOp24
 70
     1
102
RTVSPropertyOp25
 70
     1
102
RTVSPropertyOp26
 70
     1
102
RTVSPropertyOp27
 70
     1
102
RTVSPropertyOp28
 70
     1
102
RTVSPropertyOp29
 70
     1
102
RTVSPropertyOp30
 70
     1
102
RTVSPropertyOp31
 70
     1
102
RTVSPropertyOp32
 70
     1
102
RTVSPropertyOp33
 70
     1
102
RTVSPropertyOp34
 70
     1
102
RTVSPropertyOp35
 70
     1
102
RTVSPropertyOp36
 70
     1
102
RTVSPropertyOp37
 70
     1
102
RTVSPropertyOp38
 70
     1
102
RTVSPropertyOp39
 70
     1
102
RTVSPropertyOp40
 70
     1
102
RTVSPropertyOp41
 70
     1
102
RTVSPropertyOp42
 70
     1
102
RTVSPropertyOp43
 70
     1
102
RTVSPropertyOp44
 70
     1
102
RTVSPropertyOp45
 70
     1
102
RTVSPropertyOp46
 70
     1
102
RTVSPropertyOp47
 70
     1
102
RTVSPropertyOp48
 70
     1
102
RTVSPropertyOp49
 70
     1
102
RTVSPropertyOp50
 70
     1
102
RTVSPropertyOp51
 70
     0
102
RTVSPropertyOp52
 70
     0
102
RTVSPropertyOp53
 70
     1
102
RTVSPropertyOp54
 70
     1
102
RTVSPropertyOp55
 70
     1
102
RTVSPropertyOp56
 70
     1
102
RTVSPropertyOp57
 70
     1
102
RTVSPost2010Prop28
280
     0
102
RTVSPost2010PropOp28
 70
     1
102
RTVSPost2010Prop29
280
     1
102
RTVSPost2010PropOp29
 70
     1
102
RTVSPost2010Prop30
280
     1
102
RTVSPost2010PropOp30
 70
     1
102
RTVSPost2010Prop31
280
     0
102
RTVSPost2010PropOp31
 70
     1
102
RTVSPost2010Prop32
280
     0
102
RTVSPost2010PropOp32
 70
     1
102
RTVSPost2010Prop33
280
     0
102
RTVSPost2010PropOp33
 70
     1
102
RTVSPost2010Prop34
280
     0
102
RTVSPost2010PropOp34
 70
     1
102
RTVSPost2010Prop35
280
     0
102
RTVSPost2010PropOp35
 70
     1
102
RTVSPost2010Prop36
280
     0
102
RTVSPost2010PropOp36
 70
     1
102
RTVSPost2010Prop37
 90
       50
102
RTVSPost2010PropOp37
 70
     1
102
RTVSPost2010Prop38
140
0.0
102
RTVSPost2010PropOp38
 70
     1
102
RTVSPost2010Prop39
140
1.0
102
RTVSPost2010PropOp39
 70
     1
102
RTVSPost2010Prop40
 90
        0
102
RTVSPost2010PropOp40
 70
     1
102
RTVSPost2010Prop41ColorIndex
 90
       18
102
RTVSPost2010Prop41ColorRGB
 90
        0
102
RTVSPost2010PropOp41
 70
     1
102
RTVSPost2010Prop42
 90
       50
102
RTVSPost2010PropOp42
 70
     1
102
RTVSPost2010Prop43
 90
        3
102
RTVSPost2010PropOp43
 70
     1
102
RTVSPost2010Prop44ColorIndex
 90
        5
102
RTVSPost2010Prop44ColorRGB
 90
      255
102
RTVSPost2010PropOp44
 70
     1
102
RTVSPost2010Prop45
280
     0
102
RTVSPost2010PropOp45
 70
     1
102
RTVSPost2010Prop46
 90
       50
102
RTVSPost2010PropOp46
 70
     1
102
RTVSPost2010Prop47
 90
       50
102
RTVSPost2010PropOp47
 70
     1
102
RTVSPost2010Prop48
 90
       50
102
RTVSPost2010PropOp48
 70
     1
102
RTVSPost2010Prop49
280
     0
102
RTVSPost2010PropOp49
 70
     1
102
RTVSPost2010Prop50
 90
       50
102
RTVSPost2010PropOp50
 70
     1
102
RTVSPost2010Prop51ColorIndex
 90
      256
102
RTVSPost2010Prop51ColorRGB
 90
-16777216
102
RTVSPost2010PropOp51
 70
     0
102
RTVSPost2010Prop52
140
1.0
102
RTVSPost2010PropOp52
 70
     0
102
RTVSPost2010Prop53
 90
        2
102
RTVSPost2010PropOp53
 70
     1
102
RTVSPost2010Prop54
  1
strokes_ogs.tif
102
RTVSPost2010PropOp54
 70
     1
102
RTVSPost2010Prop55
280
     0
102
RTVSPost2010PropOp55
 70
     1
102
RTVSPost2010Prop56
140
1.0
102
RTVSPost2010PropOp56
 70
     1
102
RTVSPost2010Prop57
140
1.0
102
RTVSPost2010PropOp57
 70
     1
  0
XRECORD
  5
427B
102
{ACAD_REACTORS
330
427A
102
}
330
427A
100
AcDbXrecord
280
     1
102
RTVSPropertyOp0
 70
     1
102
RTVSPropertyOp1
 70
     1
102
RTVSPropertyOp2
 70
     1
102
RTVSPropertyOp3
 70
     1
102
RTVSPropertyOp4
 70
     1
102
RTVSPropertyOp5
 70
     1
102
RTVSPropertyOp6
 70
     1
102
RTVSPropertyOp7
 70
     1
102
RTVSPropertyOp8
 70
     1
102
RTVSPropertyOp9
 70
     1
102
RTVSPropertyOp10
 70
     1
102
RTVSPropertyOp11
 70
     1
102
RTVSPropertyOp12
 70
     1
102
RTVSPropertyOp13
 70
     1
102
RTVSPropertyOp14
 70
     1
102
RTVSPropertyOp15
 70
     1
102
RTVSPropertyOp16
 70
     1
102
RTVSPropertyOp17
 70
     1
102
RTVSPropertyOp18
 70
     1
102
RTVSPropertyOp19
 70
     1
102
RTVSPropertyOp20
 70
     1
102
RTVSPropertyOp21
 70
     1
102
RTVSPropertyOp22
 70
     1
102
RTVSPropertyOp23
 70
     1
102
RTVSPropertyOp24
 70
     1
102
RTVSPropertyOp25
 70
     1
102
RTVSPropertyOp26
 70
     1
102
RTVSPropertyOp27
 70
     1
102
RTVSPropertyOp28
 70
     1
102
RTVSPropertyOp29
 70
     1
102
RTVSPropertyOp30
 70
     1
102
RTVSPropertyOp31
 70
     1
102
RTVSPropertyOp32
 70
     1
102
RTVSPropertyOp33
 70
     1
102
RTVSPropertyOp34
 70
     1
102
RTVSPropertyOp35
 70
     1
102
RTVSPropertyOp36
 70
     1
102
RTVSPropertyOp37
 70
     1
102
RTVSPropertyOp38
 70
     1
102
RTVSPropertyOp39
 70
     1
102
RTVSPropertyOp40
 70
     1
102
RTVSPropertyOp41
 70
     1
102
RTVSPropertyOp42
 70
     1
102
RTVSPropertyOp43
 70
     1
102
RTVSPropertyOp44
 70
     1
102
RTVSPropertyOp45
 70
     1
102
RTVSPropertyOp46
 70
     1
102
RTVSPropertyOp47
 70
     1
102
RTVSPropertyOp48
 70
     1
102
RTVSPropertyOp49
 70
     1
102
RTVSPropertyOp50
 70
     1
102
RTVSPropertyOp51
 70
     0
102
RTVSPropertyOp52
 70
     0
102
RTVSPropertyOp53
 70
     1
102
RTVSPropertyOp54
 70
     1
102
RTVSPropertyOp55
 70
     1
102
RTVSPropertyOp56
 70
     1
102
RTVSPropertyOp57
 70
     1
102
RTVSPost2010Prop28
280
     0
102
RTVSPost2010PropOp28
 70
     1
102
RTVSPost2010Prop29
280
     1
102
RTVSPost2010PropOp29
 70
     1
102
RTVSPost2010Prop30
280
     1
102
RTVSPost2010PropOp30
 70
     1
102
RTVSPost2010Prop31
280
     0
102
RTVSPost2010PropOp31
 70
     1
102
RTVSPost2010Prop32
280
     0
102
RTVSPost2010PropOp32
 70
     1
102
RTVSPost2010Prop33
280
     0
102
RTVSPost2010PropOp33
 70
     1
102
RTVSPost2010Prop34
280
     0
102
RTVSPost2010PropOp34
 70
     1
102
RTVSPost2010Prop35
280
     0
102
RTVSPost2010PropOp35
 70
     1
102
RTVSPost2010Prop36
280
     0
102
RTVSPost2010PropOp36
 70
     1
102
RTVSPost2010Prop37
 90
       50
102
RTVSPost2010PropOp37
 70
     1
102
RTVSPost2010Prop38
140
0.0
102
RTVSPost2010PropOp38
 70
     1
102
RTVSPost2010Prop39
140
1.0
102
RTVSPost2010PropOp39
 70
     1
102
RTVSPost2010Prop40
 90
        0
102
RTVSPost2010PropOp40
 70
     1
102
RTVSPost2010Prop41ColorIndex
 90
       18
102
RTVSPost2010Prop41ColorRGB
 90
        0
102
RTVSPost2010PropOp41
 70
     1
102
RTVSPost2010Prop42
 90
       50
102
RTVSPost2010PropOp42
 70
     1
102
RTVSPost2010Prop43
 90
        3
102
RTVSPost2010PropOp43
 70
     1
102
RTVSPost2010Prop44ColorIndex
 90
        5
102
RTVSPost2010Prop44ColorRGB
 90
      255
102
RTVSPost2010PropOp44
 70
     1
102
RTVSPost2010Prop45
280
     0
102
RTVSPost2010PropOp45
 70
     1
102
RTVSPost2010Prop46
 90
       50
102
RTVSPost2010PropOp46
 70
     1
102
RTVSPost2010Prop47
 90
       50
102
RTVSPost2010PropOp47
 70
     1
102
RTVSPost2010Prop48
 90
       50
102
RTVSPost2010PropOp48
 70
     1
102
RTVSPost2010Prop49
280
     0
102
RTVSPost2010PropOp49
 70
     1
102
RTVSPost2010Prop50
 90
       50
102
RTVSPost2010PropOp50
 70
     1
102
RTVSPost2010Prop51ColorIndex
 90
      256
102
RTVSPost2010Prop51ColorRGB
 90
-16777216
102
RTVSPost2010PropOp51
 70
     0
102
RTVSPost2010Prop52
140
1.0
102
RTVSPost2010PropOp52
 70
     0
102
RTVSPost2010Prop53
 90
        2
102
RTVSPost2010PropOp53
 70
     1
102
RTVSPost2010Prop54
  1
strokes_ogs.tif
102
RTVSPost2010PropOp54
 70
     1
102
RTVSPost2010Prop55
280
     0
102
RTVSPost2010PropOp55
 70
     1
102
RTVSPost2010Prop56
140
1.0
102
RTVSPost2010PropOp56
 70
     1
102
RTVSPost2010Prop57
140
1.0
102
RTVSPost2010PropOp57
 70
     1
  0
ENDSEC
  0
EOF
