  0
SECTION
  2
HEADER
  9
$ACADVER
  1
AC1015
  9
$ACADMAINTVER
 70
     6
  9
$DWGCODEPAGE
  3
ANSI_1252
  9
$INSBASE
 10
0.0
 20
0.0
 30
0.0
  9
$EXTMIN
 10
0.0
 20
0.0
 30
0.0
  9
$EXTMAX
 10
420.0
 20
297.0
 30
0.0
  9
$LIMMIN
 10
0.0
 20
0.0
  9
$LIMMAX
 10
420.0
 20
297.0
  9
$ORTHOMODE
 70
     0
  9
$REGENMODE
 70
     1
  9
$FILLMODE
 70
     1
  9
$QTEXTMODE
 70
     0
  9
$MIRRTEXT
 70
     1
  9
$LTSCALE
 40
1.0
  9
$ATTMODE
 70
     1
  9
$TEXTSIZE
 40
4.233333333333333
  9
$TRACEWID
 40
1.0
  9
$TEXTSTYLE
  7
Standard
  9
$CLAYER
  8
0
  9
$CELTYPE
  6
ByLayer
  9
$CECOLOR
 62
   256
  9
$CELTSCALE
 40
1.0
  9
$DISPSILH
 70
     0
  9
$DIMSCALE
 40
1.0
  9
$DIMASZ
 40
3.5
  9
$DIMEXO
 40
1.0
  9
$DIMDLI
 40
3.75
  9
$DIMRND
 40
0.0
  9
$DIMDLE
 40
0.0
  9
$DIMEXE
 40
1.0
  9
$DIMTP
 40
0.0
  9
$DIMTM
 40
0.0
  9
$DIMTXT
 40
3.527777777777778
  9
$DIMCEN
 40
2.5
  9
$DIMTSZ
 40
0.0
  9
$DIMTOL
 70
     0
  9
$DIMLIM
 70
     0
  9
$DIMTIH
 70
     1
  9
$DIMTOH
 70
     1
  9
$DIMSE1
 70
     0
  9
$DIMSE2
 70
     0
  9
$DIMTAD
 70
     1
  9
$DIMZIN
 70
     0
  9
$DIMBLK
  1

  9
$DIMASO
 70
     1
  9
$DIMSHO
 70
     1
  9
$DIMPOST
  1

  9
$DIMAPOST
  1

  9
$DIMALT
 70
     0
  9
$DIMALTD
 70
     3
  9
$DIMALTF
 40
0.0393700787401575
  9
$DIMLFAC
 40
2.0
  9
$DIMTOFL
 70
     1
  9
$DIMTVP
 40
0.0
  9
$DIMTIX
 70
     0
  9
$DIMSOXD
 70
     0
  9
$DIMSAH
 70
     0
  9
$DIMBLK1
  1

  9
$DIMBLK2
  1

  9
$DIMSTYLE
  2
ISO-25
  9
$DIMCLRD
 70
     0
  9
$DIMCLRE
 70
     0
  9
$DIMCLRT
 70
     0
  9
$DIMTFAC
 40
1.0
  9
$DIMGAP
 40
1.524
  9
$DIMJUST
 70
     0
  9
$DIMSD1
 70
     0
  9
$DIMSD2
 70
     0
  9
$DIMTOLJ
 70
     0
  9
$DIMTZIN
 70
     0
  9
$DIMALTZ
 70
     0
  9
$DIMALTTZ
 70
     0
  9
$DIMUPT
 70
     0
  9
$DIMDEC
 70
     2
  9
$DIMTDEC
 70
     2
  9
$DIMALTU
 70
     2
  9
$DIMALTTD
 70
     3
  9
$DIMTXSTY
  7
Standard
  9
$DIMAUNIT
 70
     0
  9
$DIMADEC
 70
     2
  9
$DIMALTRND
 40
0.0
  9
$DIMAZIN
 70
     0
  9
$DIMDSEP
 70
    44
  9
$DIMATFIT
 70
     3
  9
$DIMFRAC
 70
     0
  9
$DIMLDRBLK
  1

  9
$DIMLUNIT
 70
     2
  9
$DIMLWD
 70
    -2
  9
$DIMLWE
 70
    -2
  9
$DIMTMOVE
 70
     0
  9
$LUNITS
 70
     2
  9
$LUPREC
 70
     2
  9
$SKETCHINC
 40
1.0
  9
$FILLETRAD
 40
10.0
  9
$AUNITS
 70
     0
  9
$AUPREC
 70
     2
  9
$MENU
  1
.
  9
$ELEVATION
 40
0.0
  9
$PELEVATION
 40
0.0
  9
$THICKNESS
 40
0.0
  9
$LIMCHECK
 70
     0
  9
$CHAMFERA
 40
0.0
  9
$CHAMFERB
 40
0.0
  9
$CHAMFERC
 40
0.0
  9
$CHAMFERD
 40
0.0
  9
$SKPOLY
 70
     0
  9
$TDCREATE
 40
2458036.632378507
  9
$TDUCREATE
 40
2458036.549045173
  9
$TDUPDATE
 40
2460157.452361053
  9
$TDUUPDATE
 40
2460157.36902772
  9
$TDINDWG
 40
0.0000000116
  9
$TDUSRTIMER
 40
0.0000000116
  9
$USRTIMER
 70
     1
  9
$ANGBASE
 50
0.0
  9
$ANGDIR
 70
     0
  9
$PDMODE
 70
     0
  9
$PDSIZE
 40
-1.0
  9
$PLINEWID
 40
0.0
  9
$SPLFRAME
 70
     0
  9
$SPLINETYPE
 70
     6
  9
$SPLINESEGS
 70
     8
  9
$HANDSEED
  5
305
  9
$SURFTAB1
 70
     6
  9
$SURFTAB2
 70
     6
  9
$SURFTYPE
 70
     6
  9
$SURFU
 70
     6
  9
$SURFV
 70
     6
  9
$UCSBASE
  2

  9
$UCSNAME
  2

  9
$UCSORG
 10
0.0
 20
0.0
 30
0.0
  9
$UCSXDIR
 10
1.0
 20
0.0
 30
0.0
  9
$UCSYDIR
 10
0.0
 20
1.0
 30
0.0
  9
$UCSORTHOREF
  2

  9
$UCSORTHOVIEW
 70
     0
  9
$UCSORGTOP
 10
0.0
 20
0.0
 30
0.0
  9
$UCSORGBOTTOM
 10
0.0
 20
0.0
 30
0.0
  9
$UCSORGLEFT
 10
0.0
 20
0.0
 30
0.0
  9
$UCSORGRIGHT
 10
0.0
 20
0.0
 30
0.0
  9
$UCSORGFRONT
 10
0.0
 20
0.0
 30
0.0
  9
$UCSORGBACK
 10
0.0
 20
0.0
 30
0.0
  9
$PUCSBASE
  2

  9
$PUCSNAME
  2

  9
$PUCSORG
 10
0.0
 20
0.0
 30
0.0
  9
$PUCSXDIR
 10
1.0
 20
0.0
 30
0.0
  9
$PUCSYDIR
 10
0.0
 20
1.0
 30
0.0
  9
$PUCSORTHOREF
  2

  9
$PUCSORTHOVIEW
 70
     0
  9
$PUCSORGTOP
 10
0.0
 20
0.0
 30
0.0
  9
$PUCSORGBOTTOM
 10
0.0
 20
0.0
 30
0.0
  9
$PUCSORGLEFT
 10
0.0
 20
0.0
 30
0.0
  9
$PUCSORGRIGHT
 10
0.0
 20
0.0
 30
0.0
  9
$PUCSORGFRONT
 10
0.0
 20
0.0
 30
0.0
  9
$PUCSORGBACK
 10
0.0
 20
0.0
 30
0.0
  9
$USERI1
 70
     0
  9
$USERI2
 70
     0
  9
$USERI3
 70
     0
  9
$USERI4
 70
     0
  9
$USERI5
 70
     0
  9
$USERR1
 40
0.0
  9
$USERR2
 40
0.0
  9
$USERR3
 40
0.0
  9
$USERR4
 40
0.0
  9
$USERR5
 40
0.0
  9
$WORLDVIEW
 70
     1
  9
$SHADEDGE
 70
     3
  9
$SHADEDIF
 70
    70
  9
$TILEMODE
 70
     1
  9
$MAXACTVP
 70
    64
  9
$PINSBASE
 10
0.0
 20
0.0
 30
0.0
  9
$PLIMCHECK
 70
     0
  9
$PEXTMIN
 10
1.000000000000000E+20
 20
1.000000000000000E+20
 30
1.000000000000000E+20
  9
$PEXTMAX
 10
-1.000000000000000E+20
 20
-1.000000000000000E+20
 30
-1.000000000000000E+20
  9
$PLIMMIN
 10
0.0
 20
0.0
  9
$PLIMMAX
 10
420.0
 20
297.0
  9
$UNITMODE
 70
     0
  9
$VISRETAIN
 70
     1
  9
$PLINEGEN
 70
     0
  9
$PSLTSCALE
 70
     1
  9
$TREEDEPTH
 70
  3020
  9
$CMLSTYLE
  2
Standard
  9
$CMLJUST
 70
     0
  9
$CMLSCALE
 40
20.0
  9
$PROXYGRAPHICS
 70
     1
  9
$MEASUREMENT
 70
     1
  9
$CELWEIGHT
370
    -1
  9
$ENDCAPS
280
     0
  9
$JOINSTYLE
280
     0
  9
$LWDISPLAY
290
     1
  9
$INSUNITS
 70
     4
  9
$HYPERLINKBASE
  1

  9
$STYLESHEET
  1

  9
$XEDIT
290
     1
  9
$CEPSNTYPE
380
     0
  9
$PSTYLEMODE
290
     1
  9
$FINGERPRINTGUID
  2
{375225EB-800F-4BC6-AFB6-C6661D74CE38}
  9
$VERSIONGUID
  2
{FAEB1C32-E019-11D5-929B-00C0DF256EC4}
  9
$EXTNAMES
290
     1
  9
$PSVPSCALE
 40
0.0
  9
$OLESTARTUP
290
     0
  0
ENDSEC
  0
SECTION
  2
CLASSES
  0
CLASS
  1
ACDBDICTIONARYWDFLT
  2
AcDbDictionaryWithDefault
  3
ObjectDBX Classes
 90
        0
280
     0
281
     0
  0
CLASS
  1
VISUALSTYLE
  2
AcDbVisualStyle
  3
ObjectDBX Classes
 90
     4095
280
     0
281
     0
  0
CLASS
  1
MATERIAL
  2
AcDbMaterial
  3
ObjectDBX Classes
 90
     1153
280
     0
281
     0
  0
CLASS
  1
SCALE
  2
AcDbScale
  3
ObjectDBX Classes
 90
     1153
280
     0
281
     0
  0
CLASS
  1
TABLESTYLE
  2
AcDbTableStyle
  3
ObjectDBX Classes
 90
     4095
280
     0
281
     0
  0
CLASS
  1
MLEADERSTYLE
  2
AcDbMLeaderStyle
  3
ACDB_MLEADERSTYLE_CLASS
 90
     4095
280
     0
281
     0
  0
CLASS
  1
SUN
  2
AcDbSun
  3
SCENEOE
 90
     1153
280
     0
281
     0
  0
CLASS
  1
ACDBPLACEHOLDER
  2
AcDbPlaceHolder
  3
ObjectDBX Classes
 90
        0
280
     0
281
     0
  0
CLASS
  1
LAYOUT
  2
AcDbLayout
  3
ObjectDBX Classes
 90
        0
280
     0
281
     0
  0
CLASS
  1
DICTIONARYVAR
  2
AcDbDictionaryVar
  3
ObjectDBX Classes
 90
        0
280
     0
281
     0
  0
ENDSEC
  0
SECTION
  2
TABLES
  0
TABLE
  2
VPORT
  5
8
102
{ACAD_XDICTIONARY
360
2C9
102
}
330
0
100
AcDbSymbolTable
 70
     1
  0
VPORT
  5
29
330
8
100
AcDbSymbolTableRecord
100
AcDbViewportTableRecord
  2
*Active
 70
     0
 10
0.0
 20
0.0
 11
1.0
 21
1.0
 12
210.0
 22
148.5
 13
0.0
 23
0.0
 14
10.0
 24
10.0
 15
10.0
 25
10.0
 16
0.0
 26
0.0
 36
1.0
 17
0.0
 27
0.0
 37
0.0
 40
297.0
 41
1.414141414141414
 42
50.0
 43
0.0
 44
0.0
 50
0.0
 51
0.0
 71
     0
 72
  2000
 73
     1
 74
     3
 75
     0
 76
     0
 77
     0
 78
     0
281
     0
 65
     1
110
0.0
120
0.0
130
0.0
111
1.0
121
0.0
131
0.0
112
0.0
122
1.0
132
0.0
 79
     0
146
0.0
  0
ENDTAB
  0
TABLE
  2
LTYPE
  5
5
330
0
100
AcDbSymbolTable
 70
     6
  0
LTYPE
  5
14
330
5
100
AcDbSymbolTableRecord
100
AcDbLinetypeTableRecord
  2
ByBlock
 70
     0
  3

 72
    65
 73
     0
 40
0.0
  0
LTYPE
  5
15
330
5
100
AcDbSymbolTableRecord
100
AcDbLinetypeTableRecord
  2
ByLayer
 70
     0
  3

 72
    65
 73
     0
 40
0.0
  0
LTYPE
  5
16
330
5
100
AcDbSymbolTableRecord
100
AcDbLinetypeTableRecord
  2
Continuous
 70
     0
  3
Solid line
 72
    65
 73
     0
 40
0.0
  0
LTYPE
  5
6E
330
5
100
AcDbSymbolTableRecord
100
AcDbLinetypeTableRecord
  2
HIDDEN
 70
     0
  3
Hidden __ __ __ __ __ __ __ __ __ __ __ __ __ __
 72
    65
 73
     2
 40
1.905
 49
1.27
 74
     0
 49
-0.635
 74
     0
  0
LTYPE
  5
6F
330
5
100
AcDbSymbolTableRecord
100
AcDbLinetypeTableRecord
  2
PHANTOM
 70
     0
  3
Phantom ______  __  __  ______  __  __  ______
 72
    65
 73
     6
 40
12.7
 49
6.35
 74
     0
 49
-1.27
 74
     0
 49
1.27
 74
     0
 49
-1.27
 74
     0
 49
1.27
 74
     0
 49
-1.27
 74
     0
  0
LTYPE
  5
70
330
5
100
AcDbSymbolTableRecord
100
AcDbLinetypeTableRecord
  2
CENTER
 70
     0
  3
Center ____ _ ____ _ ____ _ ____ _ ____ _ ____
 72
    65
 73
     4
 40
10.16
 49
6.35
 74
     0
 49
-1.27
 74
     0
 49
1.27
 74
     0
 49
-1.27
 74
     0
  0
LTYPE
  5
71
330
5
100
AcDbSymbolTableRecord
100
AcDbLinetypeTableRecord
  2
CENTERX2
 70
     0
  3
Center (2x) ________  __  ________  __  _____
 72
    65
 73
     4
 40
20.32
 49
12.7
 74
     0
 49
-2.54
 74
     0
 49
2.54
 74
     0
 49
-2.54
 74
     0
  0
LTYPE
  5
72
330
5
100
AcDbSymbolTableRecord
100
AcDbLinetypeTableRecord
  2
DOT2
 70
     0
  3
Dot (.5x) ........................................
 72
    65
 73
     2
 40
0.635
 49
0.0
 74
     0
 49
-0.635
 74
     0
  0
ENDTAB
  0
TABLE
  2
LAYER
  5
2
330
0
100
AcDbSymbolTable
 70
     4
  0
LAYER
  5
10
330
2
100
AcDbSymbolTableRecord
100
AcDbLayerTableRecord
  2
0
 70
     0
 62
     7
  6
Continuous
370
    -3
390
F
  0
LAYER
  5
73
330
2
100
AcDbSymbolTableRecord
100
AcDbLayerTableRecord
  2
SLD-0
 70
     0
 62
     7
  6
Continuous
370
    -3
390
F
  0
LAYER
  5
74
330
2
100
AcDbSymbolTableRecord
100
AcDbLayerTableRecord
  2
COTAS
 70
     0
 62
     4
  6
Continuous
370
    -3
390
F
  0
LAYER
  5
75
330
2
100
AcDbSymbolTableRecord
100
AcDbLayerTableRecord
  2
MARGEN
 70
     0
 62
     2
  6
Continuous
370
    -3
390
F
  0
ENDTAB
  0
TABLE
  2
STYLE
  5
3
330
0
100
AcDbSymbolTable
 70
     2
  0
STYLE
  5
11
330
3
100
AcDbSymbolTableRecord
100
AcDbTextStyleTableRecord
  2
Standard
 70
     0
 40
0.0
 41
1.0
 50
0.0
 71
     0
 42
4.233333333333333
  3
txt
  4

  0
STYLE
  5
7A
330
3
100
AcDbSymbolTableRecord
100
AcDbTextStyleTableRecord
  2
SLDTEXTSTYLE0
 70
     0
 40
0.0
 41
0.605
 50
0.0
 71
     0
 42
4.233333333333333
  3
TXT
  4

  0
ENDTAB
  0
TABLE
  2
VIEW
  5
6
330
0
100
AcDbSymbolTable
 70
     0
  0
ENDTAB
  0
TABLE
  2
UCS
  5
7
330
0
100
AcDbSymbolTable
 70
     0
  0
ENDTAB
  0
TABLE
  2
APPID
  5
9
330
0
100
AcDbSymbolTable
 70
     2
  0
APPID
  5
12
330
9
100
AcDbSymbolTableRecord
100
AcDbRegAppTableRecord
  2
ACAD
 70
     0
  0
APPID
  5
302
330
9
100
AcDbSymbolTableRecord
100
AcDbRegAppTableRecord
  2
ACAD_MLEADERVER
 70
     0
  0
ENDTAB
  0
TABLE
  2
DIMSTYLE
  5
A
330
0
100
AcDbSymbolTable
 70
     2
100
AcDbDimStyleTable
  0
DIMSTYLE
105
27
330
A
100
AcDbSymbolTableRecord
100
AcDbDimStyleTableRecord
  2
ISO-25
 70
     0
 41
2.5
 42
0.625
 43
3.75
 44
1.25
 73
     0
 74
     0
 77
     1
 78
     8
140
2.5
141
2.5
143
0.03937007874016
147
0.625
171
     3
172
     1
178
     0
271
     2
272
     2
274
     3
278
    44
283
     0
284
     8
340
11
  0
DIMSTYLE
105
1C3
102
{ACAD_REACTORS
330
1C2
330
1CD
330
1D7
330
296
102
}
330
A
100
AcDbSymbolTableRecord
100
AcDbDimStyleTableRecord
  2
SLDDIMSTYLE0
 70
     0
 41
3.5
 44
0.0
 45
0.000000001
 73
     0
 74
     0
 77
     1
 78
    12
 79
     3
140
2.568318684895833
147
0.6420796712239583
173
     1
178
     0
271
     2
272
     2
276
     2
284
    12
340
7A
  0
ENDTAB
  0
TABLE
  2
BLOCK_RECORD
  5
1
330
0
100
AcDbSymbolTable
 70
     5
  0
BLOCK_RECORD
  5
1F
330
1
100
AcDbSymbolTableRecord
100
AcDbBlockTableRecord
  2
*Model_Space
340
22
  0
BLOCK_RECORD
  5
1B
330
1
100
AcDbSymbolTableRecord
100
AcDbBlockTableRecord
  2
*Paper_Space
340
1E
  0
BLOCK_RECORD
  5
23
330
1
100
AcDbSymbolTableRecord
100
AcDbBlockTableRecord
  2
*Paper_Space0
340
26
  0
BLOCK_RECORD
  5
1C4
330
1
100
AcDbSymbolTableRecord
100
AcDbBlockTableRecord
  2
_D
340
0
  0
BLOCK_RECORD
  5
1CE
330
1
100
AcDbSymbolTableRecord
100
AcDbBlockTableRecord
  2
_D_1
340
0
  0
BLOCK_RECORD
  5
1D8
330
1
100
AcDbSymbolTableRecord
100
AcDbBlockTableRecord
  2
_D_2
340
0
  0
BLOCK_RECORD
  5
297
330
1
100
AcDbSymbolTableRecord
100
AcDbBlockTableRecord
  2
_D_3
340
0
  0
ENDTAB
  0
ENDSEC
  0
SECTION
  2
BLOCKS
  0
BLOCK
  5
20
330
1F
100
AcDbEntity
  8
0
100
AcDbBlockBegin
  2
*Model_Space
 70
     0
 10
0.0
 20
0.0
 30
0.0
  3
*Model_Space
  1

  0
ENDBLK
  5
21
330
1F
100
AcDbEntity
  8
0
100
AcDbBlockEnd
  0
BLOCK
  5
1C
330
1B
100
AcDbEntity
 67
     1
  8
0
100
AcDbBlockBegin
  2
*Paper_Space
 70
     0
 10
0.0
 20
0.0
 30
0.0
  3
*Paper_Space
  1

  0
ENDBLK
  5
1D
330
1B
100
AcDbEntity
 67
     1
  8
0
100
AcDbBlockEnd
  0
BLOCK
  5
24
330
23
100
AcDbEntity
  8
0
100
AcDbBlockBegin
  2
*Paper_Space0
 70
     0
 10
0.0
 20
0.0
 30
0.0
  3
*Paper_Space0
  1

  0
ENDBLK
  5
25
330
23
100
AcDbEntity
  8
0
100
AcDbBlockEnd
  0
BLOCK
  5
1C5
330
1C4
100
AcDbEntity
  8
0
100
AcDbBlockBegin
  2
_D
 70
     0
 10
0.0
 20
0.0
 30
0.0
  3
_D
  1

  0
SOLID
  5
1C7
330
1C4
100
AcDbEntity
  8
SLD-0
100
AcDbTrace
 10
108.9061176854141
 20
58.16017527212259
 30
0.0
 11
112.4061176854141
 21
57.41017527212259
 31
0.0
 12
112.4061176854141
 22
58.91017527212259
 32
0.0
 13
112.4061176854141
 23
58.91017527212259
 33
0.0
  0
SOLID
  5
1C8
330
1C4
100
AcDbEntity
  8
SLD-0
100
AcDbTrace
 10
222.6290794264341
 20
58.16017527212288
 30
0.0
 11
219.1290794264341
 21
58.91017527212287
 31
0.0
 12
219.1290794264341
 22
57.41017527212287
 32
0.0
 13
219.1290794264341
 23
57.41017527212287
 33
0.0
  0
LINE
  5
1C9
330
1C4
100
AcDbEntity
  8
SLD-0
100
AcDbLine
 10
108.9061176854141
 20
69.73256355932206
 30
0.0
 11
108.9061176854141
 21
57.16017527212258
 31
0.0
  0
LINE
  5
1CA
330
1C4
100
AcDbEntity
  8
SLD-0
100
AcDbLine
 10
222.6290794264339
 20
139.0601752701489
 30
0.0
 11
222.6290794264341
 21
57.16017527212287
 31
0.0
  0
LINE
  5
1CB
330
1C4
100
AcDbEntity
  8
SLD-0
100
AcDbLine
 10
108.9061176854141
 20
58.16017527212259
 30
0.0
 11
222.6290794264341
 21
58.16017527212288
 31
0.0
  0
MTEXT
  5
1CC
330
1C4
100
AcDbEntity
  8
SLD-0
100
AcDbMText
 10
160.3852852685675
 20
61.57083384155906
 30
0.0
 40
2.645833333333333
 41
0.0
 71
     1
 72
     1
  1
105
  7
SLDTEXTSTYLE0
 73
     1
 44
1.0
  0
ENDBLK
  5
1C6
330
1C4
100
AcDbEntity
  8
0
100
AcDbBlockEnd
  0
BLOCK
  5
1CF
330
1CE
100
AcDbEntity
  8
0
100
AcDbBlockBegin
  2
_D_1
 70
     0
 10
0.0
 20
0.0
 30
0.0
  3
_D_1
  1

  0
SOLID
  5
1D1
330
1CE
100
AcDbEntity
  8
SLD-0
100
AcDbTrace
 10
92.40611768541417
 20
34.16017527212244
 30
0.0
 11
95.90611768541417
 21
33.41017527212245
 31
0.0
 12
95.90611768541417
 22
34.91017527212245
 32
0.0
 13
95.90611768541417
 23
34.91017527212245
 33
0.0
  0
SOLID
  5
1D2
330
1CE
100
AcDbEntity
  8
SLD-0
100
AcDbTrace
 10
222.6290794264343
 20
34.16017527212286
 30
0.0
 11
219.1290794264343
 21
34.91017527212285
 31
0.0
 12
219.1290794264343
 22
33.41017527212285
 32
0.0
 13
219.1290794264343
 23
33.41017527212285
 33
0.0
  0
LINE
  5
1D3
330
1CE
100
AcDbEntity
  8
SLD-0
100
AcDbLine
 10
92.40611768541402
 20
85.1601752721228
 30
0.0
 11
92.40611768541417
 21
33.16017527212244
 31
0.0
  0
LINE
  5
1D4
330
1CE
100
AcDbEntity
  8
SLD-0
100
AcDbLine
 10
222.6290794264339
 20
139.0601752701489
 30
0.0
 11
222.6290794264343
 21
33.16017527212286
 31
0.0
  0
LINE
  5
1D5
330
1CE
100
AcDbEntity
  8
SLD-0
100
AcDbLine
 10
92.40611768541417
 20
34.16017527212244
 30
0.0
 11
222.6290794264343
 21
34.16017527212286
 31
0.0
  0
MTEXT
  5
1D6
330
1CE
100
AcDbEntity
  8
SLD-0
100
AcDbMText
 10
160.3840148987004
 20
37.57083384155904
 30
0.0
 40
2.645833333333333
 41
0.0
 71
     1
 72
     1
  1
130
  7
SLDTEXTSTYLE0
 73
     1
 44
1.0
  0
ENDBLK
  5
1D0
330
1CE
100
AcDbEntity
  8
0
100
AcDbBlockEnd
  0
BLOCK
  5
1D9
330
1D8
100
AcDbEntity
  8
0
100
AcDbBlockBegin
  2
_D_2
 70
     0
 10
0.0
 20
0.0
 30
0.0
  3
_D_2
  1

  0
SOLID
  5
1DB
330
1D8
100
AcDbEntity
  8
SLD-0
100
AcDbTrace
 10
62.44165051179098
 20
86.1601752721227
 30
0.0
 11
63.19165051179096
 21
89.6601752721227
 31
0.0
 12
61.69165051179096
 22
89.6601752721227
 32
0.0
 13
61.69165051179096
 23
89.6601752721227
 33
0.0
  0
SOLID
  5
1DC
330
1D8
100
AcDbEntity
  8
SLD-0
100
AcDbTrace
 10
62.44165051179035
 20
266.5601752721226
 30
0.0
 11
61.69165051179036
 21
263.0601752721226
 31
0.0
 12
63.19165051179036
 22
263.0601752721226
 32
0.0
 13
63.19165051179036
 23
263.0601752721226
 33
0.0
  0
LINE
  5
1DD
330
1D8
100
AcDbEntity
  8
SLD-0
100
AcDbLine
 10
91.40611768541402
 20
86.1601752721228
 30
0.0
 11
61.44165051179097
 21
86.1601752721227
 31
0.0
  0
LINE
  5
1DE
330
1D8
100
AcDbEntity
  8
SLD-0
100
AcDbLine
 10
91.40611768541339
 20
266.5601752721228
 30
0.0
 11
61.44165051179035
 21
266.5601752721226
 31
0.0
  0
LINE
  5
1DF
330
1D8
100
AcDbEntity
  8
SLD-0
100
AcDbLine
 10
62.44165051179098
 20
86.1601752721227
 30
0.0
 11
62.44165051179035
 21
266.5601752721226
 31
0.0
  0
MTEXT
  5
1E0
330
1D8
100
AcDbEntity
  8
SLD-0
100
AcDbMText
 10
59.03099194235432
 20
175.956976748366
 30
0.0
 40
2.645833333333333
 41
0.0
 71
     1
 72
     1
  1
180
  7
SLDTEXTSTYLE0
 11
-3.491481338843133E-15
 21
1.0
 31
0.0
 73
     1
 44
1.0
  0
ENDBLK
  5
1DA
330
1D8
100
AcDbEntity
  8
0
100
AcDbBlockEnd
  0
BLOCK
  5
298
330
297
100
AcDbEntity
  8
0
100
AcDbBlockBegin
  2
_D_3
 70
     0
 10
0.0
 20
0.0
 30
0.0
  3
_D_3
  1

  0
SOLID
  5
29A
330
297
100
AcDbEntity
  8
SLD-0
100
AcDbTrace
 10
254.6723872704093
 20
76.16017527212298
 30
0.0
 11
258.1723872704093
 21
75.41017527212298
 31
0.0
 12
258.1723872704093
 22
76.91017527212298
 32
0.0
 13
258.1723872704093
 23
76.91017527212298
 33
0.0
  0
SOLID
  5
29B
330
297
100
AcDbEntity
  8
SLD-0
100
AcDbTrace
 10
385.2149597645274
 20
76.16017527212298
 30
0.0
 11
381.7149597645274
 21
76.91017527212298
 31
0.0
 12
381.7149597645274
 22
75.41017527212298
 32
0.0
 13
381.7149597645274
 23
75.41017527212298
 33
0.0
  0
LINE
  5
29C
330
297
100
AcDbEntity
  8
SLD-0
100
AcDbLine
 10
254.6723872704093
 20
139.6101752721229
 30
0.0
 11
254.6723872704093
 21
75.16017527212298
 31
0.0
  0
LINE
  5
29D
330
297
100
AcDbEntity
  8
SLD-0
100
AcDbLine
 10
385.2149597645274
 20
148.410175272123
 30
0.0
 11
385.2149597645274
 21
75.16017527212298
 31
0.0
  0
LINE
  5
29E
330
297
100
AcDbEntity
  8
SLD-0
100
AcDbLine
 10
254.6723872704093
 20
76.16017527212298
 30
0.0
 11
385.2149597645274
 21
76.16017527212298
 31
0.0
  0
MTEXT
  5
29F
330
297
100
AcDbEntity
  8
SLD-0
100
AcDbMText
 10
318.2535263336942
 20
79.57083384155926
 30
0.0
 40
2.645833333333333
 41
0.0
 71
     1
 72
     1
  1
130
  7
SLDTEXTSTYLE0
 73
     1
 44
1.0
  0
ENDBLK
  5
299
330
297
100
AcDbEntity
  8
0
100
AcDbBlockEnd
  0
ENDSEC
  0
SECTION
  2
ENTITIES
  0
LINE
  5
76
330
1F
100
AcDbEntity
  8
MARGEN
 62
     7
100
AcDbLine
 10
6.628436018957363
 20
7.298872985884442
 30
0.0
 11
412.1241213219728
 21
7.298872985884413
 31
0.0
  0
LINE
  5
77
330
1F
100
AcDbEntity
  8
MARGEN
 62
     7
100
AcDbLine
 10
412.1241213219728
 20
7.298872985884413
 30
0.0
 11
412.1241213219728
 21
289.6080568720378
 31
0.0
  0
LINE
  5
78
330
1F
100
AcDbEntity
  8
SLD-0
100
AcDbLine
 10
412.1241213219728
 20
289.6080568720378
 30
0.0
 11
6.628436018957351
 21
289.6080568720378
 31
0.0
  0
LINE
  5
79
330
1F
100
AcDbEntity
  8
SLD-0
100
AcDbLine
 10
6.628436018957351
 20
289.6080568720378
 30
0.0
 11
6.628436018957363
 21
7.298872985884442
 31
0.0
  0
MTEXT
  5
7B
330
1F
100
AcDbEntity
  8
SLD-0
100
AcDbMText
 10
262.0607869916684
 20
28.4752466940429
 30
0.0
 40
4.762499999999999
 41
0.0
 71
     1
 72
     1
  1
BOMBA CIRCULADORA MOD. CTV 25-40/25-60
  7
SLDTEXTSTYLE0
 73
     1
 44
1.0
  0
MTEXT
  5
7C
330
1F
100
AcDbEntity
  8
SLD-0
100
AcDbMText
 10
339.7204615384615
 20
17.56872360144597
 30
0.0
 40
4.762499999999999
 41
0.0
 71
     1
 72
     1
  1
SALVADOR ESCODA
  7
SLDTEXTSTYLE0
 73
     1
 44
1.0
  0
SPLINE
  5
7D
330
1F
100
AcDbEntity
  8
0
  6
Continuous
 62
     7
370
    30
100
AcDbSpline
210
0.0
220
0.0
230
1.0
 70
     8
 71
     3
 72
    44
 73
    40
 74
     0
 42
0.000000001
 43
0.00000001
 40
0.0
 40
0.0
 40
0.0
 40
0.0
 40
0.0149444248857534
 40
0.0284592662084945
 40
0.0405533059023237
 40
0.0512394097045092
 40
0.0684360993063121
 40
0.0804448719639188
 40
0.0910934970512379
 40
0.1091757586226183
 40
0.1308247788981102
 40
0.1585715543415387
 40
0.1915810055192931
 40
0.2245096323200581
 40
0.2534162073213543
 40
0.2783683827297196
 40
0.3040840257700852
 40
0.3240679152905299
 40
0.3449079533181827
 40
0.3694296189238719
 40
0.3976248307185734
 40
0.4294862714422628
 40
0.4648969126996742
 40
0.5001499797012433
 40
0.544060394660393
 40
0.5844660400165144
 40
0.6213774254012112
 40
0.6551107112116584
 40
0.6878978899518912
 40
0.7201866782358447
 40
0.7440813289201715
 40
0.7686768278655622
 40
0.7996954130680979
 40
0.8380515548691958
 40
0.8676982044212207
 40
0.9005919632574444
 40
0.936725098019329
 40
0.9760886266025295
 40
1.0
 40
1.0
 40
1.0
 40
1.0
 10
114.4061178366063
 20
226.9893529568658
 30
0.0
 10
113.8397188934662
 20
226.9553464686389
 30
0.0
 10
112.7611027254796
 20
226.890586552572
 30
0.0
 10
111.2795763002209
 20
226.4446213349419
 30
0.0
 10
110.035565470696
 20
225.8527933617029
 30
0.0
 10
108.7777543903216
 20
225.0071541448645
 30
0.0
 10
107.6878267217309
 20
223.9514640533415
 30
0.0
 10
106.8364614906896
 20
222.7388714444771
 30
0.0
 10
106.2345821871881
 20
221.5543384873109
 30
0.0
 10
105.7912554160925
 20
220.2635292875576
 30
0.0
 10
105.4743950528294
 20
218.8137774455728
 30
0.0
 10
105.257686320581
 20
217.2381826870425
 30
0.0
 10
105.1024516965185
 20
215.561085765925
 30
0.0
 10
104.962924132515
 20
213.6544284966865
 30
0.0
 10
104.8427228304146
 20
211.6657961263051
 30
0.0
 10
104.7401267489489
 20
209.6836036560004
 30
0.0
 10
104.6545539965096
 20
207.7962237537182
 30
0.0
 10
104.579042500657
 20
205.9497722845977
 30
0.0
 10
104.5075801141151
 20
204.0566727926511
 30
0.0
 10
104.429699603142
 20
201.81267695469
 30
0.0
 10
104.3437371835757
 20
199.0984066932864
 30
0.0
 10
104.2511353469602
 20
195.8797151466657
 30
0.0
 10
104.1566981537232
 20
192.2669126776686
 30
0.0
 10
104.0563997073732
 20
188.0880108265526
 30
0.0
 10
103.957094342996
 20
183.6079174402366
 30
0.0
 10
103.8604255946826
 20
179.0101973906918
 30
0.0
 10
103.7737098347559
 20
174.8050189854257
 30
0.0
 10
103.6956881843737
 20
170.9355149410877
 30
0.0
 10
103.6244057552412
 20
167.3157189773183
 30
0.0
 10
103.5636131729001
 20
164.1527266766421
 30
0.0
 10
103.5114029836273
 20
161.3791468979374
 30
0.0
 10
103.4626227519387
 20
158.7442406970166
 30
0.0
 10
103.4087784093615
 20
155.7801404594327
 30
0.0
 10
103.3571308443967
 20
152.8800403283223
 30
0.0
 10
103.3096114978093
 20
150.1836761945517
 30
0.0
 10
103.2676225065067
 20
147.7936354439982
 30
0.0
 10
103.2269383162145
 20
145.5177762607954
 30
0.0
 10
103.1937862426261
 20
143.7116606645259
 30
0.0
 10
103.1765812527808
 20
142.9063355256833
 30
0.0
 10
103.1700795447795
 20
142.6020058547006
 30
0.0
  0
LINE
  5
7E
330
1F
100
AcDbEntity
  8
0
  6
Continuous
 62
     7
370
    30
100
AcDbLine
 10
117.2403522232888
 20
127.6851751585351
 30
0.0
 11
120.8790798137305
 21
127.6851751585351
 31
0.0
  0
LINE
  5
7F
330
1F
100
AcDbEntity
  8
0
  6
Continuous
 62
     7
370
    30
100
AcDbLine
 10
123.079078870487
 20
127.6851751585351
 30
0.0
 11
123.5510657007216
 21
127.6851751585351
 31
0.0
  0
LINE
  5
80
330
1F
100
AcDbEntity
  8
0
  6
Continuous
 62
     7
370
    30
100
AcDbLine
 10
123.5510657007216
 20
230.5351736699091
 30
0.0
 11
123.079078870487
 21
230.5351736699091
 31
0.0
  0
LINE
  5
81
330
1F
100
AcDbEntity
  8
0
  6
Continuous
 62
     7
370
    30
100
AcDbLine
 10
120.8790798137305
 20
230.5351736699091
 30
0.0
 11
120.4488618696449
 21
230.5351736699091
 31
0.0
  0
LINE
  5
82
330
1F
100
AcDbEntity
  8
0
  6
Continuous
 62
     7
370
    30
100
AcDbLine
 10
125.4061168456791
 20
259.41018189535
 30
0.0
 11
125.4061168456791
 21
266.5601762686716
 31
0.0
  0
LINE
  5
83
330
1F
100
AcDbEntity
  8
0
  6
Continuous
 62
     7
370
    30
100
AcDbLine
 10
92.4061179558156
 20
266.5601762686716
 30
0.0
 11
92.4061179558156
 21
259.41018189535
 31
0.0
  0
LINE
  5
84
330
1F
100
AcDbEntity
  8
0
  6
Continuous
 62
     7
370
    30
100
AcDbLine
 10
92.4061179558156
 20
93.31017534479959
 30
0.0
 11
92.4061179558156
 21
86.16017538354261
 31
0.0
  0
LINE
  5
85
330
1F
100
AcDbEntity
  8
0
  6
Continuous
 62
     7
370
    30
100
AcDbLine
 10
125.4061168456791
 20
86.16017538354261
 30
0.0
 11
125.4061168456791
 21
93.31017534479959
 31
0.0
  0
SPLINE
  5
86
330
1F
100
AcDbEntity
  8
0
  6
Continuous
 62
     7
370
    30
100
AcDbSpline
210
0.0
220
0.0
230
1.0
 70
     8
 71
     3
 72
     9
 73
     5
 74
     0
 42
0.000000001
 43
0.00000001
 40
0.0
 40
0.0
 40
0.0
 40
0.0
 40
0.7005319289359522
 40
1.0
 40
1.0
 40
1.0
 40
1.0
 10
120.2207958722828
 20
119.6944803208904
 30
0.0
 10
119.5094478812422
 20
121.5585257215654
 30
0.0
 10
118.4940080966188
 20
124.2194257086744
 30
0.0
 10
117.5735960079016
 20
126.9143769134817
 30
0.0
 10
117.2979619751094
 20
127.7214287523971
 30
0.0
  0
SPLINE
  5
87
330
1F
100
AcDbEntity
  8
0
  6
Continuous
 62
     7
370
    30
100
AcDbSpline
210
0.0
220
0.0
230
1.0
 70
     8
 71
     3
 72
    10
 73
     6
 74
     0
 42
0.000000001
 43
0.00000001
 40
0.0
 40
0.0
 40
0.0
 40
0.0
 40
0.2587878893651568
 40
0.6817753997463193
 40
1.0
 40
1.0
 40
1.0
 40
1.0
 10
120.4865869531749
 20
117.4602030054526
 30
0.0
 10
120.5083814480869
 20
117.655078582235
 30
0.0
 10
120.5657989358887
 20
118.1684773142527
 30
0.0
 10
120.4644168997103
 20
118.930374836156
 30
0.0
 10
120.2799545991188
 20
119.4601553322999
 30
0.0
 10
120.2007593984125
 20
119.6876059961365
 30
0.0
  0
LINE
  5
88
330
1F
100
AcDbEntity
  8
0
  6
Continuous
 62
     7
370
    30
100
AcDbLine
 10
97.2466065014122
 20
240.0428446684824
 30
0.0
 11
97.22961824632864
 21
239.1755076800333
 31
0.0
  0
LINE
  5
89
330
1F
100
AcDbEntity
  8
0
  6
Continuous
 62
     7
370
    30
100
AcDbLine
 10
120.6215951988814
 20
239.6101745520578
 30
0.0
 11
119.5931077400563
 21
250.6101819430338
 31
0.0
  0
LWPOLYLINE
  5
8A
330
1F
100
AcDbEntity
  8
0
  6
Continuous
 62
     7
370
    30
100
AcDbPolyline
 90
        3
 70
   128
 43
0.0
 10
98.219478170049
 20
250.6101819430338
 10
97.70538624621611
 20
245.1101782475458
 10
97.2318431759594
 20
240.0439920578943
  0
LWPOLYLINE
  5
8B
330
1F
100
AcDbEntity
  8
0
  6
Continuous
 62
     7
370
    30
100
AcDbPolyline
 90
        3
 70
   128
 43
0.0
 10
97.34194599337559
 20
116.9998187082679
 10
97.96252534039002
 20
110.3601752524124
 10
98.73361852265577
 20
102.1101752971159
  0
LWPOLYLINE
  5
8C
330
1F
100
AcDbEntity
  8
0
  6
Continuous
 62
     7
370
    30
100
AcDbPolyline
 90
        3
 70
   128
 43
0.0
 10
119.0787718097089
 20
102.1101752971159
 10
119.8500102782963
 20
110.3601752524124
 10
120.5135366345165
 20
117.4579696939187
  0
SPLINE
  5
8D
330
1F
100
AcDbEntity
  8
0
  6
Continuous
 62
     7
370
    30
100
AcDbSpline
210
0.0
220
0.0
230
1.0
 70
     8
 71
     3
 72
    24
 73
    20
 74
     0
 42
0.000000001
 43
0.00000001
 40
0.0
 40
0.0
 40
0.0
 40
0.0
 40
0.0803466154226329
 40
0.1606139879184264
 40
0.2342959380990798
 40
0.3013571151433563
 40
0.3620840526449531
 40
0.4294942697523657
 40
0.4844449438066291
 40
0.5324558795079248
 40
0.5794310248317092
 40
0.6433995514256078
 40
0.711865056800368
 40
0.7795964192379581
 40
0.8275683457165369
 40
0.8732252681339628
 40
0.9087431461969545
 40
0.9529109591079379
 40
1.0
 40
1.0
 40
1.0
 40
1.0
 10
97.224754879844
 20
239.1752618108736
 30
0.0
 10
97.36332313050595
 20
237.3574708583207
 30
0.0
 10
97.64032296703452
 20
233.723681773917
 30
0.0
 10
98.04516473162276
 20
228.7055068401166
 30
0.0
 10
98.42735796885229
 20
224.1900856834631
 30
0.0
 10
98.77602834713986
 20
220.2966976856316
 30
0.0
 10
99.1136235281615
 20
216.7347882138382
 30
0.0
 10
99.420437385493
 20
213.5845014756798
 30
0.0
 10
99.71582795358051
 20
210.8905277627708
 30
0.0
 10
99.99518042092429
 20
208.7375974180497
 30
0.0
 10
100.3075587909856
 20
206.1921031556027
 30
0.0
 10
100.6650499860957
 20
203.044635320388
 30
0.0
 10
101.0433067204267
 20
199.1266641442628
 30
0.0
 10
101.3938238943934
 20
195.2075011809706
 30
0.0
 10
101.7010222572939
 20
191.5744570577323
 30
0.0
 10
101.947206503527
 20
188.563182094896
 30
0.0
 10
102.1861643054625
 20
185.5741157759452
 30
0.0
 10
102.427828438598
 20
182.5026346215673
 30
0.0
 10
102.6015899943467
 20
180.2643540093567
 30
0.0
 10
102.6912519174037
 20
179.1093888436304
 30
0.0
  0
SPLINE
  5
8E
330
1F
100
AcDbEntity
  8
0
  6
Continuous
 62
     7
370
    30
100
AcDbSpline
210
0.0
220
0.0
230
1.0
 70
     8
 71
     3
 72
     9
 73
     5
 74
     0
 42
0.000000001
 43
0.00000001
 40
0.0
 40
0.0
 40
0.0
 40
0.0
 40
0.4233283087600627
 40
1.0
 40
1.0
 40
1.0
 40
1.0
 10
121.3295689249752
 20
230.5776866827951
 30
0.0
 10
121.2295052820492
 20
231.8076805214401
 30
0.0
 10
120.9931316664527
 20
234.7132122640434
 30
0.0
 10
120.7572286595314
 20
237.8190981090307
 30
0.0
 10
120.6211900735615
 20
239.6101745520578
 30
0.0
  0
SPLINE
  5
8F
330
1F
100
AcDbEntity
  8
0
  6
Continuous
 62
     7
370
    30
100
AcDbSpline
210
0.0
220
0.0
230
1.0
 70
     8
 71
     3
 72
    16
 73
    12
 74
     0
 42
0.000000001
 43
0.00000001
 40
0.0
 40
0.0
 40
0.0
 40
0.0
 40
0.1019595047197758
 40
0.1398212503429703
 40
0.1623802983336324
 40
0.1812978225398511
 40
0.2016521025939983
 40
0.2723290435544525
 40
0.3766407738784799
 40
0.5393069702383486
 40
1.0
 40
1.0
 40
1.0
 40
1.0
 10
95.50548870362024
 20
121.2360494513856
 30
0.0
 10
95.5051078462853
 20
121.2373997207033
 30
0.0
 10
95.50458556100232
 20
121.2392514003954
 30
0.0
 10
95.50689134773265
 20
121.2311097430629
 30
0.0
 10
95.51276609712517
 20
121.2106095439331
 30
0.0
 10
95.52088045762581
 20
121.1827767763705
 30
0.0
 10
95.5420705927631
 20
121.1119134513198
 30
0.0
 10
95.58732317260257
 20
120.9705316916762
 30
0.0
 10
95.67293756528936
 20
120.7370538407465
 30
0.0
 10
95.88541752593679
 20
120.2376192175361
 30
0.0
 10
96.14729255259736
 20
119.8541345556298
 30
0.0
 10
96.340831036341
 20
119.57072058924
 30
0.0
  0
SPLINE
  5
90
330
1F
100
AcDbEntity
  8
0
  6
Continuous
 62
     7
370
    30
100
AcDbSpline
210
0.0
220
0.0
230
1.0
 70
     8
 71
     3
 72
    11
 73
     7
 74
     0
 42
0.000000001
 43
0.00000001
 40
0.0
 40
0.0
 40
0.0
 40
0.0
 40
0.2484327571015556
 40
0.567673581954572
 40
0.9219778288850117
 40
1.0
 40
1.0
 40
1.0
 40
1.0
 10
96.31871212519388
 20
119.5548706431733
 30
0.0
 10
96.46028692877428
 20
119.3710987629123
 30
0.0
 10
96.78378805157567
 20
118.9511765161546
 30
0.0
 10
97.11114322395726
 20
118.1536223205179
 30
0.0
 10
97.31613586516032
 20
117.4747276165459
 30
0.0
 10
97.32301813153059
 20
117.0722442587893
 30
0.0
 10
97.32426017768364
 20
116.9996078801201
 30
0.0
  0
LINE
  5
91
330
1F
100
AcDbEntity
  8
0
  6
Continuous
 62
     7
370
    30
100
AcDbLine
 10
125.2790788585661
 20
212.1101784263597
 30
0.0
 11
131.8790788228033
 21
212.1101784263597
 31
0.0
  0
LINE
  5
92
330
1F
100
AcDbEntity
  8
0
  6
Continuous
 62
     7
370
    30
100
AcDbLine
 10
131.8790788228033
 20
223.1101783667551
 30
0.0
 11
125.2790788585661
 21
223.1101783667551
 31
0.0
  0
LINE
  5
93
330
1F
100
AcDbEntity
  8
0
  6
Continuous
 62
     7
370
    30
100
AcDbLine
 10
125.2790788585661
 20
135.1101751183019
 30
0.0
 11
131.8790788228033
 21
135.1101751183019
 31
0.0
  0
LINE
  5
94
330
1F
100
AcDbEntity
  8
0
  6
Continuous
 62
     7
370
    30
100
AcDbLine
 10
131.8790788228033
 20
146.1101750586973
 30
0.0
 11
125.2790788585661
 21
146.1101750586973
 31
0.0
  0
LINE
  5
95
330
1F
100
AcDbEntity
  8
0
  6
Continuous
 62
     7
370
    30
100
AcDbLine
 10
220.4290802056311
 20
137.8601751034008
 30
0.0
 11
222.6290801937101
 21
140.0601750914798
 31
0.0
  0
LINE
  5
96
330
1F
100
AcDbEntity
  8
0
  6
Continuous
 62
     7
370
    30
100
AcDbLine
 10
222.6290801937101
 20
218.160176530932
 30
0.0
 11
220.4290802056311
 21
220.3601765190111
 31
0.0
  0
LINE
  5
97
330
1F
100
AcDbEntity
  8
0
  6
Continuous
 62
     7
370
    30
100
AcDbLine
 10
131.8790788228033
 20
137.8601751034008
 30
0.0
 11
167.203577833843
 21
137.8601751034008
 31
0.0
  0
LINE
  5
98
330
1F
100
AcDbEntity
  8
0
  6
Continuous
 62
     7
370
    30
100
AcDbLine
 10
180.7635749155996
 20
137.8601751034008
 30
0.0
 11
220.4290802056311
 21
137.8601751034008
 31
0.0
  0
LINE
  5
99
330
1F
100
AcDbEntity
  8
0
  6
Continuous
 62
     7
370
    30
100
AcDbLine
 10
220.4290802056311
 20
220.3601765190111
 30
0.0
 11
131.8790788228033
 21
220.3601765190111
 31
0.0
  0
LINE
  5
9A
330
1F
100
AcDbEntity
  8
0
  6
Continuous
 62
     7
370
    30
100
AcDbLine
 10
123.079078870487
 20
230.5351736699091
 30
0.0
 11
120.8790798137305
 21
230.5351736699091
 31
0.0
  0
LINE
  5
9B
330
1F
100
AcDbEntity
  8
0
  6
Continuous
 62
     7
370
    30
100
AcDbLine
 10
125.2790788585661
 20
228.33517368183
 30
0.0
 11
123.5510657007216
 21
230.0631868396745
 31
0.0
  0
LINE
  5
9C
330
1F
100
AcDbEntity
  8
0
  6
Continuous
 62
     7
370
    30
100
AcDbLine
 10
123.0805969262836
 20
230.5336537514673
 30
0.0
 11
123.079078870487
 21
230.5351736699091
 31
0.0
  0
LINE
  5
9D
330
1F
100
AcDbEntity
  8
0
  6
Continuous
 62
     7
370
    30
100
AcDbLine
 10
123.079078870487
 20
127.6851751585351
 30
0.0
 11
123.0805969262836
 21
127.6866932143317
 31
0.0
  0
LINE
  5
9E
330
1F
100
AcDbEntity
  8
0
  6
Continuous
 62
     7
370
    30
100
AcDbLine
 10
123.5510657007216
 20
128.157161057447
 30
0.0
 11
125.2790788585661
 21
129.8851751466141
 31
0.0
  0
LINE
  5
9F
330
1F
100
AcDbEntity
  8
0
  6
Continuous
 62
     7
370
    30
100
AcDbLine
 10
120.8790798137305
 20
127.6851751585351
 30
0.0
 11
123.079078870487
 21
127.6851751585351
 31
0.0
  0
LINE
  5
A0
330
1F
100
AcDbEntity
  8
0
  6
Continuous
 62
     7
370
    30
100
AcDbLine
 10
165.8835770959375
 20
130.3901754994736
 30
0.0
 11
165.8835770959375
 21
129.310175657724
 31
0.0
  0
LINE
  5
A1
330
1F
100
AcDbEntity
  8
0
  6
Continuous
 62
     7
370
    30
100
AcDbLine
 10
182.0835793787954
 20
129.310175657724
 30
0.0
 11
182.0835793787954
 21
130.3901754994736
 31
0.0
  0
ARC
  5
A2
330
1F
100
AcDbEntity
  8
0
  6
Continuous
 62
     7
370
    30
100
AcDbCircle
 10
178.4835769538426
 20
129.3101752721229
 30
0.0
 40
3.600000000000023
100
AcDbArc
 50
270.0000000000008
 51
0.0
  0
ARC
  5
A3
330
1F
100
AcDbEntity
  8
0
  6
Continuous
 62
     7
370
    30
100
AcDbCircle
 10
169.4835769538426
 20
129.3101752721229
 30
0.0
 40
3.599999999999994
100
AcDbArc
 50
180.0
 51
270.0000000000008
  0
LINE
  5
A4
330
1F
100
AcDbEntity
  8
0
  6
Continuous
 62
     7
370
    30
100
AcDbLine
 10
167.203577833843
 20
142.5101755861984
 30
0.0
 11
167.203577833843
 21
136.8701754812942
 31
0.0
  0
LINE
  5
A5
330
1F
100
AcDbEntity
  8
0
  6
Continuous
 62
     7
370
    30
100
AcDbLine
 10
180.7635749155996
 20
136.8701754812942
 30
0.0
 11
180.7635749155996
 21
142.5101755861984
 31
0.0
  0
LINE
  5
A6
330
1F
100
AcDbEntity
  8
0
  6
Continuous
 62
     7
370
    30
100
AcDbLine
 10
178.3389697248457
 20
143.110174566959
 30
0.0
 11
178.3564636880873
 21
143.110174566959
 31
0.0
  0
LINE
  5
A7
330
1F
100
AcDbEntity
  8
0
  6
Continuous
 62
     7
370
    30
100
AcDbLine
 10
178.3564636880873
 20
145.5101760779367
 30
0.0
 11
178.3389697248457
 21
145.5101760779367
 31
0.0
  0
ARC
  5
A8
330
1F
100
AcDbEntity
  8
0
  6
Continuous
 62
     7
370
    30
100
AcDbCircle
 10
67.10611777228631
 20
179.1101752721229
 30
0.0
 40
51.424999921912
100
AcDbArc
 50
336.8948306346725
 51
344.2735755400428
  0
LINE
  5
A9
330
1F
100
AcDbEntity
  8
0
  6
Continuous
 62
     7
370
    30
100
AcDbLine
 10
114.4061178366063
 20
199.2903816257463
 30
0.0
 11
114.4061178366063
 21
158.9299718593107
 31
0.0
  0
ARC
  5
AA
330
1F
100
AcDbEntity
  8
0
  6
Continuous
 62
     7
370
    30
100
AcDbCircle
 10
67.10611777228662
 20
179.1101752721229
 30
0.0
 40
51.42499992191171
100
AcDbArc
 50
15.72642445995814
 51
23.1051693653284
  0
LINE
  5
AB
330
1F
100
AcDbEntity
  8
0
  6
Continuous
 62
     7
370
    30
100
AcDbLine
 10
123.5510657007216
 20
193.0486353789316
 30
0.0
 11
123.4742148245094
 21
193.0486353789316
 31
0.0
  0
LINE
  5
AC
330
1F
100
AcDbEntity
  8
0
  6
Continuous
 62
     7
370
    30
100
AcDbLine
 10
120.8790798137305
 20
193.0486353789316
 30
0.0
 11
116.6061178246854
 21
193.0486353789316
 31
0.0
  0
LINE
  5
AD
330
1F
100
AcDbEntity
  8
0
  6
Continuous
 62
     7
370
    30
100
AcDbLine
 10
123.5510657007216
 20
165.1717181061254
 30
0.0
 11
123.4742148245094
 21
165.1717181061254
 31
0.0
  0
LINE
  5
AE
330
1F
100
AcDbEntity
  8
0
  6
Continuous
 62
     7
370
    30
100
AcDbLine
 10
120.8790798137305
 20
165.1717181061254
 30
0.0
 11
116.6061178246854
 21
165.1717181061254
 31
0.0
  0
LINE
  5
AF
330
1F
100
AcDbEntity
  8
0
  6
Continuous
 62
     7
370
    30
100
AcDbLine
 10
123.5510657007216
 20
193.0486353789316
 30
0.0
 11
123.5510657007216
 21
165.1717181061254
 31
0.0
  0
SPLINE
  5
B0
330
1F
100
AcDbEntity
  8
0
  6
Continuous
 62
     7
370
    30
100
AcDbSpline
210
0.0
220
0.0
230
1.0
 70
     8
 71
     3
 72
    14
 73
    10
 74
     0
 42
0.000000001
 43
0.00000001
 40
0.0
 40
0.0
 40
0.0
 40
0.0
 40
0.1400978736587296
 40
0.3175535147546439
 40
0.5259815582194096
 40
0.6178331681135728
 40
0.7679142330447752
 40
0.9183997689026059
 40
1.0
 40
1.0
 40
1.0
 40
1.0
 10
105.9047284234656
 20
220.5207216297136
 30
0.0
 10
106.0150386480287
 20
220.9816541150135
 30
0.0
 10
106.2650738456273
 20
222.0264289352805
 30
0.0
 10
107.1793306258479
 20
223.6250088114752
 30
0.0
 10
108.429651706456
 20
224.938641648423
 30
0.0
 10
109.9549574327798
 20
225.9652967422815
 30
0.0
 10
111.5058806434854
 20
226.6747220959053
 30
0.0
 10
113.1471821869624
 20
227.0654952313277
 30
0.0
 10
114.078626521771
 20
227.1253016074187
 30
0.0
 10
114.4061178366063
 20
227.1463292394624
 30
0.0
  0
SPLINE
  5
B1
330
1F
100
AcDbEntity
  8
0
  6
Continuous
 62
     7
370
    30
100
AcDbSpline
210
0.0
220
0.0
230
1.0
 70
     8
 71
     3
 72
    17
 73
    13
 74
     0
 42
0.000000001
 43
0.00000001
 40
0.0
 40
0.0
 40
0.0
 40
0.0
 40
0.1323024306227683
 40
0.2171637153232178
 40
0.3042784674302642
 40
0.3929386168105736
 40
0.4834882776409014
 40
0.5862519531621974
 40
0.6918714811363225
 40
0.7967399425689992
 40
0.9044450492191355
 40
1.0
 40
1.0
 40
1.0
 40
1.0
 10
114.4061178366063
 20
129.158299297546
 30
0.0
 10
113.7704801176298
 20
129.3046142029969
 30
0.0
 10
112.7271323272471
 20
129.5447782598878
 30
0.0
 10
110.9261776770503
 20
130.1876239087201
 30
0.0
 10
109.4392817387287
 20
130.9370027053913
 30
0.0
 10
107.995890827973
 20
131.9181125679409
 30
0.0
 10
106.6123829178675
 20
133.1726035442424
 30
0.0
 10
105.3563547982461
 20
134.7231097510371
 30
0.0
 10
104.31868974079
 20
136.5488259007019
 30
0.0
 10
103.5921545516224
 20
138.5555894042128
 30
0.0
 10
103.1779538572972
 20
140.5921208385612
 30
0.0
 10
103.186328168008
 20
141.959663149976
 30
0.0
 10
103.1902650302617
 20
142.6025609229551
 30
0.0
  0
LINE
  5
B2
330
1F
100
AcDbEntity
  8
0
  6
Continuous
 62
     7
370
    30
100
AcDbLine
 10
123.5510657007216
 20
129.6101751481042
 30
0.0
 11
123.079078870487
 21
129.6101751481042
 31
0.0
  0
LINE
  5
B3
330
1F
100
AcDbEntity
  8
0
  6
Continuous
 62
     7
370
    30
100
AcDbLine
 10
120.8790798137305
 20
129.6101751481042
 30
0.0
 11
116.6061178246854
 21
129.6101751481042
 31
0.0
  0
LINE
  5
B4
330
1F
100
AcDbEntity
  8
0
  6
Continuous
 62
     7
370
    30
100
AcDbLine
 10
116.6061178246854
 20
140.6101750884996
 30
0.0
 11
116.6061178246854
 21
129.6101751481042
 31
0.0
  0
LINE
  5
B5
330
1F
100
AcDbEntity
  8
0
  6
Continuous
 62
     7
370
    30
100
AcDbLine
 10
123.5510657007216
 20
140.6101750884996
 30
0.0
 11
123.5510657007216
 21
129.6101751481042
 31
0.0
  0
LINE
  5
B6
330
1F
100
AcDbEntity
  8
0
  6
Continuous
 62
     7
370
    30
100
AcDbLine
 10
116.6061178246854
 20
165.1717181061254
 30
0.0
 11
116.6061178246854
 21
140.6101750884996
 31
0.0
  0
LINE
  5
B7
330
1F
100
AcDbEntity
  8
0
  6
Continuous
 62
     7
370
    30
100
AcDbLine
 10
123.5510657007216
 20
165.1717181061254
 30
0.0
 11
123.5510657007216
 21
140.6101750884996
 31
0.0
  0
LINE
  5
B8
330
1F
100
AcDbEntity
  8
0
  6
Continuous
 62
     7
370
    30
100
AcDbLine
 10
114.4061178366063
 20
140.6101750884996
 30
0.0
 11
116.6061178246854
 21
140.6101750884996
 31
0.0
  0
LINE
  5
B9
330
1F
100
AcDbEntity
  8
0
  6
Continuous
 62
     7
370
    30
100
AcDbLine
 10
114.4061178366063
 20
140.6101750884996
 30
0.0
 11
114.4061178366063
 21
158.9299718593107
 31
0.0
  0
LINE
  5
BA
330
1F
100
AcDbEntity
  8
0
  6
Continuous
 62
     7
370
    30
100
AcDbLine
 10
116.6061178246854
 20
228.6101746116624
 30
0.0
 11
116.6061178246854
 21
217.6101746712671
 31
0.0
  0
LINE
  5
BB
330
1F
100
AcDbEntity
  8
0
  6
Continuous
 62
     7
370
    30
100
AcDbLine
 10
116.6061178246854
 20
228.6101746116624
 30
0.0
 11
120.8790798137305
 21
228.6101746116624
 31
0.0
  0
LINE
  5
BC
330
1F
100
AcDbEntity
  8
0
  6
Continuous
 62
     7
370
    30
100
AcDbLine
 10
123.079078870487
 20
228.6101746116624
 30
0.0
 11
123.5510657007216
 21
228.6101746116624
 31
0.0
  0
LINE
  5
BD
330
1F
100
AcDbEntity
  8
0
  6
Continuous
 62
     7
370
    30
100
AcDbLine
 10
123.5510657007216
 20
228.6101746116624
 30
0.0
 11
123.5510657007216
 21
217.6101746712671
 31
0.0
  0
LINE
  5
BE
330
1F
100
AcDbEntity
  8
0
  6
Continuous
 62
     7
370
    30
100
AcDbLine
 10
116.6061178246854
 20
217.6101746712671
 30
0.0
 11
116.6061178246854
 21
193.0486353789316
 31
0.0
  0
LINE
  5
BF
330
1F
100
AcDbEntity
  8
0
  6
Continuous
 62
     7
370
    30
100
AcDbLine
 10
123.5510657007216
 20
217.6101746712671
 30
0.0
 11
123.5510657007216
 21
193.0486353789316
 31
0.0
  0
LINE
  5
C0
330
1F
100
AcDbEntity
  8
0
  6
Continuous
 62
     7
370
    30
100
AcDbLine
 10
114.4061178366063
 20
226.4101746235834
 30
0.0
 11
116.6061178246854
 21
228.6101746116624
 31
0.0
  0
LINE
  5
C1
330
1F
100
AcDbEntity
  8
0
  6
Continuous
 62
     7
370
    30
100
AcDbLine
 10
114.4061178366063
 20
217.6101746712671
 30
0.0
 11
116.6061178246854
 21
217.6101746712671
 31
0.0
  0
LINE
  5
C2
330
1F
100
AcDbEntity
  8
0
  6
Continuous
 62
     7
370
    30
100
AcDbLine
 10
114.4061178366063
 20
217.6101746712671
 30
0.0
 11
114.4061178366063
 21
226.4101746235834
 31
0.0
  0
LINE
  5
C3
330
1F
100
AcDbEntity
  8
0
  6
Continuous
 62
     7
370
    30
100
AcDbLine
 10
114.4061178366063
 20
199.2903816257463
 30
0.0
 11
114.4061178366063
 21
217.6101746712671
 31
0.0
  0
LINE
  5
C4
330
1F
100
AcDbEntity
  8
0
  6
Continuous
 62
     7
370
    30
100
AcDbLine
 10
114.4061178366063
 20
131.8101751361833
 30
0.0
 11
116.6061178246854
 21
129.6101751481042
 31
0.0
  0
LINE
  5
C5
330
1F
100
AcDbEntity
  8
0
  6
Continuous
 62
     7
370
    30
100
AcDbLine
 10
114.4061178366063
 20
131.8101751361833
 30
0.0
 11
114.4061178366063
 21
140.6101750884996
 31
0.0
  0
SPLINE
  5
C6
330
1F
100
AcDbEntity
  8
0
  6
Continuous
 62
     7
370
    30
100
AcDbSpline
210
0.0
220
0.0
230
1.0
 70
     8
 71
     3
 72
    12
 73
     8
 74
     0
 42
0.000000001
 43
0.00000001
 40
0.0
 40
0.0
 40
0.0
 40
0.0
 40
0.1880835723401741
 40
0.3970716938775219
 40
0.6117788233404464
 40
0.8319642022730394
 40
1.0
 40
1.0
 40
1.0
 40
1.0
 10
114.4062868716536
 20
128.4744645212637
 30
0.0
 10
114.7896757472169
 20
128.3953733901132
 30
0.0
 10
115.599065256038
 20
128.2284005438095
 30
0.0
 10
116.3496544146608
 20
127.9888200651285
 30
0.0
 10
116.9168267462851
 20
127.8083187052447
 30
0.0
 10
117.2613349049332
 20
127.6962735291927
 30
0.0
 10
117.2466907355429
 20
127.6993494020014
 30
0.0
 10
117.2403522232888
 20
127.7006807480798
 30
0.0
  0
LINE
  5
C7
330
1F
100
AcDbEntity
  8
0
  6
Continuous
 62
     7
370
    30
100
AcDbLine
 10
114.4061178366063
 20
131.8101751361833
 30
0.0
 11
114.4061178366063
 21
128.474450551425
 31
0.0
  0
LINE
  5
C8
330
1F
100
AcDbEntity
  8
0
  6
Continuous
 62
     7
370
    30
100
AcDbLine
 10
123.5510657007216
 20
129.6101751481042
 30
0.0
 11
123.5510657007216
 21
127.6851751585351
 31
0.0
  0
SPLINE
  5
C9
330
1F
100
AcDbEntity
  8
0
  6
Continuous
 62
     7
370
    30
100
AcDbSpline
210
0.0
220
0.0
230
1.0
 70
     8
 71
     3
 72
    12
 73
     8
 74
     0
 42
0.000000001
 43
0.00000001
 40
0.0
 40
0.0
 40
0.0
 40
0.0
 40
0.032537946843555
 40
0.3050038212295983
 40
0.5310992434910233
 40
0.7649440794785713
 40
1.0
 40
1.0
 40
1.0
 40
1.0
 10
120.4488618696449
 20
230.5295335803972
 30
0.0
 10
120.42119488547
 20
230.5313524567425
 30
0.0
 10
120.1618504364842
 20
230.5484022183122
 30
0.0
 10
119.3174821575525
 20
230.4841847491306
 30
0.0
 10
117.9345006680744
 20
230.3739738325102
 30
0.0
 10
116.3172335921086
 20
230.2346998119521
 30
0.0
 10
115.0442523806632
 20
230.1513792761137
 30
0.0
 10
114.4061178366063
 20
230.109611407374
 30
0.0
  0
LINE
  5
CA
330
1F
100
AcDbEntity
  8
0
  6
Continuous
 62
     7
370
    30
100
AcDbLine
 10
114.4061178366063
 20
230.109611407374
 30
0.0
 11
114.4061178366063
 21
226.4101746235834
 31
0.0
  0
LINE
  5
CB
330
1F
100
AcDbEntity
  8
0
  6
Continuous
 62
     7
370
    30
100
AcDbLine
 10
123.5510657007216
 20
230.5351736699091
 30
0.0
 11
123.5510657007216
 21
228.6101746116624
 31
0.0
  0
LINE
  5
CC
330
1F
100
AcDbEntity
  8
0
  6
Continuous
 62
     7
370
    30
100
AcDbLine
 10
125.4061168456791
 20
259.41018189535
 30
0.0
 11
92.4061179558156
 21
259.41018189535
 31
0.0
  0
LINE
  5
CD
330
1F
100
AcDbEntity
  8
0
  6
Continuous
 62
     7
370
    30
100
AcDbLine
 10
125.4061168456791
 20
266.5601762686716
 30
0.0
 11
92.4061179558156
 21
266.5601762686716
 31
0.0
  0
LINE
  5
CE
330
1F
100
AcDbEntity
  8
0
  6
Continuous
 62
     7
370
    30
100
AcDbLine
 10
108.906117633578
 20
93.31017534479959
 30
0.0
 11
125.4061168456791
 21
93.31017534479959
 31
0.0
  0
LINE
  5
CF
330
1F
100
AcDbEntity
  8
0
  6
Continuous
 62
     7
370
    30
100
AcDbLine
 10
92.4061179558156
 20
93.31017534479959
 30
0.0
 11
108.906117633578
 21
93.31017534479959
 31
0.0
  0
LINE
  5
D0
330
1F
100
AcDbEntity
  8
0
  6
Continuous
 62
     7
370
    30
100
AcDbLine
 10
108.906117633578
 20
86.16017538354261
 30
0.0
 11
125.4061168456791
 21
86.16017538354261
 31
0.0
  0
LINE
  5
D1
330
1F
100
AcDbEntity
  8
0
  6
Continuous
 62
     7
370
    30
100
AcDbLine
 10
92.4061179558156
 20
86.16017538354261
 30
0.0
 11
108.906117633578
 21
86.16017538354261
 31
0.0
  0
SPLINE
  5
D2
330
1F
100
AcDbEntity
  8
0
  6
Continuous
 62
     7
370
    30
100
AcDbSpline
210
0.0
220
0.0
230
1.0
 70
     8
 71
     3
 72
    13
 73
     9
 74
     0
 42
0.000000001
 43
0.00000001
 40
0.0
 40
0.0
 40
0.0
 40
0.0
 40
0.0000115353543074
 40
0.0474828496934228
 40
0.4449324858551384
 40
0.8423014038488552
 40
0.999988440468801
 40
1.0
 40
1.0
 40
1.0
 40
1.0
 10
115.6377304742454
 20
119.1894524940149
 30
0.0
 10
115.6377466171805
 20
119.1894533477223
 30
0.0
 10
115.7041956002465
 20
119.192967453827
 30
0.0
 10
116.321838498883
 20
119.2282700954984
 30
0.0
 10
117.3954888984597
 20
119.3144200437243
 30
0.0
 10
118.3727301333202
 20
119.4365102297286
 30
0.0
 10
118.8236851461311
 20
119.5138143927521
 30
0.0
 10
118.9422684808463
 20
119.5349900106152
 30
0.0
 10
118.9422771731732
 20
119.5349915628181
 30
0.0
  0
SPLINE
  5
D3
330
1F
100
AcDbEntity
  8
0
  6
Continuous
 62
     7
370
    30
100
AcDbSpline
210
0.0
220
0.0
230
1.0
 70
     8
 71
     3
 72
    15
 73
    11
 74
     0
 42
0.000000001
 43
0.00000001
 40
0.0
 40
0.0
 40
0.0
 40
0.0
 40
0.0045353991827762
 40
0.006626461352412
 40
0.1547610079593595
 40
0.244614239784602
 40
0.5218518042190547
 40
0.7609021216306299
 40
0.9999918074750633
 40
1.0
 40
1.0
 40
1.0
 40
1.0
 10
108.8097521733833
 20
118.6101752077089
 30
0.0
 10
108.8207156819104
 20
118.6117295680469
 30
0.0
 10
108.8367339556308
 20
118.6140005718312
 30
0.0
 10
109.210890291428
 20
118.6668334731761
 30
0.0
 10
109.7934808145591
 20
118.7416329098788
 30
0.0
 10
111.0351982185443
 20
118.8799121722265
 30
0.0
 10
112.4757793272287
 20
119.0095528467868
 30
0.0
 10
114.1700625718006
 20
119.1225927352724
 30
0.0
 10
115.1665852819478
 20
119.1690664231316
 30
0.0
 10
115.6377143313314
 20
119.1894517955241
 30
0.0
 10
115.6377304742454
 20
119.1894524940149
 30
0.0
  0
SPLINE
  5
D4
330
1F
100
AcDbEntity
  8
0
  6
Continuous
 62
     7
370
    30
100
AcDbSpline
210
0.0
220
0.0
230
1.0
 70
     8
 71
     3
 72
    18
 73
    14
 74
     0
 42
0.000000001
 43
0.00000001
 40
0.0
 40
0.0
 40
0.0
 40
0.0
 40
0.0046571857357841
 40
0.0837447204163276
 40
0.216691038170322
 40
0.3497121359144389
 40
0.4836618042059631
 40
0.6177071755902228
 40
0.7512350812229978
 40
0.8847787912769405
 40
0.982654582892088
 40
0.9973995015685744
 40
1.0
 40
1.0
 40
1.0
 40
1.0
 10
96.59467790521364
 20
119.846795334001
 30
0.0
 10
96.60231695595468
 20
119.8464514870727
 30
0.0
 10
96.73968106484931
 20
119.8402684901923
 30
0.0
 10
97.1643807876592
 20
119.8187051687175
 30
0.0
 10
98.10130790963575
 20
119.7619898854942
 30
0.0
 10
99.49721793944238
 20
119.6594541940389
 30
0.0
 10
101.1576171376545
 20
119.5103257949368
 30
0.0
 10
103.0038172268493
 20
119.3085380539829
 30
0.0
 10
104.9718710537095
 20
119.063787198345
 30
0.0
 10
106.8322611775762
 20
118.8365430229287
 30
0.0
 10
108.1084046202421
 20
118.6891124709459
 30
0.0
 10
108.7062497739831
 20
118.6217748175562
 30
0.0
 10
108.7962577901971
 20
118.6116875357419
 30
0.0
 10
108.8097521733833
 20
118.6101752077089
 30
0.0
  0
SPLINE
  5
D5
330
1F
100
AcDbEntity
  8
0
  6
Continuous
 62
     7
370
    30
100
AcDbSpline
210
0.0
220
0.0
230
1.0
 70
     8
 71
     3
 72
    11
 73
     7
 74
     0
 42
0.000000001
 43
0.00000001
 40
0.0
 40
0.0
 40
0.0
 40
0.0
 40
0.3307461743377482
 40
0.3915541559062451
 40
0.8558570803950337
 40
1.0
 40
1.0
 40
1.0
 40
1.0
 10
95.58845930047016
 20
122.8413315233634
 30
0.0
 10
95.8095190205549
 20
122.4157934422726
 30
0.0
 10
96.07122076896047
 20
121.9120198023171
 30
0.0
 10
96.39455236498623
 20
120.9537716196756
 30
0.0
 10
96.52887478142547
 20
120.3200087003072
 30
0.0
 10
96.58207466844017
 20
119.9374296345721
 30
0.0
 10
96.59467790521364
 20
119.846795334001
 30
0.0
  0
SPLINE
  5
D6
330
1F
100
AcDbEntity
  8
0
  6
Continuous
 62
     7
370
    30
100
AcDbSpline
210
0.0
220
0.0
230
1.0
 70
     8
 71
     3
 72
    13
 73
     9
 74
     0
 42
0.000000001
 43
0.00000001
 40
0.0
 40
0.0
 40
0.0
 40
0.0
 40
0.0000045107490986
 40
0.2045653808260848
 40
0.4139296338174389
 40
0.701896776801588
 40
0.8510796929935456
 40
1.0
 40
1.0
 40
1.0
 40
1.0
 10
93.22765901930313
 20
134.5212067221151
 30
0.0
 10
93.22765839841652
 20
134.521186853898
 30
0.0
 10
93.19950078993963
 20
133.6201503935107
 30
0.0
 10
93.20369521259018
 20
131.8243302204782
 30
0.0
 10
93.4076586057886
 20
128.9401175010383
 30
0.0
 10
93.92853717809125
 20
126.4919490908995
 30
0.0
 10
94.71354691451023
 20
124.4039553678002
 30
0.0
 10
95.29699316431132
 20
123.3619001443093
 30
0.0
 10
95.58845930047016
 20
122.8413315233634
 30
0.0
  0
ARC
  5
D7
330
1F
100
AcDbEntity
  8
0
  6
Continuous
 62
     7
370
    30
100
AcDbCircle
 10
95.22664493891624
 20
123.7444410025481
 30
0.0
 40
0.9728907254259885
100
AcDbArc
 50
231.0589311005326
 51
291.8326083257032
  0
SPLINE
  5
D8
330
1F
100
AcDbEntity
  8
0
  6
Continuous
 62
     7
370
    30
100
AcDbSpline
210
0.0
220
0.0
230
1.0
 70
     8
 71
     3
 72
    22
 73
    18
 74
     0
 42
0.000000001
 43
0.00000001
 40
0.0
 40
0.0
 40
0.0
 40
0.0
 40
0.0605860803528352
 40
0.121209178066039
 40
0.2038815474866936
 40
0.286643846530573
 40
0.3722744977462749
 40
0.4579273294198177
 40
0.5236161982095038
 40
0.5895001787187429
 40
0.6551833621572009
 40
0.7226318350840992
 40
0.7903632207388629
 40
0.8578867873343236
 40
0.9262028540776037
 40
0.9947287453708875
 40
1.0
 40
1.0
 40
1.0
 40
1.0
 10
94.61516294873934
 20
122.9877335694478
 30
0.0
 10
93.87399068051204
 20
124.0201472329269
 30
0.0
 10
92.39119329678974
 20
126.0856053521134
 30
0.0
 10
90.36024909678237
 20
129.7811703858051
 30
0.0
 10
88.4917442441518
 20
134.2468255137879
 30
0.0
 10
87.07656767715272
 20
139.5087199912746
 30
0.0
 10
86.39764481833106
 20
145.0120755717119
 30
0.0
 10
86.47527864666499
 20
150.1965748767666
 30
0.0
 10
87.14537384436
 20
154.8967044986827
 30
0.0
 10
88.20495498129773
 20
159.0773910151166
 30
0.0
 10
89.71693397397192
 20
163.1588124993322
 30
0.0
 10
91.6921546649881
 20
167.0798727711961
 30
0.0
 10
94.0942389010296
 20
170.7738411889467
 30
0.0
 10
96.87124143808676
 20
174.1946974277041
 30
0.0
 10
100.0551074777587
 20
177.2467629238872
 30
0.0
 10
102.4204512155937
 20
179.2369703885336
 30
0.0
 10
103.78690351247
 20
180.0738779596532
 30
0.0
 10
103.8845078019766
 20
180.1336574111925
 30
0.0
  0
ARC
  5
D9
330
1F
100
AcDbEntity
  8
0
  6
Continuous
 62
     7
370
    30
100
AcDbCircle
 10
92.73692983490211
 20
116.4734973768596
 30
0.0
 40
5.12458381545729
100
AcDbArc
 50
5.368075546534527
 51
41.16714791477408
  0
SPLINE
  5
DA
330
1F
100
AcDbEntity
  8
0
  6
Continuous
 62
     7
370
    30
100
AcDbSpline
210
0.0
220
0.0
230
1.0
 70
     8
 71
     3
 72
    17
 73
    13
 74
     0
 42
0.000000001
 43
0.00000001
 40
0.0
 40
0.0
 40
0.0
 40
0.0
 40
0.0030631789817497
 40
0.017934143775084
 40
0.1185093479958982
 40
0.2530014251682555
 40
0.3875067487762225
 40
0.5211754380924744
 40
0.654840400947421
 40
0.7862809451517726
 40
0.9177102163381229
 40
1.0
 40
1.0
 40
1.0
 40
1.0
 10
108.8097521733833
 20
118.6101752077089
 30
0.0
 10
108.7946931690599
 20
118.6083706181518
 30
0.0
 10
108.7065264800562
 20
118.5978051994268
 30
0.0
 10
108.1241975716078
 20
118.5273008591195
 30
0.0
 10
106.8994202197554
 20
118.37168104473
 30
0.0
 10
105.1393708536888
 20
118.1084400376048
 30
0.0
 10
103.33619663368
 20
117.8043977964879
 30
0.0
 10
101.7006656320076
 20
117.5281122337216
 30
0.0
 10
100.2745440638846
 20
117.2951192898591
 30
0.0
 10
99.10526107332903
 20
117.1134731781825
 30
0.0
 10
98.30370675669592
 20
117.0005874512643
 30
0.0
 10
97.96821520827918
 20
116.9661718495199
 30
0.0
 10
97.83903848625403
 20
116.9529205630393
 30
0.0
  0
LWPOLYLINE
  5
DB
330
1F
100
AcDbEntity
  8
0
  6
Continuous
 62
     7
370
    30
100
AcDbPolyline
 90
        3
 70
   128
 43
0.0
 10
120.6148030633448
 20
239.6719100628839
 10
120.6176976139067
 20
239.641057208632
 10
120.6205921644686
 20
239.6102118049608
  0
LINE
  5
DC
330
1F
100
AcDbEntity
  8
0
  6
Continuous
 62
     7
370
    30
100
AcDbLine
 10
115.574513229203
 20
250.6101819430338
 30
0.0
 11
115.574513229203
 21
259.41018189535
 31
0.0
  0
LINE
  5
DD
330
1F
100
AcDbEntity
  8
0
  6
Continuous
 62
     7
370
    30
100
AcDbLine
 10
115.574513229203
 20
250.6101819430338
 30
0.0
 11
102.2377220379529
 21
250.6101819430338
 31
0.0
  0
LINE
  5
DE
330
1F
100
AcDbEntity
  8
0
  6
Continuous
 62
     7
370
    30
100
AcDbLine
 10
102.2377220379529
 20
250.6101819430338
 30
0.0
 11
102.2377220379529
 21
259.41018189535
 31
0.0
  0
LINE
  5
DF
330
1F
100
AcDbEntity
  8
0
  6
Continuous
 62
     7
370
    30
100
AcDbLine
 10
122.2429085919974
 20
250.6101819430338
 30
0.0
 11
122.2429085919974
 21
259.41018189535
 31
0.0
  0
LINE
  5
E0
330
1F
100
AcDbEntity
  8
0
  6
Continuous
 62
     7
370
    30
100
AcDbLine
 10
122.2429085919974
 20
250.6101819430338
 30
0.0
 11
115.574513229203
 21
250.6101819430338
 31
0.0
  0
LINE
  5
E1
330
1F
100
AcDbEntity
  8
0
  6
Continuous
 62
     7
370
    30
100
AcDbLine
 10
115.574513229203
 20
102.1101752971159
 30
0.0
 11
115.574513229203
 21
93.31017534479959
 31
0.0
  0
LINE
  5
E2
330
1F
100
AcDbEntity
  8
0
  6
Continuous
 62
     7
370
    30
100
AcDbLine
 10
115.574513229203
 20
102.1101752971159
 30
0.0
 11
122.2429085919974
 21
102.1101752971159
 31
0.0
  0
LINE
  5
E3
330
1F
100
AcDbEntity
  8
0
  6
Continuous
 62
     7
370
    30
100
AcDbLine
 10
122.2429085919974
 20
102.1101752971159
 30
0.0
 11
122.2429085919974
 21
93.31017534479959
 31
0.0
  0
LINE
  5
E4
330
1F
100
AcDbEntity
  8
0
  6
Continuous
 62
     7
370
    30
100
AcDbLine
 10
102.2377220379529
 20
102.1101752971159
 30
0.0
 11
102.2377220379529
 21
93.31017534479959
 31
0.0
  0
LINE
  5
E5
330
1F
100
AcDbEntity
  8
0
  6
Continuous
 62
     7
370
    30
100
AcDbLine
 10
102.2377220379529
 20
102.1101752971159
 30
0.0
 11
115.574513229203
 21
102.1101752971159
 31
0.0
  0
LINE
  5
E6
330
1F
100
AcDbEntity
  8
0
  6
Continuous
 62
     7
370
    30
100
AcDbLine
 10
95.56932620949726
 20
102.1101752971159
 30
0.0
 11
95.56932620949726
 21
93.31017534479959
 31
0.0
  0
LINE
  5
E7
330
1F
100
AcDbEntity
  8
0
  6
Continuous
 62
     7
370
    30
100
AcDbLine
 10
95.56932620949726
 20
102.1101752971159
 30
0.0
 11
102.2377220379529
 21
102.1101752971159
 31
0.0
  0
LINE
  5
E8
330
1F
100
AcDbEntity
  8
0
  6
Continuous
 62
     7
370
    30
100
AcDbLine
 10
95.56932620949726
 20
250.6101819430338
 30
0.0
 11
95.56932620949726
 21
259.41018189535
 31
0.0
  0
LINE
  5
E9
330
1F
100
AcDbEntity
  8
0
  6
Continuous
 62
     7
370
    30
100
AcDbLine
 10
102.2377220379529
 20
250.6101819430338
 30
0.0
 11
95.56932620949726
 21
250.6101819430338
 31
0.0
  0
LINE
  5
EA
330
1F
100
AcDbEntity
  8
0
  6
Continuous
 62
     7
370
    30
100
AcDbLine
 10
95.5048153573988
 20
121.2358408351289
 30
0.0
 11
95.51554419345837
 21
121.2010987778054
 31
0.0
  0
SPLINE
  5
EB
330
1F
100
AcDbEntity
  8
0
  6
Continuous
 62
     7
370
    30
100
AcDbSpline
210
0.0
220
0.0
230
1.0
 70
     8
 71
     3
 72
    12
 73
     8
 74
     0
 42
0.000000001
 43
0.00000001
 40
0.0
 40
0.0
 40
0.0
 40
0.0
 40
0.2313913300328589
 40
0.5150435886702494
 40
0.7860563863972332
 40
0.9610564994283206
 40
1.0
 40
1.0
 40
1.0
 40
1.0
 10
95.50599441177826
 20
121.2325621140049
 30
0.0
 10
95.50123668065554
 20
121.2493592243263
 30
0.0
 10
95.49064666022983
 20
121.2867471592068
 30
0.0
 10
95.38473042986006
 20
121.6140514475366
 30
0.0
 10
95.15781225669801
 20
122.1494630974513
 30
0.0
 10
94.8425178035771
 20
122.6821781428268
 30
0.0
 10
94.65017459394812
 20
122.9406793809806
 30
0.0
 10
94.61516294873934
 20
122.9877335694478
 30
0.0
  0
LINE
  5
EC
330
1F
100
AcDbEntity
  8
0
  6
Continuous
 62
     7
370
    30
100
AcDbLine
 10
141.7790787691591
 20
149.4101750408159
 30
0.0
 11
141.7790787691591
 21
208.8101747189508
 31
0.0
  0
LINE
  5
ED
330
1F
100
AcDbEntity
  8
0
  6
Continuous
 62
     7
370
    30
100
AcDbLine
 10
141.7790787691591
 20
208.8101747189508
 30
0.0
 11
145.1334754402159
 21
208.8101747189508
 31
0.0
  0
LINE
  5
EE
330
1F
100
AcDbEntity
  8
0
  6
Continuous
 62
     7
370
    30
100
AcDbLine
 10
145.1334754402159
 20
208.8101747189508
 30
0.0
 11
145.1334754402159
 21
149.4101750408159
 31
0.0
  0
LINE
  5
EF
330
1F
100
AcDbEntity
  8
0
  6
Continuous
 62
     7
370
    30
100
AcDbLine
 10
141.7790787691591
 20
149.4101750408159
 30
0.0
 11
145.1334754402159
 21
149.4101750408159
 31
0.0
  0
ARC
  5
F0
330
1F
100
AcDbEntity
  8
0
  6
Continuous
 62
     7
370
    30
100
AcDbCircle
 10
95.04018733066596
 20
209.6348958297319
 30
0.0
 40
50.10007663204662
100
AcDbArc
 50
359.0567844110071
 51
2.831951924823136
  0
ARC
  5
F1
330
1F
100
AcDbEntity
  8
0
  6
Continuous
 62
     7
370
    30
100
AcDbCircle
 10
145.0790794254468
 20
208.8101752721229
 30
0.0
 40
3.300000000000011
100
AcDbArc
 50
90.0
 51
180.0
  0
ARC
  5
F2
330
1F
100
AcDbEntity
  8
0
  6
Continuous
 62
     7
370
    30
100
AcDbCircle
 10
95.04046536979723
 20
148.5854521411654
 30
0.0
 40
50.09979866003727
100
AcDbArc
 50
357.1680386635499
 51
0.9432228688588057
  0
ARC
  5
F3
330
1F
100
AcDbEntity
  8
0
  6
Continuous
 62
     7
370
    30
100
AcDbCircle
 10
145.0790794254468
 20
149.4101752721229
 30
0.0
 40
3.30000000000004
100
AcDbArc
 50
180.0
 51
270.0000000000008
  0
LINE
  5
F4
330
1F
100
AcDbEntity
  8
0
  6
Continuous
 62
     7
370
    30
100
AcDbLine
 10
145.0790787512777
 20
212.1101784263597
 30
0.0
 11
204.4790784294127
 21
212.1101784263597
 31
0.0
  0
LWPOLYLINE
  5
F5
330
1F
100
AcDbEntity
  8
0
  6
Continuous
 62
     7
370
    30
100
AcDbPolyline
 90
        9
 70
   128
 43
0.0
 10
204.4790784294127
 20
212.1101784263597
 10
204.6807060415266
 20
212.0467665348993
 10
204.8745925004004
 20
211.8589746509538
 10
205.0532723242758
 20
211.5540223871217
 10
205.2098835284231
 20
211.143629506682
 10
205.3384134943007
 20
210.643553987597
 10
205.4339224869726
 20
210.0730332289682
 10
205.4927373702047
 20
209.4539719377504
 10
205.5125931674955
 20
208.8101747189508
  0
LINE
  5
F6
330
1F
100
AcDbEntity
  8
0
  6
Continuous
 62
     7
370
    30
100
AcDbLine
 10
205.5125931674955
 20
208.8101747189508
 30
0.0
 11
145.1334754402159
 21
208.8101747189508
 31
0.0
  0
LWPOLYLINE
  5
F7
330
1F
100
AcDbEntity
  8
0
  6
Continuous
 62
     7
370
    30
100
AcDbPolyline
 90
        3
 70
   128
 43
0.0
 10
177.1935398156164
 20
198.8777684722887
 10
181.032920854759
 20
191.00587244377
 10
184.857840316963
 20
183.1636222754465
  0
SPLINE
  5
F8
330
1F
100
AcDbEntity
  8
0
  6
Continuous
 62
     7
370
    30
100
AcDbSpline
210
0.0
220
0.0
230
1.0
 70
     8
 71
     3
 72
    14
 73
    10
 74
     0
 42
0.000000001
 43
0.00000001
 40
0.0
 40
0.0
 40
0.0
 40
0.0
 40
0.1590615596718299
 40
0.3180161021516672
 40
0.4796901022954273
 40
0.6447237038829434
 40
0.8112945420894008
 40
0.976514377078343
 40
1.0
 40
1.0
 40
1.0
 40
1.0
 10
184.857840316963
 20
183.1636222754465
 30
0.0
 10
185.0533999409728
 20
182.8462633767253
 30
0.0
 10
185.4443876157708
 20
182.2117590994964
 30
0.0
 10
186.382808056059
 20
181.5764932596119
 30
0.0
 10
187.4630584100985
 20
181.264958228286
 30
0.0
 10
188.6061641860816
 20
181.3364800532585
 30
0.0
 10
189.665575914694
 20
181.7928467843457
 30
0.0
 10
190.2788465580776
 20
182.3623803947648
 30
0.0
 10
190.5286037790517
 20
182.7203591219416
 30
0.0
 10
190.5596876914022
 20
182.7649119053827
 30
0.0
  0
LWPOLYLINE
  5
F9
330
1F
100
AcDbEntity
  8
0
  6
Continuous
 62
     7
370
    30
100
AcDbPolyline
 90
        4
 70
   128
 43
0.0
 10
190.5596876914022
 20
182.7649119053827
 10
195.0397367054937
 20
189.4068660889612
 10
199.4922409231184
 20
196.0079761897073
 10
203.9149055654524
 20
202.5648372922884
  0
SPLINE
  5
FA
330
1F
100
AcDbEntity
  8
0
  6
Continuous
 62
     7
370
    30
100
AcDbSpline
210
0.0
220
0.0
230
1.0
 70
     8
 71
     3
 72
    15
 73
    11
 74
     0
 42
0.000000001
 43
0.00000001
 40
0.0
 40
0.0
 40
0.0
 40
0.0
 40
0.1360899495979432
 40
0.2723043668681532
 40
0.4061024014622557
 40
0.540555752721562
 40
0.6795626065985345
 40
0.8250248815674753
 40
0.9760643464552086
 40
1.0
 40
1.0
 40
1.0
 40
1.0
 10
203.9149055654524
 20
202.5648372922884
 30
0.0
 10
204.0864435379463
 20
202.8787483109878
 30
0.0
 10
204.4296763713173
 20
203.5068574509531
 30
0.0
 10
204.5291991419021
 20
204.6033743992306
 30
0.0
 10
204.2964962479847
 20
205.657340451165
 30
0.0
 10
203.7401013076491
 20
206.5813820816837
 30
0.0
 10
202.9103040849566
 20
207.2905368520693
 30
0.0
 10
201.8689054685597
 20
207.7022702697579
 30
0.0
 10
201.0440721137963
 20
207.7367425148929
 30
0.0
 10
200.6089355871919
 20
207.6600383428105
 30
0.0
 10
200.5494112545965
 20
207.6495456253038
 30
0.0
  0
LWPOLYLINE
  5
FB
330
1F
100
AcDbEntity
  8
0
  6
Continuous
 62
     7
370
    30
100
AcDbPolyline
 90
        4
 70
   128
 43
0.0
 10
200.5494112545965
 20
207.6495456253038
 10
193.6051274115561
 20
206.2997164879785
 10
186.5956807906149
 20
204.9372139130579
 10
179.5298928791998
 20
203.5637664352403
  0
SPLINE
  5
FC
330
1F
100
AcDbEntity
  8
0
  6
Continuous
 62
     7
370
    30
100
AcDbSpline
210
0.0
220
0.0
230
1.0
 70
     8
 71
     3
 72
    13
 73
     9
 74
     0
 42
0.000000001
 43
0.00000001
 40
0.0
 40
0.0
 40
0.0
 40
0.0
 40
0.1871974829218923
 40
0.374477169805597
 40
0.5596133690357584
 40
0.7419526086303426
 40
0.9225683457377952
 40
1.0
 40
1.0
 40
1.0
 40
1.0
 10
179.5298928791998
 20
203.5637664352403
 30
0.0
 10
179.1702021104052
 20
203.4562870070046
 30
0.0
 10
178.4506626219409
 20
203.2412809531312
 30
0.0
 10
177.5836747056794
 20
202.4835081142905
 30
0.0
 10
177.0092916210397
 20
201.505960292439
 30
0.0
 10
176.8004233464414
 20
200.3994232718753
 30
0.0
 10
176.9235362079659
 20
199.4977564620648
 30
0.0
 10
177.1312204956191
 20
199.0208674118384
 30
0.0
 10
177.1935398156164
 20
198.8777684722887
 30
0.0
  0
LINE
  5
FD
330
1F
100
AcDbEntity
  8
0
  6
Continuous
 62
     7
370
    30
100
AcDbLine
 10
145.1334754402159
 20
149.4101750408159
 30
0.0
 11
205.5125931674955
 21
149.4101750408159
 31
0.0
  0
LINE
  5
FE
330
1F
100
AcDbEntity
  8
0
  6
Continuous
 62
     7
370
    30
100
AcDbLine
 10
205.5125931674955
 20
149.4101750408159
 30
0.0
 11
205.5125931674955
 21
208.8101747189508
 31
0.0
  0
LWPOLYLINE
  5
FF
330
1F
100
AcDbEntity
  8
0
  6
Continuous
 62
     7
370
    30
100
AcDbPolyline
 90
        9
 70
   128
 43
0.0
 10
205.5125931674955
 20
149.4101750408159
 10
205.4927373702047
 20
148.7663778220163
 10
205.4339224869726
 20
148.1473202560888
 10
205.3384134943007
 20
147.5767920468793
 10
205.2098835284231
 20
147.0767221157299
 10
205.0532723242758
 20
146.6663255099998
 10
204.8745925004004
 20
146.3613732461677
 10
204.6807060415266
 20
146.1735832248674
 10
204.4790784294127
 20
146.1101750586973
  0
LINE
  5
100
330
1F
100
AcDbEntity
  8
0
  6
Continuous
 62
     7
370
    30
100
AcDbLine
 10
204.4790784294127
 20
146.1101750586973
 30
0.0
 11
145.0790787512777
 21
146.1101750586973
 31
0.0
  0
LINE
  5
101
330
1F
100
AcDbEntity
  8
0
  6
Continuous
 62
     7
370
    30
100
AcDbLine
 10
197.8775212938307
 20
202.8139772568689
 30
0.0
 11
191.25738241024
 21
201.0131495748506
 31
0.0
  0
SPLINE
  5
102
330
1F
100
AcDbEntity
  8
0
  6
Continuous
 62
     7
370
    30
100
AcDbSpline
210
0.0
220
0.0
230
1.0
 70
     8
 71
     3
 72
    13
 73
     9
 74
     0
 42
0.000000001
 43
0.00000001
 40
0.0
 40
0.0
 40
0.0
 40
0.0
 40
0.0039361295618001
 40
0.2436221934095717
 40
0.4534786041485022
 40
0.6410934651137014
 40
0.8203866850791578
 40
1.0
 40
1.0
 40
1.0
 40
1.0
 10
191.25738241024
 20
201.0131495748506
 30
0.0
 10
191.2580928360821
 20
201.0154889287964
 30
0.0
 10
191.3020638231097
 20
201.1602805395615
 30
0.0
 10
191.3809773373277
 20
201.432541736808
 30
0.0
 10
191.475868464001
 20
201.782331981208
 30
0.0
 10
191.5421296878764
 20
202.0394439435378
 30
0.0
 10
191.5847363468015
 20
202.2108422534059
 30
0.0
 10
191.5901949981487
 20
202.23320428412
 30
0.0
 10
191.592926758003
 20
202.2443952713953
 30
0.0
  0
LINE
  5
103
330
1F
100
AcDbEntity
  8
0
  6
Continuous
 62
     7
370
    30
100
AcDbLine
 10
191.592926758003
 20
202.2443952713953
 30
0.0
 11
199.6790344292639
 21
204.4440003787027
 31
0.0
  0
LWPOLYLINE
  5
104
330
1F
100
AcDbEntity
  8
0
  6
Continuous
 62
     7
370
    30
100
AcDbPolyline
 90
        9
 70
   128
 43
0.0
 10
199.6790344292639
 20
204.4440003787027
 10
199.6444190318106
 20
204.4126781378732
 10
199.5418990427969
 20
204.3199184094415
 10
199.3754232699392
 20
204.1692900215135
 10
199.1513843113897
 20
203.9665746246324
 10
198.8783875877378
 20
203.7195655261026
 10
198.5669309670446
 20
203.4377547656046
 10
198.2289800817488
 20
203.1319754873262
 10
197.8775212938307
 20
202.8139772568689
  0
ARC
  5
105
330
1F
100
AcDbEntity
  8
0
  6
Continuous
 62
     7
370
    30
100
AcDbCircle
 10
187.1112943626751
 20
197.3992978691109
 30
0.0
 40
5.49999999999998
100
AcDbArc
 50
41.07634004984944
 51
12.32219965235729
  0
SPLINE
  5
106
330
1F
100
AcDbEntity
  8
0
  6
Continuous
 62
     7
370
    30
100
AcDbSpline
210
0.0
220
0.0
230
1.0
 70
     8
 71
     3
 72
    13
 73
     9
 74
     0
 42
0.000000001
 43
0.00000001
 40
0.0
 40
0.0
 40
0.0
 40
0.0
 40
0.0039345136107441
 40
0.2436223706244195
 40
0.4534782345263789
 40
0.6410944228266696
 40
0.8203871377300009
 40
0.9999999999999999
 40
0.9999999999999999
 40
0.9999999999999999
 40
0.9999999999999999
 10
192.4845898921011
 20
198.5730471764551
 30
0.0
 10
192.4868896077423
 20
198.5722203235363
 30
0.0
 10
192.6292864149972
 20
198.5210221607734
 30
0.0
 10
192.8949909264802
 20
198.4222637226223
 30
0.0
 10
193.2323565430746
 20
198.2898105717907
 30
0.0
 10
193.4782869218367
 20
198.1897267209758
 30
0.0
 10
193.6412847206466
 20
198.1217262687288
 30
0.0
 10
193.6624879746051
 20
198.1127746578719
 30
0.0
 10
193.6730990583418
 20
198.1082948599802
 30
0.0
  0
ARC
  5
107
330
1F
100
AcDbEntity
  8
0
  6
Continuous
 62
     7
370
    30
100
AcDbCircle
 10
187.1112943626751
 20
197.3992978691109
 30
0.0
 40
6.600000000000001
100
AcDbArc
 50
47.23170974620781
 51
6.166829955999096
  0
LINE
  5
108
330
1F
100
AcDbEntity
  8
0
  6
Continuous
 62
     7
370
    30
100
AcDbLine
 10
200.2602542216299
 20
203.2883408223138
 30
0.0
 11
193.6730990583418
 21
198.1082948599802
 31
0.0
  0
LINE
  5
109
330
1F
100
AcDbEntity
  8
0
  6
Continuous
 62
     7
370
    30
100
AcDbLine
 10
192.4845898921011
 20
198.5730471764551
 30
0.0
 11
197.8775212938307
 21
202.8139772568689
 31
0.0
  0
LWPOLYLINE
  5
10A
330
1F
100
AcDbEntity
  8
0
  6
Continuous
 62
     7
370
    30
100
AcDbPolyline
 90
        9
 70
   128
 43
0.0
 10
200.2602542216299
 20
203.2883408223138
 10
200.2144704038618
 20
203.2792213116632
 10
200.0788772875784
 20
203.2522278581606
 10
199.8586902791975
 20
203.2083960925088
 10
199.5623657876966
 20
203.1494023953424
 10
199.2012957508085
 20
203.0775191937433
 10
198.7893531496046
 20
202.9955032025323
 10
198.3423704678534
 20
202.9065209184633
 10
197.8775212938307
 20
202.8139772568689
  0
ARC
  5
10B
330
1F
100
AcDbEntity
  8
0
  6
Continuous
 62
     7
370
    30
100
AcDbCircle
 10
199.8522735844729
 20
203.8071393978381
 30
0.0
 40
0.6599999999999905
100
AcDbArc
 50
308.1810254781202
 51
105.2175142240868
  0
ARC
  5
10C
330
1F
100
AcDbEntity
  8
0
  6
Continuous
 62
     7
370
    30
100
AcDbCircle
 10
204.4790794254468
 20
208.8101752721229
 30
0.0
 40
3.300000000000011
100
AcDbArc
 50
0.0
 51
90.0
  0
LINE
  5
10D
330
1F
100
AcDbEntity
  8
0
  6
Continuous
 62
     7
370
    30
100
AcDbLine
 10
205.5125931674955
 20
208.8101747189508
 30
0.0
 11
207.7790821368216
 21
208.8101747189508
 31
0.0
  0
LINE
  5
10E
330
1F
100
AcDbEntity
  8
0
  6
Continuous
 62
     7
370
    30
100
AcDbLine
 10
207.7790821368216
 20
208.8101747189508
 30
0.0
 11
207.7790821368216
 21
149.4101750408159
 31
0.0
  0
LINE
  5
10F
330
1F
100
AcDbEntity
  8
0
  6
Continuous
 62
     7
370
    30
100
AcDbLine
 10
205.5125931674955
 20
149.4101750408159
 30
0.0
 11
207.7790821368216
 21
149.4101750408159
 31
0.0
  0
ARC
  5
110
330
1F
100
AcDbEntity
  8
0
  6
Continuous
 62
     7
370
    30
100
AcDbCircle
 10
204.4790794254468
 20
149.4101752721229
 30
0.0
 40
3.300000000000011
100
AcDbArc
 50
270.0000000000008
 51
0.0
  0
LINE
  5
111
330
1F
100
AcDbEntity
  8
0
  6
Continuous
 62
     7
370
    30
100
AcDbLine
 10
123.079078870487
 20
165.1717181061254
 30
0.0
 11
123.079078870487
 21
193.0486353789316
 31
0.0
  0
LINE
  5
112
330
1F
100
AcDbEntity
  8
0
  6
Continuous
 62
     7
370
    30
100
AcDbLine
 10
123.079078870487
 20
193.0486353789316
 30
0.0
 11
123.4593918944119
 21
192.9955276404367
 31
0.0
  0
LINE
  5
113
330
1F
100
AcDbEntity
  8
0
  6
Continuous
 62
     7
370
    30
100
AcDbLine
 10
123.5510657007216
 20
192.9827200923906
 30
0.0
 11
125.2790788585661
 21
192.7414106880174
 31
0.0
  0
LINE
  5
114
330
1F
100
AcDbEntity
  8
0
  6
Continuous
 62
     7
370
    30
100
AcDbLine
 10
125.2790788585661
 20
192.7414106880174
 30
0.0
 11
125.2790788585661
 21
165.4789390717493
 31
0.0
  0
LINE
  5
115
330
1F
100
AcDbEntity
  8
0
  6
Continuous
 62
     7
370
    30
100
AcDbLine
 10
123.079078870487
 20
165.1717181061254
 30
0.0
 11
123.4593918944119
 21
165.2248258446203
 31
0.0
  0
LINE
  5
116
330
1F
100
AcDbEntity
  8
0
  6
Continuous
 62
     7
370
    30
100
AcDbLine
 10
123.5510657007216
 20
165.2376259420858
 30
0.0
 11
125.2790788585661
 21
165.4789390717493
 31
0.0
  0
LINE
  5
117
330
1F
100
AcDbEntity
  8
0
  6
Continuous
 62
     7
370
    30
100
AcDbLine
 10
120.8790798137305
 20
193.0486353789316
 30
0.0
 11
123.079078870487
 21
193.0486353789316
 31
0.0
  0
LINE
  5
118
330
1F
100
AcDbEntity
  8
0
  6
Continuous
 62
     7
370
    30
100
AcDbLine
 10
120.8790798137305
 20
165.1717181061254
 30
0.0
 11
123.079078870487
 21
165.1717181061254
 31
0.0
  0
LINE
  5
119
330
1F
100
AcDbEntity
  8
0
  6
Continuous
 62
     7
370
    30
100
AcDbLine
 10
120.8790798137305
 20
193.0486353789316
 30
0.0
 11
120.8790798137305
 21
165.1717181061254
 31
0.0
  0
LINE
  5
11A
330
1F
100
AcDbEntity
  8
0
  6
Continuous
 62
     7
370
    30
100
AcDbLine
 10
123.079078870487
 20
217.6101746712671
 30
0.0
 11
123.079078870487
 21
228.6101746116624
 31
0.0
  0
LINE
  5
11B
330
1F
100
AcDbEntity
  8
0
  6
Continuous
 62
     7
370
    30
100
AcDbLine
 10
123.079078870487
 20
228.6101746116624
 30
0.0
 11
123.0861792737959
 21
228.6030742083536
 31
0.0
  0
LINE
  5
11C
330
1F
100
AcDbEntity
  8
0
  6
Continuous
 62
     7
370
    30
100
AcDbLine
 10
123.5510657007216
 20
228.1381877814279
 30
0.0
 11
125.2790788585661
 21
226.4101746235834
 31
0.0
  0
LINE
  5
11D
330
1F
100
AcDbEntity
  8
0
  6
Continuous
 62
     7
370
    30
100
AcDbLine
 10
125.2790788585661
 20
226.4101746235834
 30
0.0
 11
125.2790788585661
 21
217.6101746712671
 31
0.0
  0
LINE
  5
11E
330
1F
100
AcDbEntity
  8
0
  6
Continuous
 62
     7
370
    30
100
AcDbLine
 10
120.8790798137305
 20
228.6101746116624
 30
0.0
 11
123.079078870487
 21
228.6101746116624
 31
0.0
  0
LINE
  5
11F
330
1F
100
AcDbEntity
  8
0
  6
Continuous
 62
     7
370
    30
100
AcDbLine
 10
123.079078870487
 20
217.6101746712671
 30
0.0
 11
120.8790798137305
 21
217.6101746712671
 31
0.0
  0
LINE
  5
120
330
1F
100
AcDbEntity
  8
0
  6
Continuous
 62
     7
370
    30
100
AcDbLine
 10
120.8790798137305
 20
217.6101746712671
 30
0.0
 11
120.8790798137305
 21
228.6101746116624
 31
0.0
  0
LINE
  5
121
330
1F
100
AcDbEntity
  8
0
  6
Continuous
 62
     7
370
    30
100
AcDbLine
 10
123.079078870487
 20
193.0486353789316
 30
0.0
 11
123.079078870487
 21
217.6101746712671
 31
0.0
  0
LINE
  5
122
330
1F
100
AcDbEntity
  8
0
  6
Continuous
 62
     7
370
    30
100
AcDbLine
 10
125.2790788585661
 20
217.6101746712671
 30
0.0
 11
125.2790788585661
 21
192.7414106880174
 31
0.0
  0
LINE
  5
123
330
1F
100
AcDbEntity
  8
0
  6
Continuous
 62
     7
370
    30
100
AcDbLine
 10
120.8790798137305
 20
217.6101746712671
 30
0.0
 11
120.8790798137305
 21
193.0486353789316
 31
0.0
  0
LINE
  5
124
330
1F
100
AcDbEntity
  8
0
  6
Continuous
 62
     7
370
    30
100
AcDbLine
 10
123.079078870487
 20
140.6101750884996
 30
0.0
 11
123.079078870487
 21
165.1717181061254
 31
0.0
  0
LINE
  5
125
330
1F
100
AcDbEntity
  8
0
  6
Continuous
 62
     7
370
    30
100
AcDbLine
 10
125.2790788585661
 20
165.4789390717493
 30
0.0
 11
125.2790788585661
 21
140.6101750884996
 31
0.0
  0
LINE
  5
126
330
1F
100
AcDbEntity
  8
0
  6
Continuous
 62
     7
370
    30
100
AcDbLine
 10
120.8790798137305
 20
140.6101750884996
 30
0.0
 11
123.079078870487
 21
140.6101750884996
 31
0.0
  0
LINE
  5
127
330
1F
100
AcDbEntity
  8
0
  6
Continuous
 62
     7
370
    30
100
AcDbLine
 10
120.8790798137305
 20
165.1717181061254
 30
0.0
 11
120.8790798137305
 21
140.6101750884996
 31
0.0
  0
LINE
  5
128
330
1F
100
AcDbEntity
  8
0
  6
Continuous
 62
     7
370
    30
100
AcDbLine
 10
123.079078870487
 20
129.6101751481042
 30
0.0
 11
123.079078870487
 21
140.6101750884996
 31
0.0
  0
LINE
  5
129
330
1F
100
AcDbEntity
  8
0
  6
Continuous
 62
     7
370
    30
100
AcDbLine
 10
123.079078870487
 20
129.6101751481042
 30
0.0
 11
120.8790798137305
 21
129.6101751481042
 31
0.0
  0
LINE
  5
12A
330
1F
100
AcDbEntity
  8
0
  6
Continuous
 62
     7
370
    30
100
AcDbLine
 10
120.8790798137305
 20
129.6101751481042
 30
0.0
 11
120.8790798137305
 21
140.6101750884996
 31
0.0
  0
LINE
  5
12B
330
1F
100
AcDbEntity
  8
0
  6
Continuous
 62
     7
370
    30
100
AcDbLine
 10
125.2790788585661
 20
140.6101750884996
 30
0.0
 11
125.2790788585661
 21
131.8101751361833
 31
0.0
  0
LINE
  5
12C
330
1F
100
AcDbEntity
  8
0
  6
Continuous
 62
     7
370
    30
100
AcDbLine
 10
125.2790788585661
 20
131.8101751361833
 30
0.0
 11
123.5510657007216
 21
130.0821610470162
 31
0.0
  0
LINE
  5
12D
330
1F
100
AcDbEntity
  8
0
  6
Continuous
 62
     7
370
    30
100
AcDbLine
 10
123.0861792737959
 20
129.6172746200905
 30
0.0
 11
123.079078870487
 21
129.6101751481042
 31
0.0
  0
LINE
  5
12E
330
1F
100
AcDbEntity
  8
0
  6
Continuous
 62
     7
370
    30
100
AcDbLine
 10
131.8790788228033
 20
209.8319994960771
 30
0.0
 11
125.2790788585661
 21
209.8319994960771
 31
0.0
  0
LINE
  5
12F
330
1F
100
AcDbEntity
  8
0
  6
Continuous
 62
     7
370
    30
100
AcDbLine
 10
131.8790788228033
 20
209.8319994960771
 30
0.0
 11
131.8790788228033
 21
199.4439455424295
 31
0.0
  0
LINE
  5
130
330
1F
100
AcDbEntity
  8
0
  6
Continuous
 62
     7
370
    30
100
AcDbLine
 10
131.8790788228033
 20
199.4439455424295
 30
0.0
 11
125.2790788585661
 21
201.8582391296373
 31
0.0
  0
LINE
  5
131
330
1F
100
AcDbEntity
  8
0
  6
Continuous
 62
     7
370
    30
100
AcDbLine
 10
131.8790788228033
 20
148.3883502636896
 30
0.0
 11
125.2790788585661
 21
148.3883502636896
 31
0.0
  0
LINE
  5
132
330
1F
100
AcDbEntity
  8
0
  6
Continuous
 62
     7
370
    30
100
AcDbLine
 10
131.8790788228033
 20
158.7764079426275
 30
0.0
 11
125.2790788585661
 21
156.3621106301294
 31
0.0
  0
LINE
  5
133
330
1F
100
AcDbEntity
  8
0
  6
Continuous
 62
     7
370
    30
100
AcDbLine
 10
131.8790788228033
 20
158.7764079426275
 30
0.0
 11
131.8790788228033
 21
148.3883502636896
 31
0.0
  0
LINE
  5
134
330
1F
100
AcDbEntity
  8
0
  6
Continuous
 62
     7
370
    30
100
AcDbLine
 10
125.2790788585661
 20
211.7765414272295
 30
0.0
 11
131.8790788228033
 21
211.7765414272295
 31
0.0
  0
LINE
  5
135
330
1F
100
AcDbEntity
  8
0
  6
Continuous
 62
     7
370
    30
100
AcDbLine
 10
131.8790788228033
 20
211.7765414272295
 30
0.0
 11
131.8790788228033
 21
209.8319994960771
 31
0.0
  0
LINE
  5
136
330
1F
100
AcDbEntity
  8
0
  6
Continuous
 62
     7
370
    30
100
AcDbLine
 10
125.2790788585661
 20
146.4438064698921
 30
0.0
 11
131.8790788228033
 21
146.4438064698921
 31
0.0
  0
LINE
  5
137
330
1F
100
AcDbEntity
  8
0
  6
Continuous
 62
     7
370
    30
100
AcDbLine
 10
131.8790788228033
 20
148.3883502636896
 30
0.0
 11
131.8790788228033
 21
146.4438064698921
 31
0.0
  0
LINE
  5
138
330
1F
100
AcDbEntity
  8
0
  6
Continuous
 62
     7
370
    30
100
AcDbLine
 10
131.8790788228033
 20
158.7764079426275
 30
0.0
 11
131.8790788228033
 21
174.1601767693506
 31
0.0
  0
LINE
  5
139
330
1F
100
AcDbEntity
  8
0
  6
Continuous
 62
     7
370
    30
100
AcDbLine
 10
131.8790788228033
 20
184.0601729904161
 30
0.0
 11
131.8790788228033
 21
199.4439455424295
 31
0.0
  0
LINE
  5
13A
330
1F
100
AcDbEntity
  8
0
  6
Continuous
 62
     7
370
    30
100
AcDbLine
 10
129.4508153969763
 20
184.0601729904161
 30
0.0
 11
129.8506824696777
 21
181.860173002337
 31
0.0
  0
LINE
  5
13B
330
1F
100
AcDbEntity
  8
0
  6
Continuous
 62
     7
370
    30
100
AcDbLine
 10
131.8790788228033
 20
176.3601767574297
 30
0.0
 11
131.8790788228033
 21
181.860173002337
 31
0.0
  0
LINE
  5
13C
330
1F
100
AcDbEntity
  8
0
  6
Continuous
 62
     7
370
    30
100
AcDbLine
 10
129.8506824696777
 20
176.3601767574297
 30
0.0
 11
129.4508153969763
 21
174.1601767693506
 31
0.0
  0
LINE
  5
13D
330
1F
100
AcDbEntity
  8
0
  6
Continuous
 62
     7
370
    30
100
AcDbLine
 10
125.2790788585661
 20
223.4438079153047
 30
0.0
 11
131.8790788228033
 21
223.4438079153047
 31
0.0
  0
LINE
  5
13E
330
1F
100
AcDbEntity
  8
0
  6
Continuous
 62
     7
370
    30
100
AcDbLine
 10
131.8790788228033
 20
211.7765414272295
 30
0.0
 11
131.8790788228033
 21
212.1101784263597
 31
0.0
  0
LINE
  5
13F
330
1F
100
AcDbEntity
  8
0
  6
Continuous
 62
     7
370
    30
100
AcDbLine
 10
131.8790788228033
 20
223.1101783667551
 30
0.0
 11
131.8790788228033
 21
223.4438079153047
 31
0.0
  0
LINE
  5
140
330
1F
100
AcDbEntity
  8
0
  6
Continuous
 62
     7
370
    30
100
AcDbLine
 10
125.2790788585661
 20
134.7765437071071
 30
0.0
 11
131.8790788228033
 21
134.7765437071071
 31
0.0
  0
LINE
  5
141
330
1F
100
AcDbEntity
  8
0
  6
Continuous
 62
     7
370
    30
100
AcDbLine
 10
131.8790788228033
 20
134.7765437071071
 30
0.0
 11
131.8790788228033
 21
135.1101751183019
 31
0.0
  0
LINE
  5
142
330
1F
100
AcDbEntity
  8
0
  6
Continuous
 62
     7
370
    30
100
AcDbLine
 10
131.8790788228033
 20
146.1101750586973
 30
0.0
 11
131.8790788228033
 21
146.4438064698921
 31
0.0
  0
LINE
  5
143
330
1F
100
AcDbEntity
  8
0
  6
Continuous
 62
     7
370
    30
100
AcDbLine
 10
131.8790788228033
 20
223.1101783667551
 30
0.0
 11
131.8790788228033
 21
212.1101784263597
 31
0.0
  0
LINE
  5
144
330
1F
100
AcDbEntity
  8
0
  6
Continuous
 62
     7
370
    30
100
AcDbLine
 10
131.8790788228033
 20
146.1101750586973
 30
0.0
 11
131.8790788228033
 21
135.1101751183019
 31
0.0
  0
LINE
  5
145
330
1F
100
AcDbEntity
  8
0
  6
Continuous
 62
     7
370
    30
100
AcDbLine
 10
129.4508153969763
 20
184.0601729904161
 30
0.0
 11
141.7790787691591
 21
184.0601729904161
 31
0.0
  0
LINE
  5
146
330
1F
100
AcDbEntity
  8
0
  6
Continuous
 62
     7
370
    30
100
AcDbLine
 10
129.8506824696777
 20
181.860173002337
 30
0.0
 11
141.7790787691591
 21
181.860173002337
 31
0.0
  0
LINE
  5
147
330
1F
100
AcDbEntity
  8
0
  6
Continuous
 62
     7
370
    30
100
AcDbLine
 10
129.8506824696777
 20
176.3601767574297
 30
0.0
 11
141.7790787691591
 21
176.3601767574297
 31
0.0
  0
LINE
  5
148
330
1F
100
AcDbEntity
  8
0
  6
Continuous
 62
     7
370
    30
100
AcDbLine
 10
129.4508153969763
 20
174.1601767693506
 30
0.0
 11
141.7790787691591
 21
174.1601767693506
 31
0.0
  0
LINE
  5
149
330
1F
100
AcDbEntity
  8
0
  6
Continuous
 62
     7
370
    30
100
AcDbLine
 10
220.4290802056311
 20
220.3601765190111
 30
0.0
 11
220.4290802056311
 21
137.8601751034008
 31
0.0
  0
LINE
  5
14A
330
1F
100
AcDbEntity
  8
0
  6
Continuous
 62
     7
370
    30
100
AcDbLine
 10
222.6290801937101
 20
218.160176530932
 30
0.0
 11
222.6290801937101
 21
140.0601750914798
 31
0.0
  0
LINE
  5
14B
330
1F
100
AcDbEntity
  8
0
  6
Continuous
 62
     7
370
    30
100
AcDbLine
 10
131.8790788228033
 20
225.3883498464571
 30
0.0
 11
125.2790788585661
 21
225.3883498464571
 31
0.0
  0
LINE
  5
14C
330
1F
100
AcDbEntity
  8
0
  6
Continuous
 62
     7
370
    30
100
AcDbLine
 10
131.8790788228033
 20
225.3883498464571
 30
0.0
 11
131.8790788228033
 21
223.4438079153047
 31
0.0
  0
LINE
  5
14D
330
1F
100
AcDbEntity
  8
0
  6
Continuous
 62
     7
370
    30
100
AcDbLine
 10
131.8790788228033
 20
132.8319999133096
 30
0.0
 11
125.2790788585661
 21
132.8319999133096
 31
0.0
  0
LINE
  5
14E
330
1F
100
AcDbEntity
  8
0
  6
Continuous
 62
     7
370
    30
100
AcDbLine
 10
131.8790788228033
 20
134.7765437071071
 30
0.0
 11
131.8790788228033
 21
132.8319999133096
 31
0.0
  0
LINE
  5
14F
330
1F
100
AcDbEntity
  8
0
  6
Continuous
 62
     7
370
    30
100
AcDbLine
 10
123.079078870487
 20
228.6101746116624
 30
0.0
 11
123.079078870487
 21
230.5351736699091
 31
0.0
  0
LINE
  5
150
330
1F
100
AcDbEntity
  8
0
  6
Continuous
 62
     7
370
    30
100
AcDbLine
 10
120.8790798137305
 20
230.5351736699091
 30
0.0
 11
120.8790798137305
 21
228.6101746116624
 31
0.0
  0
LINE
  5
151
330
1F
100
AcDbEntity
  8
0
  6
Continuous
 62
     7
370
    30
100
AcDbLine
 10
125.2790788585661
 20
228.33517368183
 30
0.0
 11
125.2790788585661
 21
226.4101746235834
 31
0.0
  0
LINE
  5
152
330
1F
100
AcDbEntity
  8
0
  6
Continuous
 62
     7
370
    30
100
AcDbLine
 10
123.079078870487
 20
127.6851751585351
 30
0.0
 11
123.079078870487
 21
129.6101751481042
 31
0.0
  0
LINE
  5
153
330
1F
100
AcDbEntity
  8
0
  6
Continuous
 62
     7
370
    30
100
AcDbLine
 10
125.2790788585661
 20
131.8101751361833
 30
0.0
 11
125.2790788585661
 21
129.8851751466141
 31
0.0
  0
LINE
  5
154
330
1F
100
AcDbEntity
  8
0
  6
Continuous
 62
     7
370
    30
100
AcDbLine
 10
120.8790798137305
 20
129.6101751481042
 30
0.0
 11
120.8790798137305
 21
127.6851751585351
 31
0.0
  0
LINE
  5
155
330
1F
100
AcDbEntity
  8
0
  6
Continuous
 62
     7
370
    30
100
AcDbLine
 10
178.3564636880873
 20
130.3901754994736
 30
0.0
 11
170.2652821714399
 21
130.3901754994736
 31
0.0
  0
LINE
  5
156
330
1F
100
AcDbEntity
  8
0
  6
Continuous
 62
     7
370
    30
100
AcDbLine
 10
182.0835793787954
 20
130.3901754994736
 30
0.0
 11
178.3564636880873
 21
130.3901754994736
 31
0.0
  0
LINE
  5
157
330
1F
100
AcDbEntity
  8
0
  6
Continuous
 62
     7
370
    30
100
AcDbLine
 10
170.2652821714399
 20
130.3901754994736
 30
0.0
 11
165.8923985833643
 21
130.3901754994736
 31
0.0
  0
LINE
  5
158
330
1F
100
AcDbEntity
  8
0
  6
Continuous
 62
     7
370
    30
100
AcDbLine
 10
178.4835780436514
 20
125.7101752539025
 30
0.0
 11
169.4835784310816
 21
125.7101752539025
 31
0.0
  0
SPLINE
  5
159
330
1F
100
AcDbEntity
  8
0
  6
Continuous
 62
     7
370
    30
100
AcDbSpline
210
0.0
220
0.0
230
1.0
 70
     8
 71
     3
 72
    10
 73
     6
 74
     0
 42
0.000000001
 43
0.00000001
 40
0.0
 40
0.0
 40
0.0
 40
0.0
 40
0.3976916449509379
 40
0.8068545922127048
 40
0.9999999999999999
 40
0.9999999999999999
 40
0.9999999999999999
 40
0.9999999999999999
 10
170.26528217144
 20
130.3901754994736
 30
0.0
 10
169.833536029802
 20
130.4162799512773
 30
0.0
 10
168.9575901519506
 20
130.4692418303671
 30
0.0
 10
167.9032590185582
 20
130.7931596989643
 30
0.0
 10
167.2932916474122
 20
131.0559157752049
 30
0.0
 10
167.0976901823996
 20
131.1401751567469
 30
0.0
  0
LINE
  5
15A
330
1F
100
AcDbEntity
  8
0
  6
Continuous
 62
     7
370
    30
100
AcDbLine
 10
167.0976901823996
 20
131.1401751567469
 30
0.0
 11
167.0976901823996
 21
136.8701754812942
 31
0.0
  0
LINE
  5
15B
330
1F
100
AcDbEntity
  8
0
  6
Continuous
 62
     7
370
    30
100
AcDbLine
 10
173.4328816110609
 20
136.8701754812942
 30
0.0
 11
173.4328816110609
 21
131.1401751567469
 31
0.0
  0
SPLINE
  5
15C
330
1F
100
AcDbEntity
  8
0
  6
Continuous
 62
     7
370
    30
100
AcDbSpline
210
0.0
220
0.0
230
1.0
 70
     8
 71
     3
 72
     9
 73
     5
 74
     0
 42
0.000000001
 43
0.00000001
 40
0.0
 40
0.0
 40
0.0
 40
0.0
 40
0.4914727156877134
 40
1.0
 40
1.0
 40
1.0
 40
1.0
 10
173.4328816110609
 20
131.1401751567469
 30
0.0
 10
172.93005562273
 20
130.9318427512047
 30
0.0
 10
171.9069551081322
 20
130.5079486083717
 30
0.0
 10
170.8186930967224
 20
130.4298770281472
 30
0.0
 10
170.2652821714399
 20
130.3901754994736
 30
0.0
  0
LINE
  5
15D
330
1F
100
AcDbEntity
  8
0
  6
Continuous
 62
     7
370
    30
100
AcDbLine
 10
167.0976901823996
 20
136.8701754812942
 30
0.0
 11
173.4328816110609
 21
136.8701754812942
 31
0.0
  0
LINE
  5
15E
330
1F
100
AcDbEntity
  8
0
  6
Continuous
 62
     7
370
    30
100
AcDbLine
 10
167.0976901823996
 20
142.5101755861984
 30
0.0
 11
167.0976901823996
 21
146.1101750586973
 31
0.0
  0
LINE
  5
15F
330
1F
100
AcDbEntity
  8
0
  6
Continuous
 62
     7
370
    30
100
AcDbLine
 10
173.4328816110609
 20
146.1101750586973
 30
0.0
 11
173.4328816110609
 21
142.5101755861984
 31
0.0
  0
LINE
  5
160
330
1F
100
AcDbEntity
  8
0
  6
Continuous
 62
     7
370
    30
100
AcDbLine
 10
173.4328816110609
 20
142.5101755861984
 30
0.0
 11
167.0976901823996
 21
142.5101755861984
 31
0.0
  0
LINE
  5
161
330
1F
100
AcDbEntity
  8
0
  6
Continuous
 62
     7
370
    30
100
AcDbLine
 10
175.355228262615
 20
131.1401751567469
 30
0.0
 11
173.4328816110609
 21
131.1401751567469
 31
0.0
  0
SPLINE
  5
162
330
1F
100
AcDbEntity
  8
0
  6
Continuous
 62
     7
370
    30
100
AcDbSpline
210
0.0
220
0.0
230
1.0
 70
     8
 71
     3
 72
    10
 73
     6
 74
     0
 42
0.000000001
 43
0.00000001
 40
0.0
 40
0.0
 40
0.0
 40
0.0
 40
0.3976920975189532
 40
0.8068545931322119
 40
1.0
 40
1.0
 40
1.0
 40
1.0
 10
178.3564636880873
 20
130.3901754994736
 30
0.0
 10
177.9473914378756
 20
130.4162798520863
 30
0.0
 10
177.1174483083406
 20
130.469241469724
 30
0.0
 10
176.1184894609525
 20
130.7931599447483
 30
0.0
 10
175.5405570468022
 20
131.055915787249
 30
0.0
 10
175.355228262615
 20
131.1401751567469
 30
0.0
  0
LINE
  5
163
330
1F
100
AcDbEntity
  8
0
  6
Continuous
 62
     7
370
    30
100
AcDbLine
 10
175.355228262615
 20
131.1401751567469
 30
0.0
 11
175.355228262615
 21
136.8701754812942
 31
0.0
  0
LINE
  5
164
330
1F
100
AcDbEntity
  8
0
  6
Continuous
 62
     7
370
    30
100
AcDbLine
 10
175.355228262615
 20
136.8701754812942
 30
0.0
 11
173.4328816110609
 21
136.8701754812942
 31
0.0
  0
LINE
  5
165
330
1F
100
AcDbEntity
  8
0
  6
Continuous
 62
     7
370
    30
100
AcDbLine
 10
175.355228262615
 20
142.5101755861984
 30
0.0
 11
175.355228262615
 21
146.1101750586973
 31
0.0
  0
LINE
  5
166
330
1F
100
AcDbEntity
  8
0
  6
Continuous
 62
     7
370
    30
100
AcDbLine
 10
173.4328816110609
 20
142.5101755861984
 30
0.0
 11
175.355228262615
 21
142.5101755861984
 31
0.0
  0
LINE
  5
167
330
1F
100
AcDbEntity
  8
0
  6
Continuous
 62
     7
370
    30
100
AcDbLine
 10
181.3576991135595
 20
136.8701754812942
 30
0.0
 11
181.3576991135595
 21
131.1401751567469
 31
0.0
  0
SPLINE
  5
168
330
1F
100
AcDbEntity
  8
0
  6
Continuous
 62
     7
370
    30
100
AcDbSpline
210
0.0
220
0.0
230
1.0
 70
     8
 71
     3
 72
     9
 73
     5
 74
     0
 42
0.000000001
 43
0.00000001
 40
0.0
 40
0.0
 40
0.0
 40
0.0
 40
0.4914719393730247
 40
1.0
 40
1.0
 40
1.0
 40
1.0
 10
181.3576991135596
 20
131.1401751567469
 30
0.0
 10
180.8812832904645
 20
130.9318427439078
 30
0.0
 10
179.911918032902
 20
130.507947916657
 30
0.0
 10
178.880810700256
 20
130.4298768351457
 30
0.0
 10
178.3564636880873
 20
130.3901754994736
 30
0.0
  0
LINE
  5
169
330
1F
100
AcDbEntity
  8
0
  6
Continuous
 62
     7
370
    30
100
AcDbLine
 10
175.355228262615
 20
136.8701754812942
 30
0.0
 11
181.3576991135595
 21
136.8701754812942
 31
0.0
  0
LINE
  5
16A
330
1F
100
AcDbEntity
  8
0
  6
Continuous
 62
     7
370
    30
100
AcDbLine
 10
179.4675762230871
 20
145.6301751290308
 30
0.0
 11
177.2453511530874
 21
145.6301751290308
 31
0.0
  0
LINE
  5
16B
330
1F
100
AcDbEntity
  8
0
  6
Continuous
 62
     7
370
    30
100
AcDbLine
 10
177.2453511530874
 20
145.6301751290308
 30
0.0
 11
177.2453511530874
 21
142.9901755158649
 31
0.0
  0
LINE
  5
16C
330
1F
100
AcDbEntity
  8
0
  6
Continuous
 62
     7
370
    30
100
AcDbLine
 10
177.2453511530874
 20
142.9901755158649
 30
0.0
 11
179.4675762230871
 21
142.9901755158649
 31
0.0
  0
LINE
  5
16D
330
1F
100
AcDbEntity
  8
0
  6
Continuous
 62
     7
370
    30
100
AcDbLine
 10
179.4675762230871
 20
142.9901755158649
 30
0.0
 11
179.4675762230871
 21
145.6301751290308
 31
0.0
  0
LINE
  5
16E
330
1F
100
AcDbEntity
  8
0
  6
Continuous
 62
     7
370
    30
100
AcDbLine
 10
181.3576991135595
 20
146.1101750586973
 30
0.0
 11
181.3576991135595
 21
142.5101755861984
 31
0.0
  0
LINE
  5
16F
330
1F
100
AcDbEntity
  8
0
  6
Continuous
 62
     7
370
    30
100
AcDbLine
 10
181.3576991135595
 20
142.5101755861984
 30
0.0
 11
175.355228262615
 21
142.5101755861984
 31
0.0
  0
SPLINE
  5
170
330
1F
100
AcDbEntity
  8
0
  6
Continuous
 62
     7
370
    30
100
AcDbSpline
210
0.0
220
0.0
230
1.0
 70
     8
 71
     3
 72
     9
 73
     5
 74
     0
 42
0.000000001
 43
0.00000001
 40
0.0
 40
0.0
 40
0.0
 40
0.0
 40
0.4914724784062865
 40
1.0
 40
1.0
 40
1.0
 40
1.0
 10
166.0587551469324
 20
131.1401751567469
 30
0.0
 10
166.032347678161
 20
130.9318427489744
 30
0.0
 10
165.9786163505047
 20
130.5079483969484
 30
0.0
 10
165.9214627580735
 20
130.4298769691561
 30
0.0
 10
165.8923985833643
 20
130.3901754994736
 30
0.0
  0
LINE
  5
171
330
1F
100
AcDbEntity
  8
0
  6
Continuous
 62
     7
370
    30
100
AcDbLine
 10
167.0976901823996
 20
131.1401751567469
 30
0.0
 11
166.0587551469324
 21
131.1401751567469
 31
0.0
  0
LWPOLYLINE
  5
172
330
1F
100
AcDbEntity
  8
0
  6
Continuous
 62
     7
370
    30
100
AcDbPolyline
 90
       10
 70
   128
 43
0.0
 10
177.8574014479635
 20
144.3335151974903
 10
177.8929481679914
 20
144.336856782888
 10
178.0209640438078
 20
144.3897242401586
 10
178.1210551435469
 20
144.4982661609397
 10
178.1770164544104
 20
144.6448991750227
 10
178.1797880703924
 20
144.805867106174
 10
178.128908055496
 20
144.9550929223047
 10
178.032624202442
 20
145.0683976267324
 10
177.9065380270002
 20
145.1274267141567
 10
177.8574014479635
 20
145.1332456176029
  0
ARC
  5
173
330
1F
100
AcDbEntity
  8
0
  6
Continuous
 62
     7
370
    30
100
AcDbCircle
 10
178.7213356923716
 20
144.3101753224478
 30
0.0
 40
1.3929424139485
100
AcDbArc
 50
154.2697169353006
 51
205.7302830647002
  0
LWPOLYLINE
  5
174
330
1F
100
AcDbEntity
  8
0
  6
Continuous
 62
     7
370
    30
100
AcDbPolyline
 90
       10
 70
   128
 43
0.0
 10
177.8574014479635
 20
143.4871050272928
 10
177.9065380270002
 20
143.492923930739
 10
178.032624202442
 20
143.5519530181633
 10
178.128908055496
 20
143.665257722591
 10
178.1797880703924
 20
143.8144835387216
 10
178.1770164544104
 20
143.975451469873
 10
178.1210551435469
 20
144.1220844839559
 10
178.0209640438078
 20
144.2306264047371
 10
177.8929481679914
 20
144.2834938620077
 10
177.8574014479635
 20
144.2868354474054
  0
LINE
  5
175
330
1F
100
AcDbEntity
  8
0
  6
Continuous
 62
     7
370
    30
100
AcDbLine
 10
177.5852466399191
 20
143.5112858866201
 30
0.0
 11
177.6481816942213
 21
143.5656024818168
 31
0.0
  0
ARC
  5
176
330
1F
100
AcDbEntity
  8
0
  6
Continuous
 62
     7
370
    30
100
AcDbCircle
 10
178.3628276073183
 20
144.0637169074145
 30
0.0
 40
0.9538407590355339
100
AcDbArc
 50
215.3918226285233
 51
268.5667434171211
  0
LWPOLYLINE
  5
177
330
1F
100
AcDbEntity
  8
0
  6
Continuous
 62
     7
370
    30
100
AcDbPolyline
 90
        8
 70
   128
 43
0.0
 10
178.7215793902395
 20
143.29959626541
 10
178.8138846332548
 20
143.4174756263242
 10
178.8595939452169
 20
143.5690427874075
 10
178.8513014490126
 20
143.7297424976574
 10
178.7903482491491
 20
143.8735405658231
 10
178.6866063649176
 20
143.9771390263782
 10
178.5568917567251
 20
144.023755446528
 10
178.5350019509314
 20
144.0252790902601
  0
LINE
  5
178
330
1F
100
AcDbEntity
  8
0
  6
Continuous
 62
     7
370
    30
100
AcDbLine
 10
178.7456149632452
 20
143.2117110793338
 30
0.0
 11
178.7215793902395
 21
143.29959626541
 31
0.0
  0
ARC
  5
179
330
1F
100
AcDbEntity
  8
0
  6
Continuous
 62
     7
370
    30
100
AcDbCircle
 10
178.9289381234289
 20
144.3679655081984
 30
0.0
 40
0.3429752350709248
100
AcDbArc
 50
10.45031235253597
 51
85.84569841309498
  0
ARC
  5
17A
330
1F
100
AcDbEntity
  8
0
  6
Continuous
 62
     7
370
    30
100
AcDbCircle
 10
178.9289381234289
 20
144.2523851366972
 30
0.0
 40
0.3429752350709248
100
AcDbArc
 50
274.1543015869058
 51
349.5496876474649
  0
LINE
  5
17B
330
1F
100
AcDbEntity
  8
0
  6
Continuous
 62
     7
370
    30
100
AcDbLine
 10
178.7215793902395
 20
145.3207543794857
 30
0.0
 11
178.7456149632452
 21
145.4086395655618
 31
0.0
  0
ARC
  5
17C
330
1F
100
AcDbEntity
  8
0
  6
Continuous
 62
     7
370
    30
100
AcDbCircle
 10
178.460791569091
 20
145.0009779981914
 30
0.0
 40
0.4126344892190087
100
AcDbArc
 50
280.3607502772545
 51
50.80166048867694
  0
ARC
  5
17D
330
1F
100
AcDbEntity
  8
0
  6
Continuous
 62
     7
370
    30
100
AcDbCircle
 10
178.3549585262532
 20
144.5714204257775
 30
0.0
 40
0.9388918021962116
100
AcDbArc
 50
90.97576219300326
 51
145.0656717613567
  0
LINE
  5
17E
330
1F
100
AcDbEntity
  8
0
  6
Continuous
 62
     7
370
    30
100
AcDbLine
 10
177.6481816942213
 20
145.0547481630788
 30
0.0
 11
177.5852466399191
 21
145.1090647582756
 31
0.0
  0
LINE
  5
17F
330
1F
100
AcDbEntity
  8
0
  6
Continuous
 62
     7
370
    30
100
AcDbLine
 10
179.4500897104261
 20
142.9901755158649
 30
0.0
 11
179.4500897104261
 21
145.6301751290308
 31
0.0
  0
LINE
  5
180
330
1F
100
AcDbEntity
  8
0
  6
Continuous
 62
     7
370
    30
100
AcDbLine
 10
177.4665067369459
 20
144.9149007652746
 30
0.0
 11
177.4839932496069
 21
144.9149007652746
 31
0.0
  0
ARC
  5
181
330
1F
100
AcDbEntity
  8
0
  6
Continuous
 62
     7
370
    30
100
AcDbCircle
 10
178.7388877935829
 20
144.3101753224478
 30
0.0
 40
1.393001499533564
100
AcDbArc
 50
154.270888116681
 51
205.7291118833197
  0
LINE
  5
182
330
1F
100
AcDbEntity
  8
0
  6
Continuous
 62
     7
370
    30
100
AcDbLine
 10
177.4665067369459
 20
143.7054498796211
 30
0.0
 11
177.4839932496069
 21
143.7054498796211
 31
0.0
  0
LINE
  5
183
330
1F
100
AcDbEntity
  8
0
  6
Continuous
 62
     7
370
    30
100
AcDbLine
 10
178.5709733540533
 20
145.4828045074688
 30
0.0
 11
178.5469377810476
 21
145.3949174587474
 31
0.0
  0
LWPOLYLINE
  5
184
330
1F
100
AcDbEntity
  8
0
  6
Continuous
 62
     7
370
    30
100
AcDbPolyline
 90
       15
 70
   128
 43
0.0
 10
178.7390659029005
 20
145.3207543794857
 10
178.8313785964964
 20
145.2028750185714
 10
178.8770879084585
 20
145.0513078574882
 10
178.8687954122541
 20
144.8906081472383
 10
178.8078422123907
 20
144.7468100790725
 10
178.7041003281591
 20
144.6432116185175
 10
178.5743857199667
 20
144.5965951983677
 10
178.4397015745161
 20
144.6145138447033
 10
178.3218780929564
 20
144.6940636937366
 10
178.2399962121962
 20
144.8223571036802
 10
178.2073254162786
 20
144.9786106799589
 10
178.2291630680082
 20
145.1375092123495
 10
178.3019626910208
 20
145.2733090822445
 10
178.4139300162313
 20
145.3640105877863
 10
178.5469377810476
 20
145.3949174587474
  0
LINE
  5
185
330
1F
100
AcDbEntity
  8
0
  6
Continuous
 62
     7
370
    30
100
AcDbLine
 10
178.7390659029005
 20
145.3207543794857
 30
0.0
 11
178.7631089264868
 21
145.4086395655618
 31
0.0
  0
ARC
  5
186
330
1F
100
AcDbEntity
  8
0
  6
Continuous
 62
     7
370
    30
100
AcDbCircle
 10
178.1605510680323
 20
144.3679269421328
 30
0.0
 40
1.202563402632026
100
AcDbArc
 50
2.967130964558028
 51
59.92976687601121
  0
LINE
  5
187
330
1F
100
AcDbEntity
  8
0
  6
Continuous
 62
     7
370
    30
100
AcDbLine
 10
179.3615023071287
 20
144.4301753048645
 30
0.0
 11
179.2837182456968
 21
144.4301753048645
 31
0.0
  0
LWPOLYLINE
  5
188
330
1F
100
AcDbEntity
  8
0
  6
Continuous
 62
     7
370
    30
100
AcDbPolyline
 90
       15
 70
   128
 43
0.0
 10
179.2837182456968
 20
144.1901753400312
 10
179.2178774649618
 20
144.0494524990068
 10
179.1106636101721
 20
143.9509688620315
 10
178.9794514352797
 20
143.9106817100988
 10
178.8454974467276
 20
143.9351140265213
 10
178.7305051857946
 20
144.0203114156471
 10
178.6531011039732
 20
144.1524679516302
 10
178.6258245284079
 20
144.3101743911253
 10
178.6531011039732
 20
144.4678826932655
 10
178.7305051857946
 20
144.6000392292486
 10
178.8454974467276
 20
144.6852366183744
 10
178.9794514352797
 20
144.7096689347969
 10
179.1106636101721
 20
144.6693817828641
 10
179.2178774649618
 20
144.5708981458889
 10
179.2837182456968
 20
144.4301753048645
  0
LINE
  5
189
330
1F
100
AcDbEntity
  8
0
  6
Continuous
 62
     7
370
    30
100
AcDbLine
 10
179.2837182456968
 20
144.1901753400312
 30
0.0
 11
179.3615023071287
 21
144.1901753400312
 31
0.0
  0
ARC
  5
18A
330
1F
100
AcDbEntity
  8
0
  6
Continuous
 62
     7
370
    30
100
AcDbCircle
 10
178.160555232021
 20
144.2524211562179
 30
0.0
 40
1.202559112410878
100
AcDbArc
 50
300.0701222262385
 51
357.0329799331917
  0
LINE
  5
18B
330
1F
100
AcDbEntity
  8
0
  6
Continuous
 62
     7
370
    30
100
AcDbLine
 10
178.7631089264868
 20
143.2117110793338
 30
0.0
 11
178.7390659029005
 21
143.29959626541
 31
0.0
  0
LWPOLYLINE
  5
18C
330
1F
100
AcDbEntity
  8
0
  6
Continuous
 62
     7
370
    30
100
AcDbPolyline
 90
       15
 70
   128
 43
0.0
 10
178.5469377810476
 20
143.2254331861482
 10
178.4139300162313
 20
143.2563400571094
 10
178.3019626910208
 20
143.3470415626512
 10
178.2291630680082
 20
143.4828414325462
 10
178.2073254162786
 20
143.6417399649368
 10
178.2399962121962
 20
143.7979935412155
 10
178.3218780929564
 20
143.9262869511591
 10
178.4397015745161
 20
144.0058368001924
 10
178.5743857199667
 20
144.023755446528
 10
178.7041003281591
 20
143.9771390263782
 10
178.8078422123907
 20
143.8735405658231
 10
178.8687954122541
 20
143.7297424976574
 10
178.8770879084585
 20
143.5690427874075
 10
178.8313785964964
 20
143.4174756263242
 10
178.7390659029005
 20
143.29959626541
  0
LINE
  5
18D
330
1F
100
AcDbEntity
  8
0
  6
Continuous
 62
     7
370
    30
100
AcDbLine
 10
178.5469377810476
 20
143.2254331861482
 30
0.0
 11
178.5709733540533
 21
143.1375461374269
 31
0.0
  0
ARC
  5
18E
330
1F
100
AcDbEntity
  8
0
  6
Continuous
 62
     7
370
    30
100
AcDbCircle
 10
178.3611787300347
 20
144.0350904976459
 30
0.0
 40
0.9217373068439996
100
AcDbArc
 50
214.6303517349611
 51
283.1562752243483
  0
LINE
  5
18F
330
1F
100
AcDbEntity
  8
0
  6
Continuous
 62
     7
370
    30
100
AcDbLine
 10
177.6027406031607
 20
143.5112858866201
 30
0.0
 11
177.6656682068823
 21
143.5656024818168
 31
0.0
  0
LWPOLYLINE
  5
190
330
1F
100
AcDbEntity
  8
0
  6
Continuous
 62
     7
370
    30
100
AcDbPolyline
 90
       15
 70
   128
 43
0.0
 10
177.5469283039091
 20
143.7597664748178
 10
177.5305668289183
 20
143.9195926044927
 10
177.5685796911238
 20
144.074130684589
 10
177.6547978097914
 20
144.198348626946
 10
177.7752587968824
 20
144.2721205507265
 10
177.910442131233
 20
144.2834938620077
 10
178.0384505564688
 20
144.2306264047371
 10
178.1385491067884
 20
144.1220844839559
 10
178.1945104176519
 20
143.975451469873
 10
178.1972745830534
 20
143.8144835387216
 10
178.146394568157
 20
143.665257722591
 10
178.050110715103
 20
143.5519530181633
 10
177.9240245396612
 20
143.492923930739
 10
177.7885655338285
 20
143.4977332805143
 10
177.6656682068823
 20
143.5656024818168
  0
LINE
  5
191
330
1F
100
AcDbEntity
  8
0
  6
Continuous
 62
     7
370
    30
100
AcDbLine
 10
177.5469283039091
 20
143.7597664748178
 30
0.0
 11
177.4839932496069
 21
143.7054498796211
 31
0.0
  0
LINE
  5
192
330
1F
100
AcDbEntity
  8
0
  6
Continuous
 62
     7
370
    30
100
AcDbLine
 10
177.4839932496069
 20
144.9149007652746
 30
0.0
 11
177.5469283039091
 21
144.8605823074327
 31
0.0
  0
LWPOLYLINE
  5
193
330
1F
100
AcDbEntity
  8
0
  6
Continuous
 62
     7
370
    30
100
AcDbPolyline
 90
       15
 70
   128
 43
0.0
 10
177.6656682068823
 20
145.0547481630788
 10
177.7885655338285
 20
145.1226173643814
 10
177.9240245396612
 20
145.1274267141567
 10
178.050110715103
 20
145.0683976267324
 10
178.146394568157
 20
144.9550929223047
 10
178.1972745830534
 20
144.805867106174
 10
178.1945104176519
 20
144.6448991750227
 10
178.1385491067884
 20
144.4982661609397
 10
178.0384505564688
 20
144.3897242401586
 10
177.910442131233
 20
144.336856782888
 10
177.7752587968824
 20
144.3482300941692
 10
177.6547978097914
 20
144.4220020179496
 10
177.5685796911238
 20
144.5462199603067
 10
177.5305668289183
 20
144.7007580404029
 10
177.5469283039091
 20
144.8605823074327
  0
LINE
  5
194
330
1F
100
AcDbEntity
  8
0
  6
Continuous
 62
     7
370
    30
100
AcDbLine
 10
177.6656682068823
 20
145.0547481630788
 30
0.0
 11
177.6027406031607
 21
145.1090647582756
 31
0.0
  0
ARC
  5
195
330
1F
100
AcDbEntity
  8
0
  6
Continuous
 62
     7
370
    30
100
AcDbCircle
 10
178.3611787300347
 20
144.5852601472498
 30
0.0
 40
0.9217373068439996
100
AcDbArc
 50
76.84372477565248
 51
145.3696482650397
  0
LINE
  5
196
330
1F
100
AcDbEntity
  8
0
  6
Continuous
 62
     7
370
    30
100
AcDbLine
 10
177.6656682068823
 20
143.5656024818168
 30
0.0
 11
177.6481816942213
 21
143.5656024818168
 31
0.0
  0
LINE
  5
197
330
1F
100
AcDbEntity
  8
0
  6
Continuous
 62
     7
370
    30
100
AcDbLine
 10
177.6481816942213
 20
145.0547481630788
 30
0.0
 11
177.6656682068823
 21
145.0547481630788
 31
0.0
  0
LINE
  5
198
330
1F
100
AcDbEntity
  8
0
  6
Continuous
 62
     7
370
    30
100
AcDbLine
 10
177.5852466399191
 20
145.1090647582756
 30
0.0
 11
177.6027406031607
 21
145.1090647582756
 31
0.0
  0
LINE
  5
199
330
1F
100
AcDbEntity
  8
0
  6
Continuous
 62
     7
370
    30
100
AcDbLine
 10
177.5852466399191
 20
143.5112858866201
 30
0.0
 11
177.6027406031607
 21
143.5112858866201
 31
0.0
  0
LINE
  5
19A
330
1F
100
AcDbEntity
  8
0
  6
Continuous
 62
     7
370
    30
100
AcDbLine
 10
178.5469377810476
 20
145.3949174587474
 30
0.0
 11
178.5405600840567
 21
145.3949174587474
 31
0.0
  0
LINE
  5
19B
330
1F
100
AcDbEntity
  8
0
  6
Continuous
 62
     7
370
    30
100
AcDbLine
 10
178.7215793902395
 20
145.3207543794857
 30
0.0
 11
178.7390659029005
 21
145.3207543794857
 31
0.0
  0
LINE
  5
19C
330
1F
100
AcDbEntity
  8
0
  6
Continuous
 62
     7
370
    30
100
AcDbLine
 10
178.7390659029005
 20
143.29959626541
 30
0.0
 11
178.7215793902395
 21
143.29959626541
 31
0.0
  0
LINE
  5
19D
330
1F
100
AcDbEntity
  8
0
  6
Continuous
 62
     7
370
    30
100
AcDbLine
 10
178.5405600840567
 20
143.2254331861482
 30
0.0
 11
178.5469377810476
 21
143.2254331861482
 31
0.0
  0
LINE
  5
19E
330
1F
100
AcDbEntity
  8
0
  6
Continuous
 62
     7
370
    30
100
AcDbLine
 10
182.2411144549368
 20
131.1401751567469
 30
0.0
 11
181.3576991135595
 21
131.1401751567469
 31
0.0
  0
SPLINE
  5
19F
330
1F
100
AcDbEntity
  8
0
  6
Continuous
 62
     7
370
    30
100
AcDbSpline
210
0.0
220
0.0
230
1.0
 70
     8
 71
     3
 72
    10
 73
     6
 74
     0
 42
0.000000001
 43
0.00000001
 40
0.0
 40
0.0
 40
0.0
 40
0.0
 40
0.3976926021337628
 40
0.8068546735761032
 40
0.9999999999999999
 40
0.9999999999999999
 40
0.9999999999999999
 40
0.9999999999999999
 10
182.0747578913687
 20
130.3901754994736
 30
0.0
 10
182.0974301320473
 20
130.4162797584056
 30
0.0
 10
182.1434284816617
 20
130.4692411240597
 30
0.0
 10
182.1988016436173
 20
130.7931600842938
 30
0.0
 10
182.2308404040666
 20
131.0559157942527
 30
0.0
 10
182.2411144549368
 20
131.1401751567469
 30
0.0
  0
LINE
  5
1A0
330
1F
100
AcDbEntity
  8
0
  6
Continuous
 62
     7
370
    30
100
AcDbLine
 10
179.2837182456968
 20
144.4301753048645
 30
0.0
 11
179.2662242824553
 21
144.4301753048645
 31
0.0
  0
LINE
  5
1A1
330
1F
100
AcDbEntity
  8
0
  6
Continuous
 62
     7
370
    30
100
AcDbLine
 10
179.2662242824553
 20
144.1901753400312
 30
0.0
 11
179.2837182456968
 21
144.1901753400312
 31
0.0
  0
LINE
  5
1A2
330
1F
100
AcDbEntity
  8
0
  6
Continuous
 62
     7
370
    30
100
AcDbLine
 10
178.7456149632452
 20
145.4086395655618
 30
0.0
 11
178.7631089264868
 21
145.4086395655618
 31
0.0
  0
LINE
  5
1A3
330
1F
100
AcDbEntity
  8
0
  6
Continuous
 62
     7
370
    30
100
AcDbLine
 10
178.7456149632452
 20
143.2117110793338
 30
0.0
 11
178.7631089264868
 21
143.2117110793338
 31
0.0
  0
LINE
  5
1A4
330
1F
100
AcDbEntity
  8
0
  6
Continuous
 62
     7
370
    30
100
AcDbLine
 10
166.0587551469324
 20
146.1101750586973
 30
0.0
 11
166.0587551469324
 21
142.5101755861984
 31
0.0
  0
LINE
  5
1A5
330
1F
100
AcDbEntity
  8
0
  6
Continuous
 62
     7
370
    30
100
AcDbLine
 10
166.0587551469324
 20
142.5101755861984
 30
0.0
 11
167.0976901823996
 21
142.5101755861984
 31
0.0
  0
LINE
  5
1A6
330
1F
100
AcDbEntity
  8
0
  6
Continuous
 62
     7
370
    30
100
AcDbLine
 10
166.0587551469324
 20
136.8701754812942
 30
0.0
 11
166.0587551469324
 21
131.1401751567469
 31
0.0
  0
LINE
  5
1A7
330
1F
100
AcDbEntity
  8
0
  6
Continuous
 62
     7
370
    30
100
AcDbLine
 10
167.0976901823996
 20
136.8701754812942
 30
0.0
 11
166.0587551469324
 21
136.8701754812942
 31
0.0
  0
LINE
  5
1A8
330
1F
100
AcDbEntity
  8
0
  6
Continuous
 62
     7
370
    30
100
AcDbLine
 10
182.2411144549368
 20
142.5101755861984
 30
0.0
 11
182.2411144549368
 21
146.1101750586973
 31
0.0
  0
LINE
  5
1A9
330
1F
100
AcDbEntity
  8
0
  6
Continuous
 62
     7
370
    30
100
AcDbLine
 10
181.3576991135595
 20
142.5101755861984
 30
0.0
 11
182.2411144549368
 21
142.5101755861984
 31
0.0
  0
LINE
  5
1AA
330
1F
100
AcDbEntity
  8
0
  6
Continuous
 62
     7
370
    30
100
AcDbLine
 10
182.2411144549368
 20
131.1401751567469
 30
0.0
 11
182.2411144549368
 21
136.8701754812942
 31
0.0
  0
LINE
  5
1AB
330
1F
100
AcDbEntity
  8
0
  6
Continuous
 62
     7
370
    30
100
AcDbLine
 10
182.2411144549368
 20
136.8701754812942
 30
0.0
 11
181.3576991135595
 21
136.8701754812942
 31
0.0
  0
LINE
  5
1AC
330
1F
100
AcDbEntity
  8
0
  6
Continuous
 62
     7
370
    30
100
AcDbLine
 10
165.7260420197962
 20
142.5101755861984
 30
0.0
 11
165.7260420197962
 21
146.1101750586973
 31
0.0
  0
LINE
  5
1AD
330
1F
100
AcDbEntity
  8
0
  6
Continuous
 62
     7
370
    30
100
AcDbLine
 10
166.0587551469324
 20
142.5101755861984
 30
0.0
 11
165.7260420197962
 21
142.5101755861984
 31
0.0
  0
SPLINE
  5
1AE
330
1F
100
AcDbEntity
  8
0
  6
Continuous
 62
     7
370
    30
100
AcDbSpline
210
0.0
220
0.0
230
1.0
 70
     8
 71
     3
 72
    10
 73
     6
 74
     0
 42
0.000000001
 43
0.00000001
 40
0.0
 40
0.0
 40
0.0
 40
0.0
 40
0.3976920855518698
 40
0.8068545234174909
 40
1.0
 40
1.0
 40
1.0
 40
1.0
 10
165.8923985833643
 20
130.3901754994736
 30
0.0
 10
165.8697229743499
 20
130.4162798398637
 30
0.0
 10
165.8237177397243
 20
130.4692414297211
 30
0.0
 10
165.7683495796205
 20
130.7931600562777
 30
0.0
 10
165.7363147949172
 20
131.055915792569
 30
0.0
 10
165.7260420197962
 20
131.1401751567469
 30
0.0
  0
LINE
  5
1AF
330
1F
100
AcDbEntity
  8
0
  6
Continuous
 62
     7
370
    30
100
AcDbLine
 10
165.7260420197962
 20
131.1401751567469
 30
0.0
 11
165.7260420197962
 21
136.8701754812942
 31
0.0
  0
LINE
  5
1B0
330
1F
100
AcDbEntity
  8
0
  6
Continuous
 62
     7
370
    30
100
AcDbLine
 10
165.7260420197962
 20
136.8701754812942
 30
0.0
 11
166.0587551469324
 21
136.8701754812942
 31
0.0
  0
LINE
  5
1B1
330
1F
100
AcDbEntity
  8
0
  6
Continuous
 62
     8
370
    30
100
AcDbLine
 10
116.6061178246854
 20
140.6101750884996
 30
0.0
 11
120.8790798137305
 21
140.6101750884996
 31
0.0
  0
LINE
  5
1B2
330
1F
100
AcDbEntity
  8
0
  6
Continuous
 62
     8
370
    30
100
AcDbLine
 10
123.4742148245094
 20
140.6101750884996
 30
0.0
 11
123.5510657007216
 21
140.6101750884996
 31
0.0
  0
LINE
  5
1B3
330
1F
100
AcDbEntity
  8
0
  6
Continuous
 62
     8
370
    30
100
AcDbLine
 10
123.5510657007216
 20
217.6101746712671
 30
0.0
 11
123.4742148245094
 21
217.6101746712671
 31
0.0
  0
LINE
  5
1B4
330
1F
100
AcDbEntity
  8
0
  6
Continuous
 62
     8
370
    30
100
AcDbLine
 10
120.8790798137305
 20
217.6101746712671
 30
0.0
 11
116.6061178246854
 21
217.6101746712671
 31
0.0
  0
SPLINE
  5
1B5
330
1F
100
AcDbEntity
  8
0
  6
Continuous
 62
     8
370
    30
100
AcDbSpline
210
0.0
220
0.0
230
1.0
 70
     8
 71
     3
 72
    10
 73
     6
 74
     0
 42
0.000000001
 43
0.00000001
 40
0.0
 40
0.0
 40
0.0
 40
0.0
 40
0.0000105755065112
 40
0.4917989152726518
 40
1.0
 40
1.0
 40
1.0
 40
1.0
 10
118.9422771731732
 20
119.5349915628181
 30
0.0
 10
118.9422861759726
 20
119.5349928821954
 30
0.0
 10
119.3609485767639
 20
119.5963486496875
 30
0.0
 10
120.0217075315641
 20
119.6730942262224
 30
0.0
 10
120.1465719486844
 20
119.684623875165
 30
0.0
 10
120.2100288519977
 20
119.6904833172308
 30
0.0
  0
LWPOLYLINE
  5
1B6
330
1F
100
AcDbEntity
  8
0
  6
Continuous
 62
     8
370
    30
100
AcDbPolyline
 90
       12
 70
   128
 43
0.0
 10
103.7387453416703
 20
173.0567495082365
 10
101.4565375099299
 20
171.1665185843454
 10
98.34478575981836
 20
167.8437086497293
 10
95.77243089921456
 20
164.054395512198
 10
94.37909782178383
 20
161.2008752976404
 10
92.57259559131842
 20
155.6966284965025
 10
91.69370368368607
 20
149.9715762887941
 10
91.67424090452175
 20
144.8682154272543
 10
92.21758753306847
 20
139.8068981920229
 10
93.22764598078709
 20
134.5212626014696
 10
93.22765901930313
 20
134.5212067221151
 10
93.22765901930313
 20
134.5212067221151
  0
SPLINE
  5
1B7
330
1F
100
AcDbEntity
  8
0
  6
Continuous
 62
     8
370
    30
100
AcDbSpline
210
0.0
220
0.0
230
1.0
 70
     8
 71
     3
 72
    18
 73
    14
 74
     0
 42
0.000000001
 43
0.00000001
 40
0.0
 40
0.0
 40
0.0
 40
0.0
 40
0.1722764199157762
 40
0.2744072830488217
 40
0.3765449397884582
 40
0.4846940364562247
 40
0.5928332768834152
 40
0.6953564414871376
 40
0.7978778006775261
 40
0.9067766066028098
 40
0.9414328539312711
 40
0.99848887958084
 40
1.0
 40
1.0
 40
1.0
 40
1.0
 10
120.511757808399
 20
117.45816550449
 30
0.0
 10
120.4306778036608
 20
117.4689576105795
 30
0.0
 10
120.3015310300009
 20
117.4861476155254
 30
0.0
 10
119.4749607849011
 20
117.6242424535483
 30
0.0
 10
118.5471666048748
 20
117.7785422567767
 30
0.0
 10
117.3188937667811
 20
117.9234988392498
 30
0.0
 10
115.8490481877576
 20
118.0192980684727
 30
0.0
 10
114.2093396251598
 20
118.098623013252
 30
0.0
 10
112.4299701299111
 20
118.223878171257
 30
0.0
 10
110.9580734294811
 20
118.36036345949
 30
0.0
 10
109.7432107642454
 20
118.4929481160386
 30
0.0
 10
109.1751955803926
 20
118.5622496351834
 30
0.0
 10
108.8189439997569
 20
118.608969758293
 30
0.0
 10
108.8097521733833
 20
118.6101752077089
 30
0.0
  0
LWPOLYLINE
  5
1B8
330
1F
100
AcDbEntity
  8
0
  6
Continuous
 62
     8
370
    30
100
AcDbPolyline
 90
       24
 70
   128
 43
0.0
 10
97.23474424577932
 20
240.0434034620271
 10
97.23199405021649
 20
240.0454598222719
 10
97.72102035827618
 20
240.3016107831941
 10
98.44496160991173
 20
240.4270562087045
 10
99.50579483307581
 20
240.5296805058466
 10
100.7914223173974
 20
240.6093346630083
 10
102.3543208303271
 20
240.665623799418
 10
104.0473055491565
 20
240.702444568728
 10
105.9312833404509
 20
240.7174649392114
 10
106.9192840241702
 20
240.7179641281114
 10
108.8535796316681
 20
240.7066243444429
 10
110.8457789687781
 20
240.6720461998926
 10
112.7252682509242
 20
240.6221198593126
 10
114.5487140329896
 20
240.5490222130762
 10
116.1581004435537
 20
240.458914891337
 10
117.6066628123043
 20
240.3478192840562
 10
118.7793283189056
 20
240.2156310831056
 10
119.7036520043729
 20
240.0661724363313
 10
120.3061860451816
 20
239.8943396960245
 10
120.5961784744976
 20
239.7198396478639
 10
120.613664055836
 20
239.6861704741464
 10
120.6153963158248
 20
239.6751287137018
 10
120.6148030633448
 20
239.6719100628839
 10
120.6148030633448
 20
239.6719100628839
  0
SPLINE
  5
1B9
330
1F
100
AcDbEntity
  8
0
  6
Continuous
 62
     8
370
    30
100
AcDbSpline
210
0.0
220
0.0
230
1.0
 70
     8
 71
     3
 72
    30
 73
    26
 74
     0
 42
0.000000001
 43
0.00000001
 40
0.0
 40
0.0
 40
0.0
 40
0.0
 40
0.0000016353276093
 40
0.0029107520507097
 40
0.0084461589419055
 40
0.0214506560497865
 40
0.077454461386742
 40
0.133475267283779
 40
0.1878027491799904
 40
0.2421402257036595
 40
0.2949491011808174
 40
0.3477645766736877
 40
0.3999172483153273
 40
0.452073393109644
 40
0.5038361134787108
 40
0.5555994647154183
 40
0.5822811244949081
 40
0.6341018576725862
 40
0.6859238810542283
 40
0.7386031310580822
 40
0.7912802387697713
 40
0.8456290905442326
 40
0.8999701690785593
 40
0.9908366384866809
 40
1.0
 40
1.0
 40
1.0
 40
1.0
 10
120.620210322213
 20
239.6101745520578
 30
0.0
 10
120.6202106326066
 20
239.6101720687978
 30
0.0
 10
120.6207631084346
 20
239.6057520651188
 30
0.0
 10
120.6236679846439
 20
239.5855660218168
 30
0.0
 10
120.6240531660763
 20
239.5536699596207
 30
0.0
 10
120.5990031006253
 20
239.4435445453767
 30
0.0
 10
120.3730505479539
 20
239.2974745423393
 30
0.0
 10
119.7158668277401
 20
239.1255813219546
 30
0.0
 10
118.7279628331593
 20
238.9654557106718
 30
0.0
 10
117.48267238081
 20
238.8404949286027
 30
0.0
 10
116.007430537872
 20
238.7392124848049
 30
0.0
 10
114.3680141333396
 20
238.658992045193
 30
0.0
 10
112.5917497872747
 20
238.60098804668
 30
0.0
 10
110.7362225975719
 20
238.559183580073
 30
0.0
 10
108.8406228844202
 20
238.5360393042455
 30
0.0
 10
107.2581056472163
 20
238.5269144543636
 30
0.0
 10
105.7102115089919
 20
238.5292543421641
 30
0.0
 10
104.2085458145471
 20
238.5408314568441
 30
0.0
 10
102.5291789478179
 20
238.5683749388318
 30
0.0
 10
101.0103490115487
 20
238.6140806953642
 30
0.0
 10
99.67792446927312
 20
238.6797821954607
 30
0.0
 10
98.58574068887062
 20
238.771182667868
 30
0.0
 10
97.62028397462839
 20
238.9111856415847
 30
0.0
 10
97.18022699048248
 20
239.0574407163236
 30
0.0
 10
97.23920596917385
 20
239.165224248771
 30
0.0
 10
97.24460881448965
 20
239.1750978981004
 30
0.0
  0
SPLINE
  5
1BA
330
1F
100
AcDbEntity
  8
0
  6
Continuous
 62
     8
370
    30
100
AcDbSpline
210
0.0
220
0.0
230
1.0
 70
     8
 71
     3
 72
     9
 73
     5
 74
     0
 42
0.000000001
 43
0.00000001
 40
0.0
 40
0.0
 40
0.0
 40
0.0
 40
0.5054381733565657
 40
1.0
 40
1.0
 40
1.0
 40
1.0
 10
97.83903848625403
 20
116.9529205630393
 30
0.0
 10
97.6933100262102
 20
116.9588315048288
 30
0.0
 10
97.40498898572355
 20
116.9705261929254
 30
0.0
 10
97.36642597606432
 20
116.9904638028246
 30
0.0
 10
97.34735418356638
 20
117.0003241835953
 30
0.0
  0
LINE
  5
1BB
330
1F
100
AcDbEntity
  8
0
  6
Continuous
 62
     8
370
    30
100
AcDbLine
 10
96.34499125428181
 20
119.5732735772477
 30
0.0
 11
96.59467790521364
 21
119.846795334001
 31
0.0
  0
LINE
  5
1BC
330
1F
100
AcDbEntity
  8
0
  6
Continuous
 62
     8
370
    30
100
AcDbLine
 10
123.079078870487
 20
217.6101746712671
 30
0.0
 11
123.4742148245094
 21
217.6101746712671
 31
0.0
  0
LINE
  5
1BD
330
1F
100
AcDbEntity
  8
0
  6
Continuous
 62
     8
370
    30
100
AcDbLine
 10
123.5510657007216
 20
217.6101746712671
 30
0.0
 11
125.2790788585661
 21
217.6101746712671
 31
0.0
  0
LINE
  5
1BE
330
1F
100
AcDbEntity
  8
0
  6
Continuous
 62
     8
370
    30
100
AcDbLine
 10
123.079078870487
 20
140.6101750884996
 30
0.0
 11
123.4742148245094
 21
140.6101750884996
 31
0.0
  0
LINE
  5
1BF
330
1F
100
AcDbEntity
  8
0
  6
Continuous
 62
     8
370
    30
100
AcDbLine
 10
123.5510657007216
 20
140.6101750884996
 30
0.0
 11
125.2790788585661
 21
140.6101750884996
 31
0.0
  0
LINE
  5
1C0
330
1F
100
AcDbEntity
  8
0
  6
Continuous
 62
     8
370
    30
100
AcDbLine
 10
182.0835793787954
 20
129.310175657724
 30
0.0
 11
165.8835770959375
 21
129.310175657724
 31
0.0
  0
LINE
  5
1C1
330
1F
100
AcDbEntity
  8
SLD-0
100
AcDbLine
 10
108.906117685414
 20
86.16017527212286
 30
0.0
 11
108.9061176854141
 21
70.73256355932205
 31
0.0
  0
DIMENSION
  5
1C2
330
1F
100
AcDbEntity
  8
SLD-0
100
AcDbDimension
  2
_D
 10
222.6290794264341
 20
58.16017527212288
 30
0.0
 11
163.3251002030745
 21
58.16017527212272
 31
0.0
 70
   160
  1
<>
 71
     2
 42
-1.0
  3
SLDDIMSTYLE0
100
AcDbAlignedDimension
 13
108.9061176854141
 23
70.73256355932206
 33
0.0
 14
222.6290794264339
 24
140.0601752701489
 34
0.0
 50
0.0000000000001504
100
AcDbRotatedDimension
  0
DIMENSION
  5
1CD
330
1F
100
AcDbEntity
  8
SLD-0
100
AcDbDimension
  2
_D_1
 10
222.6290794264342
 20
34.16017527212287
 30
0.0
 11
163.3238298332074
 21
34.16017527212267
 31
0.0
 70
   160
  1
<>
 71
     2
 42
-1.0
  3
SLDDIMSTYLE0
100
AcDbAlignedDimension
 13
92.40611768541402
 23
86.1601752721228
 33
0.0
 14
222.6290794264339
 24
140.0601752701489
 34
0.0
 50
0.0000000000001907
100
AcDbRotatedDimension
  0
DIMENSION
  5
1D7
330
1F
100
AcDbEntity
  8
SLD-0
100
AcDbDimension
  2
_D_2
 10
62.44165051179036
 20
266.5601752721226
 30
0.0
 11
62.44165051179066
 21
178.8967916828731
 31
0.0
 70
   160
  1
<>
 71
     2
 42
-1.0
  3
SLDDIMSTYLE0
100
AcDbAlignedDimension
 13
92.40611768541402
 23
86.1601752721228
 33
0.0
 14
92.40611768541339
 24
266.5601752721228
 34
0.0
 50
90.0000000000002
100
AcDbRotatedDimension
  0
SPLINE
  5
1E1
330
1F
100
AcDbEntity
  8
0
  6
Continuous
 62
     7
370
    30
100
AcDbSpline
210
0.0
220
0.0
230
1.0
 70
     8
 71
     3
 72
    15
 73
    11
 74
     0
 42
0.000000001
 43
0.00000001
 40
0.0
 40
0.0
 40
0.0
 40
0.0
 40
0.2030878340502607
 40
0.3891673262376443
 40
0.5407379261238838
 40
0.6583873644691489
 40
0.7455184601367824
 40
0.8300454203662111
 40
0.9194437783416655
 40
0.9999999999999999
 40
0.9999999999999999
 40
0.9999999999999999
 40
0.9999999999999999
 10
315.8891490762717
 20
118.6162455682502
 30
0.0
 10
316.0186648474105
 20
120.0800956545438
 30
0.0
 10
316.266849612369
 20
122.8852002870282
 30
0.0
 10
316.6654978429241
 20
126.7182787516842
 30
0.0
 10
317.040534357858
 20
129.8685001511381
 30
0.0
 10
317.3521218852484
 20
132.2694455456468
 30
0.0
 10
317.5921895027832
 20
134.0449623418793
 30
0.0
 10
317.8218925259748
 20
135.6783074102048
 30
0.0
 10
318.059506469124
 20
137.3089910485453
 30
0.0
 10
318.2192281414341
 20
138.4491456972949
 30
0.0
 10
318.2949341004378
 20
138.9895639126049
 30
0.0
  0
SPLINE
  5
1E2
330
1F
100
AcDbEntity
  8
0
  6
Continuous
 62
     7
370
    30
100
AcDbSpline
210
0.0
220
0.0
230
1.0
 70
     8
 71
     3
 72
     9
 73
     5
 74
     0
 42
0.000000001
 43
0.00000001
 40
0.0
 40
0.0
 40
0.0
 40
0.0
 40
0.3320833212996512
 40
1.0
 40
1.0
 40
1.0
 40
1.0
 10
318.4902464141733
 20
140.3753122989879
 30
0.0
 10
318.5049008194874
 20
140.47559365956
 30
0.0
 10
318.5490295196485
 20
140.77757016407
 30
0.0
 10
318.5822796874602
 20
141.1027971656032
 30
0.0
 10
318.6044880291111
 20
141.3200217042909
 30
0.0
  0
SPLINE
  5
1E3
330
1F
100
AcDbEntity
  8
0
  6
Continuous
 62
     7
370
    30
100
AcDbSpline
210
0.0
220
0.0
230
1.0
 70
     8
 71
     3
 72
     9
 73
     5
 74
     0
 42
0.000000001
 43
0.00000001
 40
0.0
 40
0.0
 40
0.0
 40
0.0
 40
0.8874026720600441
 40
1.0
 40
1.0
 40
1.0
 40
1.0
 10
289.7078572874553
 20
141.8013198976265
 30
0.0
 10
289.7552165283374
 20
141.3992117781152
 30
0.0
 10
289.8085849059332
 20
140.9460825142853
 30
0.0
 10
289.8679838943519
 20
140.5204723891885
 30
0.0
 10
289.8746720617301
 20
140.4725498263584
 30
0.0
  0
SPLINE
  5
1E4
330
1F
100
AcDbEntity
  8
0
  6
Continuous
 62
     7
370
    30
100
AcDbSpline
210
0.0
220
0.0
230
1.0
 70
     8
 71
     3
 72
    16
 73
    12
 74
     0
 42
0.000000001
 43
0.00000001
 40
0.0
 40
0.0
 40
0.0
 40
0.0
 40
0.0113438436106092
 40
0.0622007616590036
 40
0.1088345580309506
 40
0.1823869187260728
 40
0.285943502803529
 40
0.4202050050581391
 40
0.5862033667004827
 40
0.7849989505860357
 40
1.0
 40
1.0
 40
1.0
 40
1.0
 10
290.0109282796867
 20
139.4901404832349
 30
0.0
 10
290.0220442995775
 20
139.4096207418337
 30
0.0
 10
290.0829958542324
 20
138.9681134877085
 30
0.0
 10
290.1896345235932
 20
138.2542034477214
 30
0.0
 10
290.3373735358144
 20
137.2406824771992
 30
0.0
 10
290.5473952611777
 20
135.7608504201429
 30
0.0
 10
290.8397379581468
 20
133.6688606792357
 30
0.0
 10
291.2112444452807
 20
130.8738691137001
 30
0.0
 10
291.6347415152943
 20
127.3510139198019
 30
0.0
 10
292.0597353847651
 20
123.1919717334649
 30
0.0
 10
292.3209839486871
 20
120.1766920731091
 30
0.0
 10
292.4567238529808
 20
118.6100087337987
 30
0.0
  0
SPLINE
  5
1E5
330
1F
100
AcDbEntity
  8
0
  6
Continuous
 62
     7
370
    30
100
AcDbSpline
210
0.0
220
0.0
230
1.0
 70
     8
 71
     3
 72
    14
 73
    10
 74
     0
 42
0.000000001
 43
0.00000001
 40
0.0
 40
0.0
 40
0.0
 40
0.0
 40
0.1287614012732675
 40
0.3202186376572529
 40
0.4559834582101062
 40
0.6015368344589119
 40
0.7698351743876154
 40
0.9438145550434499
 40
0.9999999999999999
 40
0.9999999999999999
 40
0.9999999999999999
 40
0.9999999999999999
 10
291.8168186312205
 20
177.6166985486494
 30
0.0
 10
291.7249956383791
 20
177.2337982169126
 30
0.0
 10
291.4966396762463
 20
176.2815577055886
 30
0.0
 10
291.1230048892567
 20
174.7489529599946
 30
0.0
 10
290.6730740184226
 20
172.9984319129506
 30
0.0
 10
290.2290260818681
 20
171.1774766623319
 30
0.0
 10
289.7816805516331
 20
169.0616450154466
 30
0.0
 10
289.4472473802254
 20
167.245463652324
 30
0.0
 10
289.3267713241463
 20
166.1286732092849
 30
0.0
 10
289.2973619615323
 20
165.8560539339529
 30
0.0
  0
SPLINE
  5
1E6
330
1F
100
AcDbEntity
  8
0
  6
Continuous
 62
     7
370
    30
100
AcDbSpline
210
0.0
220
0.0
230
1.0
 70
     8
 71
     3
 72
    15
 73
    11
 74
     0
 42
0.000000001
 43
0.00000001
 40
0.0
 40
0.0
 40
0.0
 40
0.0
 40
0.0533092525989249
 40
0.2093960222604482
 40
0.3655622637647178
 40
0.5226955692682983
 40
0.6459110168447835
 40
0.7593190544019671
 40
0.9305332798714593
 40
1.0
 40
1.0
 40
1.0
 40
1.0
 10
319.1442350959069
 20
164.9456898425565
 30
0.0
 10
319.1203432332029
 20
165.2243145088075
 30
0.0
 10
319.0264972164101
 20
166.3187379713824
 30
0.0
 10
318.7243663650248
 20
168.1292119501542
 30
0.0
 10
318.2846854074933
 20
170.3525487330173
 30
0.0
 10
317.8270677513415
 20
172.2764587119209
 30
0.0
 10
317.4119574429509
 20
173.8987281035534
 30
0.0
 10
317.037529404635
 20
175.3930923782821
 30
0.0
 10
316.7418406377491
 20
176.6397121106831
 30
0.0
 10
316.567811545155
 20
177.3765589938124
 30
0.0
 10
316.5175822665579
 20
177.5892319832788
 30
0.0
  0
LINE
  5
1E7
330
1F
100
AcDbEntity
  8
0
  6
Continuous
 62
     7
370
    30
100
AcDbLine
 10
320.6723873605616
 20
259.41018189535
 30
0.0
 11
320.6723873605616
 21
266.5601762686716
 31
0.0
  0
LINE
  5
1E8
330
1F
100
AcDbEntity
  8
0
  6
Continuous
 62
     7
370
    30
100
AcDbLine
 10
287.6723866080529
 20
266.5601762686716
 30
0.0
 11
287.6723866080529
 21
259.41018189535
 31
0.0
  0
LINE
  5
1E9
330
1F
100
AcDbEntity
  8
0
  6
Continuous
 62
     7
370
    30
100
AcDbLine
 10
287.6723866080529
 20
93.31017534479959
 30
0.0
 11
287.6723866080529
 21
86.16017538354261
 31
0.0
  0
LINE
  5
1EA
330
1F
100
AcDbEntity
  8
0
  6
Continuous
 62
     7
370
    30
100
AcDbLine
 10
320.6723873605616
 20
86.16017538354261
 30
0.0
 11
320.6723873605616
 21
93.31017534479959
 31
0.0
  0
SPLINE
  5
1EB
330
1F
100
AcDbEntity
  8
0
  6
Continuous
 62
     7
370
    30
100
AcDbSpline
210
0.0
220
0.0
230
1.0
 70
     8
 71
     3
 72
    10
 73
     6
 74
     0
 42
0.000000001
 43
0.00000001
 40
0.0
 40
0.0
 40
0.0
 40
0.0
 40
0.1303455605281828
 40
0.6005325070647065
 40
1.0
 40
1.0
 40
1.0
 40
1.0
 10
315.4879595255143
 20
238.5439294134126
 30
0.0
 10
315.5259689844396
 20
238.6317317915741
 30
0.0
 10
315.7010874585023
 20
239.0362578994818
 30
0.0
 10
315.8213162130597
 20
239.7757323233559
 30
0.0
 10
315.785638085259
 20
240.4127855575581
 30
0.0
 10
315.7692496766932
 20
240.7054098998056
 30
0.0
  0
SPLINE
  5
1EC
330
1F
100
AcDbEntity
  8
0
  6
Continuous
 62
     7
370
    30
100
AcDbSpline
210
0.0
220
0.0
230
1.0
 70
     8
 71
     3
 72
    26
 73
    22
 74
     0
 42
0.000000001
 43
0.00000001
 40
0.0
 40
0.0
 40
0.0
 40
0.0
 40
0.0597681934406815
 40
0.1250337028351021
 40
0.1816096808033526
 40
0.2299177818160729
 40
0.2692087719851463
 40
0.29851475342072
 40
0.3198135387178413
 40
0.3393193576392816
 40
0.3824948200511816
 40
0.434713755457193
 40
0.4791955160076847
 40
0.5303935365939213
 40
0.5895297287174566
 40
0.655635844017869
 40
0.7303592197954195
 40
0.8137721689507684
 40
0.8742724546424555
 40
0.9386998776194325
 40
1.0
 40
1.0
 40
1.0
 40
1.0
 10
291.9227230464704
 20
238.7079241429315
 30
0.0
 10
291.1983182485649
 20
237.4342188282485
 30
0.0
 10
289.682879868726
 20
234.7696562465866
 30
0.0
 10
287.0570942945863
 20
231.1669324719462
 30
0.0
 10
284.3811212819757
 20
227.9677575683605
 30
0.0
 10
281.9320129519447
 20
225.4197314960919
 30
0.0
 10
279.8413724820472
 20
223.4592261428046
 30
0.0
 10
278.1382175788635
 20
222.0635183039226
 30
0.0
 10
276.78143358338
 20
221.0119292265749
 30
0.0
 10
275.1413602567728
 20
219.7703055576156
 30
0.0
 10
272.8424668003838
 20
218.1437022246122
 30
0.0
 10
270.1324773000972
 20
216.0297609261973
 30
0.0
 10
267.5073446576484
 20
213.5161403041365
 30
0.0
 10
264.9495645779051
 20
210.701029415957
 30
0.0
 10
262.2937954110596
 20
207.2734872811226
 30
0.0
 10
259.6293402026575
 20
203.1430640356686
 30
0.0
 10
257.1379720780646
 20
198.223383684244
 30
0.0
 10
255.2663260654248
 20
193.1780941826813
 30
0.0
 10
254.0096172965052
 20
188.2167982844194
 30
0.0
 10
253.2498126278961
 20
183.6984695613942
 30
0.0
 10
253.110919277107
 20
180.6132038054598
 30
0.0
 10
253.0431999927051
 20
179.1089418087946
 30
0.0
  0
SPLINE
  5
1ED
330
1F
100
AcDbEntity
  8
0
  6
Continuous
 62
     7
370
    30
100
AcDbSpline
210
0.0
220
0.0
230
1.0
 70
     8
 71
     3
 72
     9
 73
     5
 74
     0
 42
0.000000001
 43
0.00000001
 40
0.0
 40
0.0
 40
0.0
 40
0.0
 40
0.5102605821305765
 40
1.0
 40
1.0
 40
1.0
 40
1.0
 10
309.6071324413306
 20
225.8221897040353
 30
0.0
 10
310.7578128271772
 20
227.9166985330853
 30
0.0
 10
313.0128966532528
 20
232.0214812703768
 30
0.0
 10
314.6574264674273
 20
236.4063656233936
 30
0.0
 10
315.46281754129
 20
238.5538163338648
 30
0.0
  0
LWPOLYLINE
  5
1EE
330
1F
100
AcDbEntity
  8
0
  6
Continuous
 62
     7
370
    30
100
AcDbPolyline
 90
        3
 70
   128
 43
0.0
 10
315.7853103344924
 20
240.7061251555429
 10
315.3735558604486
 20
245.1101782475458
 10
314.8593363454229
 20
250.6101819430338
  0
LWPOLYLINE
  5
1EF
330
1F
100
AcDbEntity
  8
0
  6
Continuous
 62
     7
370
    30
100
AcDbPolyline
 90
        3
 70
   128
 43
0.0
 10
293.4854292412884
 20
250.6101819430338
 10
292.971206932295
 20
245.1101782475458
 10
292.5522393649108
 20
240.6289967452036
  0
LWPOLYLINE
  5
1F0
330
1F
100
AcDbEntity
  8
0
  6
Continuous
 62
     7
370
    30
100
AcDbPolyline
 90
        3
 70
   128
 43
0.0
 10
292.4572891657836
 20
118.6101752077089
 10
293.2285164585001
 20
110.3601752524124
 10
293.9997446825392
 20
102.1101752971159
  0
LINE
  5
1F1
330
1F
100
AcDbEntity
  8
0
  6
Continuous
 62
     7
370
    30
100
AcDbLine
 10
314.3451056545264
 20
102.1101752971159
 30
0.0
 11
315.8877036636359
 21
118.6101752077089
 31
0.0
  0
SPLINE
  5
1F2
330
1F
100
AcDbEntity
  8
0
  6
Continuous
 62
     7
370
    30
100
AcDbSpline
210
0.0
220
0.0
230
1.0
 70
     8
 71
     3
 72
    10
 73
     6
 74
     0
 42
0.000000001
 43
0.00000001
 40
0.0
 40
0.0
 40
0.0
 40
0.0
 40
0.1862774218632649
 40
0.7091579789693013
 40
1.0
 40
1.0
 40
1.0
 40
1.0
 10
292.5279858624227
 20
240.6295778904901
 30
0.0
 10
292.5226079278657
 20
240.5027983215404
 30
0.0
 10
292.5021341358021
 20
240.0201486155717
 30
0.0
 10
292.3022181921926
 20
239.3529828696533
 30
0.0
 10
292.0329191645013
 20
238.8691841086703
 30
0.0
 10
291.9366658767349
 20
238.6962639842973
 30
0.0
  0
ARC
  5
1F3
330
1F
100
AcDbEntity
  8
0
  6
Continuous
 62
     7
370
    30
100
AcDbCircle
 10
381.9149597645275
 20
208.8101752721229
 30
0.0
 40
3.300000000000011
100
AcDbArc
 50
0.0000000000002313
 51
90.0
  0
ARC
  5
1F4
330
1F
100
AcDbEntity
  8
0
  6
Continuous
 62
     7
370
    30
100
AcDbCircle
 10
381.9149597645275
 20
149.4101752721229
 30
0.0
 40
3.300000000000011
100
AcDbArc
 50
270.0000000000008
 51
0.0000000000002313
  0
LINE
  5
1F5
330
1F
100
AcDbEntity
  8
0
  6
Continuous
 62
     7
370
    30
100
AcDbLine
 10
354.6970441108234
 20
130.3901754994736
 30
0.0
 11
354.6970441108234
 21
129.310175657724
 31
0.0
  0
LINE
  5
1F6
330
1F
100
AcDbEntity
  8
0
  6
Continuous
 62
     7
370
    30
100
AcDbLine
 10
370.897042668391
 20
129.310175657724
 30
0.0
 11
370.897042668391
 21
130.3901754994736
 31
0.0
  0
ARC
  5
1F7
330
1F
100
AcDbEntity
  8
0
  6
Continuous
 62
     7
370
    30
100
AcDbCircle
 10
367.2970445980559
 20
129.3101752721229
 30
0.0
 40
3.600000000000023
100
AcDbArc
 50
270.0000000000008
 51
0.0000000000001696
  0
ARC
  5
1F8
330
1F
100
AcDbEntity
  8
0
  6
Continuous
 62
     7
370
    30
100
AcDbCircle
 10
358.2970445980559
 20
129.3101752721229
 30
0.0
 40
3.599999999999994
100
AcDbArc
 50
179.9999999999998
 51
270.0000000000008
  0
LINE
  5
1F9
330
1F
100
AcDbEntity
  8
0
  6
Continuous
 62
     7
370
    30
100
AcDbLine
 10
356.0170448487289
 20
142.5101755861984
 30
0.0
 11
356.0170448487289
 21
136.8701754812942
 31
0.0
  0
LINE
  5
1FA
330
1F
100
AcDbEntity
  8
0
  6
Continuous
 62
     7
370
    30
100
AcDbLine
 10
369.5770456557757
 20
136.8701754812942
 30
0.0
 11
369.5770456557757
 21
142.5101755861984
 31
0.0
  0
LINE
  5
1FB
330
1F
100
AcDbEntity
  8
0
  6
Continuous
 62
     7
370
    30
100
AcDbLine
 10
353.9470463161952
 20
131.1401751567469
 30
0.0
 11
354.6970441108234
 21
130.3901754994736
 31
0.0
  0
LINE
  5
1FC
330
1F
100
AcDbEntity
  8
0
  6
Continuous
 62
     7
370
    30
100
AcDbLine
 10
370.897042668391
 20
130.3901754994736
 30
0.0
 11
371.6470479135997
 21
131.1401751567469
 31
0.0
  0
LINE
  5
1FD
330
1F
100
AcDbEntity
  8
0
  6
Continuous
 62
     7
370
    30
100
AcDbLine
 10
353.9470463161952
 20
136.8701754812942
 30
0.0
 11
353.9470463161952
 21
131.1401751567469
 31
0.0
  0
LINE
  5
1FE
330
1F
100
AcDbEntity
  8
0
  6
Continuous
 62
     7
370
    30
100
AcDbLine
 10
371.6470479135997
 20
142.5101755861984
 30
0.0
 11
371.6470479135997
 21
146.1101750586973
 31
0.0
  0
LINE
  5
1FF
330
1F
100
AcDbEntity
  8
0
  6
Continuous
 62
     7
370
    30
100
AcDbLine
 10
371.6470479135997
 20
131.1401751567469
 30
0.0
 11
371.6470479135997
 21
136.8701754812942
 31
0.0
  0
SPLINE
  5
200
330
1F
100
AcDbEntity
  8
0
  6
Continuous
 62
     7
370
    30
100
AcDbSpline
210
0.0
220
0.0
230
1.0
 70
     8
 71
     3
 72
    18
 73
    14
 74
     0
 42
0.000000001
 43
0.00000001
 40
0.0
 40
0.0
 40
0.0
 40
0.0
 40
0.0046570508499055
 40
0.0837422949214391
 40
0.2142923197595541
 40
0.3497247524601912
 40
0.4817490578465659
 40
0.6177296998395411
 40
0.7499049847860473
 40
0.8847821284240637
 40
0.9826550852666893
 40
0.9973995768867033
 40
1.0
 40
1.0
 40
1.0
 40
1.0
 10
307.828236474622
 20
119.846795334001
 30
0.0
 10
307.8513209043463
 20
119.8464515080807
 30
0.0
 10
308.2664211865574
 20
119.8402688889631
 30
0.0
 10
309.3061765646685
 20
119.818892469577
 30
0.0
 10
310.8614552781492
 20
119.7627887337031
 30
0.0
 10
312.418961282332
 20
119.6606618142855
 30
0.0
 10
313.7173383765927
 20
119.5115543189099
 30
0.0
 10
314.7059733835954
 20
119.3111551052571
 30
0.0
 10
315.4046233259298
 20
119.0614097312193
 30
0.0
 10
315.7861136402396
 20
118.83799106414
 30
0.0
 10
315.881572436463
 20
118.6890920509146
 30
0.0
 10
315.8874169243762
 20
118.6217750052138
 30
0.0
 10
315.8873139731936
 20
118.6116875602082
 30
0.0
 10
315.887298538316
 20
118.6101752077089
 30
0.0
  0
SPLINE
  5
201
330
1F
100
AcDbEntity
  8
0
  6
Continuous
 62
     7
370
    30
100
AcDbSpline
210
0.0
220
0.0
230
1.0
 70
     8
 71
     3
 72
    11
 73
     7
 74
     0
 42
0.000000001
 43
0.00000001
 40
0.0
 40
0.0
 40
0.0
 40
0.0
 40
0.3307461743377482
 40
0.3915541559062451
 40
0.8558570803950337
 40
1.0
 40
1.0
 40
1.0
 40
1.0
 10
311.5829453905708
 20
122.8413315233634
 30
0.0
 10
311.2957132442241
 20
122.4157934422726
 30
0.0
 10
310.9556732094841
 20
121.9120198023171
 30
0.0
 10
309.9392752402721
 20
120.9537716196756
 30
0.0
 10
308.9928083267719
 20
120.3200087003072
 30
0.0
 10
308.0512862927373
 20
119.9374296345721
 30
0.0
 10
307.828236474622
 20
119.846795334001
 30
0.0
  0
SPLINE
  5
202
330
1F
100
AcDbEntity
  8
0
  6
Continuous
 62
     7
370
    30
100
AcDbSpline
210
0.0
220
0.0
230
1.0
 70
     8
 71
     3
 72
    13
 73
     9
 74
     0
 42
0.000000001
 43
0.00000001
 40
0.0
 40
0.0
 40
0.0
 40
0.0
 40
0.0000045107490986
 40
0.2045653808260848
 40
0.4139296338174389
 40
0.701896776801588
 40
0.8510796929935456
 40
1.0
 40
1.0
 40
1.0
 40
1.0
 10
317.5338554298169
 20
134.5212067221151
 30
0.0
 10
317.5338510836565
 20
134.521186853898
 30
0.0
 10
317.3367499056448
 20
133.6201503935107
 30
0.0
 10
316.7931412830173
 20
131.8243302204782
 30
0.0
 10
315.4774897674278
 20
128.9401175010383
 30
0.0
 10
313.9489025834215
 20
126.4919490908995
 30
0.0
 10
312.5164712405972
 20
124.4039553678002
 30
0.0
 10
311.8939378703643
 20
123.3619001443093
 30
0.0
 10
311.5829453905708
 20
122.8413315233634
 30
0.0
  0
LWPOLYLINE
  5
203
330
1F
100
AcDbEntity
  8
0
  6
Continuous
 62
     7
370
    30
100
AcDbPolyline
 90
       11
 70
   128
 43
0.0
 10
319.1393763860352
 20
164.792371795033
 10
319.2398539846427
 20
164.054395512198
 10
319.3805963834412
 20
161.2008752976404
 10
319.3832338889725
 20
155.7841877196775
 10
319.3216408705003
 20
152.89597015128
 10
319.2173681324012
 20
149.9715762887941
 10
318.9372821813113
 20
144.9048536573396
 10
318.4341472675688
 20
139.8068981920229
 10
317.5338675370104
 20
134.5212626014696
 10
317.5338554298169
 20
134.5212067221151
 10
317.5338554298169
 20
134.5212067221151
  0
SPLINE
  5
204
330
1F
100
AcDbEntity
  8
0
  6
Continuous
 62
     7
370
    30
100
AcDbSpline
210
0.0
220
0.0
230
1.0
 70
     8
 71
     3
 72
    15
 73
    11
 74
     0
 42
0.000000001
 43
0.00000001
 40
0.0
 40
0.0
 40
0.0
 40
0.0
 40
0.00000181253703
 40
0.1812694202516388
 40
0.3407844716779965
 40
0.5025831608862134
 40
0.6782998561535212
 40
0.8592156750504413
 40
0.9981727838789834
 40
1.0
 40
1.0
 40
1.0
 40
1.0
 10
290.9453456392176
 20
134.2658790503488
 30
0.0
 10
290.9453412930421
 20
134.2658976767988
 30
0.0
 10
290.5106860534651
 20
136.1287041938551
 30
0.0
 10
289.8913030018542
 20
139.7152192603286
 30
0.0
 10
289.3662381780319
 20
145.1049397777646
 30
0.0
 10
289.0861927096906
 20
150.4894408504723
 30
0.0
 10
288.9316544485471
 20
156.0692830859715
 30
0.0
 10
288.9328407126315
 20
161.1211898449521
 30
0.0
 10
289.0553872096541
 20
164.3163429863977
 30
0.0
 10
289.2521903653956
 20
165.5276540155292
 30
0.0
 10
289.2547446405179
 20
165.5433754180418
 30
0.0
  0
SPLINE
  5
205
330
1F
100
AcDbEntity
  8
0
  6
Continuous
 62
     7
370
    30
100
AcDbSpline
210
0.0
220
0.0
230
1.0
 70
     8
 71
     3
 72
    13
 73
     9
 74
     0
 42
0.000000001
 43
0.00000001
 40
0.0
 40
0.0
 40
0.0
 40
0.0
 40
0.1457248959552958
 40
0.2916779256636645
 40
0.5943197076465431
 40
0.7951491542131764
 40
0.9999955234130358
 40
1.0
 40
1.0
 40
1.0
 40
1.0
 10
296.7807036926634
 20
122.8593977843271
 30
0.0
 10
296.488213985136
 20
123.3593096851801
 30
0.0
 10
295.902776674577
 20
124.3599161038672
 30
0.0
 10
294.5060069579158
 20
126.4357195891923
 30
0.0
 10
293.0033549167494
 20
128.8379977592092
 30
0.0
 10
291.6998987201816
 20
131.6757584294052
 30
0.0
 10
291.1442323830149
 20
133.3850921349125
 30
0.0
 10
290.9453499853767
 20
134.2658598030128
 30
0.0
 10
290.9453456392176
 20
134.2658790503488
 30
0.0
  0
SPLINE
  5
206
330
1F
100
AcDbEntity
  8
0
  6
Continuous
 62
     7
370
    30
100
AcDbSpline
210
0.0
220
0.0
230
1.0
 70
     8
 71
     3
 72
    10
 73
     6
 74
     0
 42
0.000000001
 43
0.00000001
 40
0.0
 40
0.0
 40
0.0
 40
0.0
 40
0.2810732472553061
 40
0.685916431724003
 40
1.0
 40
1.0
 40
1.0
 40
1.0
 10
300.5011664805598
 20
119.8456311807827
 30
0.0
 10
300.0733823912896
 20
120.0348094712336
 30
0.0
 10
299.0294405045185
 20
120.4964702632614
 30
0.0
 10
297.6734911277518
 20
121.53351987235
 30
0.0
 10
297.0521529295379
 20
122.4562687378713
 30
0.0
 10
296.7807036926634
 20
122.8593977843271
 30
0.0
  0
SPLINE
  5
207
330
1F
100
AcDbEntity
  8
0
  6
Continuous
 62
     7
370
    30
100
AcDbSpline
210
0.0
220
0.0
230
1.0
 70
     8
 71
     3
 72
    15
 73
    11
 74
     0
 42
0.000000001
 43
0.00000001
 40
0.0
 40
0.0
 40
0.0
 40
0.0
 40
0.002707978971653
 40
0.1369542052920754
 40
0.2742632770213815
 40
0.4058282531601319
 40
0.5403581391775473
 40
0.6737480718169261
 40
0.8116354195376932
 40
1.0
 40
1.0
 40
1.0
 40
1.0
 10
292.4579299157149
 20
118.6101752077089
 30
0.0
 10
292.4579501504038
 20
118.6116816807895
 30
0.0
 10
292.458973506109
 20
118.6878705381299
 30
0.0
 10
292.574650857392
 20
118.8490826232748
 30
0.0
 10
293.0535902076119
 20
119.091287876642
 30
0.0
 10
293.8086455657551
 20
119.3326281751968
 30
0.0
 10
294.8426297761571
 20
119.5287827638756
 30
0.0
 10
296.1939740637324
 20
119.6733907683935
 30
0.0
 10
298.0238594500069
 20
119.7887686184191
 30
0.0
 10
299.5944001960604
 20
119.82481783235
 30
0.0
 10
300.5011664805598
 20
119.8456311807827
 30
0.0
  0
SPLINE
  5
208
330
1F
100
AcDbEntity
  8
0
  6
Continuous
 62
     7
370
    30
100
AcDbSpline
210
0.0
220
0.0
230
1.0
 70
     8
 71
     3
 72
    12
 73
     8
 74
     0
 42
0.000000001
 43
0.00000001
 40
0.0
 40
0.0
 40
0.0
 40
0.0
 40
0.0925850497073625
 40
0.422999644726946
 40
0.6664848053287588
 40
0.9110890365183998
 40
1.0
 40
1.0
 40
1.0
 40
1.0
 10
291.9000658308751
 20
177.6042225514398
 30
0.0
 10
291.9265699155604
 20
177.8344481922072
 30
0.0
 10
292.0476609387989
 20
178.8862958129566
 30
0.0
 10
293.0002360973515
 20
180.3605362789243
 30
0.0
 10
294.536914315717
 20
181.7156559189297
 30
0.0
 10
295.9339953075509
 20
182.2414232734316
 30
0.0
 10
296.7656690268547
 20
182.2797262892274
 30
0.0
 10
296.9873827984221
 20
182.2899373923288
 30
0.0
  0
SPLINE
  5
209
330
1F
100
AcDbEntity
  8
0
  6
Continuous
 62
     7
370
    30
100
AcDbSpline
210
0.0
220
0.0
230
1.0
 70
     8
 71
     3
 72
    23
 73
    19
 74
     0
 42
0.000000001
 43
0.00000001
 40
0.0
 40
0.0
 40
0.0
 40
0.0
 40
0.0117414822699044
 40
0.0988152470342549
 40
0.1880403355920069
 40
0.234874846889678
 40
0.2817044677989656
 40
0.3300029779637518
 40
0.3783001803662936
 40
0.4695207197301376
 40
0.5164159190683403
 40
0.5633113337223096
 40
0.6444694657820815
 40
0.7274004977700556
 40
0.8060200175913742
 40
0.8865448757410342
 40
0.9430442434157905
 40
1.0
 40
1.0
 40
1.0
 40
1.0
 10
296.9873827984221
 20
182.2899299417482
 30
0.0
 10
296.9629957768056
 20
182.1590849159894
 30
0.0
 10
296.7577568205928
 20
181.0579050780138
 30
0.0
 10
296.283610126857
 20
178.6151309617364
 30
0.0
 10
295.4686102256841
 20
175.1362370371759
 30
0.0
 10
294.8313777799155
 20
171.9476637323118
 30
0.0
 10
294.4001055991731
 20
169.3024360244558
 30
0.0
 10
294.0920552534877
 20
166.4650672531164
 30
0.0
 10
293.90954896363
 20
162.5627088906489
 30
0.0
 10
293.9384353297988
 20
158.463753793398
 30
0.0
 10
294.0035237312928
 20
154.2711848409676
 30
0.0
 10
294.1283022680096
 20
150.2486690668482
 30
0.0
 10
294.3444286191119
 20
145.3424754170102
 30
0.0
 10
294.8179707722069
 20
139.7485718964882
 30
0.0
 10
295.609270600018
 20
134.3505051724164
 30
0.0
 10
296.7011883906942
 20
129.823050764608
 30
0.0
 10
298.1465523161203
 20
126.079137906005
 30
0.0
 10
298.8700593819554
 20
124.020961448003
 30
0.0
 10
299.2332681184299
 20
122.9877335694478
 30
0.0
  0
ARC
  5
20A
330
1F
100
AcDbEntity
  8
0
  6
Continuous
 62
     7
370
    30
100
AcDbCircle
 10
297.6572183809157
 20
129.6078072342312
 30
0.0
 40
6.805094275781755
100
AcDbArc
 50
262.5995881269764
 51
283.3912013653681
  0
SPLINE
  5
20B
330
1F
100
AcDbEntity
  8
0
  6
Continuous
 62
     7
370
    30
100
AcDbSpline
210
0.0
220
0.0
230
1.0
 70
     8
 71
     3
 72
    22
 73
    18
 74
     0
 42
0.000000001
 43
0.00000001
 40
0.0
 40
0.0
 40
0.0
 40
0.0
 40
0.0569939696069484
 40
0.1140227618381612
 40
0.1917935382715421
 40
0.2696489124571293
 40
0.3502025760113441
 40
0.430777104957951
 40
0.4925713218723151
 40
0.5545490824546208
 40
0.6163379510986691
 40
0.6797874463233727
 40
0.7435030805575562
 40
0.8070232171942606
 40
0.8712888671415354
 40
0.9357519012727028
 40
1.0
 40
1.0
 40
1.0
 40
1.0
 10
309.1554591534323
 20
122.9877335694478
 30
0.0
 10
309.5240224872658
 20
124.0201472337012
 30
0.0
 10
310.26137434266
 20
126.0856053544368
 30
0.0
 10
311.7187077267108
 20
129.7811703750956
 30
0.0
 10
312.7887771529257
 20
134.2468255705985
 30
0.0
 10
313.5298246295409
 20
139.508719777997
 30
0.0
 10
313.992257800589
 20
145.0120763979041
 30
0.0
 10
314.2174974054934
 20
150.1965720997079
 30
0.0
 10
314.3638569336953
 20
154.8967122232393
 30
0.0
 10
314.4185413176292
 20
159.0773618718165
 30
0.0
 10
314.416985408039
 20
163.1589221836254
 30
0.0
 10
314.1965454230158
 20
167.0794503476998
 30
0.0
 10
313.708786780431
 20
170.7754216183594
 30
0.0
 10
313.0496009296883
 20
174.1887913690429
 30
0.0
 10
312.3741489905419
 20
177.2691238258922
 30
0.0
 10
311.7865288660557
 20
180.0360252979411
 30
0.0
 10
311.4959673442818
 20
181.5394652612705
 30
0.0
 10
311.3509291885085
 20
182.2899299417482
 30
0.0
  0
LINE
  5
20C
330
1F
100
AcDbEntity
  8
0
  6
Continuous
 62
     7
370
    30
100
AcDbLine
 10
299.2332681184299
 20
122.9877335694478
 30
0.0
 11
309.1554591534323
 21
122.9877335694478
 31
0.0
  0
LINE
  5
20D
330
1F
100
AcDbEntity
  8
0
  6
Continuous
 62
     7
370
    30
100
AcDbLine
 10
296.9873827984221
 20
182.2899299417482
 30
0.0
 11
311.3509291885085
 21
182.2899299417482
 31
0.0
  0
ARC
  5
20E
330
1F
100
AcDbEntity
  8
0
  6
Continuous
 62
     7
370
    30
100
AcDbCircle
 10
310.7718554988649
 20
129.5909089543297
 30
0.0
 40
6.798136679196555
100
AcDbArc
 50
256.245009364279
 51
276.8523180951157
  0
SPLINE
  5
20F
330
1F
100
AcDbEntity
  8
0
  6
Continuous
 62
     7
370
    30
100
AcDbSpline
210
0.0
220
0.0
230
1.0
 70
     8
 71
     3
 72
    12
 73
     8
 74
     0
 42
0.000000001
 43
0.00000001
 40
0.0
 40
0.0
 40
0.0
 40
0.0
 40
0.2110686020447016
 40
0.4215559149704293
 40
0.6472164077769919
 40
0.9043293873037711
 40
1.0
 40
1.0
 40
1.0
 40
1.0
 10
311.3509291885085
 20
182.2899299417482
 30
0.0
 10
311.8815655187438
 20
182.2338043689822
 30
0.0
 10
312.9413767912017
 20
182.1217077949235
 30
0.0
 10
314.3819848059604
 20
181.2790379287452
 30
0.0
 10
315.558903812439
 20
179.9972046300639
 30
0.0
 10
316.2985308996742
 20
178.6945229544942
 30
0.0
 10
316.416487795616
 20
177.8157882817162
 30
0.0
 10
316.4484762688763
 20
177.5774861429678
 30
0.0
  0
LINE
  5
210
330
1F
100
AcDbEntity
  8
0
  6
Continuous
 62
     7
370
    30
100
AcDbLine
 10
320.6723873605616
 20
259.41018189535
 30
0.0
 11
287.6723866080529
 21
259.41018189535
 31
0.0
  0
LINE
  5
211
330
1F
100
AcDbEntity
  8
0
  6
Continuous
 62
     7
370
    30
100
AcDbLine
 10
320.6723873605616
 20
266.5601762686716
 30
0.0
 11
287.6723866080529
 21
266.5601762686716
 31
0.0
  0
LINE
  5
212
330
1F
100
AcDbEntity
  8
0
  6
Continuous
 62
     7
370
    30
100
AcDbLine
 10
287.6723866080529
 20
93.31017534479959
 30
0.0
 11
320.6723873605616
 21
93.31017534479959
 31
0.0
  0
LINE
  5
213
330
1F
100
AcDbEntity
  8
0
  6
Continuous
 62
     7
370
    30
100
AcDbLine
 10
287.6723866080529
 20
86.16017538354261
 30
0.0
 11
320.6723873605616
 21
86.16017538354261
 31
0.0
  0
SPLINE
  5
214
330
1F
100
AcDbEntity
  8
0
  6
Continuous
 62
     7
370
    30
100
AcDbSpline
210
0.0
220
0.0
230
1.0
 70
     8
 71
     3
 72
    16
 73
    12
 74
     0
 42
0.000000001
 43
0.00000001
 40
0.0
 40
0.0
 40
0.0
 40
0.0
 40
0.0796434337833213
 40
0.1872033218715024
 40
0.3297471753111759
 40
0.4896557109146549
 40
0.638316465287412
 40
0.7717944698193756
 40
0.8993247338722566
 40
0.9816743897236433
 40
1.0
 40
1.0
 40
1.0
 40
1.0
 10
299.2332681184299
 20
122.9877335694478
 30
0.0
 10
299.40351979552
 20
122.7857592607294
 30
0.0
 10
299.8036994210265
 20
122.3110150196957
 30
0.0
 10
300.8876028747923
 20
121.7196073791663
 30
0.0
 10
302.3525307302743
 20
121.3066567130706
 30
0.0
 10
304.0334007339252
 20
121.1556537400089
 30
0.0
 10
305.678046340314
 20
121.2701870371079
 30
0.0
 10
307.1663785007901
 20
121.609445188157
 30
0.0
 10
308.3216861537429
 20
122.1502448342492
 30
0.0
 10
308.9302469557356
 20
122.6821508929732
 30
0.0
 10
309.120777467976
 20
122.9406751846233
 30
0.0
 10
309.1554591534323
 20
122.9877335694478
 30
0.0
  0
SPLINE
  5
215
330
1F
100
AcDbEntity
  8
0
  6
Continuous
 62
     7
370
    30
100
AcDbSpline
210
0.0
220
0.0
230
1.0
 70
     8
 71
     3
 72
     9
 73
     5
 74
     0
 42
0.000000001
 43
0.00000001
 40
0.0
 40
0.0
 40
0.0
 40
0.0
 40
0.4890842197672688
 40
1.0
 40
1.0
 40
1.0
 40
1.0
 10
300.5011664805598
 20
119.8456311807827
 30
0.0
 10
301.6951956533291
 20
119.7085835113157
 30
0.0
 10
304.1365526313512
 20
119.4283706892126
 30
0.0
 10
306.5798945380074
 20
119.7053051486065
 30
0.0
 10
307.828236474622
 20
119.846795334001
 30
0.0
  0
LINE
  5
216
330
1F
100
AcDbEntity
  8
0
  6
Continuous
 62
     7
370
    30
100
AcDbLine
 10
304.1723872171379
 20
250.6101819430338
 30
0.0
 11
304.1723872171379
 21
259.41018189535
 31
0.0
  0
LINE
  5
217
330
1F
100
AcDbEntity
  8
0
  6
Continuous
 62
     7
370
    30
100
AcDbLine
 10
304.1723872171379
 20
250.6101819430338
 30
0.0
 11
292.6223875125534
 21
250.6101819430338
 31
0.0
  0
LINE
  5
218
330
1F
100
AcDbEntity
  8
0
  6
Continuous
 62
     7
370
    30
100
AcDbLine
 10
292.6223875125534
 20
250.6101819430338
 30
0.0
 11
292.6223875125534
 21
259.41018189535
 31
0.0
  0
LINE
  5
219
330
1F
100
AcDbEntity
  8
0
  6
Continuous
 62
     7
370
    30
100
AcDbLine
 10
315.7223873873837
 20
250.6101819430338
 30
0.0
 11
315.7223873873837
 21
259.41018189535
 31
0.0
  0
LINE
  5
21A
330
1F
100
AcDbEntity
  8
0
  6
Continuous
 62
     7
370
    30
100
AcDbLine
 10
315.7223873873837
 20
250.6101819430338
 30
0.0
 11
304.1723872171379
 21
250.6101819430338
 31
0.0
  0
LINE
  5
21B
330
1F
100
AcDbEntity
  8
0
  6
Continuous
 62
     7
370
    30
100
AcDbLine
 10
292.6223875125534
 20
102.1101752971159
 30
0.0
 11
292.6223875125534
 21
93.31017534479959
 31
0.0
  0
LINE
  5
21C
330
1F
100
AcDbEntity
  8
0
  6
Continuous
 62
     7
370
    30
100
AcDbLine
 10
292.6223875125534
 20
102.1101752971159
 30
0.0
 11
304.1723872171379
 21
102.1101752971159
 31
0.0
  0
LINE
  5
21D
330
1F
100
AcDbEntity
  8
0
  6
Continuous
 62
     7
370
    30
100
AcDbLine
 10
304.1723872171379
 20
102.1101752971159
 30
0.0
 11
304.1723872171379
 21
93.31017534479959
 31
0.0
  0
LINE
  5
21E
330
1F
100
AcDbEntity
  8
0
  6
Continuous
 62
     7
370
    30
100
AcDbLine
 10
315.7223873873837
 20
102.1101752971159
 30
0.0
 11
315.7223873873837
 21
93.31017534479959
 31
0.0
  0
LINE
  5
21F
330
1F
100
AcDbEntity
  8
0
  6
Continuous
 62
     7
370
    30
100
AcDbLine
 10
304.1723872171379
 20
102.1101752971159
 30
0.0
 11
315.7223873873837
 21
102.1101752971159
 31
0.0
  0
ARC
  5
220
330
1F
100
AcDbEntity
  8
0
  6
Continuous
 62
     7
370
    30
100
AcDbCircle
 10
320.5462965996241
 20
116.894780981793
 30
0.0
 40
13.05616490700127
100
AcDbArc
 50
166.9323597774084
 51
179.7448589489256
  0
SPLINE
  5
221
330
1F
100
AcDbEntity
  8
0
  6
Continuous
 62
     7
370
    30
100
AcDbSpline
210
0.0
220
0.0
230
1.0
 70
     8
 71
     3
 72
    17
 73
    13
 74
     0
 42
0.000000001
 43
0.00000001
 40
0.0
 40
0.0
 40
0.0
 40
0.0
 40
0.0030631789817497
 40
0.017934143775084
 40
0.1185093479958982
 40
0.2530014251682555
 40
0.3875067487762225
 40
0.5211754380924744
 40
0.654840400947421
 40
0.7862809451517726
 40
0.9177102163381229
 40
1.0
 40
1.0
 40
1.0
 40
1.0
 10
315.887298538316
 20
118.6101752077089
 30
0.0
 10
315.8869851811094
 20
118.6083706181518
 30
0.0
 10
315.8851505533489
 20
118.5978051994268
 30
0.0
 10
315.8657270359681
 20
118.5273008591195
 30
0.0
 10
315.7352757484865
 20
118.37168104473
 30
0.0
 10
315.2709486650897
 20
118.1084400376048
 30
0.0
 10
314.4518214892523
 20
117.8043977964879
 30
0.0
 10
313.3359884661722
 20
117.5281122337216
 30
0.0
 10
311.9755357009223
 20
117.2951192898591
 30
0.0
 10
310.3989155196845
 20
117.1134731781825
 30
0.0
 10
308.8811128295581
 20
117.0005874512643
 30
0.0
 10
307.87691474692
 20
116.9661718495199
 30
0.0
 10
307.4902611421085
 20
116.9529205630393
 30
0.0
  0
SPLINE
  5
222
330
1F
100
AcDbEntity
  8
0
  6
Continuous
 62
     7
370
    30
100
AcDbSpline
210
0.0
220
0.0
230
1.0
 70
     8
 71
     3
 72
    11
 73
     7
 74
     0
 42
0.000000001
 43
0.00000001
 40
0.0
 40
0.0
 40
0.0
 40
0.0
 40
0.251929131655859
 40
0.5095301050199421
 40
0.7521905652220457
 40
0.9999999999999999
 40
0.9999999999999999
 40
0.9999999999999999
 40
0.9999999999999999
 10
307.4902611421085
 20
116.9529205630393
 30
0.0
 10
306.9402387411718
 20
116.9571313649299
 30
0.0
 10
305.8278109331188
 20
116.965647769188
 30
0.0
 10
304.1295621946603
 20
117.0217360086515
 30
0.0
 10
302.4433009811733
 20
116.9574764294795
 30
0.0
 10
301.3731476678314
 20
116.9541496216019
 30
0.0
 10
300.8324537528343
 20
116.9524687551753
 30
0.0
  0
ARC
  5
223
330
1F
100
AcDbEntity
  8
0
  6
Continuous
 62
     7
370
    30
100
AcDbCircle
 10
287.8554789633126
 20
116.932063215198
 30
0.0
 40
12.97699083277567
100
AcDbArc
 50
0.0900942149264369
 51
12.97453617499953
  0
LWPOLYLINE
  5
224
330
1F
100
AcDbEntity
  8
0
  6
Continuous
 62
     7
370
    30
100
AcDbPolyline
 90
        3
 70
   128
 43
0.0
 10
300.0933370655067
 20
239.6102192555414
 10
300.096739652533
 20
239.6449091588007
 10
300.1001413082368
 20
239.6795916114793
  0
SPLINE
  5
225
330
1F
100
AcDbEntity
  8
0
  6
Continuous
 62
     7
370
    30
100
AcDbSpline
210
0.0
220
0.0
230
1.0
 70
     8
 71
     3
 72
    15
 73
    11
 74
     0
 42
0.000000001
 43
0.00000001
 40
0.0
 40
0.0
 40
0.0
 40
0.0
 40
0.1853669611389264
 40
0.3198704673201745
 40
0.4543803728609676
 40
0.5873238161860611
 40
0.7202615076652754
 40
0.8585512489578344
 40
0.996836708854063
 40
1.0
 40
1.0
 40
1.0
 40
1.0
 10
300.8324537528343
 20
116.9524687551753
 30
0.0
 10
299.972642200355
 20
116.9933039596639
 30
0.0
 10
298.4889456375531
 20
117.0637694615129
 30
0.0
 10
296.6580229779924
 20
117.2731640096062
 30
0.0
 10
295.2406776178815
 20
117.500321702021
 30
0.0
 10
294.0878835611165
 20
117.777466310133
 30
0.0
 10
293.2022104387341
 20
118.0769727166489
 30
0.0
 10
292.6325834679106
 20
118.35793224478
 30
0.0
 10
292.4738427823584
 20
118.5290479686818
 30
0.0
 10
292.4582779989686
 20
118.6084006039275
 30
0.0
 10
292.4579299157149
 20
118.6101752077089
 30
0.0
  0
SPLINE
  5
226
330
1F
100
AcDbEntity
  8
0
  6
Continuous
 62
     7
370
    30
100
AcDbSpline
210
0.0
220
0.0
230
1.0
 70
     8
 71
     3
 72
     9
 73
     5
 74
     0
 42
0.000000001
 43
0.00000001
 40
0.0
 40
0.0
 40
0.0
 40
0.0
 40
0.4999288741793082
 40
1.0
 40
1.0
 40
1.0
 40
1.0
 10
299.4147116420455
 20
239.610114947413
 30
0.0
 10
299.4124075794094
 20
239.5979652907119
 30
0.0
 10
299.4077987985307
 20
239.5736625202008
 30
0.0
 10
299.4031728960123
 20
239.5493626698129
 30
0.0
 10
299.4008596157319
 20
239.5372110162721
 30
0.0
  0
SPLINE
  5
227
330
1F
100
AcDbEntity
  8
0
  6
Continuous
 62
     7
370
    30
100
AcDbSpline
210
0.0
220
0.0
230
1.0
 70
    24
 71
     3
 72
     9
 73
     5
 74
     0
 42
0.000000001
 43
0.00000001
 40
0.0
 40
0.0
 40
0.0
 40
0.0
 40
0.4076159751292733
 40
1.0
 40
1.0
 40
1.0
 40
1.0
 10
299.4144885902888
 20
239.6101745520578
 30
0.0
 10
299.5057702393154
 20
239.6101745520578
 30
0.0
 10
299.7297105522476
 20
239.6101745520578
 30
0.0
 10
299.9580634974274
 20
239.6101745520579
 30
0.0
 10
300.0933361341841
 20
239.6101745520578
 30
0.0
  0
SPLINE
  5
228
330
1F
100
AcDbEntity
  8
0
  6
Continuous
 62
     7
370
    30
100
AcDbSpline
210
0.0
220
0.0
230
1.0
 70
     8
 71
     3
 72
    18
 73
    14
 74
     0
 42
0.000000001
 43
0.00000001
 40
0.0
 40
0.0
 40
0.0
 40
0.0
 40
0.1192152022037076
 40
0.2384097591071498
 40
0.3173299997338787
 40
0.3964835629953468
 40
0.4752770028915617
 40
0.5476075546529422
 40
0.6202366923370612
 40
0.6928894058224433
 40
0.795091775852073
 40
0.8975628071265135
 40
1.0
 40
1.0
 40
1.0
 40
1.0
 10
274.109502426315
 20
179.1101711545931
 30
0.0
 10
274.3381975466001
 20
180.8766706121045
 30
0.0
 10
274.7955481824945
 20
184.4093636105074
 30
0.0
 10
276.3975283856069
 20
188.8987894439538
 30
0.0
 10
278.2835038381048
 20
192.5823241473562
 30
0.0
 10
280.2503252613885
 20
195.5247631093214
 30
0.0
 10
282.4967227505766
 20
198.1364817356499
 30
0.0
 10
285.0371204193328
 20
200.3125015562168
 30
0.0
 10
287.6848750289461
 20
202.1880606056483
 30
0.0
 10
290.7361236574214
 20
204.2631031495871
 30
0.0
 10
293.9507710634163
 20
206.874154495637
 30
0.0
 10
297.2424146553013
 20
210.0626096215885
 30
0.0
 10
299.2927010651239
 20
212.3275073118074
 30
0.0
 10
300.3176749786026
 20
213.4597691451059
 30
0.0
  0
SPLINE
  5
229
330
1F
100
AcDbEntity
  8
0
  6
Continuous
 62
     7
370
    30
100
AcDbSpline
210
0.0
220
0.0
230
1.0
 70
    24
 71
     3
 72
    23
 73
    19
 74
     0
 42
0.000000001
 43
0.00000001
 40
0.0
 40
0.0
 40
0.0
 40
0.0
 40
0.0625002416813123
 40
0.1250011299270497
 40
0.1874994393758835
 40
0.2499995551551055
 40
0.3124992441078299
 40
0.3749998245128693
 40
0.4374972746378004
 40
0.4999989887557439
 40
0.5624977614443463
 40
0.6249985645543021
 40
0.6874967959498215
 40
0.7499989176512011
 40
0.8124969820264205
 40
0.8749988407706143
 40
0.9374985256431854
 40
1.0
 40
1.0
 40
1.0
 40
1.0
 10
253.0225283568389
 20
179.1101786051736
 30
0.0
 10
253.0499712866082
 20
179.1101786051736
 30
0.0
 10
253.1048574300438
 20
179.1101786051737
 30
0.0
 10
253.5472500145727
 20
179.1101786051736
 30
0.0
 10
254.2402508697519
 20
179.1101786051736
 30
0.0
 10
255.1955285100912
 20
179.1101786051736
 30
0.0
 10
256.3803946114061
 20
179.1101786051736
 30
0.0
 10
257.7695421953559
 20
179.1101786051736
 30
0.0
 10
259.3275874015252
 20
179.1101786051737
 30
0.0
 10
261.0177273138897
 20
179.1101786051736
 30
0.0
 10
262.7981275602197
 20
179.1101786051737
 30
0.0
 10
264.6257417733227
 20
179.1101786051736
 30
0.0
 10
266.4561464580007
 20
179.1101786051737
 30
0.0
 10
268.2444516751718
 20
179.1101786051736
 30
0.0
 10
269.9485901109334
 20
179.1101786051737
 30
0.0
 10
271.5216314171835
 20
179.1101786051736
 30
0.0
 10
272.9460207898764
 20
179.1101786051736
 30
0.0
 10
273.7216441941653
 20
179.1101786051737
 30
0.0
 10
274.1094614481217
 20
179.1101786051736
 30
0.0
  0
LINE
  5
22A
330
1F
100
AcDbEntity
  8
0
  6
Continuous
 62
     7
370
    30
100
AcDbLine
 10
253.0982076292522
 20
179.9572649155603
 30
0.0
 11
253.0225283568389
 21
179.110171154593
 31
0.0
  0
SPLINE
  5
22B
330
1F
100
AcDbEntity
  8
0
  6
Continuous
 62
     7
370
    30
100
AcDbSpline
210
0.0
220
0.0
230
1.0
 70
     8
 71
     3
 72
    15
 73
    11
 74
     0
 42
0.000000001
 43
0.00000001
 40
0.0
 40
0.0
 40
0.0
 40
0.0
 40
0.1261889038575345
 40
0.2563155649897413
 40
0.3787750424549672
 40
0.5043140444662225
 40
0.6353133170820192
 40
0.7708055982774695
 40
0.9299461637717031
 40
1.0
 40
1.0
 40
1.0
 40
1.0
 10
300.3177103688604
 20
213.4597691451059
 30
0.0
 10
300.6622856605444
 20
213.9993180160268
 30
0.0
 10
301.3621888047161
 20
215.0952525194741
 30
0.0
 10
302.5376762028436
 20
216.8326216223066
 30
0.0
 10
303.8032942396413
 20
218.5578167267553
 30
0.0
 10
305.1381640124493
 20
220.2494690547942
 30
0.0
 10
306.5401146449769
 20
221.9256478436269
 30
0.0
 10
307.9887573303401
 20
223.6237281233983
 30
0.0
 10
309.0777291822536
 20
224.9491239016745
 30
0.0
 10
309.4931146839509
 20
225.6126126862913
 30
0.0
 10
309.6200782907791
 20
225.8154096756921
 30
0.0
  0
SPLINE
  5
22C
330
1F
100
AcDbEntity
  8
0
  6
Continuous
 62
     7
370
    30
100
AcDbSpline
210
0.0
220
0.0
230
1.0
 70
     8
 71
     3
 72
    23
 73
    19
 74
     0
 42
0.000000001
 43
0.00000001
 40
0.0
 40
0.0
 40
0.0
 40
0.0
 40
0.0635389230878249
 40
0.1270781925880763
 40
0.1924617324817324
 40
0.2578455724568995
 40
0.321422352502888
 40
0.3849993827384497
 40
0.4504239250528642
 40
0.5158483113732879
 40
0.5794058062353173
 40
0.6429628037131901
 40
0.7083747464508705
 40
0.7737862093885697
 40
0.8371953591005309
 40
0.9006042624599112
 40
0.9658699758447373
 40
1.0
 40
1.0
 40
1.0
 40
1.0
 10
253.0223867958076
 20
179.110171154593
 30
0.0
 10
253.0670445724726
 20
177.6919241782612
 30
0.0
 10
253.1563603692757
 20
174.8554224933548
 30
0.0
 10
253.7417702820088
 20
170.5923441985972
 30
0.0
 10
254.6690638977256
 20
166.3516172711773
 30
0.0
 10
255.9604356871593
 20
162.2046895905296
 30
0.0
 10
257.5808263017719
 20
158.2194288716426
 30
0.0
 10
259.5260422632558
 20
154.3810026245222
 30
0.0
 10
261.8107610674866
 20
150.6854922283209
 30
0.0
 10
264.4013286504258
 20
147.1980718249938
 30
0.0
 10
267.2500322764727
 20
143.9740311038279
 30
0.0
 10
270.3556920176414
 20
140.9971488538787
 30
0.0
 10
273.7352921541163
 20
138.2681249994952
 30
0.0
 10
277.332750508666
 20
135.8401777735654
 30
0.0
 10
281.0829890132527
 20
133.7439375605218
 30
0.0
 10
284.9951472830321
 20
131.98433164303
 30
0.0
 10
288.412463643555
 20
130.7233681243341
 30
0.0
 10
290.5669446007306
 20
130.1908767282667
 30
0.0
 10
291.3067397763617
 20
130.0080324266897
 30
0.0
  0
SPLINE
  5
22D
330
1F
100
AcDbEntity
  8
0
  6
Continuous
 62
     7
370
    30
100
AcDbSpline
210
0.0
220
0.0
230
1.0
 70
     8
 71
     3
 72
    14
 73
    10
 74
     0
 42
0.000000001
 43
0.00000001
 40
0.0
 40
0.0
 40
0.0
 40
0.0
 40
0.0690865732102408
 40
0.2300336505669839
 40
0.3907571343620083
 40
0.5514786808754389
 40
0.7110532581165226
 40
0.8706288658858
 40
1.0
 40
1.0
 40
1.0
 40
1.0
 10
289.0459849601276
 20
152.8200375591264
 30
0.0
 10
288.4030587283989
 20
153.1683829942992
 30
0.0
 10
286.262343662394
 20
154.3282490636047
 30
0.0
 10
283.1077651411253
 20
157.0587440202815
 30
0.0
 10
279.7380496567648
 20
160.9005799770578
 30
0.0
 10
277.08542289345
 20
165.2755352258876
 30
0.0
 10
275.2370450942873
 20
170.0189021755248
 30
0.0
 10
274.2171883785488
 20
174.6827113557921
 30
0.0
 10
274.1427261679736
 20
177.74091735154
 30
0.0
 10
274.1093869423158
 20
179.1101786051736
 30
0.0
  0
SPLINE
  5
22E
330
1F
100
AcDbEntity
  8
0
  6
Continuous
 62
     7
370
    30
100
AcDbSpline
210
0.0
220
0.0
230
1.0
 70
     8
 71
     3
 72
    33
 73
    29
 74
     0
 42
0.000000001
 43
0.00000001
 40
0.0
 40
0.0
 40
0.0
 40
0.0
 40
0.0105963102580307
 40
0.0519098244594713
 40
0.0930912482711416
 40
0.1342452961285452
 40
0.1755315475950948
 40
0.2166846583370295
 40
0.2576238219565086
 40
0.2986941965224557
 40
0.3396330331148887
 40
0.3804458197232082
 40
0.4213897847961441
 40
0.4622032540220519
 40
0.5029194178704417
 40
0.5437652638338345
 40
0.5844788070837292
 40
0.6250281174166568
 40
0.6657080177663179
 40
0.7062541042559815
 40
0.7463731103586888
 40
0.7866206749882015
 40
0.8267368469212558
 40
0.8665530104204284
 40
0.9064970431972801
 40
0.9463113544956132
 40
0.9765944322000137
 40
1.0
 40
1.0
 40
1.0
 40
1.0
 10
317.0796885257251
 20
130.1410746504412
 30
0.0
 10
317.5524463148312
 20
130.249849345595
 30
0.0
 10
319.868419823227
 20
130.7827211843358
 30
0.0
 10
323.8539152802318
 20
132.3473070654785
 30
0.0
 10
328.9468513607587
 20
134.8226651725511
 30
0.0
 10
333.7026424636504
 20
137.9157017960468
 30
0.0
 10
338.087186290941
 20
141.5050842095455
 30
0.0
 10
342.0365259069003
 20
145.55813336885
 30
0.0
 10
345.4855286123926
 20
150.0313431093108
 30
0.0
 10
348.4101255753773
 20
154.8514917429814
 30
0.0
 10
350.7784922553921
 20
159.9624254244902
 30
0.0
 10
352.5394544926005
 20
165.3069901559819
 30
0.0
 10
353.693520595151
 20
170.8078631508318
 30
0.0
 10
354.2291101177952
 20
176.3992275084943
 30
0.0
 10
354.1189231222073
 20
182.010565723636
 30
0.0
 10
353.3867032738977
 20
187.5697101340852
 30
0.0
 10
352.0399637049232
 20
193.0057930258343
 30
0.0
 10
350.0756402207077
 20
198.242199514527
 30
0.0
 10
347.5425287225984
 20
203.2189881832723
 30
0.0
 10
344.4760236446249
 20
207.8635810753682
 30
0.0
 10
340.9040990412881
 20
212.1054086907566
 30
0.0
 10
336.8969256544163
 20
215.9090585896023
 30
0.0
 10
332.4990001971812
 20
219.2321001137043
 30
0.0
 10
327.7575025200641
 20
222.0143413614901
 30
0.0
 10
322.7494953746077
 20
224.2500964864869
 30
0.0
 10
317.9365926012416
 20
225.7622361592347
 30
0.0
 10
313.7458848813051
 20
226.6688357425801
 30
0.0
 10
311.3007686542508
 20
226.9229897616945
 30
0.0
 10
310.2348201078958
 20
227.0337882195459
 30
0.0
  0
SPLINE
  5
22F
330
1F
100
AcDbEntity
  8
0
  6
Continuous
 62
     7
370
    30
100
AcDbSpline
210
0.0
220
0.0
230
1.0
 70
     8
 71
     3
 72
    24
 73
    20
 74
     0
 42
0.000000001
 43
0.00000001
 40
0.0
 40
0.0
 40
0.0
 40
0.0
 40
0.0674001949761283
 40
0.1347927002588885
 40
0.2020541662155732
 40
0.2693093192286827
 40
0.3350548181696235
 40
0.400795519751964
 40
0.4652660757628433
 40
0.5297308266552532
 40
0.592827517755199
 40
0.6559169094793112
 40
0.7173767249395153
 40
0.7788356900284309
 40
0.8397838743655492
 40
0.9007297896972868
 40
0.9443599488586796
 40
0.9881543321578349
 40
0.9999999999999999
 40
0.9999999999999999
 40
0.9999999999999999
 40
0.9999999999999999
 10
300.3177033839411
 20
213.459895804976
 30
0.0
 10
302.3003553802828
 20
213.4335489288876
 30
0.0
 10
306.2654331720493
 20
213.3808581826278
 30
0.0
 10
312.0900795206434
 20
212.0527029118205
 30
0.0
 10
317.5987176975986
 20
209.8056038226831
 30
0.0
 10
322.6087461373834
 20
206.6702175861967
 30
0.0
 10
326.9573503158227
 20
202.7402999947258
 30
0.0
 10
330.5353841747818
 20
198.1997354672094
 30
0.0
 10
333.2452146207987
 20
193.1372733202079
 30
0.0
 10
335.0415726065524
 20
187.7645169180011
 30
0.0
 10
335.8613723780181
 20
182.2010023381698
 30
0.0
 10
335.7317191933376
 20
176.6664294228167
 30
0.0
 10
334.6434706852183
 20
171.289551917931
 30
0.0
 10
332.702516262551
 20
166.224971396764
 30
0.0
 10
329.9242864612077
 20
161.5881476036902
 30
0.0
 10
326.7655733854427
 20
157.8588957661309
 30
0.0
 10
323.4585535158333
 20
155.0199928842119
 30
0.0
 10
321.0787340972558
 20
153.3089458844701
 30
0.0
 10
319.6162234250543
 20
152.5803699003879
 30
0.0
 10
319.3048575063831
 20
152.4252573703276
 30
0.0
  0
ARC
  5
230
330
1F
100
AcDbEntity
  8
0
  6
Continuous
 62
     7
370
    30
100
AcDbCircle
 10
265.6723872704093
 20
217.6101752721229
 30
0.0
 40
8.799999998025612
100
AcDbArc
 50
90.0
 51
180.0
  0
LINE
  5
231
330
1F
100
AcDbEntity
  8
0
  6
Continuous
 62
     7
370
    30
100
AcDbLine
 10
282.834733939696
 20
226.4101746235834
 30
0.0
 11
265.6723885899074
 21
226.4101746235834
 31
0.0
  0
LINE
  5
232
330
1F
100
AcDbEntity
  8
0
  6
Continuous
 62
     7
370
    30
100
AcDbLine
 10
265.6723885899074
 20
131.8101751361833
 30
0.0
 11
283.9921834980733
 21
131.8101751361833
 31
0.0
  0
ARC
  5
233
330
1F
100
AcDbEntity
  8
0
  6
Continuous
 62
     7
370
    30
100
AcDbCircle
 10
265.6723872704093
 20
140.6101752721229
 30
0.0
 40
8.799999998025612
100
AcDbArc
 50
180.0
 51
270.0000000000008
  0
LINE
  5
234
330
1F
100
AcDbEntity
  8
0
  6
Continuous
 62
     7
370
    30
100
AcDbLine
 10
256.8723886375911
 20
158.9299718593107
 30
0.0
 11
256.8723886375911
 21
140.6101750884996
 31
0.0
  0
ARC
  5
235
330
1F
100
AcDbEntity
  8
0
  6
Continuous
 62
     7
370
    30
100
AcDbCircle
 10
304.1723872704093
 20
179.1101752721229
 30
0.0
 40
51.425
100
AcDbArc
 50
156.8948306717909
 51
203.10516932821
  0
LINE
  5
236
330
1F
100
AcDbEntity
  8
0
  6
Continuous
 62
     7
370
    30
100
AcDbLine
 10
256.8723886375911
 20
217.6101746712671
 30
0.0
 11
256.8723886375911
 21
199.2903816257463
 31
0.0
  0
ARC
  5
237
330
1F
100
AcDbEntity
  8
0
  6
Continuous
 62
     7
370
    30
100
AcDbCircle
 10
304.1723872704093
 20
179.1101752721229
 30
0.0
 40
51.42499999999999
100
AcDbArc
 50
246.8948306717917
 51
255.5511282545314
  0
ARC
  5
238
330
1F
100
AcDbEntity
  8
0
  6
Continuous
 62
     7
370
    30
100
AcDbCircle
 10
342.6723872704094
 20
140.6101752721229
 30
0.0
 40
8.799999998025612
100
AcDbArc
 50
270.0000000000008
 51
0.0
  0
LINE
  5
239
330
1F
100
AcDbEntity
  8
0
  6
Continuous
 62
     7
370
    30
100
AcDbLine
 10
324.3525914018638
 20
131.8101751361833
 30
0.0
 11
342.6723881726749
 21
131.8101751361833
 31
0.0
  0
LINE
  5
23A
330
1F
100
AcDbEntity
  8
0
  6
Continuous
 62
     7
370
    30
100
AcDbLine
 10
342.6723881726749
 20
226.4101746235834
 30
0.0
 11
324.3525914018638
 21
226.4101746235834
 31
0.0
  0
ARC
  5
23B
330
1F
100
AcDbEntity
  8
0
  6
Continuous
 62
     7
370
    30
100
AcDbCircle
 10
342.6723872704094
 20
217.6101752721229
 30
0.0
 40
8.799999998025612
100
AcDbArc
 50
0.0
 51
90.0
  0
LINE
  5
23C
330
1F
100
AcDbEntity
  8
0
  6
Continuous
 62
     7
370
    30
100
AcDbLine
 10
351.4723881249911
 20
199.2903816257463
 30
0.0
 11
351.4723881249911
 21
217.6101746712671
 31
0.0
  0
ARC
  5
23D
330
1F
100
AcDbEntity
  8
0
  6
Continuous
 62
     7
370
    30
100
AcDbCircle
 10
304.1723872704093
 20
179.1101752721229
 30
0.0
 40
51.42500000000005
100
AcDbArc
 50
336.8948306717916
 51
23.10516932820917
  0
LINE
  5
23E
330
1F
100
AcDbEntity
  8
0
  6
Continuous
 62
     7
370
    30
100
AcDbLine
 10
351.4723881249911
 20
140.6101750884996
 30
0.0
 11
351.4723881249911
 21
158.9299718593107
 31
0.0
  0
ARC
  5
23F
330
1F
100
AcDbEntity
  8
0
  6
Continuous
 62
     7
370
    30
100
AcDbCircle
 10
304.1723872704093
 20
179.1101752721229
 30
0.0
 40
51.42500000000003
100
AcDbArc
 50
284.4264055055796
 51
293.1051693282101
  0
ARC
  5
240
330
1F
100
AcDbEntity
  8
0
  6
Continuous
 62
     7
370
    30
100
AcDbCircle
 10
304.1723872704093
 20
179.1101752721229
 30
0.0
 40
51.42500000000003
100
AcDbArc
 50
66.89483067179071
 51
81.53915722165192
  0
LINE
  5
241
330
1F
100
AcDbEntity
  8
0
  6
Continuous
 62
     7
370
    30
100
AcDbLine
 10
256.8723886375911
 20
217.6101746712671
 30
0.0
 11
254.672388649512
 21
217.6101746712671
 31
0.0
  0
ARC
  5
242
330
1F
100
AcDbEntity
  8
0
  6
Continuous
 62
     7
370
    30
100
AcDbCircle
 10
265.6723872704093
 20
217.6101752721229
 30
0.0
 40
10.99999999999997
100
AcDbArc
 50
90.0
 51
180.0
  0
LINE
  5
243
330
1F
100
AcDbEntity
  8
0
  6
Continuous
 62
     7
370
    30
100
AcDbLine
 10
265.6723885899074
 20
226.4101746235834
 30
0.0
 11
265.6723885899074
 21
228.6101746116624
 31
0.0
  0
LINE
  5
244
330
1F
100
AcDbEntity
  8
0
  6
Continuous
 62
     7
370
    30
100
AcDbLine
 10
254.672388649512
 20
193.0486353789316
 30
0.0
 11
254.672388649512
 21
217.6101746712671
 31
0.0
  0
LINE
  5
245
330
1F
100
AcDbEntity
  8
0
  6
Continuous
 62
     7
370
    30
100
AcDbLine
 10
265.6723885899074
 20
228.6101746116624
 30
0.0
 11
284.8538897102363
 21
228.6101746116624
 31
0.0
  0
LINE
  5
246
330
1F
100
AcDbEntity
  8
0
  6
Continuous
 62
     7
370
    30
100
AcDbLine
 10
254.672388649512
 20
140.6101750884996
 30
0.0
 11
256.8723886375911
 21
140.6101750884996
 31
0.0
  0
LINE
  5
247
330
1F
100
AcDbEntity
  8
0
  6
Continuous
 62
     7
370
    30
100
AcDbLine
 10
254.672388649512
 20
140.6101750884996
 30
0.0
 11
254.672388649512
 21
165.1717181061254
 31
0.0
  0
LINE
  5
248
330
1F
100
AcDbEntity
  8
0
  6
Continuous
 62
     7
370
    30
100
AcDbLine
 10
318.1108460863716
 20
228.6101746116624
 30
0.0
 11
342.6723881726749
 21
228.6101746116624
 31
0.0
  0
LINE
  5
249
330
1F
100
AcDbEntity
  8
0
  6
Continuous
 62
     7
370
    30
100
AcDbLine
 10
342.6723881726749
 20
226.4101746235834
 30
0.0
 11
342.6723881726749
 21
228.6101746116624
 31
0.0
  0
ARC
  5
24A
330
1F
100
AcDbEntity
  8
0
  6
Continuous
 62
     7
370
    30
100
AcDbCircle
 10
265.6723872704093
 20
140.6101752721229
 30
0.0
 40
10.99999999999997
100
AcDbArc
 50
180.0
 51
270.0000000000008
  0
LINE
  5
24B
330
1F
100
AcDbEntity
  8
0
  6
Continuous
 62
     7
370
    30
100
AcDbLine
 10
265.6723885899074
 20
129.6101751481042
 30
0.0
 11
265.6723885899074
 21
131.8101751361833
 31
0.0
  0
ARC
  5
24C
330
1F
100
AcDbEntity
  8
0
  6
Continuous
 62
     7
370
    30
100
AcDbCircle
 10
342.6723872704094
 20
217.6101752721229
 30
0.0
 40
11.0
100
AcDbArc
 50
0.0
 51
90.0
  0
LINE
  5
24D
330
1F
100
AcDbEntity
  8
0
  6
Continuous
 62
     7
370
    30
100
AcDbLine
 10
351.4723881249911
 20
217.6101746712671
 30
0.0
 11
353.6723881130702
 21
217.6101746712671
 31
0.0
  0
LINE
  5
24E
330
1F
100
AcDbEntity
  8
0
  6
Continuous
 62
     7
370
    30
100
AcDbLine
 10
290.2339288135655
 20
129.6101751481042
 30
0.0
 11
265.6723885899074
 21
129.6101751481042
 31
0.0
  0
LINE
  5
24F
330
1F
100
AcDbEntity
  8
0
  6
Continuous
 62
     7
370
    30
100
AcDbLine
 10
353.6723881130702
 20
217.6101746712671
 30
0.0
 11
353.6723881130702
 21
193.0486353789316
 31
0.0
  0
LINE
  5
250
330
1F
100
AcDbEntity
  8
0
  6
Continuous
 62
     7
370
    30
100
AcDbLine
 10
353.6723881130702
 20
165.1717181061254
 30
0.0
 11
353.6723881130702
 21
140.6101750884996
 31
0.0
  0
LINE
  5
251
330
1F
100
AcDbEntity
  8
0
  6
Continuous
 62
     7
370
    30
100
AcDbLine
 10
351.4723881249911
 20
140.6101750884996
 30
0.0
 11
353.6723881130702
 21
140.6101750884996
 31
0.0
  0
LINE
  5
252
330
1F
100
AcDbEntity
  8
0
  6
Continuous
 62
     7
370
    30
100
AcDbLine
 10
342.6723881726749
 20
131.8101751361833
 30
0.0
 11
342.6723881726749
 21
129.6101751481042
 31
0.0
  0
LINE
  5
253
330
1F
100
AcDbEntity
  8
0
  6
Continuous
 62
     7
370
    30
100
AcDbLine
 10
342.6723881726749
 20
129.6101751481042
 30
0.0
 11
318.1108460863716
 21
129.6101751481042
 31
0.0
  0
ARC
  5
254
330
1F
100
AcDbEntity
  8
0
  6
Continuous
 62
     7
370
    30
100
AcDbCircle
 10
342.6723872704094
 20
140.6101752721229
 30
0.0
 40
11.0
100
AcDbArc
 50
270.0000000000008
 51
0.0
  0
LWPOLYLINE
  5
255
330
1F
100
AcDbEntity
  8
0
  6
Continuous
 62
     7
370
    30
100
AcDbPolyline
 90
        3
 70
   128
 43
0.0
 10
311.7593057555742
 20
230.0298082386003
 10
315.0791796957738
 20
229.4493782077776
 10
318.5059811090715
 20
228.6101746116624
  0
LINE
  5
256
330
1F
100
AcDbEntity
  8
0
  6
Continuous
 62
     7
370
    30
100
AcDbLine
 10
342.6723881726749
 20
228.6101746116624
 30
0.0
 11
343.0675222640521
 21
228.6101746116624
 31
0.0
  0
ARC
  5
257
330
1F
100
AcDbEntity
  8
0
  6
Continuous
 62
     7
370
    30
100
AcDbCircle
 10
343.0675224865323
 20
217.6101752721229
 30
0.0
 40
11.0
100
AcDbArc
 50
0.0
 51
90.0
  0
LINE
  5
258
330
1F
100
AcDbEntity
  8
0
  6
Continuous
 62
     7
370
    30
100
AcDbLine
 10
354.0675222044475
 20
217.6101746712671
 30
0.0
 11
354.0675222044475
 21
193.0486353789316
 31
0.0
  0
ARC
  5
259
330
1F
100
AcDbEntity
  8
0
  6
Continuous
 62
     7
370
    30
100
AcDbCircle
 10
304.5675224865323
 20
179.1101752721229
 30
0.0
 40
51.42499999999999
100
AcDbArc
 50
344.2735755668734
 51
15.72642443312739
  0
LINE
  5
25A
330
1F
100
AcDbEntity
  8
0
  6
Continuous
 62
     7
370
    30
100
AcDbLine
 10
354.0675222044475
 20
165.1717181061254
 30
0.0
 11
354.0675222044475
 21
140.6101750884996
 31
0.0
  0
ARC
  5
25B
330
1F
100
AcDbEntity
  8
0
  6
Continuous
 62
     7
370
    30
100
AcDbCircle
 10
343.0675224865323
 20
140.6101752721229
 30
0.0
 40
11.0
100
AcDbArc
 50
270.0000000000008
 51
0.0
  0
LINE
  5
25C
330
1F
100
AcDbEntity
  8
0
  6
Continuous
 62
     7
370
    30
100
AcDbLine
 10
343.0675222640521
 20
129.6101751481042
 30
0.0
 11
342.6723881726749
 21
129.6101751481042
 31
0.0
  0
LINE
  5
25D
330
1F
100
AcDbEntity
  8
0
  6
Continuous
 62
     7
370
    30
100
AcDbLine
 10
318.5059811090715
 20
129.6101751481042
 30
0.0
 11
316.9982341220266
 21
129.2101953853713
 31
0.0
  0
LINE
  5
25E
330
1F
100
AcDbEntity
  8
0
  6
Continuous
 62
     7
370
    30
100
AcDbLine
 10
381.9149612551219
 20
149.4101750408159
 30
0.0
 11
381.9149612551219
 21
208.8101747189508
 31
0.0
  0
LINE
  5
25F
330
1F
100
AcDbEntity
  8
0
  6
Continuous
 62
     7
370
    30
100
AcDbLine
 10
354.0675222044475
 20
212.1101784263597
 30
0.0
 11
381.9149612551219
 21
212.1101784263597
 31
0.0
  0
LINE
  5
260
330
1F
100
AcDbEntity
  8
0
  6
Continuous
 62
     7
370
    30
100
AcDbLine
 10
381.9149612551219
 20
212.1101784263597
 30
0.0
 11
381.9149612551219
 21
208.8101747189508
 31
0.0
  0
LINE
  5
261
330
1F
100
AcDbEntity
  8
0
  6
Continuous
 62
     7
370
    30
100
AcDbLine
 10
381.9149612551219
 20
208.8101747189508
 30
0.0
 11
385.2145104771144
 21
208.8101747189508
 31
0.0
  0
LINE
  5
262
330
1F
100
AcDbEntity
  8
0
  6
Continuous
 62
     7
370
    30
100
AcDbLine
 10
385.2145104771144
 20
208.8101747189508
 30
0.0
 11
385.2145104771144
 21
149.4101750408159
 31
0.0
  0
LINE
  5
263
330
1F
100
AcDbEntity
  8
0
  6
Continuous
 62
     7
370
    30
100
AcDbLine
 10
381.9149612551219
 20
149.4101750408159
 30
0.0
 11
385.2145104771144
 21
149.4101750408159
 31
0.0
  0
LINE
  5
264
330
1F
100
AcDbEntity
  8
0
  6
Continuous
 62
     7
370
    30
100
AcDbLine
 10
381.9149612551219
 20
146.1101750586973
 30
0.0
 11
354.0675222044475
 21
146.1101750586973
 31
0.0
  0
LINE
  5
265
330
1F
100
AcDbEntity
  8
0
  6
Continuous
 62
     7
370
    30
100
AcDbLine
 10
381.9149612551219
 20
149.4101750408159
 30
0.0
 11
381.9149612551219
 21
146.1101750586973
 31
0.0
  0
LINE
  5
266
330
1F
100
AcDbEntity
  8
0
  6
Continuous
 62
     7
370
    30
100
AcDbLine
 10
359.6133991246707
 20
142.5101755861984
 30
0.0
 11
359.6133991246707
 21
146.1101750586973
 31
0.0
  0
LINE
  5
267
330
1F
100
AcDbEntity
  8
0
  6
Continuous
 62
     7
370
    30
100
AcDbLine
 10
366.7365527813918
 20
146.1101750586973
 30
0.0
 11
366.7365527813918
 21
142.5101755861984
 31
0.0
  0
LINE
  5
268
330
1F
100
AcDbEntity
  8
0
  6
Continuous
 62
     7
370
    30
100
AcDbLine
 10
366.7365527813918
 20
142.5101755861984
 30
0.0
 11
359.6133991246707
 21
142.5101755861984
 31
0.0
  0
SPLINE
  5
269
330
1F
100
AcDbEntity
  8
0
  6
Continuous
 62
     7
370
    30
100
AcDbSpline
210
0.0
220
0.0
230
1.0
 70
     8
 71
     3
 72
    10
 73
     6
 74
     0
 42
0.000000001
 43
0.00000001
 40
0.0
 40
0.0
 40
0.0
 40
0.0
 40
0.3976920855518698
 40
0.8068545234174909
 40
1.0
 40
1.0
 40
1.0
 40
1.0
 10
363.1749740903861
 20
130.3901754994736
 30
0.0
 10
362.6895268251859
 20
130.4162798398637
 30
0.0
 10
361.7046308817227
 20
130.4692414297211
 30
0.0
 10
360.5191622104122
 20
130.7931600562777
 30
0.0
 10
359.8333290977389
 20
131.055915792569
 30
0.0
 10
359.6133991246707
 20
131.1401751567469
 30
0.0
  0
LINE
  5
26A
330
1F
100
AcDbEntity
  8
0
  6
Continuous
 62
     7
370
    30
100
AcDbLine
 10
359.6133991246707
 20
131.1401751567469
 30
0.0
 11
359.6133991246707
 21
136.8701754812942
 31
0.0
  0
LINE
  5
26B
330
1F
100
AcDbEntity
  8
0
  6
Continuous
 62
     7
370
    30
100
AcDbLine
 10
366.7365527813918
 20
136.8701754812942
 30
0.0
 11
366.7365527813918
 21
131.1401751567469
 31
0.0
  0
SPLINE
  5
26C
330
1F
100
AcDbEntity
  8
0
  6
Continuous
 62
     7
370
    30
100
AcDbSpline
210
0.0
220
0.0
230
1.0
 70
     8
 71
     3
 72
     9
 73
     5
 74
     0
 42
0.000000001
 43
0.00000001
 40
0.0
 40
0.0
 40
0.0
 40
0.0
 40
0.4914724784062865
 40
1.0
 40
1.0
 40
1.0
 40
1.0
 10
366.7365527813918
 20
131.1401751567469
 30
0.0
 10
366.1711856773673
 20
130.9318427489744
 30
0.0
 10
365.0208321400585
 20
130.5079483969484
 30
0.0
 10
363.7972163801536
 20
130.4298769691561
 30
0.0
 10
363.1749740903861
 20
130.3901754994736
 30
0.0
  0
LINE
  5
26D
330
1F
100
AcDbEntity
  8
0
  6
Continuous
 62
     7
370
    30
100
AcDbLine
 10
359.6133991246707
 20
136.8701754812942
 30
0.0
 11
366.7365527813918
 21
136.8701754812942
 31
0.0
  0
LINE
  5
26E
330
1F
100
AcDbEntity
  8
0
  6
Continuous
 62
     7
370
    30
100
AcDbLine
 10
370.897042668391
 20
130.3901754994736
 30
0.0
 11
369.9931754832751
 21
130.3901754994736
 31
0.0
  0
LINE
  5
26F
330
1F
100
AcDbEntity
  8
0
  6
Continuous
 62
     7
370
    30
100
AcDbLine
 10
355.9788457220084
 20
130.3901754994736
 30
0.0
 11
354.6970441108234
 21
130.3901754994736
 31
0.0
  0
LINE
  5
270
330
1F
100
AcDbEntity
  8
0
  6
Continuous
 62
     7
370
    30
100
AcDbLine
 10
363.1749740903861
 20
130.3901754994736
 30
0.0
 11
355.9788457220084
 21
130.3901754994736
 31
0.0
  0
LINE
  5
271
330
1F
100
AcDbEntity
  8
0
  6
Continuous
 62
     7
370
    30
100
AcDbLine
 10
369.9931754832751
 20
130.3901754994736
 30
0.0
 11
363.1749740903861
 21
130.3901754994736
 31
0.0
  0
LINE
  5
272
330
1F
100
AcDbEntity
  8
0
  6
Continuous
 62
     7
370
    30
100
AcDbLine
 10
359.0091570382602
 20
125.7101752539025
 30
0.0
 11
358.2970454459674
 21
125.7101752539025
 31
0.0
  0
LINE
  5
273
330
1F
100
AcDbEntity
  8
0
  6
Continuous
 62
     7
370
    30
100
AcDbLine
 10
367.2970450585372
 20
125.7101752539025
 30
0.0
 11
359.0091570382602
 21
125.7101752539025
 31
0.0
  0
SPLINE
  5
274
330
1F
100
AcDbEntity
  8
0
  6
Continuous
 62
     7
370
    30
100
AcDbSpline
210
0.0
220
0.0
230
1.0
 70
     8
 71
     3
 72
     9
 73
     5
 74
     0
 42
0.000000001
 43
0.00000001
 40
0.0
 40
0.0
 40
0.0
 40
0.0
 40
0.4914722384049326
 40
1.0
 40
1.0
 40
1.0
 40
1.0
 10
357.9037032192237
 20
131.1401751567469
 30
0.0
 10
357.5981502663881
 20
130.9318427467185
 30
0.0
 10
356.976440780157
 20
130.5079481831016
 30
0.0
 10
356.3151370351774
 20
130.4298769094888
 30
0.0
 10
355.9788457220084
 20
130.3901754994736
 30
0.0
  0
LINE
  5
275
330
1F
100
AcDbEntity
  8
0
  6
Continuous
 62
     7
370
    30
100
AcDbLine
 10
359.6133991246707
 20
131.1401751567469
 30
0.0
 11
357.9037032192237
 21
131.1401751567469
 31
0.0
  0
LINE
  5
276
330
1F
100
AcDbEntity
  8
0
  6
Continuous
 62
     7
370
    30
100
AcDbLine
 10
368.3564617400653
 20
131.1401751567469
 30
0.0
 11
366.7365527813918
 21
131.1401751567469
 31
0.0
  0
SPLINE
  5
277
330
1F
100
AcDbEntity
  8
0
  6
Continuous
 62
     7
370
    30
100
AcDbSpline
210
0.0
220
0.0
230
1.0
 70
     8
 71
     3
 72
    10
 73
     6
 74
     0
 42
0.000000001
 43
0.00000001
 40
0.0
 40
0.0
 40
0.0
 40
0.0
 40
0.3976916449509379
 40
0.8068545922127048
 40
0.9999999999999999
 40
0.9999999999999999
 40
0.9999999999999999
 40
0.9999999999999999
 10
369.9931754832751
 20
130.3901754994736
 30
0.0
 10
369.7700889554566
 20
130.4162799512773
 30
0.0
 10
369.3174810324175
 20
130.4692418303671
 30
0.0
 10
368.7727005945116
 20
130.7931596989643
 30
0.0
 10
368.4575293659098
 20
131.0559157752049
 30
0.0
 10
368.3564617400653
 20
131.1401751567469
 30
0.0
  0
LINE
  5
278
330
1F
100
AcDbEntity
  8
0
  6
Continuous
 62
     7
370
    30
100
AcDbLine
 10
357.9037032192237
 20
146.1101750586973
 30
0.0
 11
357.9037032192237
 21
142.5101755861984
 31
0.0
  0
LINE
  5
279
330
1F
100
AcDbEntity
  8
0
  6
Continuous
 62
     7
370
    30
100
AcDbLine
 10
357.9037032192237
 20
142.5101755861984
 30
0.0
 11
359.6133991246707
 21
142.5101755861984
 31
0.0
  0
LINE
  5
27A
330
1F
100
AcDbEntity
  8
0
  6
Continuous
 62
     7
370
    30
100
AcDbLine
 10
357.9037032192237
 20
136.8701754812942
 30
0.0
 11
357.9037032192237
 21
131.1401751567469
 31
0.0
  0
LINE
  5
27B
330
1F
100
AcDbEntity
  8
0
  6
Continuous
 62
     7
370
    30
100
AcDbLine
 10
359.6133991246707
 20
136.8701754812942
 30
0.0
 11
357.9037032192237
 21
136.8701754812942
 31
0.0
  0
LINE
  5
27C
330
1F
100
AcDbEntity
  8
0
  6
Continuous
 62
     7
370
    30
100
AcDbLine
 10
368.3564617400653
 20
142.5101755861984
 30
0.0
 11
368.3564617400653
 21
146.1101750586973
 31
0.0
  0
LINE
  5
27D
330
1F
100
AcDbEntity
  8
0
  6
Continuous
 62
     7
370
    30
100
AcDbLine
 10
366.7365527813918
 20
142.5101755861984
 30
0.0
 11
368.3564617400653
 21
142.5101755861984
 31
0.0
  0
LINE
  5
27E
330
1F
100
AcDbEntity
  8
0
  6
Continuous
 62
     7
370
    30
100
AcDbLine
 10
368.3564617400653
 20
131.1401751567469
 30
0.0
 11
368.3564617400653
 21
136.8701754812942
 31
0.0
  0
LINE
  5
27F
330
1F
100
AcDbEntity
  8
0
  6
Continuous
 62
     7
370
    30
100
AcDbLine
 10
368.3564617400653
 20
136.8701754812942
 30
0.0
 11
366.7365527813918
 21
136.8701754812942
 31
0.0
  0
LINE
  5
280
330
1F
100
AcDbEntity
  8
0
  6
Continuous
 62
     7
370
    30
100
AcDbLine
 10
357.9037032192237
 20
142.5101755861984
 30
0.0
 11
354.0675222044475
 21
142.5101755861984
 31
0.0
  0
SPLINE
  5
281
330
1F
100
AcDbEntity
  8
0
  6
Continuous
 62
     7
370
    30
100
AcDbSpline
210
0.0
220
0.0
230
1.0
 70
     8
 71
     3
 72
    10
 73
     6
 74
     0
 42
0.000000001
 43
0.00000001
 40
0.0
 40
0.0
 40
0.0
 40
0.0
 40
0.3976924061777025
 40
0.8068563142985301
 40
1.0
 40
1.0
 40
1.0
 40
1.0
 10
355.9788457220084
 20
130.3901754994736
 30
0.0
 10
355.7164829962189
 20
130.4162801509493
 30
0.0
 10
355.1841896492715
 20
130.4692424468054
 30
0.0
 10
354.5435078022738
 20
130.7931571984325
 30
0.0
 10
354.1728457514334
 20
131.0559156562611
 30
0.0
 10
354.0539844995029
 20
131.1401751567469
 30
0.0
  0
LINE
  5
282
330
1F
100
AcDbEntity
  8
0
  6
Continuous
 62
     7
370
    30
100
AcDbLine
 10
354.0539844995029
 20
131.1401751567469
 30
0.0
 11
354.0539844995029
 21
136.8701754812942
 31
0.0
  0
LINE
  5
283
330
1F
100
AcDbEntity
  8
0
  6
Continuous
 62
     7
370
    30
100
AcDbLine
 10
354.0539844995029
 20
136.8701754812942
 30
0.0
 11
357.9037032192237
 21
136.8701754812942
 31
0.0
  0
LINE
  5
284
330
1F
100
AcDbEntity
  8
0
  6
Continuous
 62
     7
370
    30
100
AcDbLine
 10
371.6298966770656
 20
146.1101750586973
 30
0.0
 11
371.6298966770656
 21
142.5101755861984
 31
0.0
  0
LINE
  5
285
330
1F
100
AcDbEntity
  8
0
  6
Continuous
 62
     7
370
    30
100
AcDbLine
 10
371.6298966770656
 20
142.5101755861984
 30
0.0
 11
368.3564617400653
 21
142.5101755861984
 31
0.0
  0
LINE
  5
286
330
1F
100
AcDbEntity
  8
0
  6
Continuous
 62
     7
370
    30
100
AcDbLine
 10
371.6298966770656
 20
136.8701754812942
 30
0.0
 11
371.6298966770656
 21
131.1401751567469
 31
0.0
  0
SPLINE
  5
287
330
1F
100
AcDbEntity
  8
0
  6
Continuous
 62
     7
370
    30
100
AcDbSpline
210
0.0
220
0.0
230
1.0
 70
     8
 71
     3
 72
     9
 73
     5
 74
     0
 42
0.000000001
 43
0.00000001
 40
0.0
 40
0.0
 40
0.0
 40
0.0
 40
0.4914727156877134
 40
1.0
 40
1.0
 40
1.0
 40
1.0
 10
371.6298966770656
 20
131.1401751567469
 30
0.0
 10
371.3700806717104
 20
130.9318427512047
 30
0.0
 10
370.8414327995865
 20
130.5079486083717
 30
0.0
 10
370.2791245635124
 20
130.4298770281472
 30
0.0
 10
369.9931754832751
 20
130.3901754994736
 30
0.0
  0
LINE
  5
288
330
1F
100
AcDbEntity
  8
0
  6
Continuous
 62
     7
370
    30
100
AcDbLine
 10
368.3564617400653
 20
136.8701754812942
 30
0.0
 11
371.6298966770656
 21
136.8701754812942
 31
0.0
  0
LINE
  5
289
330
1F
100
AcDbEntity
  8
0
  6
Continuous
 62
     7
370
    30
100
AcDbLine
 10
354.0539844995029
 20
131.1401751567469
 30
0.0
 11
353.9470463161952
 21
131.1401751567469
 31
0.0
  0
LINE
  5
28A
330
1F
100
AcDbEntity
  8
0
  6
Continuous
 62
     7
370
    30
100
AcDbLine
 10
371.6470479135997
 20
131.1401751567469
 30
0.0
 11
371.6298966770656
 21
131.1401751567469
 31
0.0
  0
LINE
  5
28B
330
1F
100
AcDbEntity
  8
0
  6
Continuous
 62
     7
370
    30
100
AcDbLine
 10
354.0539844995029
 20
136.8701754812942
 30
0.0
 11
353.9470463161952
 21
136.8701754812942
 31
0.0
  0
LINE
  5
28C
330
1F
100
AcDbEntity
  8
0
  6
Continuous
 62
     7
370
    30
100
AcDbLine
 10
371.6298966770656
 20
142.5101755861984
 30
0.0
 11
371.6470479135997
 21
142.5101755861984
 31
0.0
  0
LINE
  5
28D
330
1F
100
AcDbEntity
  8
0
  6
Continuous
 62
     7
370
    30
100
AcDbLine
 10
371.6470479135997
 20
136.8701754812942
 30
0.0
 11
371.6298966770656
 21
136.8701754812942
 31
0.0
  0
SPLINE
  5
28E
330
1F
100
AcDbEntity
  8
0
  6
Continuous
 62
     8
370
    30
100
AcDbSpline
210
0.0
220
0.0
230
1.0
 70
     8
 71
     3
 72
    20
 73
    16
 74
     0
 42
0.000000001
 43
0.00000001
 40
0.0
 40
0.0
 40
0.0
 40
0.0
 40
0.004275880230918
 40
0.0407868123439212
 40
0.1864348849259447
 40
0.3329845582647356
 40
0.4214612085374062
 40
0.5126191811103685
 40
0.5999405448439497
 40
0.6898548415343145
 40
0.776587792565066
 40
0.8658643043096734
 40
0.910973253964299
 40
0.9975930053674995
 40
1.0
 40
1.0
 40
1.0
 40
1.0
 10
300.1001413082368
 20
239.6795916114793
 30
0.0
 10
300.1301250322722
 20
239.6791407662627
 30
0.0
 10
300.4161341016476
 20
239.6748402390602
 30
0.0
 10
301.7438692950299
 20
239.8148742962375
 30
0.0
 10
304.1993084512798
 20
240.0581258145996
 30
0.0
 10
307.0434711735599
 20
240.2769174727345
 30
0.0
 10
309.3173399109031
 20
240.4333933168387
 30
0.0
 10
311.0286905806449
 20
240.5305153055447
 30
0.0
 10
312.546480185605
 20
240.6153017228612
 30
0.0
 10
313.7976510326768
 20
240.6671041485038
 30
0.0
 10
314.7776011299104
 20
240.7070612667629
 30
0.0
 10
315.3449338422433
 20
240.7183783891785
 30
0.0
 10
315.680942371891
 20
240.7178623639653
 30
0.0
 10
315.8371044325655
 20
240.717591203785
 30
0.0
 10
315.782295758
 20
240.7060062416907
 30
0.0
 10
315.7808139091022
 20
240.7056930218683
 30
0.0
  0
SPLINE
  5
28F
330
1F
100
AcDbEntity
  8
0
  6
Continuous
 62
     8
370
    30
100
AcDbSpline
210
0.0
220
0.0
230
1.0
 70
     8
 71
     3
 72
    21
 73
    17
 74
     0
 42
0.000000001
 43
0.00000001
 40
0.0
 40
0.0
 40
0.0
 40
0.0
 40
0.0059889817581321
 40
0.0908737808119615
 40
0.1346280446819276
 40
0.219606942251642
 40
0.304587955578965
 40
0.39097470303732
 40
0.477357937430242
 40
0.5664826028829295
 40
0.6555945212875403
 40
0.8046030729396135
 40
0.8804956537209381
 40
0.9563668612414554
 40
0.9952644726176372
 40
1.0
 40
1.0
 40
1.0
 40
1.0
 10
315.498121186126
 20
238.5397719894395
 30
0.0
 10
315.5012110688817
 20
238.539196098012
 30
0.0
 10
315.5480953873893
 20
238.5304578126961
 30
0.0
 10
315.3986167075985
 20
238.5273839594915
 30
0.0
 10
315.0752439692467
 20
238.5290628870216
 30
0.0
 10
314.5445910989732
 20
238.540897057289
 30
0.0
 10
313.6424841626999
 20
238.5683531041295
 30
0.0
 10
312.4705409963044
 20
238.61410156059
 30
0.0
 10
311.0508292785386
 20
238.6797199338587
 30
0.0
 10
309.4098228618591
 20
238.7714185065468
 30
0.0
 10
307.1887945961601
 20
238.9100582577603
 30
0.0
 10
304.870595679172
 20
239.0984364947118
 30
0.0
 10
302.6445137714471
 20
239.2888854196806
 30
0.0
 10
301.2609554344002
 20
239.438503816755
 30
0.0
 10
300.419749322088
 20
239.5323007511054
 30
0.0
 10
300.1254464767082
 20
239.6025503286463
 30
0.0
 10
300.0935056348927
 20
239.6101745520578
 30
0.0
  0
SPLINE
  5
290
330
1F
100
AcDbEntity
  8
0
  6
Continuous
 62
     8
370
    30
100
AcDbSpline
210
0.0
220
0.0
230
1.0
 70
     8
 71
     3
 72
    15
 73
    11
 74
     0
 42
0.000000001
 43
0.00000001
 40
0.0
 40
0.0
 40
0.0
 40
0.0
 40
0.0413644657774768
 40
0.2333120153155242
 40
0.377437355951258
 40
0.5254343124846738
 40
0.6702156633576966
 40
0.8196002982339553
 40
0.9532510543769191
 40
0.9999999999999999
 40
0.9999999999999999
 40
0.9999999999999999
 40
0.9999999999999999
 10
299.4008596157319
 20
239.5372110162721
 30
0.0
 10
299.2266431141755
 20
239.5300848400129
 30
0.0
 10
298.2439928534898
 20
239.4898903756757
 30
0.0
 10
296.757000791002
 20
239.2720115511529
 30
0.0
 10
295.09524151625
 20
239.0913588236664
 30
0.0
 10
293.8370469796031
 20
238.938212046554
 30
0.0
 10
292.8404578890724
 20
238.8090075780221
 30
0.0
 10
292.2253527588297
 20
238.7297231125702
 30
0.0
 10
291.9405073125413
 20
238.6802787574868
 30
0.0
 10
291.9741800565324
 20
238.6737728080236
 30
0.0
 10
291.9829060425646
 20
238.6720868502603
 30
0.0
  0
LWPOLYLINE
  5
291
330
1F
100
AcDbEntity
  8
0
  6
Continuous
 62
     8
370
    30
100
AcDbPolyline
 90
       11
 70
   128
 43
0.0
 10
292.5641612251885
 20
240.6278866086946
 10
292.5528652136809
 20
240.6266200099931
 10
292.7845223908908
 20
240.5582758341776
 10
293.3246410553939
 20
240.4532226477609
 10
294.1955338334329
 20
240.3132858429895
 10
295.3205584650523
 20
240.1485162530885
 10
296.7329957624561
 20
239.9601357732759
 10
298.904197393883
 20
239.6982255135522
 10
299.4144355049021
 20
239.610189453219
 10
299.4144885902888
 20
239.6101745520578
 10
299.4144885902888
 20
239.6101745520578
  0
LINE
  5
292
330
1F
100
AcDbEntity
  8
0
  6
Continuous
 62
     8
370
    30
100
AcDbLine
 10
354.0675222044475
 20
149.4101750408159
 30
0.0
 11
381.9149612551219
 21
149.4101750408159
 31
0.0
  0
LINE
  5
293
330
1F
100
AcDbEntity
  8
0
  6
Continuous
 62
     8
370
    30
100
AcDbLine
 10
381.9149612551219
 20
208.8101747189508
 30
0.0
 11
354.0675222044475
 21
208.8101747189508
 31
0.0
  0
LINE
  5
294
330
1F
100
AcDbEntity
  8
0
  6
Continuous
 62
     8
370
    30
100
AcDbLine
 10
355.9788457220084
 20
129.310175657724
 30
0.0
 11
354.6970441108234
 21
129.310175657724
 31
0.0
  0
LINE
  5
295
330
1F
100
AcDbEntity
  8
0
  6
Continuous
 62
     8
370
    30
100
AcDbLine
 10
370.897042668391
 20
129.310175657724
 30
0.0
 11
355.9788457220084
 21
129.310175657724
 31
0.0
  0
DIMENSION
  5
296
330
1F
100
AcDbEntity
  8
SLD-0
100
AcDbDimension
  2
_D_3
 10
385.2149597645274
 20
76.16017527212298
 30
0.0
 11
321.1933412682012
 21
76.16017527212298
 31
0.0
 70
   160
  1
<>
 71
     2
 42
-1.0
  3
SLDDIMSTYLE0
100
AcDbAlignedDimension
 13
254.6723872704093
 23
140.6101752721229
 33
0.0
 14
385.2149597645274
 24
149.410175272123
 34
0.0
100
AcDbRotatedDimension
  0
ENDSEC
  0
SECTION
  2
OBJECTS
  0
DICTIONARY
  5
C
330
0
100
AcDbDictionary
281
     1
  3
ACAD_GROUP
350
D
  3
ACAD_LAYOUT
350
1A
  3
ACAD_MATERIAL
350
2B9
  3
ACAD_MLEADERSTYLE
350
2BD
  3
ACAD_MLINESTYLE
350
17
  3
ACAD_PLOTSETTINGS
350
19
  3
ACAD_PLOTSTYLENAME
350
E
  3
ACAD_SCALELIST
350
47
  3
ACAD_TABLESTYLE
350
2BF
  3
ACAD_VISUALSTYLE
350
2A0
  3
AcDbVariableDictionary
350
2C1
  3
DWGPROPS
350
2C8
  0
DICTIONARY
  5
2C9
330
8
100
AcDbDictionary
280
     1
281
     1
  3
ACAD_XREC_ROUNDTRIP
360
2CA
  0
DICTIONARY
  5
D
102
{ACAD_REACTORS
330
C
102
}
330
C
100
AcDbDictionary
281
     1
  0
DICTIONARY
  5
1A
102
{ACAD_REACTORS
330
C
102
}
330
C
100
AcDbDictionary
281
     1
  3
Layout1
350
1E
  3
Layout2
350
26
  3
Model
350
22
  0
DICTIONARY
  5
2B9
102
{ACAD_REACTORS
330
C
102
}
330
C
100
AcDbDictionary
281
     1
  3
ByBlock
350
2BB
  3
ByLayer
350
2BA
  3
Global
350
2BC
  0
DICTIONARY
  5
2BD
102
{ACAD_REACTORS
330
C
102
}
330
C
100
AcDbDictionary
281
     1
  3
Standard
350
2BE
  0
DICTIONARY
  5
17
102
{ACAD_REACTORS
330
C
102
}
330
C
100
AcDbDictionary
281
     1
  3
Standard
350
18
  0
DICTIONARY
  5
19
102
{ACAD_REACTORS
330
C
102
}
330
C
100
AcDbDictionary
281
     1
  0
ACDBDICTIONARYWDFLT
  5
E
102
{ACAD_REACTORS
330
C
102
}
330
C
100
AcDbDictionary
281
     1
  3
Normal
350
F
100
AcDbDictionaryWithDefault
340
F
  0
DICTIONARY
  5
47
102
{ACAD_REACTORS
330
C
102
}
330
C
100
AcDbDictionary
281
     1
  3
A0
350
48
  3
A1
350
49
  3
A2
350
4A
  3
A3
350
4B
  3
A4
350
4C
  3
A5
350
4D
  3
A6
350
4E
  3
A7
350
4F
  3
A8
350
50
  3
A9
350
51
  3
B0
350
52
  3
B1
350
53
  3
B2
350
54
  3
B3
350
55
  3
B4
350
56
  3
B5
350
57
  3
B6
350
58
  3
B7
350
59
  3
B8
350
5A
  3
B9
350
5B
  3
C0
350
5C
  3
C1
350
5D
  3
C2
350
5E
  3
C3
350
5F
  3
C4
350
60
  3
C5
350
61
  3
C6
350
62
  3
C7
350
63
  3
C8
350
64
  3
C9
350
65
  3
D0
350
66
  3
D1
350
67
  3
D2
350
68
  0
DICTIONARY
  5
2BF
102
{ACAD_REACTORS
330
C
102
}
330
C
100
AcDbDictionary
281
     1
  3
Standard
350
2C0
  0
DICTIONARY
  5
2A0
102
{ACAD_REACTORS
330
C
102
}
330
C
100
AcDbDictionary
281
     1
  3
2dWireframe
350
2A5
  3
Basic
350
2A8
  3
Brighten
350
2AC
  3
ColorChange
350
2B0
  3
Conceptual
350
2AA
  3
Dim
350
2AB
  3
EdgeColorOff
350
2B3
  3
Facepattern
350
2AF
  3
Flat
350
2A1
  3
FlatWithEdges
350
2A2
  3
Gouraud
350
2A3
  3
GouraudWithEdges
350
2A4
  3
Hidden
350
2A7
  3
JitterOff
350
2B1
  3
Linepattern
350
2AE
  3
OverhangOff
350
2B2
  3
Realistic
350
2A9
  3
Shaded
350
2B8
  3
Shaded with edges
350
2B7
  3
Shades of Gray
350
2B4
  3
Sketchy
350
2B5
  3
Thicken
350
2AD
  3
Wireframe
350
2A6
  3
X-Ray
350
2B6
  0
DICTIONARY
  5
2C1
102
{ACAD_REACTORS
330
C
102
}
330
C
100
AcDbDictionary
281
     1
  3
CMLEADERSTYLE
350
2C3
  3
CTABLESTYLE
350
2C2
  3
DIMASSOC
350
2C6
  3
HIDETEXT
350
2C7
  3
MSLTSCALE
350
2CB
  0
XRECORD
  5
2C8
102
{ACAD_REACTORS
330
C
102
}
330
C
100
AcDbXrecord
280
     1
  1
DWGPROPS COOKIE
  2

  3

  4

  6

  7

  8
acae2
  9

300
=
301
=
302
=
303
=
304
=
305
=
306
=
307
=
308
=
309
=
 40
0.0
 41
2458036.549045173
 42
2460157.36902772
  1

 90
        0
  0
XRECORD
  5
2CA
102
{ACAD_REACTORS
330
2C9
102
}
330
2C9
100
AcDbXrecord
280
     1
102
VTR_0.000_0.000_1.000_1.000_VISUALSTYLE
340
2A5
102
VTR_0.000_0.000_1.000_1.000_GRIDDISPLAY
 70
     3
102
VTR_0.000_0.000_1.000_1.000_GRIDMAJOR
 70
     5
102
VTR_0.000_0.000_1.000_1.000_DEFAULTLIGHTING
280
     1
102
VTR_0.000_0.000_1.000_1.000_DEFAULTLIGHTINGTYPE
 70
     1
102
VTR_0.000_0.000_1.000_1.000_BRIGHTNESS
141
0.0
102
VTR_0.000_0.000_1.000_1.000_CONTRAST
142
0.0
  0
LAYOUT
  5
1E
102
{ACAD_REACTORS
330
1A
102
}
330
1A
100
AcDbPlotSettings
  1

  2
none_device
  4

  6

 40
0.0
 41
0.0
 42
0.0
 43
0.0
 44
0.0
 45
0.0
 46
0.0
 47
0.0
 48
0.0
 49
0.0
140
0.0
141
0.0
142
1.0
143
1.0
 70
   688
 72
     1
 73
     0
 74
     5
  7

 75
    16
147
1.0
148
0.0
149
0.0
100
AcDbLayout
  1
Layout1
 70
     1
 71
     1
 10
0.0
 20
0.0
 11
420.0
 21
297.0
 12
0.0
 22
0.0
 32
0.0
 14
1.000000000000000E+20
 24
1.000000000000000E+20
 34
1.000000000000000E+20
 15
-1.000000000000000E+20
 25
-1.000000000000000E+20
 35
-1.000000000000000E+20
146
0.0
 13
0.0
 23
0.0
 33
0.0
 16
1.0
 26
0.0
 36
0.0
 17
0.0
 27
1.0
 37
0.0
 76
     0
330
1B
  0
LAYOUT
  5
26
102
{ACAD_REACTORS
330
1A
102
}
330
1A
100
AcDbPlotSettings
  1

  2
none_device
  4

  6

 40
0.0
 41
0.0
 42
0.0
 43
0.0
 44
0.0
 45
0.0
 46
0.0
 47
0.0
 48
0.0
 49
0.0
140
0.0
141
0.0
142
1.0
143
1.0
 70
   688
 72
     1
 73
     0
 74
     5
  7

 75
    16
147
1.0
148
0.0
149
0.0
100
AcDbLayout
  1
Layout2
 70
     1
 71
     2
 10
0.0
 20
0.0
 11
0.0
 21
0.0
 12
0.0
 22
0.0
 32
0.0
 14
0.0
 24
0.0
 34
0.0
 15
0.0
 25
0.0
 35
0.0
146
0.0
 13
0.0
 23
0.0
 33
0.0
 16
1.0
 26
0.0
 36
0.0
 17
0.0
 27
1.0
 37
0.0
 76
     0
330
23
  0
LAYOUT
  5
22
102
{ACAD_REACTORS
330
1A
102
}
330
1A
100
AcDbPlotSettings
  1

  2
none_device
  4
Letter_(8.50_x_11.00_Inches)
  6

 40
6.35
 41
6.35
 42
6.35000508
 43
6.35000508
 44
215.9
 45
279.4
 46
0.0
 47
0.0
 48
0.0
 49
0.0
140
0.0
141
0.0
142
1.0
143
1.0
 70
  1712
 72
     1
 73
     0
 74
     0
  7

 75
     0
147
1.0
148
0.0
149
0.0
100
AcDbLayout
  1
Model
 70
     1
 71
     0
 10
0.0
 20
0.0
 11
420.0
 21
297.0
 12
0.0
 22
0.0
 32
0.0
 14
0.0
 24
0.0
 34
0.0
 15
420.0
 25
297.0
 35
0.0
146
0.0
 13
0.0
 23
0.0
 33
0.0
 16
1.0
 26
0.0
 36
0.0
 17
0.0
 27
1.0
 37
0.0
 76
     0
330
1F
331
29
  0
MATERIAL
  5
2BB
102
{ACAD_REACTORS
330
2B9
102
}
102
{ACAD_XDICTIONARY
360
2FE
102
}
330
2B9
100
AcDbMaterial
  1
ByBlock
  0
MATERIAL
  5
2BA
102
{ACAD_REACTORS
330
2B9
102
}
102
{ACAD_XDICTIONARY
360
2FC
102
}
330
2B9
100
AcDbMaterial
  1
ByLayer
  0
MATERIAL
  5
2BC
102
{ACAD_REACTORS
330
2B9
102
}
102
{ACAD_XDICTIONARY
360
300
102
}
330
2B9
100
AcDbMaterial
  1
Global
  0
MLEADERSTYLE
  5
2BE
102
{ACAD_REACTORS
330
2BD
102
}
102
{ACAD_XDICTIONARY
360
303
102
}
330
2BD
100
AcDbMLeaderStyle
170
     2
171
     1
172
     0
 90
        2
 40
0.0
 41
0.0
173
     1
 91
-1056964608
340
14
 92
       -2
290
     1
 42
2.0
291
     1
 43
8.0
  3
Standard
341
0
 44
4.0
300

342
11
174
     1
178
     6
175
     1
176
     0
 93
-1056964608
 45
4.0
292
     0
297
     0
 46
4.0
343
0
 94
-1056964608
 47
1.0
 49
1.0
140
1.0
293
     1
141
0.0
294
     1
177
     0
142
1.0
295
     0
296
     0
143
3.75
1001
ACAD_MLEADERVER
1070
     2
  0
MLINESTYLE
  5
18
102
{ACAD_REACTORS
330
17
102
}
330
17
100
AcDbMlineStyle
  2
Standard
 70
     0
  3

 62
   256
 51
90.0
 52
90.0
 71
     2
 49
0.5
 62
   256
  6
BYLAYER
 49
-0.5
 62
   256
  6
BYLAYER
  0
ACDBPLACEHOLDER
  5
F
102
{ACAD_REACTORS
330
E
102
}
330
E
  0
SCALE
  5
48
102
{ACAD_REACTORS
330
47
102
}
330
47
100
AcDbScale
 70
     0
300
1:1
140
1.0
141
1.0
290
     1
  0
SCALE
  5
49
102
{ACAD_REACTORS
330
47
102
}
330
47
100
AcDbScale
 70
     0
300
1:2
140
1.0
141
2.0
290
     0
  0
SCALE
  5
4A
102
{ACAD_REACTORS
330
47
102
}
330
47
100
AcDbScale
 70
     0
300
1:4
140
1.0
141
4.0
290
     0
  0
SCALE
  5
4B
102
{ACAD_REACTORS
330
47
102
}
330
47
100
AcDbScale
 70
     0
300
1:5
140
1.0
141
5.0
290
     0
  0
SCALE
  5
4C
102
{ACAD_REACTORS
330
47
102
}
330
47
100
AcDbScale
 70
     0
300
1:8
140
1.0
141
8.0
290
     0
  0
SCALE
  5
4D
102
{ACAD_REACTORS
330
47
102
}
330
47
100
AcDbScale
 70
     0
300
1:10
140
1.0
141
10.0
290
     0
  0
SCALE
  5
4E
102
{ACAD_REACTORS
330
47
102
}
330
47
100
AcDbScale
 70
     0
300
1:16
140
1.0
141
16.0
290
     0
  0
SCALE
  5
4F
102
{ACAD_REACTORS
330
47
102
}
330
47
100
AcDbScale
 70
     0
300
1:20
140
1.0
141
20.0
290
     0
  0
SCALE
  5
50
102
{ACAD_REACTORS
330
47
102
}
330
47
100
AcDbScale
 70
     0
300
1:30
140
1.0
141
30.0
290
     0
  0
SCALE
  5
51
102
{ACAD_REACTORS
330
47
102
}
330
47
100
AcDbScale
 70
     0
300
1:40
140
1.0
141
40.0
290
     0
  0
SCALE
  5
52
102
{ACAD_REACTORS
330
47
102
}
330
47
100
AcDbScale
 70
     0
300
1:50
140
1.0
141
50.0
290
     0
  0
SCALE
  5
53
102
{ACAD_REACTORS
330
47
102
}
330
47
100
AcDbScale
 70
     0
300
1:100
140
1.0
141
100.0
290
     0
  0
SCALE
  5
54
102
{ACAD_REACTORS
330
47
102
}
330
47
100
AcDbScale
 70
     0
300
2:1
140
2.0
141
1.0
290
     0
  0
SCALE
  5
55
102
{ACAD_REACTORS
330
47
102
}
330
47
100
AcDbScale
 70
     0
300
4:1
140
4.0
141
1.0
290
     0
  0
SCALE
  5
56
102
{ACAD_REACTORS
330
47
102
}
330
47
100
AcDbScale
 70
     0
300
8:1
140
8.0
141
1.0
290
     0
  0
SCALE
  5
57
102
{ACAD_REACTORS
330
47
102
}
330
47
100
AcDbScale
 70
     0
300
10:1
140
10.0
141
1.0
290
     0
  0
SCALE
  5
58
102
{ACAD_REACTORS
330
47
102
}
330
47
100
AcDbScale
 70
     0
300
100:1
140
100.0
141
1.0
290
     0
  0
SCALE
  5
59
102
{ACAD_REACTORS
330
47
102
}
330
47
100
AcDbScale
 70
     0
300
1/128" = 1'-0"
140
0.0078125
141
12.0
290
     0
  0
SCALE
  5
5A
102
{ACAD_REACTORS
330
47
102
}
330
47
100
AcDbScale
 70
     0
300
1/64" = 1'-0"
140
0.015625
141
12.0
290
     0
  0
SCALE
  5
5B
102
{ACAD_REACTORS
330
47
102
}
330
47
100
AcDbScale
 70
     0
300
1/32" = 1'-0"
140
0.03125
141
12.0
290
     0
  0
SCALE
  5
5C
102
{ACAD_REACTORS
330
47
102
}
330
47
100
AcDbScale
 70
     0
300
1/16" = 1'-0"
140
0.0625
141
12.0
290
     0
  0
SCALE
  5
5D
102
{ACAD_REACTORS
330
47
102
}
330
47
100
AcDbScale
 70
     0
300
3/32" = 1'-0"
140
0.09375
141
12.0
290
     0
  0
SCALE
  5
5E
102
{ACAD_REACTORS
330
47
102
}
330
47
100
AcDbScale
 70
     0
300
1/8" = 1'-0"
140
0.125
141
12.0
290
     0
  0
SCALE
  5
5F
102
{ACAD_REACTORS
330
47
102
}
330
47
100
AcDbScale
 70
     0
300
3/16" = 1'-0"
140
0.1875
141
12.0
290
     0
  0
SCALE
  5
60
102
{ACAD_REACTORS
330
47
102
}
330
47
100
AcDbScale
 70
     0
300
1/4" = 1'-0"
140
0.25
141
12.0
290
     0
  0
SCALE
  5
61
102
{ACAD_REACTORS
330
47
102
}
330
47
100
AcDbScale
 70
     0
300
3/8" = 1'-0"
140
0.375
141
12.0
290
     0
  0
SCALE
  5
62
102
{ACAD_REACTORS
330
47
102
}
330
47
100
AcDbScale
 70
     0
300
1/2" = 1'-0"
140
0.5
141
12.0
290
     0
  0
SCALE
  5
63
102
{ACAD_REACTORS
330
47
102
}
330
47
100
AcDbScale
 70
     0
300
3/4" = 1'-0"
140
0.75
141
12.0
290
     0
  0
SCALE
  5
64
102
{ACAD_REACTORS
330
47
102
}
330
47
100
AcDbScale
 70
     0
300
1" = 1'-0"
140
1.0
141
12.0
290
     0
  0
SCALE
  5
65
102
{ACAD_REACTORS
330
47
102
}
330
47
100
AcDbScale
 70
     0
300
1-1/2" = 1'-0"
140
1.5
141
12.0
290
     0
  0
SCALE
  5
66
102
{ACAD_REACTORS
330
47
102
}
330
47
100
AcDbScale
 70
     0
300
3" = 1'-0"
140
3.0
141
12.0
290
     0
  0
SCALE
  5
67
102
{ACAD_REACTORS
330
47
102
}
330
47
100
AcDbScale
 70
     0
300
6" = 1'-0"
140
6.0
141
12.0
290
     0
  0
SCALE
  5
68
102
{ACAD_REACTORS
330
47
102
}
330
47
100
AcDbScale
 70
     0
300
1'-0" = 1'-0"
140
12.0
141
12.0
290
     0
  0
TABLESTYLE
  5
2C0
102
{ACAD_REACTORS
330
2BF
102
}
330
2BF
100
AcDbTableStyle
  3
Standard
 70
     0
 71
     0
 40
1.5
 41
1.5
280
     0
281
     0
  7
Standard
140
4.5
170
     2
 62
     0
 63
   257
283
     0
274
    -2
284
     1
 64
     0
275
    -2
285
     1
 65
     0
276
    -2
286
     1
 66
     0
277
    -2
287
     1
 67
     0
278
    -2
288
     1
 68
     0
279
    -2
289
     1
 69
     0
  7
Standard
140
6.0
170
     5
 62
     0
 63
   257
283
     0
274
    -2
284
     1
 64
     0
275
    -2
285
     1
 65
     0
276
    -2
286
     1
 66
     0
277
    -2
287
     1
 67
     0
278
    -2
288
     1
 68
     0
279
    -2
289
     1
 69
     0
  7
Standard
140
4.5
170
     5
 62
     0
 63
   257
283
     0
274
    -2
284
     1
 64
     0
275
    -2
285
     1
 65
     0
276
    -2
286
     1
 66
     0
277
    -2
287
     1
 67
     0
278
    -2
288
     1
 68
     0
279
    -2
289
     1
 69
     0
  0
VISUALSTYLE
  5
2A5
102
{ACAD_REACTORS
330
2A0
102
}
102
{ACAD_XDICTIONARY
360
2D4
102
}
330
2A0
100
AcDbVisualStyle
  2
2dWireframe
 70
     4
 71
     0
 72
     2
 73
     0
 90
        0
 40
0.6
 41
30.0
 62
     5
 63
     7
 74
     1
 91
        4
 64
     7
 65
   257
 75
     1
175
     1
 42
1.0
 92
        0
 66
   257
 43
1.0
 76
     1
 77
     6
 78
     2
 67
     7
 79
     5
170
     0
171
     0
290
     0
174
     0
 93
        1
 44
0.0
173
     0
291
     0
 45
0.0
1001
ACAD
1000
AcDbSavedByObjectVersion
1070
     0
  0
VISUALSTYLE
  5
2A8
102
{ACAD_REACTORS
330
2A0
102
}
102
{ACAD_XDICTIONARY
360
2DA
102
}
330
2A0
100
AcDbVisualStyle
  2
Basic
 70
     7
 71
     1
 72
     0
 73
     1
 90
        0
 40
0.6
 41
30.0
 62
     5
 63
     7
 74
     0
 91
        4
 64
     7
 65
   257
 75
     1
175
     1
 42
1.0
 92
        8
 66
     7
 43
1.0
 76
     1
 77
     6
 78
     2
 67
     7
 79
     5
170
     0
171
     0
290
     0
174
     0
 93
        1
 44
0.0
173
     0
291
     1
 45
0.0
1001
ACAD
1000
AcDbSavedByObjectVersion
1070
     0
  0
VISUALSTYLE
  5
2AC
102
{ACAD_REACTORS
330
2A0
102
}
102
{ACAD_XDICTIONARY
360
2E2
102
}
330
2A0
100
AcDbVisualStyle
  2
Brighten
 70
    12
 71
     2
 72
     2
 73
     0
 90
        0
 40
0.6
 41
30.0
 62
     5
 63
     7
 74
     1
 91
        4
 64
     7
 65
   257
 75
     1
175
     1
 42
1.0
 92
        8
 66
     7
 43
1.0
 76
     1
 77
     6
 78
     2
 67
     7
 79
     5
170
     0
171
     0
290
     0
174
     0
 93
        1
 44
50.0
173
     0
291
     1
 45
0.0
1001
ACAD
1000
AcDbSavedByObjectVersion
1070
     0
  0
VISUALSTYLE
  5
2B0
102
{ACAD_REACTORS
330
2A0
102
}
102
{ACAD_XDICTIONARY
360
2EA
102
}
330
2A0
100
AcDbVisualStyle
  2
ColorChange
 70
    16
 71
     2
 72
     2
 73
     3
 90
        0
 40
0.6
 41
30.0
 62
     5
 63
     8
 74
     1
 91
        4
 64
     7
 65
   257
 75
     1
175
     1
 42
1.0
 92
        8
 66
     8
 43
1.0
 76
     1
 77
     6
 78
     2
 67
     7
 79
     5
170
     0
171
     0
290
     0
174
     0
 93
        1
 44
0.0
173
     0
291
     1
 45
0.0
1001
ACAD
1000
AcDbSavedByObjectVersion
1070
     0
  0
VISUALSTYLE
  5
2AA
102
{ACAD_REACTORS
330
2A0
102
}
102
{ACAD_XDICTIONARY
360
2DE
102
}
330
2A0
100
AcDbVisualStyle
  2
Conceptual
 70
     9
 71
     3
 72
     2
 73
     0
 90
        0
 40
0.6
 41
30.0
 62
     5
 63
     7
 74
     2
 91
        2
 64
     7
 65
   257
 75
     1
175
     1
 42
179.0
 92
        8
 66
     7
 43
1.0
 76
     1
 77
     6
 78
     2
 67
     7
 79
     3
170
     0
171
     0
290
     0
174
     0
 93
        1
 44
0.0
173
     0
291
     0
 45
0.0
1001
ACAD
1000
AcDbSavedByObjectVersion
1070
     0
  0
VISUALSTYLE
  5
2AB
102
{ACAD_REACTORS
330
2A0
102
}
102
{ACAD_XDICTIONARY
360
2E0
102
}
330
2A0
100
AcDbVisualStyle
  2
Dim
 70
    11
 71
     2
 72
     2
 73
     0
 90
        0
 40
0.6
 41
30.0
 62
     5
 63
     7
 74
     1
 91
        4
 64
     7
 65
   257
 75
     1
175
     1
 42
1.0
 92
        8
 66
     7
 43
1.0
 76
     1
 77
     6
 78
     2
 67
     7
 79
     5
170
     0
171
     0
290
     0
174
     0
 93
        1
 44
-50.0
173
     0
291
     1
 45
0.0
1001
ACAD
1000
AcDbSavedByObjectVersion
1070
     0
  0
VISUALSTYLE
  5
2B3
102
{ACAD_REACTORS
330
2A0
102
}
102
{ACAD_XDICTIONARY
360
2F0
102
}
330
2A0
100
AcDbVisualStyle
  2
EdgeColorOff
 70
    22
 71
     2
 72
     2
 73
     0
 90
        0
 40
0.6
 41
30.0
 62
     5
 63
     7
 74
     1
 91
        4
 64
     7
 65
   257
 75
     1
175
     1
 42
1.0
 92
        8
 66
     7
 43
1.0
 76
     1
 77
     6
 78
     2
 67
     7
 79
     5
170
     0
171
     0
290
     0
174
     0
 93
        1
 44
0.0
173
     0
291
     1
 45
0.0
1001
ACAD
1000
AcDbSavedByObjectVersion
1070
     0
  0
VISUALSTYLE
  5
2AF
102
{ACAD_REACTORS
330
2A0
102
}
102
{ACAD_XDICTIONARY
360
2E8
102
}
330
2A0
100
AcDbVisualStyle
  2
Facepattern
 70
    15
 71
     2
 72
     2
 73
     0
 90
        0
 40
0.6
 41
30.0
 62
     5
 63
     7
 74
     1
 91
        4
 64
     7
 65
   257
 75
     1
175
     1
 42
1.0
 92
        8
 66
     7
 43
1.0
 76
     1
 77
     6
 78
     2
 67
     7
 79
     5
170
     0
171
     0
290
     0
174
     0
 93
        1
 44
0.0
173
     0
291
     1
 45
0.0
1001
ACAD
1000
AcDbSavedByObjectVersion
1070
     0
  0
VISUALSTYLE
  5
2A1
102
{ACAD_REACTORS
330
2A0
102
}
102
{ACAD_XDICTIONARY
360
2CC
102
}
330
2A0
100
AcDbVisualStyle
  2
Flat
 70
     0
 71
     2
 72
     1
 73
     1
 90
        2
 40
0.6
 41
30.0
 62
     5
 63
     7
 74
     0
 91
        0
 64
     7
 65
   257
 75
     1
175
     1
 42
1.0
 92
        8
 66
     7
 43
1.0
 76
     1
 77
     6
 78
     2
 67
     7
 79
     5
170
     0
171
     0
290
     0
174
     0
 93
       13
 44
0.0
173
     0
291
     1
 45
0.0
1001
ACAD
1000
AcDbSavedByObjectVersion
1070
     0
  0
VISUALSTYLE
  5
2A2
102
{ACAD_REACTORS
330
2A0
102
}
102
{ACAD_XDICTIONARY
360
2CE
102
}
330
2A0
100
AcDbVisualStyle
  2
FlatWithEdges
 70
     1
 71
     2
 72
     1
 73
     1
 90
        2
 40
0.6
 41
30.0
 62
     5
 63
     7
 74
     1
 91
        0
 64
     7
 65
   257
 75
     1
175
     1
 42
1.0
 92
        0
 66
   257
 43
1.0
 76
     1
 77
     6
 78
     2
 67
     7
 79
     5
170
     0
171
     0
290
     0
174
     0
 93
       13
 44
0.0
173
     0
291
     1
 45
0.0
1001
ACAD
1000
AcDbSavedByObjectVersion
1070
     0
  0
VISUALSTYLE
  5
2A3
102
{ACAD_REACTORS
330
2A0
102
}
102
{ACAD_XDICTIONARY
360
2D0
102
}
330
2A0
100
AcDbVisualStyle
  2
Gouraud
 70
     2
 71
     2
 72
     2
 73
     1
 90
        2
 40
0.6
 41
30.0
 62
     5
 63
     7
 74
     0
 91
        0
 64
     7
 65
   257
 75
     1
175
     1
 42
1.0
 92
        0
 66
     7
 43
1.0
 76
     1
 77
     6
 78
     2
 67
     7
 79
     5
170
     0
171
     0
290
     0
174
     0
 93
       13
 44
0.0
173
     0
291
     1
 45
0.0
1001
ACAD
1000
AcDbSavedByObjectVersion
1070
     0
  0
VISUALSTYLE
  5
2A4
102
{ACAD_REACTORS
330
2A0
102
}
102
{ACAD_XDICTIONARY
360
2D2
102
}
330
2A0
100
AcDbVisualStyle
  2
GouraudWithEdges
 70
     3
 71
     2
 72
     2
 73
     1
 90
        2
 40
0.6
 41
30.0
 62
     5
 63
     7
 74
     1
 91
        0
 64
     7
 65
   257
 75
     1
175
     1
 42
1.0
 92
        0
 66
   257
 43
1.0
 76
     1
 77
     6
 78
     2
 67
     7
 79
     5
170
     0
171
     0
290
     0
174
     0
 93
       13
 44
0.0
173
     0
291
     1
 45
0.0
1001
ACAD
1000
AcDbSavedByObjectVersion
1070
     0
  0
VISUALSTYLE
  5
2A7
102
{ACAD_REACTORS
330
2A0
102
}
102
{ACAD_XDICTIONARY
360
2D8
102
}
330
2A0
100
AcDbVisualStyle
  2
Hidden
 70
     6
 71
     1
 72
     2
 73
     2
 90
        0
 40
0.6
 41
30.0
 62
     5
 63
     7
 74
     2
 91
        2
 64
     7
 65
   257
 75
     2
175
     1
 42
40.0
 92
        0
 66
   257
 43
1.0
 76
     1
 77
     6
 78
     2
 67
     7
 79
     3
170
     0
171
     0
290
     0
174
     0
 93
        1
 44
0.0
173
     0
291
     0
 45
0.0
1001
ACAD
1000
AcDbSavedByObjectVersion
1070
     0
  0
VISUALSTYLE
  5
2B1
102
{ACAD_REACTORS
330
2A0
102
}
102
{ACAD_XDICTIONARY
360
2EC
102
}
330
2A0
100
AcDbVisualStyle
  2
JitterOff
 70
    20
 71
     2
 72
     2
 73
     0
 90
        0
 40
0.6
 41
30.0
 62
     5
 63
     7
 74
     1
 91
        4
 64
     7
 65
   257
 75
     1
175
     1
 42
1.0
 92
       10
 66
     7
 43
1.0
 76
     1
 77
     6
 78
     2
 67
     7
 79
     5
170
     0
171
     0
290
     0
174
     0
 93
        1
 44
0.0
173
     0
291
     1
 45
0.0
1001
ACAD
1000
AcDbSavedByObjectVersion
1070
     0
  0
VISUALSTYLE
  5
2AE
102
{ACAD_REACTORS
330
2A0
102
}
102
{ACAD_XDICTIONARY
360
2E6
102
}
330
2A0
100
AcDbVisualStyle
  2
Linepattern
 70
    14
 71
     2
 72
     2
 73
     0
 90
        0
 40
0.6
 41
30.0
 62
     5
 63
     7
 74
     1
 91
        4
 64
     7
 65
   257
 75
     7
175
     7
 42
1.0
 92
        8
 66
     7
 43
1.0
 76
     1
 77
     6
 78
     2
 67
     7
 79
     5
170
     0
171
     0
290
     0
174
     0
 93
        1
 44
0.0
173
     0
291
     1
 45
0.0
1001
ACAD
1000
AcDbSavedByObjectVersion
1070
     0
  0
VISUALSTYLE
  5
2B2
102
{ACAD_REACTORS
330
2A0
102
}
102
{ACAD_XDICTIONARY
360
2EE
102
}
330
2A0
100
AcDbVisualStyle
  2
OverhangOff
 70
    21
 71
     2
 72
     2
 73
     0
 90
        0
 40
0.6
 41
30.0
 62
     5
 63
     7
 74
     1
 91
        4
 64
     7
 65
   257
 75
     1
175
     1
 42
1.0
 92
        9
 66
     7
 43
1.0
 76
     1
 77
     6
 78
     2
 67
     7
 79
     5
170
     0
171
     0
290
     0
174
     0
 93
        1
 44
0.0
173
     0
291
     1
 45
0.0
1001
ACAD
1000
AcDbSavedByObjectVersion
1070
     0
  0
VISUALSTYLE
  5
2A9
102
{ACAD_REACTORS
330
2A0
102
}
102
{ACAD_XDICTIONARY
360
2DC
102
}
330
2A0
100
AcDbVisualStyle
  2
Realistic
 70
     8
 71
     2
 72
     3
 73
     0
 90
        2
 40
0.6
 41
30.0
 62
     5
 63
     7
 74
     0
 91
        0
 64
     7
 65
   257
 75
     1
175
     1
 42
1.0
 92
        8
 66
   257
 43
1.0
 76
     1
 77
     6
 78
     2
 67
     7
 79
     3
170
     0
171
     0
290
     0
174
     0
 93
       13
 44
0.0
173
     0
291
     0
 45
0.0
1001
ACAD
1000
AcDbSavedByObjectVersion
1070
     0
  0
VISUALSTYLE
  5
2B8
102
{ACAD_REACTORS
330
2A0
102
}
102
{ACAD_XDICTIONARY
360
2FA
102
}
330
2A0
100
AcDbVisualStyle
  2
Shaded
 70
    27
 71
     2
 72
     2
 73
     1
 90
        2
 40
0.6
 41
30.0
 62
     5
 63
     7
 74
     0
 91
        4
 64
     7
 65
   257
 75
     1
175
     1
 42
1.0
 92
        8
 66
   257
 43
1.0
 76
     1
 77
     6
 78
     2
 67
     8
 79
     3
170
     0
171
     0
290
     0
174
     0
 93
        5
 44
0.0
173
     0
291
     0
 45
0.0
1001
ACAD
1000
AcDbSavedByObjectVersion
1070
     0
  0
VISUALSTYLE
  5
2B7
102
{ACAD_REACTORS
330
2A0
102
}
102
{ACAD_XDICTIONARY
360
2F8
102
}
330
2A0
100
AcDbVisualStyle
  2
Shaded with edges
 70
    26
 71
     2
 72
     2
 73
     1
 90
        2
 40
0.6
 41
30.0
 62
     5
 63
     7
 74
     1
 91
       10
 64
     7
 65
   257
 75
     2
175
     1
 42
1.0
 92
        8
 66
   257
 43
1.0
 76
     1
 77
     6
 78
     2
 67
     7
 79
     3
170
     0
171
     0
290
     0
174
     0
 93
        5
 44
0.0
173
     0
291
     0
 45
0.0
1001
ACAD
1000
AcDbSavedByObjectVersion
1070
     0
  0
VISUALSTYLE
  5
2B4
102
{ACAD_REACTORS
330
2A0
102
}
102
{ACAD_XDICTIONARY
360
2F2
102
}
330
2A0
100
AcDbVisualStyle
  2
Shades of Gray
 70
    23
 71
     2
 72
     2
 73
     3
 90
        0
 40
0.6
 41
30.0
 62
     5
 63
     7
 74
     2
 91
        2
 64
     7
 65
     7
 75
     1
175
     1
 42
40.0
 92
        8
 66
     7
 43
1.0
 76
     1
 77
     6
 78
     2
 67
     7
 79
     3
170
     0
171
     0
290
     0
174
     0
 93
        1
 44
0.0
173
     0
291
     0
 45
0.0
1001
ACAD
1000
AcDbSavedByObjectVersion
1070
     0
  0
VISUALSTYLE
  5
2B5
102
{ACAD_REACTORS
330
2A0
102
}
102
{ACAD_XDICTIONARY
360
2F4
102
}
330
2A0
100
AcDbVisualStyle
  2
Sketchy
 70
    24
 71
     1
 72
     2
 73
     2
 90
        0
 40
0.6
 41
30.0
 62
     5
 63
     7
 74
     2
 91
        2
 64
     7
 65
     7
 75
     1
175
     1
 42
40.0
 92
       11
 66
     7
 43
1.0
 76
     1
 77
     6
 78
     2
 67
     7
 79
     6
170
     0
171
     0
290
     0
174
     0
 93
        1
 44
0.0
173
     0
291
     0
 45
0.0
1001
ACAD
1000
AcDbSavedByObjectVersion
1070
     0
  0
VISUALSTYLE
  5
2AD
102
{ACAD_REACTORS
330
2A0
102
}
102
{ACAD_XDICTIONARY
360
2E4
102
}
330
2A0
100
AcDbVisualStyle
  2
Thicken
 70
    13
 71
     2
 72
     2
 73
     0
 90
        0
 40
0.6
 41
30.0
 62
     5
 63
     7
 74
     1
 91
        4
 64
     7
 65
   257
 75
     1
175
     1
 42
1.0
 92
       12
 66
     7
 43
1.0
 76
     1
 77
     6
 78
     2
 67
     7
 79
     5
170
     0
171
     0
290
     0
174
     0
 93
        1
 44
0.0
173
     0
291
     1
 45
0.0
1001
ACAD
1000
AcDbSavedByObjectVersion
1070
     0
  0
VISUALSTYLE
  5
2A6
102
{ACAD_REACTORS
330
2A0
102
}
102
{ACAD_XDICTIONARY
360
2D6
102
}
330
2A0
100
AcDbVisualStyle
  2
Wireframe
 70
     5
 71
     0
 72
     2
 73
     0
 90
        0
 40
0.6
 41
30.0
 62
     5
 63
     7
 74
     1
 91
        4
 64
     7
 65
   257
 75
     1
175
     1
 42
1.0
 92
        0
 66
   257
 43
1.0
 76
     1
 77
     6
 78
     2
 67
     7
 79
     3
170
     0
171
     0
290
     0
174
     0
 93
        1
 44
0.0
173
     0
291
     0
 45
0.0
1001
ACAD
1000
AcDbSavedByObjectVersion
1070
     0
  0
VISUALSTYLE
  5
2B6
102
{ACAD_REACTORS
330
2A0
102
}
102
{ACAD_XDICTIONARY
360
2F6
102
}
330
2A0
100
AcDbVisualStyle
  2
X-Ray
 70
    25
 71
     2
 72
     2
 73
     1
 90
        1
 40
0.5
 41
30.0
 62
     5
 63
     7
 74
     1
 91
        0
 64
     7
 65
   257
 75
     1
175
     1
 42
1.0
 92
        8
 66
     7
 43
1.0
 76
     1
 77
     6
 78
     2
 67
     7
 79
     3
170
     0
171
     0
290
     0
174
     0
 93
       13
 44
0.0
173
     0
291
     0
 45
0.0
1001
ACAD
1000
AcDbSavedByObjectVersion
1070
     0
  0
DICTIONARYVAR
  5
2C3
102
{ACAD_REACTORS
330
2C1
102
}
330
2C1
100
DictionaryVariables
280
     0
  1
Standard
  0
DICTIONARYVAR
  5
2C2
102
{ACAD_REACTORS
330
2C1
102
}
330
2C1
100
DictionaryVariables
280
     0
  1
Standard
  0
DICTIONARYVAR
  5
2C6
102
{ACAD_REACTORS
330
2C1
102
}
330
2C1
100
DictionaryVariables
280
     0
  1
2
  0
DICTIONARYVAR
  5
2C7
102
{ACAD_REACTORS
330
2C1
102
}
330
2C1
100
DictionaryVariables
280
     0
  1
1
  0
DICTIONARYVAR
  5
2CB
102
{ACAD_REACTORS
330
2C1
102
}
330
2C1
100
DictionaryVariables
280
     0
  1
1
  0
DICTIONARY
  5
2FE
330
2BB
100
AcDbDictionary
280
     1
281
     1
  3
ACAD_XREC_ROUNDTRIP
360
2FF
  0
DICTIONARY
  5
2FC
330
2BA
100
AcDbDictionary
280
     1
281
     1
  3
ACAD_XREC_ROUNDTRIP
360
2FD
  0
DICTIONARY
  5
300
330
2BC
100
AcDbDictionary
280
     1
281
     1
  3
ACAD_XREC_ROUNDTRIP
360
301
  0
DICTIONARY
  5
303
330
2BE
100
AcDbDictionary
280
     1
281
     1
  3
ACAD_XREC_ROUNDTRIP
360
304
  0
DICTIONARY
  5
2D4
330
2A5
100
AcDbDictionary
280
     1
281
     1
  3
ACAD_XREC_ROUNDTRIP
360
2D5
  0
DICTIONARY
  5
2DA
330
2A8
100
AcDbDictionary
280
     1
281
     1
  3
ACAD_XREC_ROUNDTRIP
360
2DB
  0
DICTIONARY
  5
2E2
330
2AC
100
AcDbDictionary
280
     1
281
     1
  3
ACAD_XREC_ROUNDTRIP
360
2E3
  0
DICTIONARY
  5
2EA
330
2B0
100
AcDbDictionary
280
     1
281
     1
  3
ACAD_XREC_ROUNDTRIP
360
2EB
  0
DICTIONARY
  5
2DE
330
2AA
100
AcDbDictionary
280
     1
281
     1
  3
ACAD_XREC_ROUNDTRIP
360
2DF
  0
DICTIONARY
  5
2E0
330
2AB
100
AcDbDictionary
280
     1
281
     1
  3
ACAD_XREC_ROUNDTRIP
360
2E1
  0
DICTIONARY
  5
2F0
330
2B3
100
AcDbDictionary
280
     1
281
     1
  3
ACAD_XREC_ROUNDTRIP
360
2F1
  0
DICTIONARY
  5
2E8
330
2AF
100
AcDbDictionary
280
     1
281
     1
  3
ACAD_XREC_ROUNDTRIP
360
2E9
  0
DICTIONARY
  5
2CC
330
2A1
100
AcDbDictionary
280
     1
281
     1
  3
ACAD_XREC_ROUNDTRIP
360
2CD
  0
DICTIONARY
  5
2CE
330
2A2
100
AcDbDictionary
280
     1
281
     1
  3
ACAD_XREC_ROUNDTRIP
360
2CF
  0
DICTIONARY
  5
2D0
330
2A3
100
AcDbDictionary
280
     1
281
     1
  3
ACAD_XREC_ROUNDTRIP
360
2D1
  0
DICTIONARY
  5
2D2
330
2A4
100
AcDbDictionary
280
     1
281
     1
  3
ACAD_XREC_ROUNDTRIP
360
2D3
  0
DICTIONARY
  5
2D8
330
2A7
100
AcDbDictionary
280
     1
281
     1
  3
ACAD_XREC_ROUNDTRIP
360
2D9
  0
DICTIONARY
  5
2EC
330
2B1
100
AcDbDictionary
280
     1
281
     1
  3
ACAD_XREC_ROUNDTRIP
360
2ED
  0
DICTIONARY
  5
2E6
330
2AE
100
AcDbDictionary
280
     1
281
     1
  3
ACAD_XREC_ROUNDTRIP
360
2E7
  0
DICTIONARY
  5
2EE
330
2B2
100
AcDbDictionary
280
     1
281
     1
  3
ACAD_XREC_ROUNDTRIP
360
2EF
  0
DICTIONARY
  5
2DC
330
2A9
100
AcDbDictionary
280
     1
281
     1
  3
ACAD_XREC_ROUNDTRIP
360
2DD
  0
DICTIONARY
  5
2FA
330
2B8
100
AcDbDictionary
280
     1
281
     1
  3
ACAD_XREC_ROUNDTRIP
360
2FB
  0
DICTIONARY
  5
2F8
330
2B7
100
AcDbDictionary
280
     1
281
     1
  3
ACAD_XREC_ROUNDTRIP
360
2F9
  0
DICTIONARY
  5
2F2
330
2B4
100
AcDbDictionary
280
     1
281
     1
  3
ACAD_XREC_ROUNDTRIP
360
2F3
  0
DICTIONARY
  5
2F4
330
2B5
100
AcDbDictionary
280
     1
281
     1
  3
ACAD_XREC_ROUNDTRIP
360
2F5
  0
DICTIONARY
  5
2E4
330
2AD
100
AcDbDictionary
280
     1
281
     1
  3
ACAD_XREC_ROUNDTRIP
360
2E5
  0
DICTIONARY
  5
2D6
330
2A6
100
AcDbDictionary
280
     1
281
     1
  3
ACAD_XREC_ROUNDTRIP
360
2D7
  0
DICTIONARY
  5
2F6
330
2B6
100
AcDbDictionary
280
     1
281
     1
  3
ACAD_XREC_ROUNDTRIP
360
2F7
  0
XRECORD
  5
2FF
102
{ACAD_REACTORS
330
2FE
102
}
330
2FE
100
AcDbXrecord
280
     1
102
MATERIAL
148
0.0
149
0.0
149
0.0
 93
        0
 94
      127
282
     0
 72
     1
 77
     1
171
     1
175
     1
179
     1
273
     0
  0
XRECORD
  5
2FD
102
{ACAD_REACTORS
330
2FC
102
}
330
2FC
100
AcDbXrecord
280
     1
102
MATERIAL
148
0.0
149
0.0
149
0.0
 93
        0
 94
      127
282
     0
 72
     1
 77
     1
171
     1
175
     1
179
     1
273
     0
  0
XRECORD
  5
301
102
{ACAD_REACTORS
330
300
102
}
330
300
100
AcDbXrecord
280
     1
102
MATERIAL
148
0.0
149
0.0
149
0.0
 93
        0
 94
      127
282
     0
 72
     1
 77
     1
171
     1
175
     1
179
     1
273
     0
  0
XRECORD
  5
304
102
{ACAD_REACTORS
330
303
102
}
330
303
100
AcDbXrecord
280
     1
102
ACAD_ROUNDTRIP_2010_MLEADER_STYLE
  0
XRECORD
  5
2D5
102
{ACAD_REACTORS
330
2D4
102
}
330
2D4
100
AcDbXrecord
280
     1
102
RTVSPropertyOp0
 70
     1
102
RTVSPropertyOp1
 70
     1
102
RTVSPropertyOp2
 70
     1
102
RTVSPropertyOp3
 70
     1
102
RTVSPropertyOp4
 70
     1
102
RTVSPropertyOp5
 70
     1
102
RTVSPropertyOp6
 70
     1
102
RTVSPropertyOp7
 70
     1
102
RTVSPropertyOp8
 70
     1
102
RTVSPropertyOp9
 70
     1
102
RTVSPropertyOp10
 70
     1
102
RTVSPropertyOp11
 70
     1
102
RTVSPropertyOp12
 70
     1
102
RTVSPropertyOp13
 70
     1
102
RTVSPropertyOp14
 70
     1
102
RTVSPropertyOp15
 70
     1
102
RTVSPropertyOp16
 70
     1
102
RTVSPropertyOp17
 70
     1
102
RTVSPropertyOp18
 70
     1
102
RTVSPropertyOp19
 70
     1
102
RTVSPropertyOp20
 70
     1
102
RTVSPropertyOp21
 70
     1
102
RTVSPropertyOp22
 70
     1
102
RTVSPropertyOp23
 70
     1
102
RTVSPropertyOp24
 70
     1
102
RTVSPropertyOp25
 70
     1
102
RTVSPropertyOp26
 70
     1
102
RTVSPropertyOp27
 70
     1
102
RTVSPropertyOp28
 70
     1
102
RTVSPropertyOp29
 70
     1
102
RTVSPropertyOp30
 70
     1
102
RTVSPropertyOp31
 70
     1
102
RTVSPropertyOp32
 70
     1
102
RTVSPropertyOp33
 70
     1
102
RTVSPropertyOp34
 70
     1
102
RTVSPropertyOp35
 70
     1
102
RTVSPropertyOp36
 70
     1
102
RTVSPropertyOp37
 70
     1
102
RTVSPropertyOp38
 70
     1
102
RTVSPropertyOp39
 70
     1
102
RTVSPropertyOp40
 70
     1
102
RTVSPropertyOp41
 70
     1
102
RTVSPropertyOp42
 70
     1
102
RTVSPropertyOp43
 70
     1
102
RTVSPropertyOp44
 70
     1
102
RTVSPropertyOp45
 70
     1
102
RTVSPropertyOp46
 70
     1
102
RTVSPropertyOp47
 70
     1
102
RTVSPropertyOp48
 70
     1
102
RTVSPropertyOp49
 70
     1
102
RTVSPropertyOp50
 70
     1
102
RTVSPropertyOp51
 70
     0
102
RTVSPropertyOp52
 70
     0
102
RTVSPropertyOp53
 70
     1
102
RTVSPropertyOp54
 70
     1
102
RTVSPropertyOp55
 70
     1
102
RTVSPropertyOp56
 70
     1
102
RTVSPropertyOp57
 70
     1
102
RTVSPost2010Prop28
280
     1
102
RTVSPost2010PropOp28
 70
     1
102
RTVSPost2010Prop29
280
     1
102
RTVSPost2010PropOp29
 70
     1
102
RTVSPost2010Prop30
280
     0
102
RTVSPost2010PropOp30
 70
     1
102
RTVSPost2010Prop31
280
     0
102
RTVSPost2010PropOp31
 70
     1
102
RTVSPost2010Prop32
280
     0
102
RTVSPost2010PropOp32
 70
     1
102
RTVSPost2010Prop33
280
     0
102
RTVSPost2010PropOp33
 70
     1
102
RTVSPost2010Prop34
280
     0
102
RTVSPost2010PropOp34
 70
     1
102
RTVSPost2010Prop35
280
     0
102
RTVSPost2010PropOp35
 70
     1
102
RTVSPost2010Prop36
280
     0
102
RTVSPost2010PropOp36
 70
     1
102
RTVSPost2010Prop37
 90
       50
102
RTVSPost2010PropOp37
 70
     1
102
RTVSPost2010Prop38
140
0.0
102
RTVSPost2010PropOp38
 70
     1
102
RTVSPost2010Prop39
140
1.0
102
RTVSPost2010PropOp39
 70
     1
102
RTVSPost2010Prop40
 90
        0
102
RTVSPost2010PropOp40
 70
     1
102
RTVSPost2010Prop41ColorIndex
 90
       18
102
RTVSPost2010Prop41ColorRGB
 90
        0
102
RTVSPost2010PropOp41
 70
     1
102
RTVSPost2010Prop42
 90
       50
102
RTVSPost2010PropOp42
 70
     1
102
RTVSPost2010Prop43
 90
        3
102
RTVSPost2010PropOp43
 70
     1
102
RTVSPost2010Prop44ColorIndex
 90
        5
102
RTVSPost2010Prop44ColorRGB
 90
      255
102
RTVSPost2010PropOp44
 70
     1
102
RTVSPost2010Prop45
280
     0
102
RTVSPost2010PropOp45
 70
     1
102
RTVSPost2010Prop46
 90
       50
102
RTVSPost2010PropOp46
 70
     1
102
RTVSPost2010Prop47
 90
       50
102
RTVSPost2010PropOp47
 70
     1
102
RTVSPost2010Prop48
 90
       50
102
RTVSPost2010PropOp48
 70
     1
102
RTVSPost2010Prop49
280
     0
102
RTVSPost2010PropOp49
 70
     1
102
RTVSPost2010Prop50
 90
       50
102
RTVSPost2010PropOp50
 70
     1
102
RTVSPost2010Prop51ColorIndex
 90
      256
102
RTVSPost2010Prop51ColorRGB
 90
-16777216
102
RTVSPost2010PropOp51
 70
     0
102
RTVSPost2010Prop52
140
1.0
102
RTVSPost2010PropOp52
 70
     0
102
RTVSPost2010Prop53
 90
        2
102
RTVSPost2010PropOp53
 70
     1
102
RTVSPost2010Prop54
  1
strokes_ogs.tif
102
RTVSPost2010PropOp54
 70
     1
102
RTVSPost2010Prop55
280
     0
102
RTVSPost2010PropOp55
 70
     1
102
RTVSPost2010Prop56
140
1.0
102
RTVSPost2010PropOp56
 70
     1
102
RTVSPost2010Prop57
140
1.0
102
RTVSPost2010PropOp57
 70
     1
  0
XRECORD
  5
2DB
102
{ACAD_REACTORS
330
2DA
102
}
330
2DA
100
AcDbXrecord
280
     1
102
RTVSPropertyOp0
 70
     1
102
RTVSPropertyOp1
 70
     1
102
RTVSPropertyOp2
 70
     1
102
RTVSPropertyOp3
 70
     1
102
RTVSPropertyOp4
 70
     1
102
RTVSPropertyOp5
 70
     1
102
RTVSPropertyOp6
 70
     1
102
RTVSPropertyOp7
 70
     1
102
RTVSPropertyOp8
 70
     1
102
RTVSPropertyOp9
 70
     1
102
RTVSPropertyOp10
 70
     1
102
RTVSPropertyOp11
 70
     1
102
RTVSPropertyOp12
 70
     1
102
RTVSPropertyOp13
 70
     1
102
RTVSPropertyOp14
 70
     1
102
RTVSPropertyOp15
 70
     1
102
RTVSPropertyOp16
 70
     1
102
RTVSPropertyOp17
 70
     1
102
RTVSPropertyOp18
 70
     1
102
RTVSPropertyOp19
 70
     1
102
RTVSPropertyOp20
 70
     1
102
RTVSPropertyOp21
 70
     1
102
RTVSPropertyOp22
 70
     1
102
RTVSPropertyOp23
 70
     1
102
RTVSPropertyOp24
 70
     1
102
RTVSPropertyOp25
 70
     1
102
RTVSPropertyOp26
 70
     1
102
RTVSPropertyOp27
 70
     1
102
RTVSPropertyOp28
 70
     1
102
RTVSPropertyOp29
 70
     1
102
RTVSPropertyOp30
 70
     1
102
RTVSPropertyOp31
 70
     1
102
RTVSPropertyOp32
 70
     1
102
RTVSPropertyOp33
 70
     1
102
RTVSPropertyOp34
 70
     1
102
RTVSPropertyOp35
 70
     1
102
RTVSPropertyOp36
 70
     1
102
RTVSPropertyOp37
 70
     1
102
RTVSPropertyOp38
 70
     1
102
RTVSPropertyOp39
 70
     1
102
RTVSPropertyOp40
 70
     1
102
RTVSPropertyOp41
 70
     1
102
RTVSPropertyOp42
 70
     1
102
RTVSPropertyOp43
 70
     1
102
RTVSPropertyOp44
 70
     1
102
RTVSPropertyOp45
 70
     1
102
RTVSPropertyOp46
 70
     1
102
RTVSPropertyOp47
 70
     1
102
RTVSPropertyOp48
 70
     1
102
RTVSPropertyOp49
 70
     1
102
RTVSPropertyOp50
 70
     1
102
RTVSPropertyOp51
 70
     0
102
RTVSPropertyOp52
 70
     0
102
RTVSPropertyOp53
 70
     1
102
RTVSPropertyOp54
 70
     1
102
RTVSPropertyOp55
 70
     1
102
RTVSPropertyOp56
 70
     1
102
RTVSPropertyOp57
 70
     1
102
RTVSPost2010Prop28
280
     0
102
RTVSPost2010PropOp28
 70
     1
102
RTVSPost2010Prop29
280
     1
102
RTVSPost2010PropOp29
 70
     1
102
RTVSPost2010Prop30
280
     1
102
RTVSPost2010PropOp30
 70
     1
102
RTVSPost2010Prop31
280
     0
102
RTVSPost2010PropOp31
 70
     1
102
RTVSPost2010Prop32
280
     0
102
RTVSPost2010PropOp32
 70
     1
102
RTVSPost2010Prop33
280
     0
102
RTVSPost2010PropOp33
 70
     1
102
RTVSPost2010Prop34
280
     0
102
RTVSPost2010PropOp34
 70
     1
102
RTVSPost2010Prop35
280
     0
102
RTVSPost2010PropOp35
 70
     1
102
RTVSPost2010Prop36
280
     0
102
RTVSPost2010PropOp36
 70
     1
102
RTVSPost2010Prop37
 90
       50
102
RTVSPost2010PropOp37
 70
     1
102
RTVSPost2010Prop38
140
0.0
102
RTVSPost2010PropOp38
 70
     1
102
RTVSPost2010Prop39
140
1.0
102
RTVSPost2010PropOp39
 70
     1
102
RTVSPost2010Prop40
 90
        0
102
RTVSPost2010PropOp40
 70
     1
102
RTVSPost2010Prop41ColorIndex
 90
       18
102
RTVSPost2010Prop41ColorRGB
 90
        0
102
RTVSPost2010PropOp41
 70
     1
102
RTVSPost2010Prop42
 90
       50
102
RTVSPost2010PropOp42
 70
     1
102
RTVSPost2010Prop43
 90
        3
102
RTVSPost2010PropOp43
 70
     1
102
RTVSPost2010Prop44ColorIndex
 90
        5
102
RTVSPost2010Prop44ColorRGB
 90
      255
102
RTVSPost2010PropOp44
 70
     1
102
RTVSPost2010Prop45
280
     0
102
RTVSPost2010PropOp45
 70
     1
102
RTVSPost2010Prop46
 90
       50
102
RTVSPost2010PropOp46
 70
     1
102
RTVSPost2010Prop47
 90
       50
102
RTVSPost2010PropOp47
 70
     1
102
RTVSPost2010Prop48
 90
       50
102
RTVSPost2010PropOp48
 70
     1
102
RTVSPost2010Prop49
280
     0
102
RTVSPost2010PropOp49
 70
     1
102
RTVSPost2010Prop50
 90
       50
102
RTVSPost2010PropOp50
 70
     1
102
RTVSPost2010Prop51ColorIndex
 90
      256
102
RTVSPost2010Prop51ColorRGB
 90
-16777216
102
RTVSPost2010PropOp51
 70
     0
102
RTVSPost2010Prop52
140
1.0
102
RTVSPost2010PropOp52
 70
     0
102
RTVSPost2010Prop53
 90
        2
102
RTVSPost2010PropOp53
 70
     1
102
RTVSPost2010Prop54
  1
strokes_ogs.tif
102
RTVSPost2010PropOp54
 70
     1
102
RTVSPost2010Prop55
280
     0
102
RTVSPost2010PropOp55
 70
     1
102
RTVSPost2010Prop56
140
1.0
102
RTVSPost2010PropOp56
 70
     1
102
RTVSPost2010Prop57
140
1.0
102
RTVSPost2010PropOp57
 70
     1
  0
XRECORD
  5
2E3
102
{ACAD_REACTORS
330
2E2
102
}
330
2E2
100
AcDbXrecord
280
     1
102
RTVSPropertyOp0
 70
     1
102
RTVSPropertyOp1
 70
     1
102
RTVSPropertyOp2
 70
     1
102
RTVSPropertyOp3
 70
     1
102
RTVSPropertyOp4
 70
     1
102
RTVSPropertyOp5
 70
     1
102
RTVSPropertyOp6
 70
     1
102
RTVSPropertyOp7
 70
     1
102
RTVSPropertyOp8
 70
     1
102
RTVSPropertyOp9
 70
     1
102
RTVSPropertyOp10
 70
     1
102
RTVSPropertyOp11
 70
     1
102
RTVSPropertyOp12
 70
     1
102
RTVSPropertyOp13
 70
     1
102
RTVSPropertyOp14
 70
     1
102
RTVSPropertyOp15
 70
     1
102
RTVSPropertyOp16
 70
     1
102
RTVSPropertyOp17
 70
     1
102
RTVSPropertyOp18
 70
     1
102
RTVSPropertyOp19
 70
     1
102
RTVSPropertyOp20
 70
     1
102
RTVSPropertyOp21
 70
     1
102
RTVSPropertyOp22
 70
     1
102
RTVSPropertyOp23
 70
     1
102
RTVSPropertyOp24
 70
     1
102
RTVSPropertyOp25
 70
     1
102
RTVSPropertyOp26
 70
     1
102
RTVSPropertyOp27
 70
     1
102
RTVSPropertyOp28
 70
     1
102
RTVSPropertyOp29
 70
     1
102
RTVSPropertyOp30
 70
     1
102
RTVSPropertyOp31
 70
     1
102
RTVSPropertyOp32
 70
     1
102
RTVSPropertyOp33
 70
     1
102
RTVSPropertyOp34
 70
     1
102
RTVSPropertyOp35
 70
     1
102
RTVSPropertyOp36
 70
     1
102
RTVSPropertyOp37
 70
     1
102
RTVSPropertyOp38
 70
     1
102
RTVSPropertyOp39
 70
     1
102
RTVSPropertyOp40
 70
     1
102
RTVSPropertyOp41
 70
     1
102
RTVSPropertyOp42
 70
     1
102
RTVSPropertyOp43
 70
     1
102
RTVSPropertyOp44
 70
     1
102
RTVSPropertyOp45
 70
     1
102
RTVSPropertyOp46
 70
     1
102
RTVSPropertyOp47
 70
     1
102
RTVSPropertyOp48
 70
     1
102
RTVSPropertyOp49
 70
     1
102
RTVSPropertyOp50
 70
     1
102
RTVSPropertyOp51
 70
     0
102
RTVSPropertyOp52
 70
     0
102
RTVSPropertyOp53
 70
     1
102
RTVSPropertyOp54
 70
     1
102
RTVSPropertyOp55
 70
     1
102
RTVSPropertyOp56
 70
     1
102
RTVSPropertyOp57
 70
     1
102
RTVSPost2010Prop28
280
     0
102
RTVSPost2010PropOp28
 70
     1
102
RTVSPost2010Prop29
280
     1
102
RTVSPost2010PropOp29
 70
     1
102
RTVSPost2010Prop30
280
     1
102
RTVSPost2010PropOp30
 70
     1
102
RTVSPost2010Prop31
280
     0
102
RTVSPost2010PropOp31
 70
     1
102
RTVSPost2010Prop32
280
     0
102
RTVSPost2010PropOp32
 70
     1
102
RTVSPost2010Prop33
280
     0
102
RTVSPost2010PropOp33
 70
     1
102
RTVSPost2010Prop34
280
     0
102
RTVSPost2010PropOp34
 70
     1
102
RTVSPost2010Prop35
280
     0
102
RTVSPost2010PropOp35
 70
     1
102
RTVSPost2010Prop36
280
     0
102
RTVSPost2010PropOp36
 70
     1
102
RTVSPost2010Prop37
 90
       50
102
RTVSPost2010PropOp37
 70
     1
102
RTVSPost2010Prop38
140
0.0
102
RTVSPost2010PropOp38
 70
     1
102
RTVSPost2010Prop39
140
1.0
102
RTVSPost2010PropOp39
 70
     1
102
RTVSPost2010Prop40
 90
        0
102
RTVSPost2010PropOp40
 70
     1
102
RTVSPost2010Prop41ColorIndex
 90
       18
102
RTVSPost2010Prop41ColorRGB
 90
        0
102
RTVSPost2010PropOp41
 70
     1
102
RTVSPost2010Prop42
 90
       50
102
RTVSPost2010PropOp42
 70
     1
102
RTVSPost2010Prop43
 90
        3
102
RTVSPost2010PropOp43
 70
     1
102
RTVSPost2010Prop44ColorIndex
 90
        5
102
RTVSPost2010Prop44ColorRGB
 90
      255
102
RTVSPost2010PropOp44
 70
     1
102
RTVSPost2010Prop45
280
     0
102
RTVSPost2010PropOp45
 70
     1
102
RTVSPost2010Prop46
 90
       50
102
RTVSPost2010PropOp46
 70
     1
102
RTVSPost2010Prop47
 90
       50
102
RTVSPost2010PropOp47
 70
     1
102
RTVSPost2010Prop48
 90
       50
102
RTVSPost2010PropOp48
 70
     1
102
RTVSPost2010Prop49
280
     0
102
RTVSPost2010PropOp49
 70
     1
102
RTVSPost2010Prop50
 90
       50
102
RTVSPost2010PropOp50
 70
     1
102
RTVSPost2010Prop51ColorIndex
 90
      256
102
RTVSPost2010Prop51ColorRGB
 90
-16777216
102
RTVSPost2010PropOp51
 70
     0
102
RTVSPost2010Prop52
140
1.0
102
RTVSPost2010PropOp52
 70
     0
102
RTVSPost2010Prop53
 90
        2
102
RTVSPost2010PropOp53
 70
     1
102
RTVSPost2010Prop54
  1
strokes_ogs.tif
102
RTVSPost2010PropOp54
 70
     1
102
RTVSPost2010Prop55
280
     0
102
RTVSPost2010PropOp55
 70
     1
102
RTVSPost2010Prop56
140
1.0
102
RTVSPost2010PropOp56
 70
     1
102
RTVSPost2010Prop57
140
1.0
102
RTVSPost2010PropOp57
 70
     1
  0
XRECORD
  5
2EB
102
{ACAD_REACTORS
330
2EA
102
}
330
2EA
100
AcDbXrecord
280
     1
102
RTVSPropertyOp0
 70
     1
102
RTVSPropertyOp1
 70
     1
102
RTVSPropertyOp2
 70
     1
102
RTVSPropertyOp3
 70
     1
102
RTVSPropertyOp4
 70
     1
102
RTVSPropertyOp5
 70
     1
102
RTVSPropertyOp6
 70
     1
102
RTVSPropertyOp7
 70
     1
102
RTVSPropertyOp8
 70
     1
102
RTVSPropertyOp9
 70
     1
102
RTVSPropertyOp10
 70
     1
102
RTVSPropertyOp11
 70
     1
102
RTVSPropertyOp12
 70
     1
102
RTVSPropertyOp13
 70
     1
102
RTVSPropertyOp14
 70
     1
102
RTVSPropertyOp15
 70
     1
102
RTVSPropertyOp16
 70
     1
102
RTVSPropertyOp17
 70
     1
102
RTVSPropertyOp18
 70
     1
102
RTVSPropertyOp19
 70
     1
102
RTVSPropertyOp20
 70
     1
102
RTVSPropertyOp21
 70
     1
102
RTVSPropertyOp22
 70
     1
102
RTVSPropertyOp23
 70
     1
102
RTVSPropertyOp24
 70
     1
102
RTVSPropertyOp25
 70
     1
102
RTVSPropertyOp26
 70
     1
102
RTVSPropertyOp27
 70
     1
102
RTVSPropertyOp28
 70
     1
102
RTVSPropertyOp29
 70
     1
102
RTVSPropertyOp30
 70
     1
102
RTVSPropertyOp31
 70
     1
102
RTVSPropertyOp32
 70
     1
102
RTVSPropertyOp33
 70
     1
102
RTVSPropertyOp34
 70
     1
102
RTVSPropertyOp35
 70
     1
102
RTVSPropertyOp36
 70
     1
102
RTVSPropertyOp37
 70
     1
102
RTVSPropertyOp38
 70
     1
102
RTVSPropertyOp39
 70
     1
102
RTVSPropertyOp40
 70
     1
102
RTVSPropertyOp41
 70
     1
102
RTVSPropertyOp42
 70
     1
102
RTVSPropertyOp43
 70
     1
102
RTVSPropertyOp44
 70
     1
102
RTVSPropertyOp45
 70
     1
102
RTVSPropertyOp46
 70
     1
102
RTVSPropertyOp47
 70
     1
102
RTVSPropertyOp48
 70
     1
102
RTVSPropertyOp49
 70
     1
102
RTVSPropertyOp50
 70
     1
102
RTVSPropertyOp51
 70
     0
102
RTVSPropertyOp52
 70
     0
102
RTVSPropertyOp53
 70
     1
102
RTVSPropertyOp54
 70
     1
102
RTVSPropertyOp55
 70
     1
102
RTVSPropertyOp56
 70
     1
102
RTVSPropertyOp57
 70
     1
102
RTVSPost2010Prop28
280
     0
102
RTVSPost2010PropOp28
 70
     1
102
RTVSPost2010Prop29
280
     1
102
RTVSPost2010PropOp29
 70
     1
102
RTVSPost2010Prop30
280
     1
102
RTVSPost2010PropOp30
 70
     1
102
RTVSPost2010Prop31
280
     0
102
RTVSPost2010PropOp31
 70
     1
102
RTVSPost2010Prop32
280
     0
102
RTVSPost2010PropOp32
 70
     1
102
RTVSPost2010Prop33
280
     0
102
RTVSPost2010PropOp33
 70
     1
102
RTVSPost2010Prop34
280
     0
102
RTVSPost2010PropOp34
 70
     1
102
RTVSPost2010Prop35
280
     0
102
RTVSPost2010PropOp35
 70
     1
102
RTVSPost2010Prop36
280
     0
102
RTVSPost2010PropOp36
 70
     1
102
RTVSPost2010Prop37
 90
       50
102
RTVSPost2010PropOp37
 70
     1
102
RTVSPost2010Prop38
140
0.0
102
RTVSPost2010PropOp38
 70
     1
102
RTVSPost2010Prop39
140
1.0
102
RTVSPost2010PropOp39
 70
     1
102
RTVSPost2010Prop40
 90
        0
102
RTVSPost2010PropOp40
 70
     1
102
RTVSPost2010Prop41ColorIndex
 90
       18
102
RTVSPost2010Prop41ColorRGB
 90
        0
102
RTVSPost2010PropOp41
 70
     1
102
RTVSPost2010Prop42
 90
       50
102
RTVSPost2010PropOp42
 70
     1
102
RTVSPost2010Prop43
 90
        3
102
RTVSPost2010PropOp43
 70
     1
102
RTVSPost2010Prop44ColorIndex
 90
        5
102
RTVSPost2010Prop44ColorRGB
 90
      255
102
RTVSPost2010PropOp44
 70
     1
102
RTVSPost2010Prop45
280
     0
102
RTVSPost2010PropOp45
 70
     1
102
RTVSPost2010Prop46
 90
       50
102
RTVSPost2010PropOp46
 70
     1
102
RTVSPost2010Prop47
 90
       50
102
RTVSPost2010PropOp47
 70
     1
102
RTVSPost2010Prop48
 90
       50
102
RTVSPost2010PropOp48
 70
     1
102
RTVSPost2010Prop49
280
     0
102
RTVSPost2010PropOp49
 70
     1
102
RTVSPost2010Prop50
 90
       50
102
RTVSPost2010PropOp50
 70
     1
102
RTVSPost2010Prop51ColorIndex
 90
      256
102
RTVSPost2010Prop51ColorRGB
 90
-16777216
102
RTVSPost2010PropOp51
 70
     0
102
RTVSPost2010Prop52
140
1.0
102
RTVSPost2010PropOp52
 70
     0
102
RTVSPost2010Prop53
 90
        2
102
RTVSPost2010PropOp53
 70
     1
102
RTVSPost2010Prop54
  1
strokes_ogs.tif
102
RTVSPost2010PropOp54
 70
     1
102
RTVSPost2010Prop55
280
     0
102
RTVSPost2010PropOp55
 70
     1
102
RTVSPost2010Prop56
140
1.0
102
RTVSPost2010PropOp56
 70
     1
102
RTVSPost2010Prop57
140
1.0
102
RTVSPost2010PropOp57
 70
     1
  0
XRECORD
  5
2DF
102
{ACAD_REACTORS
330
2DE
102
}
330
2DE
100
AcDbXrecord
280
     1
102
RTVSPropertyOp0
 70
     1
102
RTVSPropertyOp1
 70
     1
102
RTVSPropertyOp2
 70
     1
102
RTVSPropertyOp3
 70
     1
102
RTVSPropertyOp4
 70
     1
102
RTVSPropertyOp5
 70
     1
102
RTVSPropertyOp6
 70
     1
102
RTVSPropertyOp7
 70
     1
102
RTVSPropertyOp8
 70
     1
102
RTVSPropertyOp9
 70
     1
102
RTVSPropertyOp10
 70
     1
102
RTVSPropertyOp11
 70
     1
102
RTVSPropertyOp12
 70
     1
102
RTVSPropertyOp13
 70
     1
102
RTVSPropertyOp14
 70
     1
102
RTVSPropertyOp15
 70
     1
102
RTVSPropertyOp16
 70
     1
102
RTVSPropertyOp17
 70
     1
102
RTVSPropertyOp18
 70
     1
102
RTVSPropertyOp19
 70
     1
102
RTVSPropertyOp20
 70
     1
102
RTVSPropertyOp21
 70
     1
102
RTVSPropertyOp22
 70
     1
102
RTVSPropertyOp23
 70
     1
102
RTVSPropertyOp24
 70
     1
102
RTVSPropertyOp25
 70
     1
102
RTVSPropertyOp26
 70
     1
102
RTVSPropertyOp27
 70
     1
102
RTVSPropertyOp28
 70
     1
102
RTVSPropertyOp29
 70
     1
102
RTVSPropertyOp30
 70
     1
102
RTVSPropertyOp31
 70
     1
102
RTVSPropertyOp32
 70
     1
102
RTVSPropertyOp33
 70
     1
102
RTVSPropertyOp34
 70
     1
102
RTVSPropertyOp35
 70
     1
102
RTVSPropertyOp36
 70
     1
102
RTVSPropertyOp37
 70
     1
102
RTVSPropertyOp38
 70
     1
102
RTVSPropertyOp39
 70
     1
102
RTVSPropertyOp40
 70
     1
102
RTVSPropertyOp41
 70
     1
102
RTVSPropertyOp42
 70
     1
102
RTVSPropertyOp43
 70
     1
102
RTVSPropertyOp44
 70
     1
102
RTVSPropertyOp45
 70
     1
102
RTVSPropertyOp46
 70
     1
102
RTVSPropertyOp47
 70
     1
102
RTVSPropertyOp48
 70
     1
102
RTVSPropertyOp49
 70
     1
102
RTVSPropertyOp50
 70
     1
102
RTVSPropertyOp51
 70
     0
102
RTVSPropertyOp52
 70
     0
102
RTVSPropertyOp53
 70
     1
102
RTVSPropertyOp54
 70
     1
102
RTVSPropertyOp55
 70
     1
102
RTVSPropertyOp56
 70
     1
102
RTVSPropertyOp57
 70
     1
102
RTVSPost2010Prop28
280
     0
102
RTVSPost2010PropOp28
 70
     1
102
RTVSPost2010Prop29
280
     1
102
RTVSPost2010PropOp29
 70
     1
102
RTVSPost2010Prop30
280
     1
102
RTVSPost2010PropOp30
 70
     1
102
RTVSPost2010Prop31
280
     0
102
RTVSPost2010PropOp31
 70
     1
102
RTVSPost2010Prop32
280
     0
102
RTVSPost2010PropOp32
 70
     1
102
RTVSPost2010Prop33
280
     0
102
RTVSPost2010PropOp33
 70
     1
102
RTVSPost2010Prop34
280
     0
102
RTVSPost2010PropOp34
 70
     1
102
RTVSPost2010Prop35
280
     0
102
RTVSPost2010PropOp35
 70
     1
102
RTVSPost2010Prop36
280
     0
102
RTVSPost2010PropOp36
 70
     1
102
RTVSPost2010Prop37
 90
       50
102
RTVSPost2010PropOp37
 70
     1
102
RTVSPost2010Prop38
140
0.0
102
RTVSPost2010PropOp38
 70
     1
102
RTVSPost2010Prop39
140
1.0
102
RTVSPost2010PropOp39
 70
     1
102
RTVSPost2010Prop40
 90
        0
102
RTVSPost2010PropOp40
 70
     1
102
RTVSPost2010Prop41ColorIndex
 90
       18
102
RTVSPost2010Prop41ColorRGB
 90
        0
102
RTVSPost2010PropOp41
 70
     1
102
RTVSPost2010Prop42
 90
       50
102
RTVSPost2010PropOp42
 70
     1
102
RTVSPost2010Prop43
 90
        3
102
RTVSPost2010PropOp43
 70
     1
102
RTVSPost2010Prop44ColorIndex
 90
        5
102
RTVSPost2010Prop44ColorRGB
 90
      255
102
RTVSPost2010PropOp44
 70
     1
102
RTVSPost2010Prop45
280
     0
102
RTVSPost2010PropOp45
 70
     1
102
RTVSPost2010Prop46
 90
       50
102
RTVSPost2010PropOp46
 70
     1
102
RTVSPost2010Prop47
 90
       50
102
RTVSPost2010PropOp47
 70
     1
102
RTVSPost2010Prop48
 90
       50
102
RTVSPost2010PropOp48
 70
     1
102
RTVSPost2010Prop49
280
     0
102
RTVSPost2010PropOp49
 70
     1
102
RTVSPost2010Prop50
 90
       50
102
RTVSPost2010PropOp50
 70
     1
102
RTVSPost2010Prop51ColorIndex
 90
      256
102
RTVSPost2010Prop51ColorRGB
 90
-16777216
102
RTVSPost2010PropOp51
 70
     0
102
RTVSPost2010Prop52
140
1.0
102
RTVSPost2010PropOp52
 70
     0
102
RTVSPost2010Prop53
 90
        2
102
RTVSPost2010PropOp53
 70
     1
102
RTVSPost2010Prop54
  1
strokes_ogs.tif
102
RTVSPost2010PropOp54
 70
     1
102
RTVSPost2010Prop55
280
     0
102
RTVSPost2010PropOp55
 70
     1
102
RTVSPost2010Prop56
140
1.0
102
RTVSPost2010PropOp56
 70
     1
102
RTVSPost2010Prop57
140
1.0
102
RTVSPost2010PropOp57
 70
     1
  0
XRECORD
  5
2E1
102
{ACAD_REACTORS
330
2E0
102
}
330
2E0
100
AcDbXrecord
280
     1
102
RTVSPropertyOp0
 70
     1
102
RTVSPropertyOp1
 70
     1
102
RTVSPropertyOp2
 70
     1
102
RTVSPropertyOp3
 70
     1
102
RTVSPropertyOp4
 70
     1
102
RTVSPropertyOp5
 70
     1
102
RTVSPropertyOp6
 70
     1
102
RTVSPropertyOp7
 70
     1
102
RTVSPropertyOp8
 70
     1
102
RTVSPropertyOp9
 70
     1
102
RTVSPropertyOp10
 70
     1
102
RTVSPropertyOp11
 70
     1
102
RTVSPropertyOp12
 70
     1
102
RTVSPropertyOp13
 70
     1
102
RTVSPropertyOp14
 70
     1
102
RTVSPropertyOp15
 70
     1
102
RTVSPropertyOp16
 70
     1
102
RTVSPropertyOp17
 70
     1
102
RTVSPropertyOp18
 70
     1
102
RTVSPropertyOp19
 70
     1
102
RTVSPropertyOp20
 70
     1
102
RTVSPropertyOp21
 70
     1
102
RTVSPropertyOp22
 70
     1
102
RTVSPropertyOp23
 70
     1
102
RTVSPropertyOp24
 70
     1
102
RTVSPropertyOp25
 70
     1
102
RTVSPropertyOp26
 70
     1
102
RTVSPropertyOp27
 70
     1
102
RTVSPropertyOp28
 70
     1
102
RTVSPropertyOp29
 70
     1
102
RTVSPropertyOp30
 70
     1
102
RTVSPropertyOp31
 70
     1
102
RTVSPropertyOp32
 70
     1
102
RTVSPropertyOp33
 70
     1
102
RTVSPropertyOp34
 70
     1
102
RTVSPropertyOp35
 70
     1
102
RTVSPropertyOp36
 70
     1
102
RTVSPropertyOp37
 70
     1
102
RTVSPropertyOp38
 70
     1
102
RTVSPropertyOp39
 70
     1
102
RTVSPropertyOp40
 70
     1
102
RTVSPropertyOp41
 70
     1
102
RTVSPropertyOp42
 70
     1
102
RTVSPropertyOp43
 70
     1
102
RTVSPropertyOp44
 70
     1
102
RTVSPropertyOp45
 70
     1
102
RTVSPropertyOp46
 70
     1
102
RTVSPropertyOp47
 70
     1
102
RTVSPropertyOp48
 70
     1
102
RTVSPropertyOp49
 70
     1
102
RTVSPropertyOp50
 70
     1
102
RTVSPropertyOp51
 70
     0
102
RTVSPropertyOp52
 70
     0
102
RTVSPropertyOp53
 70
     1
102
RTVSPropertyOp54
 70
     1
102
RTVSPropertyOp55
 70
     1
102
RTVSPropertyOp56
 70
     1
102
RTVSPropertyOp57
 70
     1
102
RTVSPost2010Prop28
280
     0
102
RTVSPost2010PropOp28
 70
     1
102
RTVSPost2010Prop29
280
     1
102
RTVSPost2010PropOp29
 70
     1
102
RTVSPost2010Prop30
280
     1
102
RTVSPost2010PropOp30
 70
     1
102
RTVSPost2010Prop31
280
     0
102
RTVSPost2010PropOp31
 70
     1
102
RTVSPost2010Prop32
280
     0
102
RTVSPost2010PropOp32
 70
     1
102
RTVSPost2010Prop33
280
     0
102
RTVSPost2010PropOp33
 70
     1
102
RTVSPost2010Prop34
280
     0
102
RTVSPost2010PropOp34
 70
     1
102
RTVSPost2010Prop35
280
     0
102
RTVSPost2010PropOp35
 70
     1
102
RTVSPost2010Prop36
280
     0
102
RTVSPost2010PropOp36
 70
     1
102
RTVSPost2010Prop37
 90
       50
102
RTVSPost2010PropOp37
 70
     1
102
RTVSPost2010Prop38
140
0.0
102
RTVSPost2010PropOp38
 70
     1
102
RTVSPost2010Prop39
140
1.0
102
RTVSPost2010PropOp39
 70
     1
102
RTVSPost2010Prop40
 90
        0
102
RTVSPost2010PropOp40
 70
     1
102
RTVSPost2010Prop41ColorIndex
 90
       18
102
RTVSPost2010Prop41ColorRGB
 90
        0
102
RTVSPost2010PropOp41
 70
     1
102
RTVSPost2010Prop42
 90
       50
102
RTVSPost2010PropOp42
 70
     1
102
RTVSPost2010Prop43
 90
        3
102
RTVSPost2010PropOp43
 70
     1
102
RTVSPost2010Prop44ColorIndex
 90
        5
102
RTVSPost2010Prop44ColorRGB
 90
      255
102
RTVSPost2010PropOp44
 70
     1
102
RTVSPost2010Prop45
280
     0
102
RTVSPost2010PropOp45
 70
     1
102
RTVSPost2010Prop46
 90
       50
102
RTVSPost2010PropOp46
 70
     1
102
RTVSPost2010Prop47
 90
       50
102
RTVSPost2010PropOp47
 70
     1
102
RTVSPost2010Prop48
 90
       50
102
RTVSPost2010PropOp48
 70
     1
102
RTVSPost2010Prop49
280
     0
102
RTVSPost2010PropOp49
 70
     1
102
RTVSPost2010Prop50
 90
       50
102
RTVSPost2010PropOp50
 70
     1
102
RTVSPost2010Prop51ColorIndex
 90
      256
102
RTVSPost2010Prop51ColorRGB
 90
-16777216
102
RTVSPost2010PropOp51
 70
     0
102
RTVSPost2010Prop52
140
1.0
102
RTVSPost2010PropOp52
 70
     0
102
RTVSPost2010Prop53
 90
        2
102
RTVSPost2010PropOp53
 70
     1
102
RTVSPost2010Prop54
  1
strokes_ogs.tif
102
RTVSPost2010PropOp54
 70
     1
102
RTVSPost2010Prop55
280
     0
102
RTVSPost2010PropOp55
 70
     1
102
RTVSPost2010Prop56
140
1.0
102
RTVSPost2010PropOp56
 70
     1
102
RTVSPost2010Prop57
140
1.0
102
RTVSPost2010PropOp57
 70
     1
  0
XRECORD
  5
2F1
102
{ACAD_REACTORS
330
2F0
102
}
330
2F0
100
AcDbXrecord
280
     1
102
RTVSPropertyOp0
 70
     0
102
RTVSPropertyOp1
 70
     0
102
RTVSPropertyOp2
 70
     0
102
RTVSPropertyOp3
 70
     0
102
RTVSPropertyOp4
 70
     0
102
RTVSPropertyOp5
 70
     0
102
RTVSPropertyOp6
 70
     0
102
RTVSPropertyOp7
 70
     0
102
RTVSPropertyOp8
 70
     0
102
RTVSPropertyOp9
 70
     0
102
RTVSPropertyOp10
 70
     0
102
RTVSPropertyOp11
 70
     0
102
RTVSPropertyOp12
 70
     0
102
RTVSPropertyOp13
 70
     0
102
RTVSPropertyOp14
 70
     2
102
RTVSPropertyOp15
 70
     0
102
RTVSPropertyOp16
 70
     0
102
RTVSPropertyOp17
 70
     0
102
RTVSPropertyOp18
 70
     0
102
RTVSPropertyOp19
 70
     0
102
RTVSPropertyOp20
 70
     0
102
RTVSPropertyOp21
 70
     0
102
RTVSPropertyOp22
 70
     0
102
RTVSPropertyOp23
 70
     0
102
RTVSPropertyOp24
 70
     0
102
RTVSPropertyOp25
 70
     0
102
RTVSPropertyOp26
 70
     0
102
RTVSPropertyOp27
 70
     0
102
RTVSPropertyOp28
 70
     0
102
RTVSPropertyOp29
 70
     0
102
RTVSPropertyOp30
 70
     0
102
RTVSPropertyOp31
 70
     0
102
RTVSPropertyOp32
 70
     0
102
RTVSPropertyOp33
 70
     0
102
RTVSPropertyOp34
 70
     0
102
RTVSPropertyOp35
 70
     0
102
RTVSPropertyOp36
 70
     0
102
RTVSPropertyOp37
 70
     0
102
RTVSPropertyOp38
 70
     0
102
RTVSPropertyOp39
 70
     0
102
RTVSPropertyOp40
 70
     0
102
RTVSPropertyOp41
 70
     0
102
RTVSPropertyOp42
 70
     0
102
RTVSPropertyOp43
 70
     0
102
RTVSPropertyOp44
 70
     0
102
RTVSPropertyOp45
 70
     0
102
RTVSPropertyOp46
 70
     0
102
RTVSPropertyOp47
 70
     0
102
RTVSPropertyOp48
 70
     0
102
RTVSPropertyOp49
 70
     0
102
RTVSPropertyOp50
 70
     0
102
RTVSPropertyOp51
 70
     0
102
RTVSPropertyOp52
 70
     0
102
RTVSPropertyOp53
 70
     0
102
RTVSPropertyOp54
 70
     0
102
RTVSPropertyOp55
 70
     0
102
RTVSPropertyOp56
 70
     0
102
RTVSPropertyOp57
 70
     0
102
RTVSPost2010Prop28
280
     0
102
RTVSPost2010PropOp28
 70
     0
102
RTVSPost2010Prop29
280
     1
102
RTVSPost2010PropOp29
 70
     0
102
RTVSPost2010Prop30
280
     1
102
RTVSPost2010PropOp30
 70
     0
102
RTVSPost2010Prop31
280
     0
102
RTVSPost2010PropOp31
 70
     0
102
RTVSPost2010Prop32
280
     0
102
RTVSPost2010PropOp32
 70
     0
102
RTVSPost2010Prop33
280
     0
102
RTVSPost2010PropOp33
 70
     0
102
RTVSPost2010Prop34
280
     0
102
RTVSPost2010PropOp34
 70
     0
102
RTVSPost2010Prop35
280
     0
102
RTVSPost2010PropOp35
 70
     0
102
RTVSPost2010Prop36
280
     0
102
RTVSPost2010PropOp36
 70
     0
102
RTVSPost2010Prop37
 90
       50
102
RTVSPost2010PropOp37
 70
     0
102
RTVSPost2010Prop38
140
0.0
102
RTVSPost2010PropOp38
 70
     0
102
RTVSPost2010Prop39
140
1.0
102
RTVSPost2010PropOp39
 70
     0
102
RTVSPost2010Prop40
 90
        0
102
RTVSPost2010PropOp40
 70
     0
102
RTVSPost2010Prop41ColorIndex
 90
       18
102
RTVSPost2010Prop41ColorRGB
 90
        0
102
RTVSPost2010PropOp41
 70
     0
102
RTVSPost2010Prop42
 90
       50
102
RTVSPost2010PropOp42
 70
     0
102
RTVSPost2010Prop43
 90
        3
102
RTVSPost2010PropOp43
 70
     0
102
RTVSPost2010Prop44ColorIndex
 90
        5
102
RTVSPost2010Prop44ColorRGB
 90
      255
102
RTVSPost2010PropOp44
 70
     0
102
RTVSPost2010Prop45
280
     0
102
RTVSPost2010PropOp45
 70
     0
102
RTVSPost2010Prop46
 90
       50
102
RTVSPost2010PropOp46
 70
     0
102
RTVSPost2010Prop47
 90
       50
102
RTVSPost2010PropOp47
 70
     0
102
RTVSPost2010Prop48
 90
       50
102
RTVSPost2010PropOp48
 70
     0
102
RTVSPost2010Prop49
280
     0
102
RTVSPost2010PropOp49
 70
     0
102
RTVSPost2010Prop50
 90
       50
102
RTVSPost2010PropOp50
 70
     0
102
RTVSPost2010Prop51ColorIndex
 90
      256
102
RTVSPost2010Prop51ColorRGB
 90
-16777216
102
RTVSPost2010PropOp51
 70
     0
102
RTVSPost2010Prop52
140
1.0
102
RTVSPost2010PropOp52
 70
     0
102
RTVSPost2010Prop53
 90
        2
102
RTVSPost2010PropOp53
 70
     0
102
RTVSPost2010Prop54
  1
strokes_ogs.tif
102
RTVSPost2010PropOp54
 70
     0
102
RTVSPost2010Prop55
280
     0
102
RTVSPost2010PropOp55
 70
     0
102
RTVSPost2010Prop56
140
1.0
102
RTVSPost2010PropOp56
 70
     0
102
RTVSPost2010Prop57
140
1.0
102
RTVSPost2010PropOp57
 70
     0
  0
XRECORD
  5
2E9
102
{ACAD_REACTORS
330
2E8
102
}
330
2E8
100
AcDbXrecord
280
     1
102
RTVSPropertyOp0
 70
     1
102
RTVSPropertyOp1
 70
     1
102
RTVSPropertyOp2
 70
     1
102
RTVSPropertyOp3
 70
     1
102
RTVSPropertyOp4
 70
     1
102
RTVSPropertyOp5
 70
     1
102
RTVSPropertyOp6
 70
     1
102
RTVSPropertyOp7
 70
     1
102
RTVSPropertyOp8
 70
     1
102
RTVSPropertyOp9
 70
     1
102
RTVSPropertyOp10
 70
     1
102
RTVSPropertyOp11
 70
     1
102
RTVSPropertyOp12
 70
     1
102
RTVSPropertyOp13
 70
     1
102
RTVSPropertyOp14
 70
     1
102
RTVSPropertyOp15
 70
     1
102
RTVSPropertyOp16
 70
     1
102
RTVSPropertyOp17
 70
     1
102
RTVSPropertyOp18
 70
     1
102
RTVSPropertyOp19
 70
     1
102
RTVSPropertyOp20
 70
     1
102
RTVSPropertyOp21
 70
     1
102
RTVSPropertyOp22
 70
     1
102
RTVSPropertyOp23
 70
     1
102
RTVSPropertyOp24
 70
     1
102
RTVSPropertyOp25
 70
     1
102
RTVSPropertyOp26
 70
     1
102
RTVSPropertyOp27
 70
     1
102
RTVSPropertyOp28
 70
     1
102
RTVSPropertyOp29
 70
     1
102
RTVSPropertyOp30
 70
     1
102
RTVSPropertyOp31
 70
     1
102
RTVSPropertyOp32
 70
     1
102
RTVSPropertyOp33
 70
     1
102
RTVSPropertyOp34
 70
     1
102
RTVSPropertyOp35
 70
     1
102
RTVSPropertyOp36
 70
     1
102
RTVSPropertyOp37
 70
     1
102
RTVSPropertyOp38
 70
     1
102
RTVSPropertyOp39
 70
     1
102
RTVSPropertyOp40
 70
     1
102
RTVSPropertyOp41
 70
     1
102
RTVSPropertyOp42
 70
     1
102
RTVSPropertyOp43
 70
     1
102
RTVSPropertyOp44
 70
     1
102
RTVSPropertyOp45
 70
     1
102
RTVSPropertyOp46
 70
     1
102
RTVSPropertyOp47
 70
     1
102
RTVSPropertyOp48
 70
     1
102
RTVSPropertyOp49
 70
     1
102
RTVSPropertyOp50
 70
     1
102
RTVSPropertyOp51
 70
     0
102
RTVSPropertyOp52
 70
     0
102
RTVSPropertyOp53
 70
     1
102
RTVSPropertyOp54
 70
     1
102
RTVSPropertyOp55
 70
     1
102
RTVSPropertyOp56
 70
     1
102
RTVSPropertyOp57
 70
     1
102
RTVSPost2010Prop28
280
     0
102
RTVSPost2010PropOp28
 70
     1
102
RTVSPost2010Prop29
280
     1
102
RTVSPost2010PropOp29
 70
     1
102
RTVSPost2010Prop30
280
     1
102
RTVSPost2010PropOp30
 70
     1
102
RTVSPost2010Prop31
280
     0
102
RTVSPost2010PropOp31
 70
     1
102
RTVSPost2010Prop32
280
     0
102
RTVSPost2010PropOp32
 70
     1
102
RTVSPost2010Prop33
280
     0
102
RTVSPost2010PropOp33
 70
     1
102
RTVSPost2010Prop34
280
     0
102
RTVSPost2010PropOp34
 70
     1
102
RTVSPost2010Prop35
280
     0
102
RTVSPost2010PropOp35
 70
     1
102
RTVSPost2010Prop36
280
     0
102
RTVSPost2010PropOp36
 70
     1
102
RTVSPost2010Prop37
 90
       50
102
RTVSPost2010PropOp37
 70
     1
102
RTVSPost2010Prop38
140
0.0
102
RTVSPost2010PropOp38
 70
     1
102
RTVSPost2010Prop39
140
1.0
102
RTVSPost2010PropOp39
 70
     1
102
RTVSPost2010Prop40
 90
        0
102
RTVSPost2010PropOp40
 70
     1
102
RTVSPost2010Prop41ColorIndex
 90
       18
102
RTVSPost2010Prop41ColorRGB
 90
        0
102
RTVSPost2010PropOp41
 70
     1
102
RTVSPost2010Prop42
 90
       50
102
RTVSPost2010PropOp42
 70
     1
102
RTVSPost2010Prop43
 90
        3
102
RTVSPost2010PropOp43
 70
     1
102
RTVSPost2010Prop44ColorIndex
 90
        5
102
RTVSPost2010Prop44ColorRGB
 90
      255
102
RTVSPost2010PropOp44
 70
     1
102
RTVSPost2010Prop45
280
     0
102
RTVSPost2010PropOp45
 70
     1
102
RTVSPost2010Prop46
 90
       50
102
RTVSPost2010PropOp46
 70
     1
102
RTVSPost2010Prop47
 90
       50
102
RTVSPost2010PropOp47
 70
     1
102
RTVSPost2010Prop48
 90
       50
102
RTVSPost2010PropOp48
 70
     1
102
RTVSPost2010Prop49
280
     0
102
RTVSPost2010PropOp49
 70
     1
102
RTVSPost2010Prop50
 90
       50
102
RTVSPost2010PropOp50
 70
     1
102
RTVSPost2010Prop51ColorIndex
 90
      256
102
RTVSPost2010Prop51ColorRGB
 90
-16777216
102
RTVSPost2010PropOp51
 70
     0
102
RTVSPost2010Prop52
140
1.0
102
RTVSPost2010PropOp52
 70
     0
102
RTVSPost2010Prop53
 90
        2
102
RTVSPost2010PropOp53
 70
     1
102
RTVSPost2010Prop54
  1
strokes_ogs.tif
102
RTVSPost2010PropOp54
 70
     1
102
RTVSPost2010Prop55
280
     0
102
RTVSPost2010PropOp55
 70
     1
102
RTVSPost2010Prop56
140
1.0
102
RTVSPost2010PropOp56
 70
     1
102
RTVSPost2010Prop57
140
1.0
102
RTVSPost2010PropOp57
 70
     1
  0
XRECORD
  5
2CD
102
{ACAD_REACTORS
330
2CC
102
}
330
2CC
100
AcDbXrecord
280
     1
102
RTVSPropertyOp0
 70
     1
102
RTVSPropertyOp1
 70
     1
102
RTVSPropertyOp2
 70
     1
102
RTVSPropertyOp3
 70
     1
102
RTVSPropertyOp4
 70
     1
102
RTVSPropertyOp5
 70
     1
102
RTVSPropertyOp6
 70
     1
102
RTVSPropertyOp7
 70
     1
102
RTVSPropertyOp8
 70
     1
102
RTVSPropertyOp9
 70
     1
102
RTVSPropertyOp10
 70
     1
102
RTVSPropertyOp11
 70
     1
102
RTVSPropertyOp12
 70
     1
102
RTVSPropertyOp13
 70
     1
102
RTVSPropertyOp14
 70
     1
102
RTVSPropertyOp15
 70
     1
102
RTVSPropertyOp16
 70
     1
102
RTVSPropertyOp17
 70
     1
102
RTVSPropertyOp18
 70
     1
102
RTVSPropertyOp19
 70
     1
102
RTVSPropertyOp20
 70
     1
102
RTVSPropertyOp21
 70
     1
102
RTVSPropertyOp22
 70
     1
102
RTVSPropertyOp23
 70
     1
102
RTVSPropertyOp24
 70
     1
102
RTVSPropertyOp25
 70
     1
102
RTVSPropertyOp26
 70
     1
102
RTVSPropertyOp27
 70
     1
102
RTVSPropertyOp28
 70
     1
102
RTVSPropertyOp29
 70
     1
102
RTVSPropertyOp30
 70
     1
102
RTVSPropertyOp31
 70
     1
102
RTVSPropertyOp32
 70
     1
102
RTVSPropertyOp33
 70
     1
102
RTVSPropertyOp34
 70
     1
102
RTVSPropertyOp35
 70
     1
102
RTVSPropertyOp36
 70
     1
102
RTVSPropertyOp37
 70
     1
102
RTVSPropertyOp38
 70
     1
102
RTVSPropertyOp39
 70
     1
102
RTVSPropertyOp40
 70
     1
102
RTVSPropertyOp41
 70
     1
102
RTVSPropertyOp42
 70
     1
102
RTVSPropertyOp43
 70
     1
102
RTVSPropertyOp44
 70
     1
102
RTVSPropertyOp45
 70
     1
102
RTVSPropertyOp46
 70
     1
102
RTVSPropertyOp47
 70
     1
102
RTVSPropertyOp48
 70
     1
102
RTVSPropertyOp49
 70
     1
102
RTVSPropertyOp50
 70
     1
102
RTVSPropertyOp51
 70
     0
102
RTVSPropertyOp52
 70
     0
102
RTVSPropertyOp53
 70
     1
102
RTVSPropertyOp54
 70
     1
102
RTVSPropertyOp55
 70
     1
102
RTVSPropertyOp56
 70
     1
102
RTVSPropertyOp57
 70
     1
102
RTVSPost2010Prop28
280
     0
102
RTVSPost2010PropOp28
 70
     1
102
RTVSPost2010Prop29
280
     1
102
RTVSPost2010PropOp29
 70
     1
102
RTVSPost2010Prop30
280
     1
102
RTVSPost2010PropOp30
 70
     1
102
RTVSPost2010Prop31
280
     0
102
RTVSPost2010PropOp31
 70
     1
102
RTVSPost2010Prop32
280
     0
102
RTVSPost2010PropOp32
 70
     1
102
RTVSPost2010Prop33
280
     0
102
RTVSPost2010PropOp33
 70
     1
102
RTVSPost2010Prop34
280
     0
102
RTVSPost2010PropOp34
 70
     1
102
RTVSPost2010Prop35
280
     0
102
RTVSPost2010PropOp35
 70
     1
102
RTVSPost2010Prop36
280
     0
102
RTVSPost2010PropOp36
 70
     1
102
RTVSPost2010Prop37
 90
       50
102
RTVSPost2010PropOp37
 70
     1
102
RTVSPost2010Prop38
140
0.0
102
RTVSPost2010PropOp38
 70
     1
102
RTVSPost2010Prop39
140
1.0
102
RTVSPost2010PropOp39
 70
     1
102
RTVSPost2010Prop40
 90
        0
102
RTVSPost2010PropOp40
 70
     1
102
RTVSPost2010Prop41ColorIndex
 90
       18
102
RTVSPost2010Prop41ColorRGB
 90
        0
102
RTVSPost2010PropOp41
 70
     1
102
RTVSPost2010Prop42
 90
       50
102
RTVSPost2010PropOp42
 70
     1
102
RTVSPost2010Prop43
 90
        3
102
RTVSPost2010PropOp43
 70
     1
102
RTVSPost2010Prop44ColorIndex
 90
        5
102
RTVSPost2010Prop44ColorRGB
 90
      255
102
RTVSPost2010PropOp44
 70
     1
102
RTVSPost2010Prop45
280
     0
102
RTVSPost2010PropOp45
 70
     1
102
RTVSPost2010Prop46
 90
       50
102
RTVSPost2010PropOp46
 70
     1
102
RTVSPost2010Prop47
 90
       50
102
RTVSPost2010PropOp47
 70
     1
102
RTVSPost2010Prop48
 90
       50
102
RTVSPost2010PropOp48
 70
     1
102
RTVSPost2010Prop49
280
     0
102
RTVSPost2010PropOp49
 70
     1
102
RTVSPost2010Prop50
 90
       50
102
RTVSPost2010PropOp50
 70
     1
102
RTVSPost2010Prop51ColorIndex
 90
      256
102
RTVSPost2010Prop51ColorRGB
 90
-16777216
102
RTVSPost2010PropOp51
 70
     0
102
RTVSPost2010Prop52
140
1.0
102
RTVSPost2010PropOp52
 70
     0
102
RTVSPost2010Prop53
 90
        2
102
RTVSPost2010PropOp53
 70
     1
102
RTVSPost2010Prop54
  1
strokes_ogs.tif
102
RTVSPost2010PropOp54
 70
     1
102
RTVSPost2010Prop55
280
     0
102
RTVSPost2010PropOp55
 70
     1
102
RTVSPost2010Prop56
140
1.0
102
RTVSPost2010PropOp56
 70
     1
102
RTVSPost2010Prop57
140
1.0
102
RTVSPost2010PropOp57
 70
     1
  0
XRECORD
  5
2CF
102
{ACAD_REACTORS
330
2CE
102
}
330
2CE
100
AcDbXrecord
280
     1
102
RTVSPropertyOp0
 70
     1
102
RTVSPropertyOp1
 70
     1
102
RTVSPropertyOp2
 70
     1
102
RTVSPropertyOp3
 70
     1
102
RTVSPropertyOp4
 70
     1
102
RTVSPropertyOp5
 70
     1
102
RTVSPropertyOp6
 70
     1
102
RTVSPropertyOp7
 70
     1
102
RTVSPropertyOp8
 70
     1
102
RTVSPropertyOp9
 70
     1
102
RTVSPropertyOp10
 70
     1
102
RTVSPropertyOp11
 70
     1
102
RTVSPropertyOp12
 70
     1
102
RTVSPropertyOp13
 70
     1
102
RTVSPropertyOp14
 70
     1
102
RTVSPropertyOp15
 70
     1
102
RTVSPropertyOp16
 70
     1
102
RTVSPropertyOp17
 70
     1
102
RTVSPropertyOp18
 70
     1
102
RTVSPropertyOp19
 70
     1
102
RTVSPropertyOp20
 70
     1
102
RTVSPropertyOp21
 70
     1
102
RTVSPropertyOp22
 70
     1
102
RTVSPropertyOp23
 70
     1
102
RTVSPropertyOp24
 70
     1
102
RTVSPropertyOp25
 70
     1
102
RTVSPropertyOp26
 70
     1
102
RTVSPropertyOp27
 70
     1
102
RTVSPropertyOp28
 70
     1
102
RTVSPropertyOp29
 70
     1
102
RTVSPropertyOp30
 70
     1
102
RTVSPropertyOp31
 70
     1
102
RTVSPropertyOp32
 70
     1
102
RTVSPropertyOp33
 70
     1
102
RTVSPropertyOp34
 70
     1
102
RTVSPropertyOp35
 70
     1
102
RTVSPropertyOp36
 70
     1
102
RTVSPropertyOp37
 70
     1
102
RTVSPropertyOp38
 70
     1
102
RTVSPropertyOp39
 70
     1
102
RTVSPropertyOp40
 70
     1
102
RTVSPropertyOp41
 70
     1
102
RTVSPropertyOp42
 70
     1
102
RTVSPropertyOp43
 70
     1
102
RTVSPropertyOp44
 70
     1
102
RTVSPropertyOp45
 70
     1
102
RTVSPropertyOp46
 70
     1
102
RTVSPropertyOp47
 70
     1
102
RTVSPropertyOp48
 70
     1
102
RTVSPropertyOp49
 70
     1
102
RTVSPropertyOp50
 70
     1
102
RTVSPropertyOp51
 70
     0
102
RTVSPropertyOp52
 70
     0
102
RTVSPropertyOp53
 70
     1
102
RTVSPropertyOp54
 70
     1
102
RTVSPropertyOp55
 70
     1
102
RTVSPropertyOp56
 70
     1
102
RTVSPropertyOp57
 70
     1
102
RTVSPost2010Prop28
280
     0
102
RTVSPost2010PropOp28
 70
     1
102
RTVSPost2010Prop29
280
     1
102
RTVSPost2010PropOp29
 70
     1
102
RTVSPost2010Prop30
280
     1
102
RTVSPost2010PropOp30
 70
     1
102
RTVSPost2010Prop31
280
     0
102
RTVSPost2010PropOp31
 70
     1
102
RTVSPost2010Prop32
280
     0
102
RTVSPost2010PropOp32
 70
     1
102
RTVSPost2010Prop33
280
     0
102
RTVSPost2010PropOp33
 70
     1
102
RTVSPost2010Prop34
280
     0
102
RTVSPost2010PropOp34
 70
     1
102
RTVSPost2010Prop35
280
     0
102
RTVSPost2010PropOp35
 70
     1
102
RTVSPost2010Prop36
280
     0
102
RTVSPost2010PropOp36
 70
     1
102
RTVSPost2010Prop37
 90
       50
102
RTVSPost2010PropOp37
 70
     1
102
RTVSPost2010Prop38
140
0.0
102
RTVSPost2010PropOp38
 70
     1
102
RTVSPost2010Prop39
140
1.0
102
RTVSPost2010PropOp39
 70
     1
102
RTVSPost2010Prop40
 90
        0
102
RTVSPost2010PropOp40
 70
     1
102
RTVSPost2010Prop41ColorIndex
 90
       18
102
RTVSPost2010Prop41ColorRGB
 90
        0
102
RTVSPost2010PropOp41
 70
     1
102
RTVSPost2010Prop42
 90
       50
102
RTVSPost2010PropOp42
 70
     1
102
RTVSPost2010Prop43
 90
        3
102
RTVSPost2010PropOp43
 70
     1
102
RTVSPost2010Prop44ColorIndex
 90
        5
102
RTVSPost2010Prop44ColorRGB
 90
      255
102
RTVSPost2010PropOp44
 70
     1
102
RTVSPost2010Prop45
280
     0
102
RTVSPost2010PropOp45
 70
     1
102
RTVSPost2010Prop46
 90
       50
102
RTVSPost2010PropOp46
 70
     1
102
RTVSPost2010Prop47
 90
       50
102
RTVSPost2010PropOp47
 70
     1
102
RTVSPost2010Prop48
 90
       50
102
RTVSPost2010PropOp48
 70
     1
102
RTVSPost2010Prop49
280
     0
102
RTVSPost2010PropOp49
 70
     1
102
RTVSPost2010Prop50
 90
       50
102
RTVSPost2010PropOp50
 70
     1
102
RTVSPost2010Prop51ColorIndex
 90
      256
102
RTVSPost2010Prop51ColorRGB
 90
-16777216
102
RTVSPost2010PropOp51
 70
     0
102
RTVSPost2010Prop52
140
1.0
102
RTVSPost2010PropOp52
 70
     0
102
RTVSPost2010Prop53
 90
        2
102
RTVSPost2010PropOp53
 70
     1
102
RTVSPost2010Prop54
  1
strokes_ogs.tif
102
RTVSPost2010PropOp54
 70
     1
102
RTVSPost2010Prop55
280
     0
102
RTVSPost2010PropOp55
 70
     1
102
RTVSPost2010Prop56
140
1.0
102
RTVSPost2010PropOp56
 70
     1
102
RTVSPost2010Prop57
140
1.0
102
RTVSPost2010PropOp57
 70
     1
  0
XRECORD
  5
2D1
102
{ACAD_REACTORS
330
2D0
102
}
330
2D0
100
AcDbXrecord
280
     1
102
RTVSPropertyOp0
 70
     1
102
RTVSPropertyOp1
 70
     1
102
RTVSPropertyOp2
 70
     1
102
RTVSPropertyOp3
 70
     1
102
RTVSPropertyOp4
 70
     1
102
RTVSPropertyOp5
 70
     1
102
RTVSPropertyOp6
 70
     1
102
RTVSPropertyOp7
 70
     1
102
RTVSPropertyOp8
 70
     1
102
RTVSPropertyOp9
 70
     1
102
RTVSPropertyOp10
 70
     1
102
RTVSPropertyOp11
 70
     1
102
RTVSPropertyOp12
 70
     1
102
RTVSPropertyOp13
 70
     1
102
RTVSPropertyOp14
 70
     1
102
RTVSPropertyOp15
 70
     1
102
RTVSPropertyOp16
 70
     1
102
RTVSPropertyOp17
 70
     1
102
RTVSPropertyOp18
 70
     1
102
RTVSPropertyOp19
 70
     1
102
RTVSPropertyOp20
 70
     1
102
RTVSPropertyOp21
 70
     1
102
RTVSPropertyOp22
 70
     1
102
RTVSPropertyOp23
 70
     1
102
RTVSPropertyOp24
 70
     1
102
RTVSPropertyOp25
 70
     1
102
RTVSPropertyOp26
 70
     1
102
RTVSPropertyOp27
 70
     1
102
RTVSPropertyOp28
 70
     1
102
RTVSPropertyOp29
 70
     1
102
RTVSPropertyOp30
 70
     1
102
RTVSPropertyOp31
 70
     1
102
RTVSPropertyOp32
 70
     1
102
RTVSPropertyOp33
 70
     1
102
RTVSPropertyOp34
 70
     1
102
RTVSPropertyOp35
 70
     1
102
RTVSPropertyOp36
 70
     1
102
RTVSPropertyOp37
 70
     1
102
RTVSPropertyOp38
 70
     1
102
RTVSPropertyOp39
 70
     1
102
RTVSPropertyOp40
 70
     1
102
RTVSPropertyOp41
 70
     1
102
RTVSPropertyOp42
 70
     1
102
RTVSPropertyOp43
 70
     1
102
RTVSPropertyOp44
 70
     1
102
RTVSPropertyOp45
 70
     1
102
RTVSPropertyOp46
 70
     1
102
RTVSPropertyOp47
 70
     1
102
RTVSPropertyOp48
 70
     1
102
RTVSPropertyOp49
 70
     1
102
RTVSPropertyOp50
 70
     1
102
RTVSPropertyOp51
 70
     0
102
RTVSPropertyOp52
 70
     0
102
RTVSPropertyOp53
 70
     1
102
RTVSPropertyOp54
 70
     1
102
RTVSPropertyOp55
 70
     1
102
RTVSPropertyOp56
 70
     1
102
RTVSPropertyOp57
 70
     1
102
RTVSPost2010Prop28
280
     0
102
RTVSPost2010PropOp28
 70
     1
102
RTVSPost2010Prop29
280
     1
102
RTVSPost2010PropOp29
 70
     1
102
RTVSPost2010Prop30
280
     1
102
RTVSPost2010PropOp30
 70
     1
102
RTVSPost2010Prop31
280
     0
102
RTVSPost2010PropOp31
 70
     1
102
RTVSPost2010Prop32
280
     0
102
RTVSPost2010PropOp32
 70
     1
102
RTVSPost2010Prop33
280
     0
102
RTVSPost2010PropOp33
 70
     1
102
RTVSPost2010Prop34
280
     0
102
RTVSPost2010PropOp34
 70
     1
102
RTVSPost2010Prop35
280
     0
102
RTVSPost2010PropOp35
 70
     1
102
RTVSPost2010Prop36
280
     0
102
RTVSPost2010PropOp36
 70
     1
102
RTVSPost2010Prop37
 90
       50
102
RTVSPost2010PropOp37
 70
     1
102
RTVSPost2010Prop38
140
0.0
102
RTVSPost2010PropOp38
 70
     1
102
RTVSPost2010Prop39
140
1.0
102
RTVSPost2010PropOp39
 70
     1
102
RTVSPost2010Prop40
 90
        0
102
RTVSPost2010PropOp40
 70
     1
102
RTVSPost2010Prop41ColorIndex
 90
       18
102
RTVSPost2010Prop41ColorRGB
 90
        0
102
RTVSPost2010PropOp41
 70
     1
102
RTVSPost2010Prop42
 90
       50
102
RTVSPost2010PropOp42
 70
     1
102
RTVSPost2010Prop43
 90
        3
102
RTVSPost2010PropOp43
 70
     1
102
RTVSPost2010Prop44ColorIndex
 90
        5
102
RTVSPost2010Prop44ColorRGB
 90
      255
102
RTVSPost2010PropOp44
 70
     1
102
RTVSPost2010Prop45
280
     0
102
RTVSPost2010PropOp45
 70
     1
102
RTVSPost2010Prop46
 90
       50
102
RTVSPost2010PropOp46
 70
     1
102
RTVSPost2010Prop47
 90
       50
102
RTVSPost2010PropOp47
 70
     1
102
RTVSPost2010Prop48
 90
       50
102
RTVSPost2010PropOp48
 70
     1
102
RTVSPost2010Prop49
280
     0
102
RTVSPost2010PropOp49
 70
     1
102
RTVSPost2010Prop50
 90
       50
102
RTVSPost2010PropOp50
 70
     1
102
RTVSPost2010Prop51ColorIndex
 90
      256
102
RTVSPost2010Prop51ColorRGB
 90
-16777216
102
RTVSPost2010PropOp51
 70
     0
102
RTVSPost2010Prop52
140
1.0
102
RTVSPost2010PropOp52
 70
     0
102
RTVSPost2010Prop53
 90
        2
102
RTVSPost2010PropOp53
 70
     1
102
RTVSPost2010Prop54
  1
strokes_ogs.tif
102
RTVSPost2010PropOp54
 70
     1
102
RTVSPost2010Prop55
280
     0
102
RTVSPost2010PropOp55
 70
     1
102
RTVSPost2010Prop56
140
1.0
102
RTVSPost2010PropOp56
 70
     1
102
RTVSPost2010Prop57
140
1.0
102
RTVSPost2010PropOp57
 70
     1
  0
XRECORD
  5
2D3
102
{ACAD_REACTORS
330
2D2
102
}
330
2D2
100
AcDbXrecord
280
     1
102
RTVSPropertyOp0
 70
     1
102
RTVSPropertyOp1
 70
     1
102
RTVSPropertyOp2
 70
     1
102
RTVSPropertyOp3
 70
     1
102
RTVSPropertyOp4
 70
     1
102
RTVSPropertyOp5
 70
     1
102
RTVSPropertyOp6
 70
     1
102
RTVSPropertyOp7
 70
     1
102
RTVSPropertyOp8
 70
     1
102
RTVSPropertyOp9
 70
     1
102
RTVSPropertyOp10
 70
     1
102
RTVSPropertyOp11
 70
     1
102
RTVSPropertyOp12
 70
     1
102
RTVSPropertyOp13
 70
     1
102
RTVSPropertyOp14
 70
     1
102
RTVSPropertyOp15
 70
     1
102
RTVSPropertyOp16
 70
     1
102
RTVSPropertyOp17
 70
     1
102
RTVSPropertyOp18
 70
     1
102
RTVSPropertyOp19
 70
     1
102
RTVSPropertyOp20
 70
     1
102
RTVSPropertyOp21
 70
     1
102
RTVSPropertyOp22
 70
     1
102
RTVSPropertyOp23
 70
     1
102
RTVSPropertyOp24
 70
     1
102
RTVSPropertyOp25
 70
     1
102
RTVSPropertyOp26
 70
     1
102
RTVSPropertyOp27
 70
     1
102
RTVSPropertyOp28
 70
     1
102
RTVSPropertyOp29
 70
     1
102
RTVSPropertyOp30
 70
     1
102
RTVSPropertyOp31
 70
     1
102
RTVSPropertyOp32
 70
     1
102
RTVSPropertyOp33
 70
     1
102
RTVSPropertyOp34
 70
     1
102
RTVSPropertyOp35
 70
     1
102
RTVSPropertyOp36
 70
     1
102
RTVSPropertyOp37
 70
     1
102
RTVSPropertyOp38
 70
     1
102
RTVSPropertyOp39
 70
     1
102
RTVSPropertyOp40
 70
     1
102
RTVSPropertyOp41
 70
     1
102
RTVSPropertyOp42
 70
     1
102
RTVSPropertyOp43
 70
     1
102
RTVSPropertyOp44
 70
     1
102
RTVSPropertyOp45
 70
     1
102
RTVSPropertyOp46
 70
     1
102
RTVSPropertyOp47
 70
     1
102
RTVSPropertyOp48
 70
     1
102
RTVSPropertyOp49
 70
     1
102
RTVSPropertyOp50
 70
     1
102
RTVSPropertyOp51
 70
     0
102
RTVSPropertyOp52
 70
     0
102
RTVSPropertyOp53
 70
     1
102
RTVSPropertyOp54
 70
     1
102
RTVSPropertyOp55
 70
     1
102
RTVSPropertyOp56
 70
     1
102
RTVSPropertyOp57
 70
     1
102
RTVSPost2010Prop28
280
     0
102
RTVSPost2010PropOp28
 70
     1
102
RTVSPost2010Prop29
280
     1
102
RTVSPost2010PropOp29
 70
     1
102
RTVSPost2010Prop30
280
     1
102
RTVSPost2010PropOp30
 70
     1
102
RTVSPost2010Prop31
280
     0
102
RTVSPost2010PropOp31
 70
     1
102
RTVSPost2010Prop32
280
     0
102
RTVSPost2010PropOp32
 70
     1
102
RTVSPost2010Prop33
280
     0
102
RTVSPost2010PropOp33
 70
     1
102
RTVSPost2010Prop34
280
     0
102
RTVSPost2010PropOp34
 70
     1
102
RTVSPost2010Prop35
280
     0
102
RTVSPost2010PropOp35
 70
     1
102
RTVSPost2010Prop36
280
     0
102
RTVSPost2010PropOp36
 70
     1
102
RTVSPost2010Prop37
 90
       50
102
RTVSPost2010PropOp37
 70
     1
102
RTVSPost2010Prop38
140
0.0
102
RTVSPost2010PropOp38
 70
     1
102
RTVSPost2010Prop39
140
1.0
102
RTVSPost2010PropOp39
 70
     1
102
RTVSPost2010Prop40
 90
        0
102
RTVSPost2010PropOp40
 70
     1
102
RTVSPost2010Prop41ColorIndex
 90
       18
102
RTVSPost2010Prop41ColorRGB
 90
        0
102
RTVSPost2010PropOp41
 70
     1
102
RTVSPost2010Prop42
 90
       50
102
RTVSPost2010PropOp42
 70
     1
102
RTVSPost2010Prop43
 90
        3
102
RTVSPost2010PropOp43
 70
     1
102
RTVSPost2010Prop44ColorIndex
 90
        5
102
RTVSPost2010Prop44ColorRGB
 90
      255
102
RTVSPost2010PropOp44
 70
     1
102
RTVSPost2010Prop45
280
     0
102
RTVSPost2010PropOp45
 70
     1
102
RTVSPost2010Prop46
 90
       50
102
RTVSPost2010PropOp46
 70
     1
102
RTVSPost2010Prop47
 90
       50
102
RTVSPost2010PropOp47
 70
     1
102
RTVSPost2010Prop48
 90
       50
102
RTVSPost2010PropOp48
 70
     1
102
RTVSPost2010Prop49
280
     0
102
RTVSPost2010PropOp49
 70
     1
102
RTVSPost2010Prop50
 90
       50
102
RTVSPost2010PropOp50
 70
     1
102
RTVSPost2010Prop51ColorIndex
 90
      256
102
RTVSPost2010Prop51ColorRGB
 90
-16777216
102
RTVSPost2010PropOp51
 70
     0
102
RTVSPost2010Prop52
140
1.0
102
RTVSPost2010PropOp52
 70
     0
102
RTVSPost2010Prop53
 90
        2
102
RTVSPost2010PropOp53
 70
     1
102
RTVSPost2010Prop54
  1
strokes_ogs.tif
102
RTVSPost2010PropOp54
 70
     1
102
RTVSPost2010Prop55
280
     0
102
RTVSPost2010PropOp55
 70
     1
102
RTVSPost2010Prop56
140
1.0
102
RTVSPost2010PropOp56
 70
     1
102
RTVSPost2010Prop57
140
1.0
102
RTVSPost2010PropOp57
 70
     1
  0
XRECORD
  5
2D9
102
{ACAD_REACTORS
330
2D8
102
}
330
2D8
100
AcDbXrecord
280
     1
102
RTVSPropertyOp0
 70
     1
102
RTVSPropertyOp1
 70
     1
102
RTVSPropertyOp2
 70
     1
102
RTVSPropertyOp3
 70
     1
102
RTVSPropertyOp4
 70
     1
102
RTVSPropertyOp5
 70
     1
102
RTVSPropertyOp6
 70
     1
102
RTVSPropertyOp7
 70
     1
102
RTVSPropertyOp8
 70
     1
102
RTVSPropertyOp9
 70
     1
102
RTVSPropertyOp10
 70
     1
102
RTVSPropertyOp11
 70
     1
102
RTVSPropertyOp12
 70
     1
102
RTVSPropertyOp13
 70
     1
102
RTVSPropertyOp14
 70
     1
102
RTVSPropertyOp15
 70
     1
102
RTVSPropertyOp16
 70
     1
102
RTVSPropertyOp17
 70
     1
102
RTVSPropertyOp18
 70
     1
102
RTVSPropertyOp19
 70
     1
102
RTVSPropertyOp20
 70
     1
102
RTVSPropertyOp21
 70
     1
102
RTVSPropertyOp22
 70
     1
102
RTVSPropertyOp23
 70
     1
102
RTVSPropertyOp24
 70
     1
102
RTVSPropertyOp25
 70
     1
102
RTVSPropertyOp26
 70
     1
102
RTVSPropertyOp27
 70
     1
102
RTVSPropertyOp28
 70
     1
102
RTVSPropertyOp29
 70
     1
102
RTVSPropertyOp30
 70
     1
102
RTVSPropertyOp31
 70
     1
102
RTVSPropertyOp32
 70
     1
102
RTVSPropertyOp33
 70
     1
102
RTVSPropertyOp34
 70
     1
102
RTVSPropertyOp35
 70
     1
102
RTVSPropertyOp36
 70
     1
102
RTVSPropertyOp37
 70
     1
102
RTVSPropertyOp38
 70
     1
102
RTVSPropertyOp39
 70
     1
102
RTVSPropertyOp40
 70
     1
102
RTVSPropertyOp41
 70
     1
102
RTVSPropertyOp42
 70
     1
102
RTVSPropertyOp43
 70
     1
102
RTVSPropertyOp44
 70
     1
102
RTVSPropertyOp45
 70
     1
102
RTVSPropertyOp46
 70
     1
102
RTVSPropertyOp47
 70
     1
102
RTVSPropertyOp48
 70
     1
102
RTVSPropertyOp49
 70
     1
102
RTVSPropertyOp50
 70
     1
102
RTVSPropertyOp51
 70
     0
102
RTVSPropertyOp52
 70
     0
102
RTVSPropertyOp53
 70
     1
102
RTVSPropertyOp54
 70
     1
102
RTVSPropertyOp55
 70
     1
102
RTVSPropertyOp56
 70
     1
102
RTVSPropertyOp57
 70
     1
102
RTVSPost2010Prop28
280
     0
102
RTVSPost2010PropOp28
 70
     1
102
RTVSPost2010Prop29
280
     1
102
RTVSPost2010PropOp29
 70
     1
102
RTVSPost2010Prop30
280
     1
102
RTVSPost2010PropOp30
 70
     1
102
RTVSPost2010Prop31
280
     0
102
RTVSPost2010PropOp31
 70
     1
102
RTVSPost2010Prop32
280
     0
102
RTVSPost2010PropOp32
 70
     1
102
RTVSPost2010Prop33
280
     0
102
RTVSPost2010PropOp33
 70
     1
102
RTVSPost2010Prop34
280
     0
102
RTVSPost2010PropOp34
 70
     1
102
RTVSPost2010Prop35
280
     0
102
RTVSPost2010PropOp35
 70
     1
102
RTVSPost2010Prop36
280
     0
102
RTVSPost2010PropOp36
 70
     1
102
RTVSPost2010Prop37
 90
       50
102
RTVSPost2010PropOp37
 70
     1
102
RTVSPost2010Prop38
140
0.0
102
RTVSPost2010PropOp38
 70
     1
102
RTVSPost2010Prop39
140
1.0
102
RTVSPost2010PropOp39
 70
     1
102
RTVSPost2010Prop40
 90
        0
102
RTVSPost2010PropOp40
 70
     1
102
RTVSPost2010Prop41ColorIndex
 90
       18
102
RTVSPost2010Prop41ColorRGB
 90
        0
102
RTVSPost2010PropOp41
 70
     1
102
RTVSPost2010Prop42
 90
       50
102
RTVSPost2010PropOp42
 70
     1
102
RTVSPost2010Prop43
 90
        3
102
RTVSPost2010PropOp43
 70
     1
102
RTVSPost2010Prop44ColorIndex
 90
        5
102
RTVSPost2010Prop44ColorRGB
 90
      255
102
RTVSPost2010PropOp44
 70
     1
102
RTVSPost2010Prop45
280
     0
102
RTVSPost2010PropOp45
 70
     1
102
RTVSPost2010Prop46
 90
       50
102
RTVSPost2010PropOp46
 70
     1
102
RTVSPost2010Prop47
 90
       50
102
RTVSPost2010PropOp47
 70
     1
102
RTVSPost2010Prop48
 90
       50
102
RTVSPost2010PropOp48
 70
     1
102
RTVSPost2010Prop49
280
     0
102
RTVSPost2010PropOp49
 70
     1
102
RTVSPost2010Prop50
 90
       50
102
RTVSPost2010PropOp50
 70
     1
102
RTVSPost2010Prop51ColorIndex
 90
      256
102
RTVSPost2010Prop51ColorRGB
 90
-16777216
102
RTVSPost2010PropOp51
 70
     0
102
RTVSPost2010Prop52
140
1.0
102
RTVSPost2010PropOp52
 70
     0
102
RTVSPost2010Prop53
 90
        2
102
RTVSPost2010PropOp53
 70
     1
102
RTVSPost2010Prop54
  1
strokes_ogs.tif
102
RTVSPost2010PropOp54
 70
     1
102
RTVSPost2010Prop55
280
     0
102
RTVSPost2010PropOp55
 70
     1
102
RTVSPost2010Prop56
140
1.0
102
RTVSPost2010PropOp56
 70
     1
102
RTVSPost2010Prop57
140
1.0
102
RTVSPost2010PropOp57
 70
     1
  0
XRECORD
  5
2ED
102
{ACAD_REACTORS
330
2EC
102
}
330
2EC
100
AcDbXrecord
280
     1
102
RTVSPropertyOp0
 70
     0
102
RTVSPropertyOp1
 70
     0
102
RTVSPropertyOp2
 70
     0
102
RTVSPropertyOp3
 70
     0
102
RTVSPropertyOp4
 70
     0
102
RTVSPropertyOp5
 70
     0
102
RTVSPropertyOp6
 70
     0
102
RTVSPropertyOp7
 70
     0
102
RTVSPropertyOp8
 70
     0
102
RTVSPropertyOp9
 70
     0
102
RTVSPropertyOp10
 70
     0
102
RTVSPropertyOp11
 70
     0
102
RTVSPropertyOp12
 70
     0
102
RTVSPropertyOp13
 70
     0
102
RTVSPropertyOp14
 70
     2
102
RTVSPropertyOp15
 70
     0
102
RTVSPropertyOp16
 70
     0
102
RTVSPropertyOp17
 70
     0
102
RTVSPropertyOp18
 70
     0
102
RTVSPropertyOp19
 70
     0
102
RTVSPropertyOp20
 70
     0
102
RTVSPropertyOp21
 70
     0
102
RTVSPropertyOp22
 70
     0
102
RTVSPropertyOp23
 70
     0
102
RTVSPropertyOp24
 70
     0
102
RTVSPropertyOp25
 70
     0
102
RTVSPropertyOp26
 70
     0
102
RTVSPropertyOp27
 70
     0
102
RTVSPropertyOp28
 70
     0
102
RTVSPropertyOp29
 70
     0
102
RTVSPropertyOp30
 70
     0
102
RTVSPropertyOp31
 70
     0
102
RTVSPropertyOp32
 70
     0
102
RTVSPropertyOp33
 70
     0
102
RTVSPropertyOp34
 70
     0
102
RTVSPropertyOp35
 70
     0
102
RTVSPropertyOp36
 70
     0
102
RTVSPropertyOp37
 70
     0
102
RTVSPropertyOp38
 70
     0
102
RTVSPropertyOp39
 70
     0
102
RTVSPropertyOp40
 70
     0
102
RTVSPropertyOp41
 70
     0
102
RTVSPropertyOp42
 70
     0
102
RTVSPropertyOp43
 70
     0
102
RTVSPropertyOp44
 70
     0
102
RTVSPropertyOp45
 70
     0
102
RTVSPropertyOp46
 70
     0
102
RTVSPropertyOp47
 70
     0
102
RTVSPropertyOp48
 70
     0
102
RTVSPropertyOp49
 70
     0
102
RTVSPropertyOp50
 70
     0
102
RTVSPropertyOp51
 70
     0
102
RTVSPropertyOp52
 70
     0
102
RTVSPropertyOp53
 70
     0
102
RTVSPropertyOp54
 70
     0
102
RTVSPropertyOp55
 70
     0
102
RTVSPropertyOp56
 70
     0
102
RTVSPropertyOp57
 70
     0
102
RTVSPost2010Prop28
280
     0
102
RTVSPost2010PropOp28
 70
     0
102
RTVSPost2010Prop29
280
     1
102
RTVSPost2010PropOp29
 70
     0
102
RTVSPost2010Prop30
280
     1
102
RTVSPost2010PropOp30
 70
     0
102
RTVSPost2010Prop31
280
     0
102
RTVSPost2010PropOp31
 70
     0
102
RTVSPost2010Prop32
280
     0
102
RTVSPost2010PropOp32
 70
     0
102
RTVSPost2010Prop33
280
     0
102
RTVSPost2010PropOp33
 70
     0
102
RTVSPost2010Prop34
280
     0
102
RTVSPost2010PropOp34
 70
     0
102
RTVSPost2010Prop35
280
     0
102
RTVSPost2010PropOp35
 70
     0
102
RTVSPost2010Prop36
280
     0
102
RTVSPost2010PropOp36
 70
     0
102
RTVSPost2010Prop37
 90
       50
102
RTVSPost2010PropOp37
 70
     0
102
RTVSPost2010Prop38
140
0.0
102
RTVSPost2010PropOp38
 70
     0
102
RTVSPost2010Prop39
140
1.0
102
RTVSPost2010PropOp39
 70
     0
102
RTVSPost2010Prop40
 90
        0
102
RTVSPost2010PropOp40
 70
     0
102
RTVSPost2010Prop41ColorIndex
 90
       18
102
RTVSPost2010Prop41ColorRGB
 90
        0
102
RTVSPost2010PropOp41
 70
     0
102
RTVSPost2010Prop42
 90
       50
102
RTVSPost2010PropOp42
 70
     0
102
RTVSPost2010Prop43
 90
        3
102
RTVSPost2010PropOp43
 70
     0
102
RTVSPost2010Prop44ColorIndex
 90
        5
102
RTVSPost2010Prop44ColorRGB
 90
      255
102
RTVSPost2010PropOp44
 70
     0
102
RTVSPost2010Prop45
280
     0
102
RTVSPost2010PropOp45
 70
     0
102
RTVSPost2010Prop46
 90
       50
102
RTVSPost2010PropOp46
 70
     0
102
RTVSPost2010Prop47
 90
       50
102
RTVSPost2010PropOp47
 70
     0
102
RTVSPost2010Prop48
 90
       50
102
RTVSPost2010PropOp48
 70
     0
102
RTVSPost2010Prop49
280
     0
102
RTVSPost2010PropOp49
 70
     0
102
RTVSPost2010Prop50
 90
       50
102
RTVSPost2010PropOp50
 70
     0
102
RTVSPost2010Prop51ColorIndex
 90
      256
102
RTVSPost2010Prop51ColorRGB
 90
-16777216
102
RTVSPost2010PropOp51
 70
     0
102
RTVSPost2010Prop52
140
1.0
102
RTVSPost2010PropOp52
 70
     0
102
RTVSPost2010Prop53
 90
        2
102
RTVSPost2010PropOp53
 70
     0
102
RTVSPost2010Prop54
  1
strokes_ogs.tif
102
RTVSPost2010PropOp54
 70
     0
102
RTVSPost2010Prop55
280
     0
102
RTVSPost2010PropOp55
 70
     0
102
RTVSPost2010Prop56
140
1.0
102
RTVSPost2010PropOp56
 70
     0
102
RTVSPost2010Prop57
140
1.0
102
RTVSPost2010PropOp57
 70
     0
  0
XRECORD
  5
2E7
102
{ACAD_REACTORS
330
2E6
102
}
330
2E6
100
AcDbXrecord
280
     1
102
RTVSPropertyOp0
 70
     1
102
RTVSPropertyOp1
 70
     1
102
RTVSPropertyOp2
 70
     1
102
RTVSPropertyOp3
 70
     1
102
RTVSPropertyOp4
 70
     1
102
RTVSPropertyOp5
 70
     1
102
RTVSPropertyOp6
 70
     1
102
RTVSPropertyOp7
 70
     1
102
RTVSPropertyOp8
 70
     1
102
RTVSPropertyOp9
 70
     1
102
RTVSPropertyOp10
 70
     1
102
RTVSPropertyOp11
 70
     1
102
RTVSPropertyOp12
 70
     1
102
RTVSPropertyOp13
 70
     1
102
RTVSPropertyOp14
 70
     1
102
RTVSPropertyOp15
 70
     1
102
RTVSPropertyOp16
 70
     1
102
RTVSPropertyOp17
 70
     1
102
RTVSPropertyOp18
 70
     1
102
RTVSPropertyOp19
 70
     1
102
RTVSPropertyOp20
 70
     1
102
RTVSPropertyOp21
 70
     1
102
RTVSPropertyOp22
 70
     1
102
RTVSPropertyOp23
 70
     1
102
RTVSPropertyOp24
 70
     1
102
RTVSPropertyOp25
 70
     1
102
RTVSPropertyOp26
 70
     1
102
RTVSPropertyOp27
 70
     1
102
RTVSPropertyOp28
 70
     1
102
RTVSPropertyOp29
 70
     1
102
RTVSPropertyOp30
 70
     1
102
RTVSPropertyOp31
 70
     1
102
RTVSPropertyOp32
 70
     1
102
RTVSPropertyOp33
 70
     1
102
RTVSPropertyOp34
 70
     1
102
RTVSPropertyOp35
 70
     1
102
RTVSPropertyOp36
 70
     1
102
RTVSPropertyOp37
 70
     1
102
RTVSPropertyOp38
 70
     1
102
RTVSPropertyOp39
 70
     1
102
RTVSPropertyOp40
 70
     1
102
RTVSPropertyOp41
 70
     1
102
RTVSPropertyOp42
 70
     1
102
RTVSPropertyOp43
 70
     1
102
RTVSPropertyOp44
 70
     1
102
RTVSPropertyOp45
 70
     1
102
RTVSPropertyOp46
 70
     1
102
RTVSPropertyOp47
 70
     1
102
RTVSPropertyOp48
 70
     1
102
RTVSPropertyOp49
 70
     1
102
RTVSPropertyOp50
 70
     1
102
RTVSPropertyOp51
 70
     0
102
RTVSPropertyOp52
 70
     0
102
RTVSPropertyOp53
 70
     1
102
RTVSPropertyOp54
 70
     1
102
RTVSPropertyOp55
 70
     1
102
RTVSPropertyOp56
 70
     1
102
RTVSPropertyOp57
 70
     1
102
RTVSPost2010Prop28
280
     0
102
RTVSPost2010PropOp28
 70
     1
102
RTVSPost2010Prop29
280
     1
102
RTVSPost2010PropOp29
 70
     1
102
RTVSPost2010Prop30
280
     1
102
RTVSPost2010PropOp30
 70
     1
102
RTVSPost2010Prop31
280
     0
102
RTVSPost2010PropOp31
 70
     1
102
RTVSPost2010Prop32
280
     0
102
RTVSPost2010PropOp32
 70
     1
102
RTVSPost2010Prop33
280
     0
102
RTVSPost2010PropOp33
 70
     1
102
RTVSPost2010Prop34
280
     0
102
RTVSPost2010PropOp34
 70
     1
102
RTVSPost2010Prop35
280
     0
102
RTVSPost2010PropOp35
 70
     1
102
RTVSPost2010Prop36
280
     0
102
RTVSPost2010PropOp36
 70
     1
102
RTVSPost2010Prop37
 90
       50
102
RTVSPost2010PropOp37
 70
     1
102
RTVSPost2010Prop38
140
0.0
102
RTVSPost2010PropOp38
 70
     1
102
RTVSPost2010Prop39
140
1.0
102
RTVSPost2010PropOp39
 70
     1
102
RTVSPost2010Prop40
 90
        0
102
RTVSPost2010PropOp40
 70
     1
102
RTVSPost2010Prop41ColorIndex
 90
       18
102
RTVSPost2010Prop41ColorRGB
 90
        0
102
RTVSPost2010PropOp41
 70
     1
102
RTVSPost2010Prop42
 90
       50
102
RTVSPost2010PropOp42
 70
     1
102
RTVSPost2010Prop43
 90
        3
102
RTVSPost2010PropOp43
 70
     1
102
RTVSPost2010Prop44ColorIndex
 90
        5
102
RTVSPost2010Prop44ColorRGB
 90
      255
102
RTVSPost2010PropOp44
 70
     1
102
RTVSPost2010Prop45
280
     0
102
RTVSPost2010PropOp45
 70
     1
102
RTVSPost2010Prop46
 90
       50
102
RTVSPost2010PropOp46
 70
     1
102
RTVSPost2010Prop47
 90
       50
102
RTVSPost2010PropOp47
 70
     1
102
RTVSPost2010Prop48
 90
       50
102
RTVSPost2010PropOp48
 70
     1
102
RTVSPost2010Prop49
280
     0
102
RTVSPost2010PropOp49
 70
     1
102
RTVSPost2010Prop50
 90
       50
102
RTVSPost2010PropOp50
 70
     1
102
RTVSPost2010Prop51ColorIndex
 90
      256
102
RTVSPost2010Prop51ColorRGB
 90
-16777216
102
RTVSPost2010PropOp51
 70
     0
102
RTVSPost2010Prop52
140
1.0
102
RTVSPost2010PropOp52
 70
     0
102
RTVSPost2010Prop53
 90
        2
102
RTVSPost2010PropOp53
 70
     1
102
RTVSPost2010Prop54
  1
strokes_ogs.tif
102
RTVSPost2010PropOp54
 70
     1
102
RTVSPost2010Prop55
280
     0
102
RTVSPost2010PropOp55
 70
     1
102
RTVSPost2010Prop56
140
1.0
102
RTVSPost2010PropOp56
 70
     1
102
RTVSPost2010Prop57
140
1.0
102
RTVSPost2010PropOp57
 70
     1
  0
XRECORD
  5
2EF
102
{ACAD_REACTORS
330
2EE
102
}
330
2EE
100
AcDbXrecord
280
     1
102
RTVSPropertyOp0
 70
     0
102
RTVSPropertyOp1
 70
     0
102
RTVSPropertyOp2
 70
     0
102
RTVSPropertyOp3
 70
     0
102
RTVSPropertyOp4
 70
     0
102
RTVSPropertyOp5
 70
     0
102
RTVSPropertyOp6
 70
     0
102
RTVSPropertyOp7
 70
     0
102
RTVSPropertyOp8
 70
     0
102
RTVSPropertyOp9
 70
     0
102
RTVSPropertyOp10
 70
     0
102
RTVSPropertyOp11
 70
     0
102
RTVSPropertyOp12
 70
     0
102
RTVSPropertyOp13
 70
     0
102
RTVSPropertyOp14
 70
     2
102
RTVSPropertyOp15
 70
     0
102
RTVSPropertyOp16
 70
     0
102
RTVSPropertyOp17
 70
     0
102
RTVSPropertyOp18
 70
     0
102
RTVSPropertyOp19
 70
     0
102
RTVSPropertyOp20
 70
     0
102
RTVSPropertyOp21
 70
     0
102
RTVSPropertyOp22
 70
     0
102
RTVSPropertyOp23
 70
     0
102
RTVSPropertyOp24
 70
     0
102
RTVSPropertyOp25
 70
     0
102
RTVSPropertyOp26
 70
     0
102
RTVSPropertyOp27
 70
     0
102
RTVSPropertyOp28
 70
     0
102
RTVSPropertyOp29
 70
     0
102
RTVSPropertyOp30
 70
     0
102
RTVSPropertyOp31
 70
     0
102
RTVSPropertyOp32
 70
     0
102
RTVSPropertyOp33
 70
     0
102
RTVSPropertyOp34
 70
     0
102
RTVSPropertyOp35
 70
     0
102
RTVSPropertyOp36
 70
     0
102
RTVSPropertyOp37
 70
     0
102
RTVSPropertyOp38
 70
     0
102
RTVSPropertyOp39
 70
     0
102
RTVSPropertyOp40
 70
     0
102
RTVSPropertyOp41
 70
     0
102
RTVSPropertyOp42
 70
     0
102
RTVSPropertyOp43
 70
     0
102
RTVSPropertyOp44
 70
     0
102
RTVSPropertyOp45
 70
     0
102
RTVSPropertyOp46
 70
     0
102
RTVSPropertyOp47
 70
     0
102
RTVSPropertyOp48
 70
     0
102
RTVSPropertyOp49
 70
     0
102
RTVSPropertyOp50
 70
     0
102
RTVSPropertyOp51
 70
     0
102
RTVSPropertyOp52
 70
     0
102
RTVSPropertyOp53
 70
     0
102
RTVSPropertyOp54
 70
     0
102
RTVSPropertyOp55
 70
     0
102
RTVSPropertyOp56
 70
     0
102
RTVSPropertyOp57
 70
     0
102
RTVSPost2010Prop28
280
     0
102
RTVSPost2010PropOp28
 70
     0
102
RTVSPost2010Prop29
280
     1
102
RTVSPost2010PropOp29
 70
     0
102
RTVSPost2010Prop30
280
     1
102
RTVSPost2010PropOp30
 70
     0
102
RTVSPost2010Prop31
280
     0
102
RTVSPost2010PropOp31
 70
     0
102
RTVSPost2010Prop32
280
     0
102
RTVSPost2010PropOp32
 70
     0
102
RTVSPost2010Prop33
280
     0
102
RTVSPost2010PropOp33
 70
     0
102
RTVSPost2010Prop34
280
     0
102
RTVSPost2010PropOp34
 70
     0
102
RTVSPost2010Prop35
280
     0
102
RTVSPost2010PropOp35
 70
     0
102
RTVSPost2010Prop36
280
     0
102
RTVSPost2010PropOp36
 70
     0
102
RTVSPost2010Prop37
 90
       50
102
RTVSPost2010PropOp37
 70
     0
102
RTVSPost2010Prop38
140
0.0
102
RTVSPost2010PropOp38
 70
     0
102
RTVSPost2010Prop39
140
1.0
102
RTVSPost2010PropOp39
 70
     0
102
RTVSPost2010Prop40
 90
        0
102
RTVSPost2010PropOp40
 70
     0
102
RTVSPost2010Prop41ColorIndex
 90
       18
102
RTVSPost2010Prop41ColorRGB
 90
        0
102
RTVSPost2010PropOp41
 70
     0
102
RTVSPost2010Prop42
 90
       50
102
RTVSPost2010PropOp42
 70
     0
102
RTVSPost2010Prop43
 90
        3
102
RTVSPost2010PropOp43
 70
     0
102
RTVSPost2010Prop44ColorIndex
 90
        5
102
RTVSPost2010Prop44ColorRGB
 90
      255
102
RTVSPost2010PropOp44
 70
     0
102
RTVSPost2010Prop45
280
     0
102
RTVSPost2010PropOp45
 70
     0
102
RTVSPost2010Prop46
 90
       50
102
RTVSPost2010PropOp46
 70
     0
102
RTVSPost2010Prop47
 90
       50
102
RTVSPost2010PropOp47
 70
     0
102
RTVSPost2010Prop48
 90
       50
102
RTVSPost2010PropOp48
 70
     0
102
RTVSPost2010Prop49
280
     0
102
RTVSPost2010PropOp49
 70
     0
102
RTVSPost2010Prop50
 90
       50
102
RTVSPost2010PropOp50
 70
     0
102
RTVSPost2010Prop51ColorIndex
 90
      256
102
RTVSPost2010Prop51ColorRGB
 90
-16777216
102
RTVSPost2010PropOp51
 70
     0
102
RTVSPost2010Prop52
140
1.0
102
RTVSPost2010PropOp52
 70
     0
102
RTVSPost2010Prop53
 90
        2
102
RTVSPost2010PropOp53
 70
     0
102
RTVSPost2010Prop54
  1
strokes_ogs.tif
102
RTVSPost2010PropOp54
 70
     0
102
RTVSPost2010Prop55
280
     0
102
RTVSPost2010PropOp55
 70
     0
102
RTVSPost2010Prop56
140
1.0
102
RTVSPost2010PropOp56
 70
     0
102
RTVSPost2010Prop57
140
1.0
102
RTVSPost2010PropOp57
 70
     0
  0
XRECORD
  5
2DD
102
{ACAD_REACTORS
330
2DC
102
}
330
2DC
100
AcDbXrecord
280
     1
102
RTVSPropertyOp0
 70
     1
102
RTVSPropertyOp1
 70
     1
102
RTVSPropertyOp2
 70
     1
102
RTVSPropertyOp3
 70
     1
102
RTVSPropertyOp4
 70
     1
102
RTVSPropertyOp5
 70
     1
102
RTVSPropertyOp6
 70
     1
102
RTVSPropertyOp7
 70
     1
102
RTVSPropertyOp8
 70
     1
102
RTVSPropertyOp9
 70
     1
102
RTVSPropertyOp10
 70
     1
102
RTVSPropertyOp11
 70
     1
102
RTVSPropertyOp12
 70
     1
102
RTVSPropertyOp13
 70
     1
102
RTVSPropertyOp14
 70
     1
102
RTVSPropertyOp15
 70
     1
102
RTVSPropertyOp16
 70
     1
102
RTVSPropertyOp17
 70
     1
102
RTVSPropertyOp18
 70
     1
102
RTVSPropertyOp19
 70
     1
102
RTVSPropertyOp20
 70
     1
102
RTVSPropertyOp21
 70
     1
102
RTVSPropertyOp22
 70
     1
102
RTVSPropertyOp23
 70
     1
102
RTVSPropertyOp24
 70
     1
102
RTVSPropertyOp25
 70
     1
102
RTVSPropertyOp26
 70
     1
102
RTVSPropertyOp27
 70
     1
102
RTVSPropertyOp28
 70
     1
102
RTVSPropertyOp29
 70
     1
102
RTVSPropertyOp30
 70
     1
102
RTVSPropertyOp31
 70
     1
102
RTVSPropertyOp32
 70
     1
102
RTVSPropertyOp33
 70
     1
102
RTVSPropertyOp34
 70
     1
102
RTVSPropertyOp35
 70
     1
102
RTVSPropertyOp36
 70
     1
102
RTVSPropertyOp37
 70
     1
102
RTVSPropertyOp38
 70
     1
102
RTVSPropertyOp39
 70
     1
102
RTVSPropertyOp40
 70
     1
102
RTVSPropertyOp41
 70
     1
102
RTVSPropertyOp42
 70
     1
102
RTVSPropertyOp43
 70
     1
102
RTVSPropertyOp44
 70
     1
102
RTVSPropertyOp45
 70
     1
102
RTVSPropertyOp46
 70
     1
102
RTVSPropertyOp47
 70
     1
102
RTVSPropertyOp48
 70
     1
102
RTVSPropertyOp49
 70
     1
102
RTVSPropertyOp50
 70
     1
102
RTVSPropertyOp51
 70
     0
102
RTVSPropertyOp52
 70
     0
102
RTVSPropertyOp53
 70
     1
102
RTVSPropertyOp54
 70
     1
102
RTVSPropertyOp55
 70
     1
102
RTVSPropertyOp56
 70
     1
102
RTVSPropertyOp57
 70
     1
102
RTVSPost2010Prop28
280
     0
102
RTVSPost2010PropOp28
 70
     1
102
RTVSPost2010Prop29
280
     1
102
RTVSPost2010PropOp29
 70
     1
102
RTVSPost2010Prop30
280
     1
102
RTVSPost2010PropOp30
 70
     1
102
RTVSPost2010Prop31
280
     0
102
RTVSPost2010PropOp31
 70
     1
102
RTVSPost2010Prop32
280
     0
102
RTVSPost2010PropOp32
 70
     1
102
RTVSPost2010Prop33
280
     0
102
RTVSPost2010PropOp33
 70
     1
102
RTVSPost2010Prop34
280
     0
102
RTVSPost2010PropOp34
 70
     1
102
RTVSPost2010Prop35
280
     0
102
RTVSPost2010PropOp35
 70
     1
102
RTVSPost2010Prop36
280
     0
102
RTVSPost2010PropOp36
 70
     1
102
RTVSPost2010Prop37
 90
       50
102
RTVSPost2010PropOp37
 70
     1
102
RTVSPost2010Prop38
140
0.0
102
RTVSPost2010PropOp38
 70
     1
102
RTVSPost2010Prop39
140
1.0
102
RTVSPost2010PropOp39
 70
     1
102
RTVSPost2010Prop40
 90
        0
102
RTVSPost2010PropOp40
 70
     1
102
RTVSPost2010Prop41ColorIndex
 90
       18
102
RTVSPost2010Prop41ColorRGB
 90
        0
102
RTVSPost2010PropOp41
 70
     1
102
RTVSPost2010Prop42
 90
       50
102
RTVSPost2010PropOp42
 70
     1
102
RTVSPost2010Prop43
 90
        3
102
RTVSPost2010PropOp43
 70
     1
102
RTVSPost2010Prop44ColorIndex
 90
        5
102
RTVSPost2010Prop44ColorRGB
 90
      255
102
RTVSPost2010PropOp44
 70
     1
102
RTVSPost2010Prop45
280
     0
102
RTVSPost2010PropOp45
 70
     1
102
RTVSPost2010Prop46
 90
       50
102
RTVSPost2010PropOp46
 70
     1
102
RTVSPost2010Prop47
 90
       50
102
RTVSPost2010PropOp47
 70
     1
102
RTVSPost2010Prop48
 90
       50
102
RTVSPost2010PropOp48
 70
     1
102
RTVSPost2010Prop49
280
     0
102
RTVSPost2010PropOp49
 70
     1
102
RTVSPost2010Prop50
 90
       50
102
RTVSPost2010PropOp50
 70
     1
102
RTVSPost2010Prop51ColorIndex
 90
      256
102
RTVSPost2010Prop51ColorRGB
 90
-16777216
102
RTVSPost2010PropOp51
 70
     0
102
RTVSPost2010Prop52
140
1.0
102
RTVSPost2010PropOp52
 70
     0
102
RTVSPost2010Prop53
 90
        2
102
RTVSPost2010PropOp53
 70
     1
102
RTVSPost2010Prop54
  1
strokes_ogs.tif
102
RTVSPost2010PropOp54
 70
     1
102
RTVSPost2010Prop55
280
     0
102
RTVSPost2010PropOp55
 70
     1
102
RTVSPost2010Prop56
140
1.0
102
RTVSPost2010PropOp56
 70
     1
102
RTVSPost2010Prop57
140
1.0
102
RTVSPost2010PropOp57
 70
     1
  0
XRECORD
  5
2FB
102
{ACAD_REACTORS
330
2FA
102
}
330
2FA
100
AcDbXrecord
280
     1
102
RTVSPropertyOp0
 70
     1
102
RTVSPropertyOp1
 70
     1
102
RTVSPropertyOp2
 70
     1
102
RTVSPropertyOp3
 70
     1
102
RTVSPropertyOp4
 70
     1
102
RTVSPropertyOp5
 70
     1
102
RTVSPropertyOp6
 70
     1
102
RTVSPropertyOp7
 70
     1
102
RTVSPropertyOp8
 70
     1
102
RTVSPropertyOp9
 70
     1
102
RTVSPropertyOp10
 70
     1
102
RTVSPropertyOp11
 70
     1
102
RTVSPropertyOp12
 70
     1
102
RTVSPropertyOp13
 70
     1
102
RTVSPropertyOp14
 70
     1
102
RTVSPropertyOp15
 70
     1
102
RTVSPropertyOp16
 70
     1
102
RTVSPropertyOp17
 70
     1
102
RTVSPropertyOp18
 70
     1
102
RTVSPropertyOp19
 70
     1
102
RTVSPropertyOp20
 70
     1
102
RTVSPropertyOp21
 70
     1
102
RTVSPropertyOp22
 70
     1
102
RTVSPropertyOp23
 70
     1
102
RTVSPropertyOp24
 70
     1
102
RTVSPropertyOp25
 70
     1
102
RTVSPropertyOp26
 70
     1
102
RTVSPropertyOp27
 70
     1
102
RTVSPropertyOp28
 70
     1
102
RTVSPropertyOp29
 70
     1
102
RTVSPropertyOp30
 70
     1
102
RTVSPropertyOp31
 70
     1
102
RTVSPropertyOp32
 70
     1
102
RTVSPropertyOp33
 70
     1
102
RTVSPropertyOp34
 70
     1
102
RTVSPropertyOp35
 70
     1
102
RTVSPropertyOp36
 70
     1
102
RTVSPropertyOp37
 70
     1
102
RTVSPropertyOp38
 70
     1
102
RTVSPropertyOp39
 70
     1
102
RTVSPropertyOp40
 70
     1
102
RTVSPropertyOp41
 70
     1
102
RTVSPropertyOp42
 70
     1
102
RTVSPropertyOp43
 70
     1
102
RTVSPropertyOp44
 70
     1
102
RTVSPropertyOp45
 70
     1
102
RTVSPropertyOp46
 70
     1
102
RTVSPropertyOp47
 70
     1
102
RTVSPropertyOp48
 70
     1
102
RTVSPropertyOp49
 70
     1
102
RTVSPropertyOp50
 70
     1
102
RTVSPropertyOp51
 70
     0
102
RTVSPropertyOp52
 70
     0
102
RTVSPropertyOp53
 70
     1
102
RTVSPropertyOp54
 70
     1
102
RTVSPropertyOp55
 70
     1
102
RTVSPropertyOp56
 70
     1
102
RTVSPropertyOp57
 70
     1
102
RTVSPost2010Prop28
280
     0
102
RTVSPost2010PropOp28
 70
     1
102
RTVSPost2010Prop29
280
     1
102
RTVSPost2010PropOp29
 70
     1
102
RTVSPost2010Prop30
280
     1
102
RTVSPost2010PropOp30
 70
     1
102
RTVSPost2010Prop31
280
     0
102
RTVSPost2010PropOp31
 70
     1
102
RTVSPost2010Prop32
280
     0
102
RTVSPost2010PropOp32
 70
     1
102
RTVSPost2010Prop33
280
     0
102
RTVSPost2010PropOp33
 70
     1
102
RTVSPost2010Prop34
280
     0
102
RTVSPost2010PropOp34
 70
     1
102
RTVSPost2010Prop35
280
     0
102
RTVSPost2010PropOp35
 70
     1
102
RTVSPost2010Prop36
280
     0
102
RTVSPost2010PropOp36
 70
     1
102
RTVSPost2010Prop37
 90
       50
102
RTVSPost2010PropOp37
 70
     1
102
RTVSPost2010Prop38
140
0.0
102
RTVSPost2010PropOp38
 70
     1
102
RTVSPost2010Prop39
140
1.0
102
RTVSPost2010PropOp39
 70
     1
102
RTVSPost2010Prop40
 90
        0
102
RTVSPost2010PropOp40
 70
     1
102
RTVSPost2010Prop41ColorIndex
 90
       18
102
RTVSPost2010Prop41ColorRGB
 90
        0
102
RTVSPost2010PropOp41
 70
     1
102
RTVSPost2010Prop42
 90
       50
102
RTVSPost2010PropOp42
 70
     1
102
RTVSPost2010Prop43
 90
        3
102
RTVSPost2010PropOp43
 70
     1
102
RTVSPost2010Prop44ColorIndex
 90
        5
102
RTVSPost2010Prop44ColorRGB
 90
      255
102
RTVSPost2010PropOp44
 70
     1
102
RTVSPost2010Prop45
280
     0
102
RTVSPost2010PropOp45
 70
     1
102
RTVSPost2010Prop46
 90
       50
102
RTVSPost2010PropOp46
 70
     1
102
RTVSPost2010Prop47
 90
       50
102
RTVSPost2010PropOp47
 70
     1
102
RTVSPost2010Prop48
 90
       50
102
RTVSPost2010PropOp48
 70
     1
102
RTVSPost2010Prop49
280
     0
102
RTVSPost2010PropOp49
 70
     1
102
RTVSPost2010Prop50
 90
       50
102
RTVSPost2010PropOp50
 70
     1
102
RTVSPost2010Prop51ColorIndex
 90
      256
102
RTVSPost2010Prop51ColorRGB
 90
-16777216
102
RTVSPost2010PropOp51
 70
     0
102
RTVSPost2010Prop52
140
1.0
102
RTVSPost2010PropOp52
 70
     0
102
RTVSPost2010Prop53
 90
        2
102
RTVSPost2010PropOp53
 70
     1
102
RTVSPost2010Prop54
  1
strokes_ogs.tif
102
RTVSPost2010PropOp54
 70
     1
102
RTVSPost2010Prop55
280
     0
102
RTVSPost2010PropOp55
 70
     1
102
RTVSPost2010Prop56
140
1.0
102
RTVSPost2010PropOp56
 70
     1
102
RTVSPost2010Prop57
140
1.0
102
RTVSPost2010PropOp57
 70
     1
  0
XRECORD
  5
2F9
102
{ACAD_REACTORS
330
2F8
102
}
330
2F8
100
AcDbXrecord
280
     1
102
RTVSPropertyOp0
 70
     1
102
RTVSPropertyOp1
 70
     1
102
RTVSPropertyOp2
 70
     1
102
RTVSPropertyOp3
 70
     1
102
RTVSPropertyOp4
 70
     1
102
RTVSPropertyOp5
 70
     1
102
RTVSPropertyOp6
 70
     1
102
RTVSPropertyOp7
 70
     1
102
RTVSPropertyOp8
 70
     1
102
RTVSPropertyOp9
 70
     1
102
RTVSPropertyOp10
 70
     1
102
RTVSPropertyOp11
 70
     1
102
RTVSPropertyOp12
 70
     1
102
RTVSPropertyOp13
 70
     1
102
RTVSPropertyOp14
 70
     1
102
RTVSPropertyOp15
 70
     1
102
RTVSPropertyOp16
 70
     1
102
RTVSPropertyOp17
 70
     1
102
RTVSPropertyOp18
 70
     1
102
RTVSPropertyOp19
 70
     1
102
RTVSPropertyOp20
 70
     1
102
RTVSPropertyOp21
 70
     1
102
RTVSPropertyOp22
 70
     1
102
RTVSPropertyOp23
 70
     1
102
RTVSPropertyOp24
 70
     1
102
RTVSPropertyOp25
 70
     1
102
RTVSPropertyOp26
 70
     1
102
RTVSPropertyOp27
 70
     1
102
RTVSPropertyOp28
 70
     1
102
RTVSPropertyOp29
 70
     1
102
RTVSPropertyOp30
 70
     1
102
RTVSPropertyOp31
 70
     1
102
RTVSPropertyOp32
 70
     1
102
RTVSPropertyOp33
 70
     1
102
RTVSPropertyOp34
 70
     1
102
RTVSPropertyOp35
 70
     1
102
RTVSPropertyOp36
 70
     1
102
RTVSPropertyOp37
 70
     1
102
RTVSPropertyOp38
 70
     1
102
RTVSPropertyOp39
 70
     1
102
RTVSPropertyOp40
 70
     1
102
RTVSPropertyOp41
 70
     1
102
RTVSPropertyOp42
 70
     1
102
RTVSPropertyOp43
 70
     1
102
RTVSPropertyOp44
 70
     1
102
RTVSPropertyOp45
 70
     1
102
RTVSPropertyOp46
 70
     1
102
RTVSPropertyOp47
 70
     1
102
RTVSPropertyOp48
 70
     1
102
RTVSPropertyOp49
 70
     1
102
RTVSPropertyOp50
 70
     1
102
RTVSPropertyOp51
 70
     0
102
RTVSPropertyOp52
 70
     0
102
RTVSPropertyOp53
 70
     1
102
RTVSPropertyOp54
 70
     1
102
RTVSPropertyOp55
 70
     1
102
RTVSPropertyOp56
 70
     1
102
RTVSPropertyOp57
 70
     1
102
RTVSPost2010Prop28
280
     0
102
RTVSPost2010PropOp28
 70
     1
102
RTVSPost2010Prop29
280
     1
102
RTVSPost2010PropOp29
 70
     1
102
RTVSPost2010Prop30
280
     1
102
RTVSPost2010PropOp30
 70
     1
102
RTVSPost2010Prop31
280
     0
102
RTVSPost2010PropOp31
 70
     1
102
RTVSPost2010Prop32
280
     0
102
RTVSPost2010PropOp32
 70
     1
102
RTVSPost2010Prop33
280
     0
102
RTVSPost2010PropOp33
 70
     1
102
RTVSPost2010Prop34
280
     0
102
RTVSPost2010PropOp34
 70
     1
102
RTVSPost2010Prop35
280
     0
102
RTVSPost2010PropOp35
 70
     1
102
RTVSPost2010Prop36
280
     0
102
RTVSPost2010PropOp36
 70
     1
102
RTVSPost2010Prop37
 90
       50
102
RTVSPost2010PropOp37
 70
     1
102
RTVSPost2010Prop38
140
0.0
102
RTVSPost2010PropOp38
 70
     1
102
RTVSPost2010Prop39
140
1.0
102
RTVSPost2010PropOp39
 70
     1
102
RTVSPost2010Prop40
 90
        0
102
RTVSPost2010PropOp40
 70
     1
102
RTVSPost2010Prop41ColorIndex
 90
       18
102
RTVSPost2010Prop41ColorRGB
 90
        0
102
RTVSPost2010PropOp41
 70
     1
102
RTVSPost2010Prop42
 90
       50
102
RTVSPost2010PropOp42
 70
     1
102
RTVSPost2010Prop43
 90
        3
102
RTVSPost2010PropOp43
 70
     1
102
RTVSPost2010Prop44ColorIndex
 90
        5
102
RTVSPost2010Prop44ColorRGB
 90
      255
102
RTVSPost2010PropOp44
 70
     1
102
RTVSPost2010Prop45
280
     0
102
RTVSPost2010PropOp45
 70
     1
102
RTVSPost2010Prop46
 90
       50
102
RTVSPost2010PropOp46
 70
     1
102
RTVSPost2010Prop47
 90
       50
102
RTVSPost2010PropOp47
 70
     1
102
RTVSPost2010Prop48
 90
       50
102
RTVSPost2010PropOp48
 70
     1
102
RTVSPost2010Prop49
280
     0
102
RTVSPost2010PropOp49
 70
     1
102
RTVSPost2010Prop50
 90
       50
102
RTVSPost2010PropOp50
 70
     1
102
RTVSPost2010Prop51ColorIndex
 90
      256
102
RTVSPost2010Prop51ColorRGB
 90
-16777216
102
RTVSPost2010PropOp51
 70
     0
102
RTVSPost2010Prop52
140
1.0
102
RTVSPost2010PropOp52
 70
     0
102
RTVSPost2010Prop53
 90
        2
102
RTVSPost2010PropOp53
 70
     1
102
RTVSPost2010Prop54
  1
strokes_ogs.tif
102
RTVSPost2010PropOp54
 70
     1
102
RTVSPost2010Prop55
280
     0
102
RTVSPost2010PropOp55
 70
     1
102
RTVSPost2010Prop56
140
1.0
102
RTVSPost2010PropOp56
 70
     1
102
RTVSPost2010Prop57
140
1.0
102
RTVSPost2010PropOp57
 70
     1
  0
XRECORD
  5
2F3
102
{ACAD_REACTORS
330
2F2
102
}
330
2F2
100
AcDbXrecord
280
     1
102
RTVSPropertyOp0
 70
     1
102
RTVSPropertyOp1
 70
     1
102
RTVSPropertyOp2
 70
     1
102
RTVSPropertyOp3
 70
     1
102
RTVSPropertyOp4
 70
     1
102
RTVSPropertyOp5
 70
     1
102
RTVSPropertyOp6
 70
     1
102
RTVSPropertyOp7
 70
     1
102
RTVSPropertyOp8
 70
     1
102
RTVSPropertyOp9
 70
     1
102
RTVSPropertyOp10
 70
     1
102
RTVSPropertyOp11
 70
     1
102
RTVSPropertyOp12
 70
     1
102
RTVSPropertyOp13
 70
     1
102
RTVSPropertyOp14
 70
     1
102
RTVSPropertyOp15
 70
     1
102
RTVSPropertyOp16
 70
     1
102
RTVSPropertyOp17
 70
     1
102
RTVSPropertyOp18
 70
     1
102
RTVSPropertyOp19
 70
     1
102
RTVSPropertyOp20
 70
     1
102
RTVSPropertyOp21
 70
     1
102
RTVSPropertyOp22
 70
     1
102
RTVSPropertyOp23
 70
     1
102
RTVSPropertyOp24
 70
     1
102
RTVSPropertyOp25
 70
     1
102
RTVSPropertyOp26
 70
     1
102
RTVSPropertyOp27
 70
     1
102
RTVSPropertyOp28
 70
     1
102
RTVSPropertyOp29
 70
     1
102
RTVSPropertyOp30
 70
     1
102
RTVSPropertyOp31
 70
     1
102
RTVSPropertyOp32
 70
     1
102
RTVSPropertyOp33
 70
     1
102
RTVSPropertyOp34
 70
     1
102
RTVSPropertyOp35
 70
     1
102
RTVSPropertyOp36
 70
     1
102
RTVSPropertyOp37
 70
     1
102
RTVSPropertyOp38
 70
     1
102
RTVSPropertyOp39
 70
     1
102
RTVSPropertyOp40
 70
     1
102
RTVSPropertyOp41
 70
     1
102
RTVSPropertyOp42
 70
     1
102
RTVSPropertyOp43
 70
     1
102
RTVSPropertyOp44
 70
     1
102
RTVSPropertyOp45
 70
     1
102
RTVSPropertyOp46
 70
     1
102
RTVSPropertyOp47
 70
     1
102
RTVSPropertyOp48
 70
     1
102
RTVSPropertyOp49
 70
     1
102
RTVSPropertyOp50
 70
     1
102
RTVSPropertyOp51
 70
     0
102
RTVSPropertyOp52
 70
     0
102
RTVSPropertyOp53
 70
     1
102
RTVSPropertyOp54
 70
     1
102
RTVSPropertyOp55
 70
     1
102
RTVSPropertyOp56
 70
     1
102
RTVSPropertyOp57
 70
     1
102
RTVSPost2010Prop28
280
     0
102
RTVSPost2010PropOp28
 70
     1
102
RTVSPost2010Prop29
280
     1
102
RTVSPost2010PropOp29
 70
     1
102
RTVSPost2010Prop30
280
     1
102
RTVSPost2010PropOp30
 70
     1
102
RTVSPost2010Prop31
280
     0
102
RTVSPost2010PropOp31
 70
     1
102
RTVSPost2010Prop32
280
     0
102
RTVSPost2010PropOp32
 70
     1
102
RTVSPost2010Prop33
280
     0
102
RTVSPost2010PropOp33
 70
     1
102
RTVSPost2010Prop34
280
     0
102
RTVSPost2010PropOp34
 70
     1
102
RTVSPost2010Prop35
280
     0
102
RTVSPost2010PropOp35
 70
     1
102
RTVSPost2010Prop36
280
     0
102
RTVSPost2010PropOp36
 70
     1
102
RTVSPost2010Prop37
 90
       50
102
RTVSPost2010PropOp37
 70
     1
102
RTVSPost2010Prop38
140
0.0
102
RTVSPost2010PropOp38
 70
     1
102
RTVSPost2010Prop39
140
1.0
102
RTVSPost2010PropOp39
 70
     1
102
RTVSPost2010Prop40
 90
        0
102
RTVSPost2010PropOp40
 70
     1
102
RTVSPost2010Prop41ColorIndex
 90
       18
102
RTVSPost2010Prop41ColorRGB
 90
        0
102
RTVSPost2010PropOp41
 70
     1
102
RTVSPost2010Prop42
 90
       50
102
RTVSPost2010PropOp42
 70
     1
102
RTVSPost2010Prop43
 90
        3
102
RTVSPost2010PropOp43
 70
     1
102
RTVSPost2010Prop44ColorIndex
 90
        5
102
RTVSPost2010Prop44ColorRGB
 90
      255
102
RTVSPost2010PropOp44
 70
     1
102
RTVSPost2010Prop45
280
     0
102
RTVSPost2010PropOp45
 70
     1
102
RTVSPost2010Prop46
 90
       50
102
RTVSPost2010PropOp46
 70
     1
102
RTVSPost2010Prop47
 90
       50
102
RTVSPost2010PropOp47
 70
     1
102
RTVSPost2010Prop48
 90
       50
102
RTVSPost2010PropOp48
 70
     1
102
RTVSPost2010Prop49
280
     0
102
RTVSPost2010PropOp49
 70
     1
102
RTVSPost2010Prop50
 90
       50
102
RTVSPost2010PropOp50
 70
     1
102
RTVSPost2010Prop51ColorIndex
 90
      256
102
RTVSPost2010Prop51ColorRGB
 90
-16777216
102
RTVSPost2010PropOp51
 70
     0
102
RTVSPost2010Prop52
140
1.0
102
RTVSPost2010PropOp52
 70
     0
102
RTVSPost2010Prop53
 90
        2
102
RTVSPost2010PropOp53
 70
     1
102
RTVSPost2010Prop54
  1
strokes_ogs.tif
102
RTVSPost2010PropOp54
 70
     1
102
RTVSPost2010Prop55
280
     0
102
RTVSPost2010PropOp55
 70
     1
102
RTVSPost2010Prop56
140
1.0
102
RTVSPost2010PropOp56
 70
     1
102
RTVSPost2010Prop57
140
1.0
102
RTVSPost2010PropOp57
 70
     1
  0
XRECORD
  5
2F5
102
{ACAD_REACTORS
330
2F4
102
}
330
2F4
100
AcDbXrecord
280
     1
102
RTVSPropertyOp0
 70
     1
102
RTVSPropertyOp1
 70
     1
102
RTVSPropertyOp2
 70
     1
102
RTVSPropertyOp3
 70
     1
102
RTVSPropertyOp4
 70
     1
102
RTVSPropertyOp5
 70
     1
102
RTVSPropertyOp6
 70
     1
102
RTVSPropertyOp7
 70
     1
102
RTVSPropertyOp8
 70
     1
102
RTVSPropertyOp9
 70
     1
102
RTVSPropertyOp10
 70
     1
102
RTVSPropertyOp11
 70
     1
102
RTVSPropertyOp12
 70
     1
102
RTVSPropertyOp13
 70
     1
102
RTVSPropertyOp14
 70
     1
102
RTVSPropertyOp15
 70
     1
102
RTVSPropertyOp16
 70
     1
102
RTVSPropertyOp17
 70
     1
102
RTVSPropertyOp18
 70
     1
102
RTVSPropertyOp19
 70
     1
102
RTVSPropertyOp20
 70
     1
102
RTVSPropertyOp21
 70
     1
102
RTVSPropertyOp22
 70
     1
102
RTVSPropertyOp23
 70
     1
102
RTVSPropertyOp24
 70
     1
102
RTVSPropertyOp25
 70
     1
102
RTVSPropertyOp26
 70
     1
102
RTVSPropertyOp27
 70
     1
102
RTVSPropertyOp28
 70
     1
102
RTVSPropertyOp29
 70
     1
102
RTVSPropertyOp30
 70
     1
102
RTVSPropertyOp31
 70
     1
102
RTVSPropertyOp32
 70
     1
102
RTVSPropertyOp33
 70
     1
102
RTVSPropertyOp34
 70
     1
102
RTVSPropertyOp35
 70
     1
102
RTVSPropertyOp36
 70
     1
102
RTVSPropertyOp37
 70
     1
102
RTVSPropertyOp38
 70
     1
102
RTVSPropertyOp39
 70
     1
102
RTVSPropertyOp40
 70
     1
102
RTVSPropertyOp41
 70
     1
102
RTVSPropertyOp42
 70
     1
102
RTVSPropertyOp43
 70
     1
102
RTVSPropertyOp44
 70
     1
102
RTVSPropertyOp45
 70
     1
102
RTVSPropertyOp46
 70
     1
102
RTVSPropertyOp47
 70
     1
102
RTVSPropertyOp48
 70
     1
102
RTVSPropertyOp49
 70
     1
102
RTVSPropertyOp50
 70
     1
102
RTVSPropertyOp51
 70
     0
102
RTVSPropertyOp52
 70
     0
102
RTVSPropertyOp53
 70
     1
102
RTVSPropertyOp54
 70
     1
102
RTVSPropertyOp55
 70
     1
102
RTVSPropertyOp56
 70
     1
102
RTVSPropertyOp57
 70
     1
102
RTVSPost2010Prop28
280
     0
102
RTVSPost2010PropOp28
 70
     1
102
RTVSPost2010Prop29
280
     1
102
RTVSPost2010PropOp29
 70
     1
102
RTVSPost2010Prop30
280
     1
102
RTVSPost2010PropOp30
 70
     1
102
RTVSPost2010Prop31
280
     0
102
RTVSPost2010PropOp31
 70
     1
102
RTVSPost2010Prop32
280
     0
102
RTVSPost2010PropOp32
 70
     1
102
RTVSPost2010Prop33
280
     0
102
RTVSPost2010PropOp33
 70
     1
102
RTVSPost2010Prop34
280
     0
102
RTVSPost2010PropOp34
 70
     1
102
RTVSPost2010Prop35
280
     0
102
RTVSPost2010PropOp35
 70
     1
102
RTVSPost2010Prop36
280
     0
102
RTVSPost2010PropOp36
 70
     1
102
RTVSPost2010Prop37
 90
       50
102
RTVSPost2010PropOp37
 70
     1
102
RTVSPost2010Prop38
140
0.0
102
RTVSPost2010PropOp38
 70
     1
102
RTVSPost2010Prop39
140
1.0
102
RTVSPost2010PropOp39
 70
     1
102
RTVSPost2010Prop40
 90
        0
102
RTVSPost2010PropOp40
 70
     1
102
RTVSPost2010Prop41ColorIndex
 90
       18
102
RTVSPost2010Prop41ColorRGB
 90
        0
102
RTVSPost2010PropOp41
 70
     1
102
RTVSPost2010Prop42
 90
       50
102
RTVSPost2010PropOp42
 70
     1
102
RTVSPost2010Prop43
 90
        3
102
RTVSPost2010PropOp43
 70
     1
102
RTVSPost2010Prop44ColorIndex
 90
        5
102
RTVSPost2010Prop44ColorRGB
 90
      255
102
RTVSPost2010PropOp44
 70
     1
102
RTVSPost2010Prop45
280
     0
102
RTVSPost2010PropOp45
 70
     1
102
RTVSPost2010Prop46
 90
       50
102
RTVSPost2010PropOp46
 70
     1
102
RTVSPost2010Prop47
 90
       50
102
RTVSPost2010PropOp47
 70
     1
102
RTVSPost2010Prop48
 90
       50
102
RTVSPost2010PropOp48
 70
     1
102
RTVSPost2010Prop49
280
     0
102
RTVSPost2010PropOp49
 70
     1
102
RTVSPost2010Prop50
 90
       50
102
RTVSPost2010PropOp50
 70
     1
102
RTVSPost2010Prop51ColorIndex
 90
      256
102
RTVSPost2010Prop51ColorRGB
 90
-16777216
102
RTVSPost2010PropOp51
 70
     0
102
RTVSPost2010Prop52
140
1.0
102
RTVSPost2010PropOp52
 70
     0
102
RTVSPost2010Prop53
 90
        2
102
RTVSPost2010PropOp53
 70
     1
102
RTVSPost2010Prop54
  1
strokes_ogs.tif
102
RTVSPost2010PropOp54
 70
     1
102
RTVSPost2010Prop55
280
     0
102
RTVSPost2010PropOp55
 70
     1
102
RTVSPost2010Prop56
140
1.0
102
RTVSPost2010PropOp56
 70
     1
102
RTVSPost2010Prop57
140
1.0
102
RTVSPost2010PropOp57
 70
     1
  0
XRECORD
  5
2E5
102
{ACAD_REACTORS
330
2E4
102
}
330
2E4
100
AcDbXrecord
280
     1
102
RTVSPropertyOp0
 70
     1
102
RTVSPropertyOp1
 70
     1
102
RTVSPropertyOp2
 70
     1
102
RTVSPropertyOp3
 70
     1
102
RTVSPropertyOp4
 70
     1
102
RTVSPropertyOp5
 70
     1
102
RTVSPropertyOp6
 70
     1
102
RTVSPropertyOp7
 70
     1
102
RTVSPropertyOp8
 70
     1
102
RTVSPropertyOp9
 70
     1
102
RTVSPropertyOp10
 70
     1
102
RTVSPropertyOp11
 70
     1
102
RTVSPropertyOp12
 70
     1
102
RTVSPropertyOp13
 70
     1
102
RTVSPropertyOp14
 70
     1
102
RTVSPropertyOp15
 70
     1
102
RTVSPropertyOp16
 70
     1
102
RTVSPropertyOp17
 70
     1
102
RTVSPropertyOp18
 70
     1
102
RTVSPropertyOp19
 70
     1
102
RTVSPropertyOp20
 70
     1
102
RTVSPropertyOp21
 70
     1
102
RTVSPropertyOp22
 70
     1
102
RTVSPropertyOp23
 70
     1
102
RTVSPropertyOp24
 70
     1
102
RTVSPropertyOp25
 70
     1
102
RTVSPropertyOp26
 70
     1
102
RTVSPropertyOp27
 70
     1
102
RTVSPropertyOp28
 70
     1
102
RTVSPropertyOp29
 70
     1
102
RTVSPropertyOp30
 70
     1
102
RTVSPropertyOp31
 70
     1
102
RTVSPropertyOp32
 70
     1
102
RTVSPropertyOp33
 70
     1
102
RTVSPropertyOp34
 70
     1
102
RTVSPropertyOp35
 70
     1
102
RTVSPropertyOp36
 70
     1
102
RTVSPropertyOp37
 70
     1
102
RTVSPropertyOp38
 70
     1
102
RTVSPropertyOp39
 70
     1
102
RTVSPropertyOp40
 70
     1
102
RTVSPropertyOp41
 70
     1
102
RTVSPropertyOp42
 70
     1
102
RTVSPropertyOp43
 70
     1
102
RTVSPropertyOp44
 70
     1
102
RTVSPropertyOp45
 70
     1
102
RTVSPropertyOp46
 70
     1
102
RTVSPropertyOp47
 70
     1
102
RTVSPropertyOp48
 70
     1
102
RTVSPropertyOp49
 70
     1
102
RTVSPropertyOp50
 70
     1
102
RTVSPropertyOp51
 70
     0
102
RTVSPropertyOp52
 70
     0
102
RTVSPropertyOp53
 70
     1
102
RTVSPropertyOp54
 70
     1
102
RTVSPropertyOp55
 70
     1
102
RTVSPropertyOp56
 70
     1
102
RTVSPropertyOp57
 70
     1
102
RTVSPost2010Prop28
280
     0
102
RTVSPost2010PropOp28
 70
     1
102
RTVSPost2010Prop29
280
     1
102
RTVSPost2010PropOp29
 70
     1
102
RTVSPost2010Prop30
280
     1
102
RTVSPost2010PropOp30
 70
     1
102
RTVSPost2010Prop31
280
     0
102
RTVSPost2010PropOp31
 70
     1
102
RTVSPost2010Prop32
280
     0
102
RTVSPost2010PropOp32
 70
     1
102
RTVSPost2010Prop33
280
     0
102
RTVSPost2010PropOp33
 70
     1
102
RTVSPost2010Prop34
280
     0
102
RTVSPost2010PropOp34
 70
     1
102
RTVSPost2010Prop35
280
     0
102
RTVSPost2010PropOp35
 70
     1
102
RTVSPost2010Prop36
280
     0
102
RTVSPost2010PropOp36
 70
     1
102
RTVSPost2010Prop37
 90
       50
102
RTVSPost2010PropOp37
 70
     1
102
RTVSPost2010Prop38
140
0.0
102
RTVSPost2010PropOp38
 70
     1
102
RTVSPost2010Prop39
140
1.0
102
RTVSPost2010PropOp39
 70
     1
102
RTVSPost2010Prop40
 90
        0
102
RTVSPost2010PropOp40
 70
     1
102
RTVSPost2010Prop41ColorIndex
 90
       18
102
RTVSPost2010Prop41ColorRGB
 90
        0
102
RTVSPost2010PropOp41
 70
     1
102
RTVSPost2010Prop42
 90
       50
102
RTVSPost2010PropOp42
 70
     1
102
RTVSPost2010Prop43
 90
        3
102
RTVSPost2010PropOp43
 70
     1
102
RTVSPost2010Prop44ColorIndex
 90
        5
102
RTVSPost2010Prop44ColorRGB
 90
      255
102
RTVSPost2010PropOp44
 70
     1
102
RTVSPost2010Prop45
280
     0
102
RTVSPost2010PropOp45
 70
     1
102
RTVSPost2010Prop46
 90
       50
102
RTVSPost2010PropOp46
 70
     1
102
RTVSPost2010Prop47
 90
       50
102
RTVSPost2010PropOp47
 70
     1
102
RTVSPost2010Prop48
 90
       50
102
RTVSPost2010PropOp48
 70
     1
102
RTVSPost2010Prop49
280
     0
102
RTVSPost2010PropOp49
 70
     1
102
RTVSPost2010Prop50
 90
       50
102
RTVSPost2010PropOp50
 70
     1
102
RTVSPost2010Prop51ColorIndex
 90
      256
102
RTVSPost2010Prop51ColorRGB
 90
-16777216
102
RTVSPost2010PropOp51
 70
     0
102
RTVSPost2010Prop52
140
1.0
102
RTVSPost2010PropOp52
 70
     0
102
RTVSPost2010Prop53
 90
        2
102
RTVSPost2010PropOp53
 70
     1
102
RTVSPost2010Prop54
  1
strokes_ogs.tif
102
RTVSPost2010PropOp54
 70
     1
102
RTVSPost2010Prop55
280
     0
102
RTVSPost2010PropOp55
 70
     1
102
RTVSPost2010Prop56
140
1.0
102
RTVSPost2010PropOp56
 70
     1
102
RTVSPost2010Prop57
140
1.0
102
RTVSPost2010PropOp57
 70
     1
  0
XRECORD
  5
2D7
102
{ACAD_REACTORS
330
2D6
102
}
330
2D6
100
AcDbXrecord
280
     1
102
RTVSPropertyOp0
 70
     1
102
RTVSPropertyOp1
 70
     1
102
RTVSPropertyOp2
 70
     1
102
RTVSPropertyOp3
 70
     1
102
RTVSPropertyOp4
 70
     1
102
RTVSPropertyOp5
 70
     1
102
RTVSPropertyOp6
 70
     1
102
RTVSPropertyOp7
 70
     1
102
RTVSPropertyOp8
 70
     1
102
RTVSPropertyOp9
 70
     1
102
RTVSPropertyOp10
 70
     1
102
RTVSPropertyOp11
 70
     1
102
RTVSPropertyOp12
 70
     1
102
RTVSPropertyOp13
 70
     1
102
RTVSPropertyOp14
 70
     1
102
RTVSPropertyOp15
 70
     1
102
RTVSPropertyOp16
 70
     1
102
RTVSPropertyOp17
 70
     1
102
RTVSPropertyOp18
 70
     1
102
RTVSPropertyOp19
 70
     1
102
RTVSPropertyOp20
 70
     1
102
RTVSPropertyOp21
 70
     1
102
RTVSPropertyOp22
 70
     1
102
RTVSPropertyOp23
 70
     1
102
RTVSPropertyOp24
 70
     1
102
RTVSPropertyOp25
 70
     1
102
RTVSPropertyOp26
 70
     1
102
RTVSPropertyOp27
 70
     1
102
RTVSPropertyOp28
 70
     1
102
RTVSPropertyOp29
 70
     1
102
RTVSPropertyOp30
 70
     1
102
RTVSPropertyOp31
 70
     1
102
RTVSPropertyOp32
 70
     1
102
RTVSPropertyOp33
 70
     1
102
RTVSPropertyOp34
 70
     1
102
RTVSPropertyOp35
 70
     1
102
RTVSPropertyOp36
 70
     1
102
RTVSPropertyOp37
 70
     1
102
RTVSPropertyOp38
 70
     1
102
RTVSPropertyOp39
 70
     1
102
RTVSPropertyOp40
 70
     1
102
RTVSPropertyOp41
 70
     1
102
RTVSPropertyOp42
 70
     1
102
RTVSPropertyOp43
 70
     1
102
RTVSPropertyOp44
 70
     1
102
RTVSPropertyOp45
 70
     1
102
RTVSPropertyOp46
 70
     1
102
RTVSPropertyOp47
 70
     1
102
RTVSPropertyOp48
 70
     1
102
RTVSPropertyOp49
 70
     1
102
RTVSPropertyOp50
 70
     1
102
RTVSPropertyOp51
 70
     0
102
RTVSPropertyOp52
 70
     0
102
RTVSPropertyOp53
 70
     1
102
RTVSPropertyOp54
 70
     1
102
RTVSPropertyOp55
 70
     1
102
RTVSPropertyOp56
 70
     1
102
RTVSPropertyOp57
 70
     1
102
RTVSPost2010Prop28
280
     0
102
RTVSPost2010PropOp28
 70
     1
102
RTVSPost2010Prop29
280
     1
102
RTVSPost2010PropOp29
 70
     1
102
RTVSPost2010Prop30
280
     1
102
RTVSPost2010PropOp30
 70
     1
102
RTVSPost2010Prop31
280
     0
102
RTVSPost2010PropOp31
 70
     1
102
RTVSPost2010Prop32
280
     0
102
RTVSPost2010PropOp32
 70
     1
102
RTVSPost2010Prop33
280
     0
102
RTVSPost2010PropOp33
 70
     1
102
RTVSPost2010Prop34
280
     0
102
RTVSPost2010PropOp34
 70
     1
102
RTVSPost2010Prop35
280
     0
102
RTVSPost2010PropOp35
 70
     1
102
RTVSPost2010Prop36
280
     0
102
RTVSPost2010PropOp36
 70
     1
102
RTVSPost2010Prop37
 90
       50
102
RTVSPost2010PropOp37
 70
     1
102
RTVSPost2010Prop38
140
0.0
102
RTVSPost2010PropOp38
 70
     1
102
RTVSPost2010Prop39
140
1.0
102
RTVSPost2010PropOp39
 70
     1
102
RTVSPost2010Prop40
 90
        0
102
RTVSPost2010PropOp40
 70
     1
102
RTVSPost2010Prop41ColorIndex
 90
       18
102
RTVSPost2010Prop41ColorRGB
 90
        0
102
RTVSPost2010PropOp41
 70
     1
102
RTVSPost2010Prop42
 90
       50
102
RTVSPost2010PropOp42
 70
     1
102
RTVSPost2010Prop43
 90
        3
102
RTVSPost2010PropOp43
 70
     1
102
RTVSPost2010Prop44ColorIndex
 90
        5
102
RTVSPost2010Prop44ColorRGB
 90
      255
102
RTVSPost2010PropOp44
 70
     1
102
RTVSPost2010Prop45
280
     0
102
RTVSPost2010PropOp45
 70
     1
102
RTVSPost2010Prop46
 90
       50
102
RTVSPost2010PropOp46
 70
     1
102
RTVSPost2010Prop47
 90
       50
102
RTVSPost2010PropOp47
 70
     1
102
RTVSPost2010Prop48
 90
       50
102
RTVSPost2010PropOp48
 70
     1
102
RTVSPost2010Prop49
280
     0
102
RTVSPost2010PropOp49
 70
     1
102
RTVSPost2010Prop50
 90
       50
102
RTVSPost2010PropOp50
 70
     1
102
RTVSPost2010Prop51ColorIndex
 90
      256
102
RTVSPost2010Prop51ColorRGB
 90
-16777216
102
RTVSPost2010PropOp51
 70
     0
102
RTVSPost2010Prop52
140
1.0
102
RTVSPost2010PropOp52
 70
     0
102
RTVSPost2010Prop53
 90
        2
102
RTVSPost2010PropOp53
 70
     1
102
RTVSPost2010Prop54
  1
strokes_ogs.tif
102
RTVSPost2010PropOp54
 70
     1
102
RTVSPost2010Prop55
280
     0
102
RTVSPost2010PropOp55
 70
     1
102
RTVSPost2010Prop56
140
1.0
102
RTVSPost2010PropOp56
 70
     1
102
RTVSPost2010Prop57
140
1.0
102
RTVSPost2010PropOp57
 70
     1
  0
XRECORD
  5
2F7
102
{ACAD_REACTORS
330
2F6
102
}
330
2F6
100
AcDbXrecord
280
     1
102
RTVSPropertyOp0
 70
     1
102
RTVSPropertyOp1
 70
     1
102
RTVSPropertyOp2
 70
     1
102
RTVSPropertyOp3
 70
     1
102
RTVSPropertyOp4
 70
     1
102
RTVSPropertyOp5
 70
     1
102
RTVSPropertyOp6
 70
     1
102
RTVSPropertyOp7
 70
     1
102
RTVSPropertyOp8
 70
     1
102
RTVSPropertyOp9
 70
     1
102
RTVSPropertyOp10
 70
     1
102
RTVSPropertyOp11
 70
     1
102
RTVSPropertyOp12
 70
     1
102
RTVSPropertyOp13
 70
     1
102
RTVSPropertyOp14
 70
     1
102
RTVSPropertyOp15
 70
     1
102
RTVSPropertyOp16
 70
     1
102
RTVSPropertyOp17
 70
     1
102
RTVSPropertyOp18
 70
     1
102
RTVSPropertyOp19
 70
     1
102
RTVSPropertyOp20
 70
     1
102
RTVSPropertyOp21
 70
     1
102
RTVSPropertyOp22
 70
     1
102
RTVSPropertyOp23
 70
     1
102
RTVSPropertyOp24
 70
     1
102
RTVSPropertyOp25
 70
     1
102
RTVSPropertyOp26
 70
     1
102
RTVSPropertyOp27
 70
     1
102
RTVSPropertyOp28
 70
     1
102
RTVSPropertyOp29
 70
     1
102
RTVSPropertyOp30
 70
     1
102
RTVSPropertyOp31
 70
     1
102
RTVSPropertyOp32
 70
     1
102
RTVSPropertyOp33
 70
     1
102
RTVSPropertyOp34
 70
     1
102
RTVSPropertyOp35
 70
     1
102
RTVSPropertyOp36
 70
     1
102
RTVSPropertyOp37
 70
     1
102
RTVSPropertyOp38
 70
     1
102
RTVSPropertyOp39
 70
     1
102
RTVSPropertyOp40
 70
     1
102
RTVSPropertyOp41
 70
     1
102
RTVSPropertyOp42
 70
     1
102
RTVSPropertyOp43
 70
     1
102
RTVSPropertyOp44
 70
     1
102
RTVSPropertyOp45
 70
     1
102
RTVSPropertyOp46
 70
     1
102
RTVSPropertyOp47
 70
     1
102
RTVSPropertyOp48
 70
     1
102
RTVSPropertyOp49
 70
     1
102
RTVSPropertyOp50
 70
     1
102
RTVSPropertyOp51
 70
     0
102
RTVSPropertyOp52
 70
     0
102
RTVSPropertyOp53
 70
     1
102
RTVSPropertyOp54
 70
     1
102
RTVSPropertyOp55
 70
     1
102
RTVSPropertyOp56
 70
     1
102
RTVSPropertyOp57
 70
     1
102
RTVSPost2010Prop28
280
     0
102
RTVSPost2010PropOp28
 70
     1
102
RTVSPost2010Prop29
280
     1
102
RTVSPost2010PropOp29
 70
     1
102
RTVSPost2010Prop30
280
     1
102
RTVSPost2010PropOp30
 70
     1
102
RTVSPost2010Prop31
280
     0
102
RTVSPost2010PropOp31
 70
     1
102
RTVSPost2010Prop32
280
     0
102
RTVSPost2010PropOp32
 70
     1
102
RTVSPost2010Prop33
280
     0
102
RTVSPost2010PropOp33
 70
     1
102
RTVSPost2010Prop34
280
     0
102
RTVSPost2010PropOp34
 70
     1
102
RTVSPost2010Prop35
280
     0
102
RTVSPost2010PropOp35
 70
     1
102
RTVSPost2010Prop36
280
     0
102
RTVSPost2010PropOp36
 70
     1
102
RTVSPost2010Prop37
 90
       50
102
RTVSPost2010PropOp37
 70
     1
102
RTVSPost2010Prop38
140
0.0
102
RTVSPost2010PropOp38
 70
     1
102
RTVSPost2010Prop39
140
1.0
102
RTVSPost2010PropOp39
 70
     1
102
RTVSPost2010Prop40
 90
        0
102
RTVSPost2010PropOp40
 70
     1
102
RTVSPost2010Prop41ColorIndex
 90
       18
102
RTVSPost2010Prop41ColorRGB
 90
        0
102
RTVSPost2010PropOp41
 70
     1
102
RTVSPost2010Prop42
 90
       50
102
RTVSPost2010PropOp42
 70
     1
102
RTVSPost2010Prop43
 90
        3
102
RTVSPost2010PropOp43
 70
     1
102
RTVSPost2010Prop44ColorIndex
 90
        5
102
RTVSPost2010Prop44ColorRGB
 90
      255
102
RTVSPost2010PropOp44
 70
     1
102
RTVSPost2010Prop45
280
     0
102
RTVSPost2010PropOp45
 70
     1
102
RTVSPost2010Prop46
 90
       50
102
RTVSPost2010PropOp46
 70
     1
102
RTVSPost2010Prop47
 90
       50
102
RTVSPost2010PropOp47
 70
     1
102
RTVSPost2010Prop48
 90
       50
102
RTVSPost2010PropOp48
 70
     1
102
RTVSPost2010Prop49
280
     0
102
RTVSPost2010PropOp49
 70
     1
102
RTVSPost2010Prop50
 90
       50
102
RTVSPost2010PropOp50
 70
     1
102
RTVSPost2010Prop51ColorIndex
 90
      256
102
RTVSPost2010Prop51ColorRGB
 90
-16777216
102
RTVSPost2010PropOp51
 70
     0
102
RTVSPost2010Prop52
140
1.0
102
RTVSPost2010PropOp52
 70
     0
102
RTVSPost2010Prop53
 90
        2
102
RTVSPost2010PropOp53
 70
     1
102
RTVSPost2010Prop54
  1
strokes_ogs.tif
102
RTVSPost2010PropOp54
 70
     1
102
RTVSPost2010Prop55
280
     0
102
RTVSPost2010PropOp55
 70
     1
102
RTVSPost2010Prop56
140
1.0
102
RTVSPost2010PropOp56
 70
     1
102
RTVSPost2010Prop57
140
1.0
102
RTVSPost2010PropOp57
 70
     1
  0
ENDSEC
  0
EOF
