  0
SECTION
  2
HEADER
  9
$ACADVER
  1
AC1015
  9
$ACADMAINTVER
 70
     6
  9
$DWGCODEPAGE
  3
ANSI_1252
  9
$INSBASE
 10
0.0
 20
0.0
 30
0.0
  9
$EXTMIN
 10
192.1097506865754
 20
76.46288341796455
 30
0.0
  9
$EXTMAX
 10
281.0195778888738
 20
164.0914499382183
 30
0.0
  9
$LIMMIN
 10
0.0
 20
0.0
  9
$LIMMAX
 10
420.0
 20
297.0
  9
$ORTHOMODE
 70
     0
  9
$REGENMODE
 70
     1
  9
$FILLMODE
 70
     1
  9
$QTEXTMODE
 70
     0
  9
$MIRRTEXT
 70
     1
  9
$LTSCALE
 40
1.0
  9
$ATTMODE
 70
     1
  9
$TEXTSIZE
 40
2.25
  9
$TRACEWID
 40
1.0
  9
$TEXTSTYLE
  7
ARIAL
  9
$CLAYER
  8
EINBAU
  9
$CELTYPE
  6
ByLayer
  9
$CECOLOR
 62
   256
  9
$CELTSCALE
 40
1.0
  9
$DISPSILH
 70
     0
  9
$DIMSCALE
 40
1.0
  9
$DIMASZ
 40
2.5
  9
$DIMEXO
 40
0.625
  9
$DIMDLI
 40
3.75
  9
$DIMRND
 40
0.0
  9
$DIMDLE
 40
0.0
  9
$DIMEXE
 40
1.25
  9
$DIMTP
 40
0.0
  9
$DIMTM
 40
0.0
  9
$DIMTXT
 40
2.0
  9
$DIMCEN
 40
2.5
  9
$DIMTSZ
 40
0.0
  9
$DIMTOL
 70
     0
  9
$DIMLIM
 70
     0
  9
$DIMTIH
 70
     0
  9
$DIMTOH
 70
     0
  9
$DIMSE1
 70
     0
  9
$DIMSE2
 70
     0
  9
$DIMTAD
 70
     1
  9
$DIMZIN
 70
     8
  9
$DIMBLK
  1

  9
$DIMASO
 70
     1
  9
$DIMSHO
 70
     1
  9
$DIMPOST
  1

  9
$DIMAPOST
  1

  9
$DIMALT
 70
     0
  9
$DIMALTD
 70
     3
  9
$DIMALTF
 40
0.03937007874016
  9
$DIMLFAC
 40
1.0
  9
$DIMTOFL
 70
     1
  9
$DIMTVP
 40
0.0
  9
$DIMTIX
 70
     0
  9
$DIMSOXD
 70
     0
  9
$DIMSAH
 70
     0
  9
$DIMBLK1
  1

  9
$DIMBLK2
  1

  9
$DIMSTYLE
  2
ISO-25
  9
$DIMCLRD
 70
     0
  9
$DIMCLRE
 70
     0
  9
$DIMCLRT
 70
     7
  9
$DIMTFAC
 40
1.0
  9
$DIMGAP
 40
0.625
  9
$DIMJUST
 70
     0
  9
$DIMSD1
 70
     0
  9
$DIMSD2
 70
     0
  9
$DIMTOLJ
 70
     0
  9
$DIMTZIN
 70
     8
  9
$DIMALTZ
 70
     0
  9
$DIMALTTZ
 70
     0
  9
$DIMUPT
 70
     0
  9
$DIMDEC
 70
     2
  9
$DIMTDEC
 70
     2
  9
$DIMALTU
 70
     2
  9
$DIMALTTD
 70
     3
  9
$DIMTXSTY
  7
Standard
  9
$DIMAUNIT
 70
     0
  9
$DIMADEC
 70
     0
  9
$DIMALTRND
 40
0.0
  9
$DIMAZIN
 70
     0
  9
$DIMDSEP
 70
    44
  9
$DIMATFIT
 70
     3
  9
$DIMFRAC
 70
     0
  9
$DIMLDRBLK
  1

  9
$DIMLUNIT
 70
     2
  9
$DIMLWD
 70
    -2
  9
$DIMLWE
 70
    -2
  9
$DIMTMOVE
 70
     0
  9
$LUNITS
 70
     2
  9
$LUPREC
 70
     4
  9
$SKETCHINC
 40
1.0
  9
$FILLETRAD
 40
10.0
  9
$AUNITS
 70
     0
  9
$AUPREC
 70
     0
  9
$MENU
  1
.
  9
$ELEVATION
 40
0.0
  9
$PELEVATION
 40
0.0
  9
$THICKNESS
 40
0.0
  9
$LIMCHECK
 70
     0
  9
$CHAMFERA
 40
0.0
  9
$CHAMFERB
 40
0.0
  9
$CHAMFERC
 40
20.0
  9
$CHAMFERD
 40
0.0
  9
$SKPOLY
 70
     0
  9
$TDCREATE
 40
2453451.503900081
  9
$TDUCREATE
 40
2453451.462233414
  9
$TDUPDATE
 40
2460341.448891319
  9
$TDUUPDATE
 40
2460341.407224653
  9
$TDINDWG
 40
0.2537978125
  9
$TDUSRTIMER
 40
0.2537976273
  9
$USRTIMER
 70
     1
  9
$ANGBASE
 50
0.0
  9
$ANGDIR
 70
     0
  9
$PDMODE
 70
     0
  9
$PDSIZE
 40
0.0
  9
$PLINEWID
 40
0.0
  9
$SPLFRAME
 70
     0
  9
$SPLINETYPE
 70
     6
  9
$SPLINESEGS
 70
     8
  9
$HANDSEED
  5
79D
  9
$SURFTAB1
 70
     6
  9
$SURFTAB2
 70
     6
  9
$SURFTYPE
 70
     6
  9
$SURFU
 70
     6
  9
$SURFV
 70
     6
  9
$UCSBASE
  2

  9
$UCSNAME
  2

  9
$UCSORG
 10
0.0
 20
0.0
 30
0.0
  9
$UCSXDIR
 10
1.0
 20
0.0
 30
0.0
  9
$UCSYDIR
 10
0.0
 20
1.0
 30
0.0
  9
$UCSORTHOREF
  2

  9
$UCSORTHOVIEW
 70
     0
  9
$UCSORGTOP
 10
0.0
 20
0.0
 30
0.0
  9
$UCSORGBOTTOM
 10
0.0
 20
0.0
 30
0.0
  9
$UCSORGLEFT
 10
0.0
 20
0.0
 30
0.0
  9
$UCSORGRIGHT
 10
0.0
 20
0.0
 30
0.0
  9
$UCSORGFRONT
 10
0.0
 20
0.0
 30
0.0
  9
$UCSORGBACK
 10
0.0
 20
0.0
 30
0.0
  9
$PUCSBASE
  2

  9
$PUCSNAME
  2

  9
$PUCSORG
 10
0.0
 20
0.0
 30
0.0
  9
$PUCSXDIR
 10
1.0
 20
0.0
 30
0.0
  9
$PUCSYDIR
 10
0.0
 20
1.0
 30
0.0
  9
$PUCSORTHOREF
  2

  9
$PUCSORTHOVIEW
 70
     0
  9
$PUCSORGTOP
 10
0.0
 20
0.0
 30
0.0
  9
$PUCSORGBOTTOM
 10
0.0
 20
0.0
 30
0.0
  9
$PUCSORGLEFT
 10
0.0
 20
0.0
 30
0.0
  9
$PUCSORGRIGHT
 10
0.0
 20
0.0
 30
0.0
  9
$PUCSORGFRONT
 10
0.0
 20
0.0
 30
0.0
  9
$PUCSORGBACK
 10
0.0
 20
0.0
 30
0.0
  9
$USERI1
 70
     0
  9
$USERI2
 70
     0
  9
$USERI3
 70
     0
  9
$USERI4
 70
     0
  9
$USERI5
 70
     0
  9
$USERR1
 40
0.0
  9
$USERR2
 40
0.0
  9
$USERR3
 40
0.0
  9
$USERR4
 40
0.0
  9
$USERR5
 40
0.0
  9
$WORLDVIEW
 70
     1
  9
$SHADEDGE
 70
     3
  9
$SHADEDIF
 70
    70
  9
$TILEMODE
 70
     1
  9
$MAXACTVP
 70
    64
  9
$PINSBASE
 10
0.0
 20
0.0
 30
0.0
  9
$PLIMCHECK
 70
     0
  9
$PEXTMIN
 10
1.958602789940073
 20
1.783246061212594
 30
0.0
  9
$PEXTMAX
 10
194.808008567328
 20
204.6282972987659
 30
0.0
  9
$PLIMMIN
 10
-6.805083274841309
 20
-5.535083293914795
  9
$PLIMMAX
 10
203.1682443618774
 20
291.3909115791321
  9
$UNITMODE
 70
     0
  9
$VISRETAIN
 70
     1
  9
$PLINEGEN
 70
     0
  9
$PSLTSCALE
 70
     1
  9
$TREEDEPTH
 70
  3020
  9
$CMLSTYLE
  2
Standard
  9
$CMLJUST
 70
     0
  9
$CMLSCALE
 40
20.0
  9
$PROXYGRAPHICS
 70
     1
  9
$MEASUREMENT
 70
     1
  9
$CELWEIGHT
370
    -1
  9
$ENDCAPS
280
     0
  9
$JOINSTYLE
280
     0
  9
$LWDISPLAY
290
     0
  9
$INSUNITS
 70
     4
  9
$HYPERLINKBASE
  1

  9
$STYLESHEET
  1
scllueter.ctb
  9
$XEDIT
290
     1
  9
$CEPSNTYPE
380
     0
  9
$PSTYLEMODE
290
     1
  9
$FINGERPRINTGUID
  2
{0B10B9A9-BA4A-11D6-8282-0002B31F8178}
  9
$VERSIONGUID
  2
{AC3EE908-6E23-492B-9157-4B72E2A94AFB}
  9
$EXTNAMES
290
     1
  9
$PSVPSCALE
 40
1.0
  9
$OLESTARTUP
290
     0
  0
ENDSEC
  0
SECTION
  2
CLASSES
  0
CLASS
  1
ACDBDICTIONARYWDFLT
  2
AcDbDictionaryWithDefault
  3
ObjectDBX Classes
 90
        0
280
     0
281
     0
  0
CLASS
  1
ACDBPLACEHOLDER
  2
AcDbPlaceHolder
  3
ObjectDBX Classes
 90
        0
280
     0
281
     0
  0
CLASS
  1
LAYOUT
  2
AcDbLayout
  3
ObjectDBX Classes
 90
        0
280
     0
281
     0
  0
CLASS
  1
DICTIONARYVAR
  2
AcDbDictionaryVar
  3
ObjectDBX Classes
 90
        0
280
     0
281
     0
  0
CLASS
  1
VISUALSTYLE
  2
AcDbVisualStyle
  3
ObjectDBX Classes
 90
     4095
280
     0
281
     0
  0
CLASS
  1
SCALE
  2
AcDbScale
  3
ObjectDBX Classes
 90
     1153
280
     0
281
     0
  0
CLASS
  1
MATERIAL
  2
AcDbMaterial
  3
ObjectDBX Classes
 90
     1153
280
     0
281
     0
  0
CLASS
  1
MLEADERSTYLE
  2
AcDbMLeaderStyle
  3
ACDB_MLEADERSTYLE_CLASS
 90
     4095
280
     0
281
     0
  0
CLASS
  1
TABLESTYLE
  2
AcDbTableStyle
  3
ObjectDBX Classes
 90
     4095
280
     0
281
     0
  0
ENDSEC
  0
SECTION
  2
TABLES
  0
TABLE
  2
VPORT
  5
8
102
{ACAD_XDICTIONARY
360
760
102
}
330
0
100
AcDbSymbolTable
 70
     1
  0
VPORT
  5
6EC
330
8
100
AcDbSymbolTableRecord
100
AcDbViewportTableRecord
  2
*Active
 70
     0
 10
0.0
 20
0.0
 11
1.0
 21
1.0
 12
369.3454991517415
 22
197.3215771265975
 13
0.0
 23
0.0
 14
10.0
 24
10.0
 15
10.0
 25
10.0
 16
0.0
 26
0.0
 36
1.0
 17
0.0
 27
0.0
 37
0.0
 40
404.3899835108506
 41
1.836978131212724
 42
50.0
 43
0.0
 44
0.0
 50
0.0
 51
0.0
 71
     0
 72
   100
 73
     1
 74
     3
 75
     0
 76
     0
 77
     0
 78
     0
281
     0
 65
     1
110
0.0
120
0.0
130
0.0
111
1.0
121
0.0
131
0.0
112
0.0
122
1.0
132
0.0
 79
     0
146
0.0
  0
ENDTAB
  0
TABLE
  2
LTYPE
  5
5
330
0
100
AcDbSymbolTable
 70
     4
  0
LTYPE
  5
14
330
5
100
AcDbSymbolTableRecord
100
AcDbLinetypeTableRecord
  2
ByBlock
 70
     0
  3

 72
    65
 73
     0
 40
0.0
  0
LTYPE
  5
15
330
5
100
AcDbSymbolTableRecord
100
AcDbLinetypeTableRecord
  2
ByLayer
 70
     0
  3

 72
    65
 73
     0
 40
0.0
  0
LTYPE
  5
16
330
5
100
AcDbSymbolTableRecord
100
AcDbLinetypeTableRecord
  2
Continuous
 70
     0
  3
Solid line
 72
    65
 73
     0
 40
0.0
  0
LTYPE
  5
31
330
5
100
AcDbSymbolTableRecord
100
AcDbLinetypeTableRecord
  2
AUSGEZOGEN
 70
     0
  3
Ausgezogene Linie
 72
    65
 73
     0
 40
0.0
  0
LTYPE
  5
2EF
330
5
100
AcDbSymbolTableRecord
100
AcDbLinetypeTableRecord
  2
GESTRICHELT
 70
     0
  3
-- -- -- -- --
 72
    65
 73
     2
 40
7.0
 49
4.0
 74
     0
 49
-3.0
 74
     0
  0
LTYPE
  5
2F0
330
5
100
AcDbSymbolTableRecord
100
AcDbLinetypeTableRecord
  2
STRICHPUNKT
 70
     0
  3
--.--.--.--.--
 72
    65
 73
     4
 40
8.5
 49
4.0
 74
     0
 49
-2.0
 74
     0
 49
0.5
 74
     0
 49
-2.0
 74
     0
  0
ENDTAB
  0
TABLE
  2
LAYER
  5
2
330
0
100
AcDbSymbolTable
 70
    13
  0
LAYER
  5
10
330
2
100
AcDbSymbolTableRecord
100
AcDbLayerTableRecord
  2
0
 70
     0
 62
     7
  6
Continuous
370
    -3
390
F
  0
LAYER
  5
32
330
2
100
AcDbSymbolTableRecord
100
AcDbLayerTableRecord
  2
SCHRIFTF
 70
     0
 62
     7
  6
AUSGEZOGEN
370
    -3
390
F
  0
LAYER
  5
33
330
2
100
AcDbSymbolTableRecord
100
AcDbLayerTableRecord
  2
SCHRIFTFELD
 70
     0
 62
     7
  6
Continuous
370
    -3
390
F
  0
LAYER
  5
E6
330
2
100
AcDbSymbolTableRecord
100
AcDbLayerTableRecord
  2
Defpoints
 70
     0
 62
     7
  6
Continuous
290
     0
370
    -3
390
F
  0
LAYER
  5
2F1
330
2
100
AcDbSymbolTableRecord
100
AcDbLayerTableRecord
  2
1
 70
     0
 62
     7
  6
Continuous
370
    -3
390
F
  0
LAYER
  5
2F2
330
2
100
AcDbSymbolTableRecord
100
AcDbLayerTableRecord
  2
2
 70
     0
 62
     7
  6
Continuous
370
    -3
390
F
  0
LAYER
  5
2F3
330
2
100
AcDbSymbolTableRecord
100
AcDbLayerTableRecord
  2
6
 70
     0
 62
     7
  6
Continuous
370
    -3
390
F
  0
LAYER
  5
2F4
330
2
100
AcDbSymbolTableRecord
100
AcDbLayerTableRecord
  2
7
 70
     0
 62
     7
  6
Continuous
370
    -3
390
F
  0
LAYER
  5
2F5
330
2
100
AcDbSymbolTableRecord
100
AcDbLayerTableRecord
  2
49
 70
     0
 62
     7
  6
Continuous
370
    -3
390
F
  0
LAYER
  5
437
330
2
100
AcDbSymbolTableRecord
100
AcDbLayerTableRecord
  2
bem
 70
     0
 62
     3
  6
Continuous
370
    -3
390
F
  0
LAYER
  5
512
330
2
100
AcDbSymbolTableRecord
100
AcDbLayerTableRecord
  2
NORM
 70
     0
 62
     7
  6
Continuous
370
    -3
390
F
  0
LAYER
  5
513
330
2
100
AcDbSymbolTableRecord
100
AcDbLayerTableRecord
  2
EINBAU
 70
     0
 62
   252
  6
Continuous
370
    -3
390
F
  0
LAYER
  5
5E1
330
2
100
AcDbSymbolTableRecord
100
AcDbLayerTableRecord
  2
TEXT
 70
     0
 62
     7
  6
Continuous
370
    -3
390
F
  0
ENDTAB
  0
TABLE
  2
STYLE
  5
3
330
0
100
AcDbSymbolTable
 70
     5
  0
STYLE
  5
11
330
3
100
AcDbSymbolTableRecord
100
AcDbTextStyleTableRecord
  2
Standard
 70
     0
 40
0.0
 41
1.0
 50
0.0
 71
     0
 42
2.5
  3
txt
  4

  0
STYLE
  5
34
330
3
100
AcDbSymbolTableRecord
100
AcDbTextStyleTableRecord
  2
ARIAL
 70
     0
 40
0.0
 41
1.0
 50
0.0
 71
     0
 42
2.25
  3
ARIAL.TTF
  4

1001
ACAD
1000
Arial
1071
       34
  0
STYLE
  5
35
330
3
100
AcDbSymbolTableRecord
100
AcDbTextStyleTableRecord
  2
TIMES
 70
     0
 40
0.0
 41
1.0
 50
0.0
 71
     0
 42
1.5
  3
ARIAL.TTF
  4

1001
ACAD
1000
Arial
1071
       34
  0
STYLE
  5
36
330
3
100
AcDbSymbolTableRecord
100
AcDbTextStyleTableRecord
  2
ARIALFETT
 70
     0
 40
0.0
 41
1.0
 50
0.0
 71
     0
 42
3.0
  3
ARIALBD.TTF
  4

1001
ACAD
1000
Arial
1071
 33554466
  0
STYLE
  5
5E2
330
3
100
AcDbSymbolTableRecord
100
AcDbTextStyleTableRecord
  2
STYLE1
 70
     0
 40
0.0
 41
1.0
 50
0.0
 71
     0
 42
0.1
  3
ARIAL.TTF
  4

1001
ACAD
1000
Arial
1071
       34
  0
ENDTAB
  0
TABLE
  2
VIEW
  5
6
330
0
100
AcDbSymbolTable
 70
     0
  0
ENDTAB
  0
TABLE
  2
UCS
  5
7
330
0
100
AcDbSymbolTable
 70
     0
  0
ENDTAB
  0
TABLE
  2
APPID
  5
9
330
0
100
AcDbSymbolTable
 70
     2
  0
APPID
  5
12
330
9
100
AcDbSymbolTableRecord
100
AcDbRegAppTableRecord
  2
ACAD
 70
     0
  0
APPID
  5
79A
330
9
100
AcDbSymbolTableRecord
100
AcDbRegAppTableRecord
  2
ACAD_MLEADERVER
 70
     0
  0
ENDTAB
  0
TABLE
  2
DIMSTYLE
  5
A
330
0
100
AcDbSymbolTable
 70
     3
100
AcDbDimStyleTable
  0
DIMSTYLE
105
27
102
{ACAD_REACTORS
330
489
330
4DE
102
}
330
A
100
AcDbSymbolTableRecord
100
AcDbDimStyleTableRecord
  2
ISO-25
 70
     0
 41
2.5
 42
0.625
 43
3.75
 44
1.25
 73
     0
 74
     0
 77
     1
 78
     8
140
2.0
141
2.5
143
0.03937007874016
147
0.625
171
     3
172
     1
271
     2
178
     7
271
     2
272
     2
274
     3
278
    44
283
     0
284
     8
340
11
  0
DIMSTYLE
105
37
330
A
100
AcDbSymbolTableRecord
100
AcDbDimStyleTableRecord
  2
ISO-25-TOL
 70
     0
 41
1.25
 42
0.0
 43
3.75
 44
1.0
 47
0.2
 48
0.2
 73
     0
 74
     0
 77
     1
 78
     8
140
1.25
141
0.0
143
0.0394
145
1.0
146
0.7
147
0.63
172
     1
271
     2
178
   254
271
     2
272
     2
284
     8
289
     0
340
11
  0
DIMSTYLE
105
2F6
330
A
100
AcDbSymbolTableRecord
100
AcDbDimStyleTableRecord
  2
Standard
 70
     0
178
     0
340
11
  0
ENDTAB
  0
TABLE
  2
BLOCK_RECORD
  5
1
330
0
100
AcDbSymbolTable
 70
    68
  0
BLOCK_RECORD
  5
1F
330
1
100
AcDbSymbolTableRecord
100
AcDbBlockTableRecord
  2
*Model_Space
340
22
  0
BLOCK_RECORD
  5
23
330
1
100
AcDbSymbolTableRecord
100
AcDbBlockTableRecord
  2
*Paper_Space
340
26
  0
BLOCK_RECORD
  5
125
330
1
100
AcDbSymbolTableRecord
100
AcDbBlockTableRecord
  2
BEM_0001
340
0
102
{BLKREFS
331
2DA
102
}
  0
BLOCK_RECORD
  5
142
330
1
100
AcDbSymbolTableRecord
100
AcDbBlockTableRecord
  2
BEM_0011
340
0
102
{BLKREFS
331
2DE
102
}
  0
BLOCK_RECORD
  5
15D
330
1
100
AcDbSymbolTableRecord
100
AcDbBlockTableRecord
  2
BEM_0015
340
0
102
{BLKREFS
331
2E2
102
}
  0
BLOCK_RECORD
  5
177
330
1
100
AcDbSymbolTableRecord
100
AcDbBlockTableRecord
  2
0________00006
340
0
  0
BLOCK_RECORD
  5
19D
330
1
100
AcDbSymbolTableRecord
100
AcDbBlockTableRecord
  2
_Z1_XXXX_00018
340
0
  0
BLOCK_RECORD
  5
1BA
330
1
100
AcDbSymbolTableRecord
100
AcDbBlockTableRecord
  2
FIG______00019
340
0
102
{BLKREFS
331
0
102
}
  0
BLOCK_RECORD
  5
1BE
330
1
100
AcDbSymbolTableRecord
100
AcDbBlockTableRecord
  2
SUB______00020
340
0
102
{BLKREFS
331
1BB
331
73F
102
}
  0
BLOCK_RECORD
  5
1C4
330
1
100
AcDbSymbolTableRecord
100
AcDbBlockTableRecord
  2
FIG______00021
340
0
  0
BLOCK_RECORD
  5
1CB
330
1
100
AcDbSymbolTableRecord
100
AcDbBlockTableRecord
  2
FIG______00022
340
0
  0
BLOCK_RECORD
  5
1D5
330
1
100
AcDbSymbolTableRecord
100
AcDbBlockTableRecord
  2
FIG______00023
340
0
  0
BLOCK_RECORD
  5
1DB
330
1
100
AcDbSymbolTableRecord
100
AcDbBlockTableRecord
  2
_Z1_XXXX_00024
340
0
  0
BLOCK_RECORD
  5
1EE
330
1
100
AcDbSymbolTableRecord
100
AcDbBlockTableRecord
  2
_MK_XXXX_00025
340
0
102
{BLKREFS
331
0
102
}
  0
BLOCK_RECORD
  5
1F3
330
1
100
AcDbSymbolTableRecord
100
AcDbBlockTableRecord
  2
SUB______00026
340
0
102
{BLKREFS
331
1F0
331
72A
102
}
  0
BLOCK_RECORD
  5
1F7
330
1
100
AcDbSymbolTableRecord
100
AcDbBlockTableRecord
  2
_MK_XXXX_00027
340
0
102
{BLKREFS
331
0
102
}
  0
BLOCK_RECORD
  5
1FC
330
1
100
AcDbSymbolTableRecord
100
AcDbBlockTableRecord
  2
SUB______00028
340
0
102
{BLKREFS
331
1F9
331
741
102
}
  0
BLOCK_RECORD
  5
200
330
1
100
AcDbSymbolTableRecord
100
AcDbBlockTableRecord
  2
_MK_XXXX_00029
340
0
102
{BLKREFS
331
0
102
}
  0
BLOCK_RECORD
  5
205
330
1
100
AcDbSymbolTableRecord
100
AcDbBlockTableRecord
  2
SUB______00030
340
0
102
{BLKREFS
331
202
331
730
102
}
  0
BLOCK_RECORD
  5
209
330
1
100
AcDbSymbolTableRecord
100
AcDbBlockTableRecord
  2
_MK_XXXX_00031
340
0
102
{BLKREFS
331
0
102
}
  0
BLOCK_RECORD
  5
20E
330
1
100
AcDbSymbolTableRecord
100
AcDbBlockTableRecord
  2
SUB______00032
340
0
102
{BLKREFS
331
20B
331
743
102
}
  0
BLOCK_RECORD
  5
212
330
1
100
AcDbSymbolTableRecord
100
AcDbBlockTableRecord
  2
FIG______00033
340
0
102
{BLKREFS
331
39E
102
}
  0
BLOCK_RECORD
  5
217
330
1
100
AcDbSymbolTableRecord
100
AcDbBlockTableRecord
  2
_MK_XXXX_00034
340
0
102
{BLKREFS
331
0
102
}
  0
BLOCK_RECORD
  5
21C
330
1
100
AcDbSymbolTableRecord
100
AcDbBlockTableRecord
  2
SUB______00035
340
0
102
{BLKREFS
331
219
331
732
102
}
  0
BLOCK_RECORD
  5
220
330
1
100
AcDbSymbolTableRecord
100
AcDbBlockTableRecord
  2
_MK_XXXX_00036
340
0
102
{BLKREFS
331
0
102
}
  0
BLOCK_RECORD
  5
225
330
1
100
AcDbSymbolTableRecord
100
AcDbBlockTableRecord
  2
SUB______00037
340
0
102
{BLKREFS
331
222
331
745
102
}
  0
BLOCK_RECORD
  5
229
330
1
100
AcDbSymbolTableRecord
100
AcDbBlockTableRecord
  2
_MK_XXXX_00038
340
0
102
{BLKREFS
331
0
102
}
  0
BLOCK_RECORD
  5
22E
330
1
100
AcDbSymbolTableRecord
100
AcDbBlockTableRecord
  2
SUB______00039
340
0
102
{BLKREFS
331
22B
331
728
102
}
  0
BLOCK_RECORD
  5
232
330
1
100
AcDbSymbolTableRecord
100
AcDbBlockTableRecord
  2
_MK_XXXX_00040
340
0
102
{BLKREFS
331
0
102
}
  0
BLOCK_RECORD
  5
237
330
1
100
AcDbSymbolTableRecord
100
AcDbBlockTableRecord
  2
SUB______00041
340
0
102
{BLKREFS
331
234
331
73E
102
}
  0
BLOCK_RECORD
  5
23B
330
1
100
AcDbSymbolTableRecord
100
AcDbBlockTableRecord
  2
_MK_XXXX_00042
340
0
102
{BLKREFS
331
0
102
}
  0
BLOCK_RECORD
  5
240
330
1
100
AcDbSymbolTableRecord
100
AcDbBlockTableRecord
  2
SUB______00043
340
0
102
{BLKREFS
331
23D
331
738
102
}
  0
BLOCK_RECORD
  5
244
330
1
100
AcDbSymbolTableRecord
100
AcDbBlockTableRecord
  2
_MK_XXXX_00044
340
0
102
{BLKREFS
331
0
102
}
  0
BLOCK_RECORD
  5
249
330
1
100
AcDbSymbolTableRecord
100
AcDbBlockTableRecord
  2
SUB______00045
340
0
102
{BLKREFS
331
246
331
747
102
}
  0
BLOCK_RECORD
  5
24D
330
1
100
AcDbSymbolTableRecord
100
AcDbBlockTableRecord
  2
_MK_XXXX_00046
340
0
102
{BLKREFS
331
0
102
}
  0
BLOCK_RECORD
  5
252
330
1
100
AcDbSymbolTableRecord
100
AcDbBlockTableRecord
  2
SUB______00047
340
0
102
{BLKREFS
331
24F
331
73A
102
}
  0
BLOCK_RECORD
  5
256
330
1
100
AcDbSymbolTableRecord
100
AcDbBlockTableRecord
  2
_MK_XXXX_00048
340
0
102
{BLKREFS
331
0
102
}
  0
BLOCK_RECORD
  5
25B
330
1
100
AcDbSymbolTableRecord
100
AcDbBlockTableRecord
  2
SUB______00049
340
0
102
{BLKREFS
331
258
331
749
102
}
  0
BLOCK_RECORD
  5
25F
330
1
100
AcDbSymbolTableRecord
100
AcDbBlockTableRecord
  2
FIG______00050
340
0
102
{BLKREFS
331
0
102
}
  0
BLOCK_RECORD
  5
268
330
1
100
AcDbSymbolTableRecord
100
AcDbBlockTableRecord
  2
_MK_XXXX_00051
340
0
102
{BLKREFS
331
260
331
0
102
}
  0
BLOCK_RECORD
  5
26D
330
1
100
AcDbSymbolTableRecord
100
AcDbBlockTableRecord
  2
_MK_XXXX_00052
340
0
102
{BLKREFS
331
261
331
0
102
}
  0
BLOCK_RECORD
  5
272
330
1
100
AcDbSymbolTableRecord
100
AcDbBlockTableRecord
  2
_MK_XXXX_00053
340
0
102
{BLKREFS
331
262
331
0
102
}
  0
BLOCK_RECORD
  5
277
330
1
100
AcDbSymbolTableRecord
100
AcDbBlockTableRecord
  2
_MK_XXXX_00054
340
0
102
{BLKREFS
331
263
331
0
102
}
  0
BLOCK_RECORD
  5
27C
330
1
100
AcDbSymbolTableRecord
100
AcDbBlockTableRecord
  2
_MK_XXXX_00055
340
0
102
{BLKREFS
331
264
331
0
102
}
  0
BLOCK_RECORD
  5
281
330
1
100
AcDbSymbolTableRecord
100
AcDbBlockTableRecord
  2
_MK_XXXX_00056
340
0
102
{BLKREFS
331
265
331
0
102
}
  0
BLOCK_RECORD
  5
286
330
1
100
AcDbSymbolTableRecord
100
AcDbBlockTableRecord
  2
SUB______00057
340
0
102
{BLKREFS
331
26A
331
74B
102
}
  0
BLOCK_RECORD
  5
28A
330
1
100
AcDbSymbolTableRecord
100
AcDbBlockTableRecord
  2
SUB______00058
340
0
102
{BLKREFS
331
26F
331
74D
102
}
  0
BLOCK_RECORD
  5
28E
330
1
100
AcDbSymbolTableRecord
100
AcDbBlockTableRecord
  2
SUB______00059
340
0
102
{BLKREFS
331
274
331
74F
102
}
  0
BLOCK_RECORD
  5
292
330
1
100
AcDbSymbolTableRecord
100
AcDbBlockTableRecord
  2
SUB______00060
340
0
102
{BLKREFS
331
279
331
751
102
}
  0
BLOCK_RECORD
  5
296
330
1
100
AcDbSymbolTableRecord
100
AcDbBlockTableRecord
  2
SUB______00061
340
0
102
{BLKREFS
331
27E
331
753
102
}
  0
BLOCK_RECORD
  5
29A
330
1
100
AcDbSymbolTableRecord
100
AcDbBlockTableRecord
  2
SUB______00062
340
0
102
{BLKREFS
331
283
331
755
102
}
  0
BLOCK_RECORD
  5
29E
330
1
100
AcDbSymbolTableRecord
100
AcDbBlockTableRecord
  2
FIG______00063
340
0
102
{BLKREFS
331
0
102
}
  0
BLOCK_RECORD
  5
2A2
330
1
100
AcDbSymbolTableRecord
100
AcDbBlockTableRecord
  2
SUB______00064
340
0
102
{BLKREFS
331
29F
331
720
102
}
  0
BLOCK_RECORD
  5
2A8
330
1
100
AcDbSymbolTableRecord
100
AcDbBlockTableRecord
  2
_MK_XXXX_00065
340
0
102
{BLKREFS
331
0
102
}
  0
BLOCK_RECORD
  5
2AD
330
1
100
AcDbSymbolTableRecord
100
AcDbBlockTableRecord
  2
SUB______00066
340
0
102
{BLKREFS
331
2AA
331
72C
102
}
  0
BLOCK_RECORD
  5
2B1
330
1
100
AcDbSymbolTableRecord
100
AcDbBlockTableRecord
  2
_MK_XXXX_00067
340
0
102
{BLKREFS
331
0
102
}
  0
BLOCK_RECORD
  5
2B6
330
1
100
AcDbSymbolTableRecord
100
AcDbBlockTableRecord
  2
SUB______00068
340
0
102
{BLKREFS
331
2B3
331
72E
102
}
  0
BLOCK_RECORD
  5
2BA
330
1
100
AcDbSymbolTableRecord
100
AcDbBlockTableRecord
  2
_MK_XXXX_00069
340
0
102
{BLKREFS
331
0
102
}
  0
BLOCK_RECORD
  5
2BF
330
1
100
AcDbSymbolTableRecord
100
AcDbBlockTableRecord
  2
SUB______00070
340
0
102
{BLKREFS
331
2BC
331
734
102
}
  0
BLOCK_RECORD
  5
2C3
330
1
100
AcDbSymbolTableRecord
100
AcDbBlockTableRecord
  2
_MK_XXXX_00071
340
0
102
{BLKREFS
331
0
102
}
  0
BLOCK_RECORD
  5
2C8
330
1
100
AcDbSymbolTableRecord
100
AcDbBlockTableRecord
  2
SUB______00072
340
0
102
{BLKREFS
331
2C5
331
736
102
}
  0
BLOCK_RECORD
  5
2CC
330
1
100
AcDbSymbolTableRecord
100
AcDbBlockTableRecord
  2
_MK_XXXX_00073
340
0
102
{BLKREFS
331
0
102
}
  0
BLOCK_RECORD
  5
2D1
330
1
100
AcDbSymbolTableRecord
100
AcDbBlockTableRecord
  2
SUB______00074
340
0
102
{BLKREFS
331
2CE
331
73C
102
}
  0
BLOCK_RECORD
  5
2D5
330
1
100
AcDbSymbolTableRecord
100
AcDbBlockTableRecord
  2
FIG______00075
340
0
102
{BLKREFS
331
3A3
102
}
  0
BLOCK_RECORD
  5
2D9
330
1
100
AcDbSymbolTableRecord
100
AcDbBlockTableRecord
  2
_MG______00080
340
0
  0
BLOCK_RECORD
  5
2DD
330
1
100
AcDbSymbolTableRecord
100
AcDbBlockTableRecord
  2
_MG______00090
340
0
  0
BLOCK_RECORD
  5
2E1
330
1
100
AcDbSymbolTableRecord
100
AcDbBlockTableRecord
  2
_MG______00094
340
0
  0
BLOCK_RECORD
  5
2E5
330
1
100
AcDbSymbolTableRecord
100
AcDbBlockTableRecord
  2
SUB______00102
340
0
  0
BLOCK_RECORD
  5
48A
330
1
100
AcDbSymbolTableRecord
100
AcDbBlockTableRecord
  2
*D66
340
0
  0
BLOCK_RECORD
  5
4DF
330
1
100
AcDbSymbolTableRecord
100
AcDbBlockTableRecord
  2
*D67
340
0
  0
ENDTAB
  0
ENDSEC
  0
SECTION
  2
BLOCKS
  0
BLOCK
  5
20
330
1F
100
AcDbEntity
  8
0
100
AcDbBlockBegin
  2
*Model_Space
 70
     0
 10
0.0
 20
0.0
 30
0.0
  3
*Model_Space
  1

  0
ENDBLK
  5
21
330
1F
100
AcDbEntity
  8
0
100
AcDbBlockEnd
  0
BLOCK
  5
24
330
23
100
AcDbEntity
 67
     1
  8
0
100
AcDbBlockBegin
  2
*Paper_Space
 70
     0
 10
0.0
 20
0.0
 30
0.0
  3
*Paper_Space
  1

  0
ENDBLK
  5
25
330
23
100
AcDbEntity
 67
     1
  8
0
100
AcDbBlockEnd
  0
BLOCK
  5
140
330
125
100
AcDbEntity
  8
0
100
AcDbBlockBegin
  2
BEM_0001
 70
     0
 10
75.18127441
 20
131.49099731
 30
0.0
  3
BEM_0001
  1

  0
LINE
  5
126
330
125
100
AcDbEntity
  8
49
 62
     4
100
AcDbLine
 10
48.62461853
 20
131.49099731
 30
0.0
 11
75.18127441
 21
131.49099731
 31
0.0
  0
LINE
  5
127
330
125
100
AcDbEntity
  8
49
 62
     4
100
AcDbLine
 10
50.62461853
 20
131.49099731
 30
0.0
 11
49.87461853
 21
127.49099731
 31
0.0
  0
LINE
  5
128
330
125
100
AcDbEntity
  8
49
 62
     4
100
AcDbLine
 10
49.87461853
 20
127.49099731
 30
0.0
 11
51.37461853
 21
127.49099731
 31
0.0
  0
LINE
  5
129
330
125
100
AcDbEntity
  8
49
 62
     4
100
AcDbLine
 10
51.37461853
 20
127.49099731
 30
0.0
 11
50.62461853
 21
131.49099731
 31
0.0
  0
LINE
  5
12A
330
125
100
AcDbEntity
  8
49
 62
     4
100
AcDbLine
 10
50.62461853
 20
127.59099731
 30
0.0
 11
50.62461853
 21
131.39099731
 31
0.0
  0
LINE
  5
12B
330
125
100
AcDbEntity
  8
49
 62
     4
100
AcDbLine
 10
50.42461853
 20
127.59099731
 30
0.0
 11
50.42461853
 21
130.32433065
 31
0.0
  0
LINE
  5
12C
330
125
100
AcDbEntity
  8
49
 62
     4
100
AcDbLine
 10
50.82461853
 20
127.59099731
 30
0.0
 11
50.82461853
 21
130.32433065
 31
0.0
  0
LINE
  5
12D
330
125
100
AcDbEntity
  8
49
 62
     4
100
AcDbLine
 10
50.22461853
 20
127.59099731
 30
0.0
 11
50.22461853
 21
129.25766398
 31
0.0
  0
LINE
  5
12E
330
125
100
AcDbEntity
  8
49
 62
     4
100
AcDbLine
 10
51.02461853
 20
127.59099731
 30
0.0
 11
51.02461853
 21
129.25766398
 31
0.0
  0
LINE
  5
12F
330
125
100
AcDbEntity
  8
49
 62
     4
100
AcDbLine
 10
50.02461853
 20
127.59099731
 30
0.0
 11
50.02461853
 21
128.19099731
 31
0.0
  0
LINE
  5
130
330
125
100
AcDbEntity
  8
49
 62
     4
100
AcDbLine
 10
51.22461853
 20
127.59099731
 30
0.0
 11
51.22461853
 21
128.19099731
 31
0.0
  0
LINE
  5
131
330
125
100
AcDbEntity
  8
49
 62
     4
100
AcDbLine
 10
50.62461853
 20
127.49099731
 30
0.0
 11
50.62461853
 21
123.49099731
 31
0.0
  0
LINE
  5
132
330
125
100
AcDbEntity
  8
49
 62
     4
100
AcDbLine
 10
48.62461853
 20
141.49099731
 30
0.0
 11
75.68139648
 21
141.49099731
 31
0.0
  0
LINE
  5
133
330
125
100
AcDbEntity
  8
49
 62
     4
100
AcDbLine
 10
50.62461853
 20
141.49099731
 30
0.0
 11
51.37461853
 21
145.49099731
 31
0.0
  0
LINE
  5
134
330
125
100
AcDbEntity
  8
49
 62
     4
100
AcDbLine
 10
51.37461853
 20
145.49099731
 30
0.0
 11
49.87461853
 21
145.49099731
 31
0.0
  0
LINE
  5
135
330
125
100
AcDbEntity
  8
49
 62
     4
100
AcDbLine
 10
49.87461853
 20
145.49099731
 30
0.0
 11
50.62461853
 21
141.49099731
 31
0.0
  0
LINE
  5
136
330
125
100
AcDbEntity
  8
49
 62
     4
100
AcDbLine
 10
50.62461853
 20
145.39099731
 30
0.0
 11
50.62461853
 21
141.59099731
 31
0.0
  0
LINE
  5
137
330
125
100
AcDbEntity
  8
49
 62
     4
100
AcDbLine
 10
50.82461853
 20
145.39099731
 30
0.0
 11
50.82461853
 21
142.65766398
 31
0.0
  0
LINE
  5
138
330
125
100
AcDbEntity
  8
49
 62
     4
100
AcDbLine
 10
50.42461853
 20
145.39099731
 30
0.0
 11
50.42461853
 21
142.65766398
 31
0.0
  0
LINE
  5
139
330
125
100
AcDbEntity
  8
49
 62
     4
100
AcDbLine
 10
51.02461853
 20
145.39099731
 30
0.0
 11
51.02461853
 21
143.72433065
 31
0.0
  0
LINE
  5
13A
330
125
100
AcDbEntity
  8
49
 62
     4
100
AcDbLine
 10
50.22461853
 20
145.39099731
 30
0.0
 11
50.22461853
 21
143.72433065
 31
0.0
  0
LINE
  5
13B
330
125
100
AcDbEntity
  8
49
 62
     4
100
AcDbLine
 10
51.22461853
 20
145.39099731
 30
0.0
 11
51.22461853
 21
144.79099731
 31
0.0
  0
LINE
  5
13C
330
125
100
AcDbEntity
  8
49
 62
     4
100
AcDbLine
 10
50.02461853
 20
145.39099731
 30
0.0
 11
50.02461853
 21
144.79099731
 31
0.0
  0
LINE
  5
13D
330
125
100
AcDbEntity
  8
49
 62
     4
100
AcDbLine
 10
50.62461853
 20
145.49099731
 30
0.0
 11
50.62461853
 21
149.49099731
 31
0.0
  0
LINE
  5
13E
330
125
100
AcDbEntity
  8
49
 62
     4
100
AcDbLine
 10
50.62461853
 20
131.49099731
 30
0.0
 11
50.62461853
 21
141.49099731
 31
0.0
  0
TEXT
  5
13F
330
125
100
AcDbEntity
  8
49
 62
     2
100
AcDbText
 10
49.12461853
 20
133.88896595
 30
0.0
 40
3.5
  1
10
 50
90.0
 41
0.812
100
AcDbText
  0
ENDBLK
  5
141
330
125
100
AcDbEntity
  8
0
100
AcDbBlockEnd
  0
BLOCK
  5
15B
330
142
100
AcDbEntity
  8
0
100
AcDbBlockBegin
  2
BEM_0011
 70
     0
 10
72.18170166
 20
134.49127197
 30
0.0
  3
BEM_0011
  1

  0
LINE
  5
143
330
142
100
AcDbEntity
  8
49
 62
     4
100
AcDbLine
 10
72.18170166
 20
100.01773071
 30
0.0
 11
72.18170166
 21
134.49127197
 31
0.0
  0
LINE
  5
144
330
142
100
AcDbEntity
  8
49
 62
     4
100
AcDbLine
 10
72.18170166
 20
102.01773071
 30
0.0
 11
76.18170166
 21
102.76773071
 31
0.0
  0
LINE
  5
145
330
142
100
AcDbEntity
  8
49
 62
     4
100
AcDbLine
 10
76.18170166
 20
102.76773071
 30
0.0
 11
76.18170166
 21
101.26773071
 31
0.0
  0
LINE
  5
146
330
142
100
AcDbEntity
  8
49
 62
     4
100
AcDbLine
 10
76.18170166
 20
101.26773071
 30
0.0
 11
72.18170166
 21
102.01773071
 31
0.0
  0
LINE
  5
147
330
142
100
AcDbEntity
  8
49
 62
     4
100
AcDbLine
 10
76.08170166
 20
102.01773071
 30
0.0
 11
72.28170166
 21
102.01773071
 31
0.0
  0
LINE
  5
148
330
142
100
AcDbEntity
  8
49
 62
     4
100
AcDbLine
 10
76.08170166
 20
101.81773071
 30
0.0
 11
73.34836833
 21
101.81773071
 31
0.0
  0
LINE
  5
149
330
142
100
AcDbEntity
  8
49
 62
     4
100
AcDbLine
 10
76.08170166
 20
102.21773071
 30
0.0
 11
73.34836833
 21
102.21773071
 31
0.0
  0
LINE
  5
14A
330
142
100
AcDbEntity
  8
49
 62
     4
100
AcDbLine
 10
76.08170166
 20
101.61773071
 30
0.0
 11
74.41503499
 21
101.61773071
 31
0.0
  0
LINE
  5
14B
330
142
100
AcDbEntity
  8
49
 62
     4
100
AcDbLine
 10
76.08170166
 20
102.41773071
 30
0.0
 11
74.41503499
 21
102.41773071
 31
0.0
  0
LINE
  5
14C
330
142
100
AcDbEntity
  8
49
 62
     4
100
AcDbLine
 10
76.08170166
 20
101.41773071
 30
0.0
 11
75.48170166
 21
101.41773071
 31
0.0
  0
LINE
  5
14D
330
142
100
AcDbEntity
  8
49
 62
     4
100
AcDbLine
 10
76.08170166
 20
102.61773071
 30
0.0
 11
75.48170166
 21
102.61773071
 31
0.0
  0
LINE
  5
14E
330
142
100
AcDbEntity
  8
49
 62
     4
100
AcDbLine
 10
102.1463623
 20
100.01773071
 30
0.0
 11
102.1463623
 21
132.49102783
 31
0.0
  0
LINE
  5
14F
330
142
100
AcDbEntity
  8
49
 62
     4
100
AcDbLine
 10
102.1463623
 20
102.01773071
 30
0.0
 11
98.1463623
 21
101.26773071
 31
0.0
  0
LINE
  5
150
330
142
100
AcDbEntity
  8
49
 62
     4
100
AcDbLine
 10
98.1463623
 20
101.26773071
 30
0.0
 11
98.1463623
 21
102.76773071
 31
0.0
  0
LINE
  5
151
330
142
100
AcDbEntity
  8
49
 62
     4
100
AcDbLine
 10
98.1463623
 20
102.76773071
 30
0.0
 11
102.1463623
 21
102.01773071
 31
0.0
  0
LINE
  5
152
330
142
100
AcDbEntity
  8
49
 62
     4
100
AcDbLine
 10
98.2463623
 20
102.01773071
 30
0.0
 11
102.0463623
 21
102.01773071
 31
0.0
  0
LINE
  5
153
330
142
100
AcDbEntity
  8
49
 62
     4
100
AcDbLine
 10
98.2463623
 20
102.21773071
 30
0.0
 11
100.97969564
 21
102.21773071
 31
0.0
  0
LINE
  5
154
330
142
100
AcDbEntity
  8
49
 62
     4
100
AcDbLine
 10
98.2463623
 20
101.81773071
 30
0.0
 11
100.97969564
 21
101.81773071
 31
0.0
  0
LINE
  5
155
330
142
100
AcDbEntity
  8
49
 62
     4
100
AcDbLine
 10
98.2463623
 20
102.41773071
 30
0.0
 11
99.91302897
 21
102.41773071
 31
0.0
  0
LINE
  5
156
330
142
100
AcDbEntity
  8
49
 62
     4
100
AcDbLine
 10
98.2463623
 20
101.61773071
 30
0.0
 11
99.91302897
 21
101.61773071
 31
0.0
  0
LINE
  5
157
330
142
100
AcDbEntity
  8
49
 62
     4
100
AcDbLine
 10
98.2463623
 20
102.61773071
 30
0.0
 11
98.8463623
 21
102.61773071
 31
0.0
  0
LINE
  5
158
330
142
100
AcDbEntity
  8
49
 62
     4
100
AcDbLine
 10
98.2463623
 20
101.41773071
 30
0.0
 11
98.8463623
 21
101.41773071
 31
0.0
  0
LINE
  5
159
330
142
100
AcDbEntity
  8
49
 62
     4
100
AcDbLine
 10
76.18170166
 20
102.01773071
 30
0.0
 11
98.1463623
 21
102.01773071
 31
0.0
  0
TEXT
  5
15A
330
142
100
AcDbEntity
  8
49
 62
     2
100
AcDbText
 10
84.5620004
 20
103.51773071
 30
0.0
 40
3.5
  1
30
 41
0.812
100
AcDbText
  0
ENDBLK
  5
15C
330
142
100
AcDbEntity
  8
0
100
AcDbBlockEnd
  0
BLOCK
  5
175
330
15D
100
AcDbEntity
  8
0
100
AcDbBlockBegin
  2
BEM_0015
 70
     0
 10
102.18145752
 20
129.65264893
 30
0.0
  3
BEM_0015
  1

  0
LINE
  5
15E
330
15D
100
AcDbEntity
  8
49
 62
     4
100
AcDbLine
 10
114.38473827
 20
117.44939238
 30
0.0
 11
111.71527009
 21
114.37751354
 31
0.0
  0
LINE
  5
15F
330
15D
100
AcDbEntity
  8
49
 62
     4
100
AcDbLine
 10
111.71527009
 20
114.37751354
 30
0.0
 11
110.78376088
 21
115.55322209
 31
0.0
  0
LINE
  5
160
330
15D
100
AcDbEntity
  8
49
 62
     4
100
AcDbLine
 10
110.78376088
 20
115.55322209
 30
0.0
 11
114.38473827
 21
117.44939238
 31
0.0
  0
LINE
  5
161
330
15D
100
AcDbEntity
  8
49
 62
     4
100
AcDbLine
 10
111.32789605
 20
115.02746843
 30
0.0
 11
114.3063577
 21
117.38729177
 31
0.0
  0
LINE
  5
162
330
15D
100
AcDbEntity
  8
49
 62
     4
100
AcDbLine
 10
111.20369482
 20
115.18422957
 30
0.0
 11
113.34609706
 21
116.88164635
 31
0.0
  0
LINE
  5
163
330
15D
100
AcDbEntity
  8
49
 62
     4
100
AcDbLine
 10
111.45209728
 20
114.87070729
 30
0.0
 11
113.59449952
 21
116.56812407
 31
0.0
  0
LINE
  5
164
330
15D
100
AcDbEntity
  8
49
 62
     4
100
AcDbLine
 10
111.07949359
 20
115.34099071
 30
0.0
 11
112.38583642
 21
116.37600094
 31
0.0
  0
LINE
  5
165
330
15D
100
AcDbEntity
  8
49
 62
     4
100
AcDbLine
 10
111.57629851
 20
114.71394615
 30
0.0
 11
112.88264134
 21
115.74895638
 31
0.0
  0
LINE
  5
166
330
15D
100
AcDbEntity
  8
49
 62
     4
100
AcDbLine
 10
110.95529237
 20
115.49775185
 30
0.0
 11
111.42557579
 21
115.87035553
 31
0.0
  0
LINE
  5
167
330
15D
100
AcDbEntity
  8
49
 62
     4
100
AcDbLine
 10
111.70049974
 20
114.55718501
 30
0.0
 11
112.17078315
 21
114.92978869
 31
0.0
  0
LINE
  5
168
330
15D
100
AcDbEntity
  8
49
 62
     4
100
AcDbLine
 10
102.18145752
 20
110.3946209
 30
0.0
 11
102.18145752
 21
112.3946228
 31
0.0
  0
LINE
  5
169
330
15D
100
AcDbEntity
  8
49
 62
     4
100
AcDbLine
 10
102.18145752
 20
112.3946209
 30
0.0
 11
106.06852673
 21
113.60010542
 31
0.0
  0
LINE
  5
16A
330
15D
100
AcDbEntity
  8
49
 62
     4
100
AcDbLine
 10
106.06852673
 20
113.60010542
 30
0.0
 11
106.24120322
 21
112.11007762
 31
0.0
  0
LINE
  5
16B
330
15D
100
AcDbEntity
  8
49
 62
     4
100
AcDbLine
 10
106.24120322
 20
112.11007762
 30
0.0
 11
102.18145752
 21
112.3946209
 31
0.0
  0
LINE
  5
16C
330
15D
100
AcDbEntity
  8
49
 62
     4
100
AcDbLine
 10
106.05552979
 20
112.84357975
 30
0.0
 11
102.28079271
 21
112.40613266
 31
0.0
  0
LINE
  5
16D
330
15D
100
AcDbEntity
  8
49
 62
     4
100
AcDbLine
 10
106.07855332
 20
112.64490938
 30
0.0
 11
103.36339156
 21
112.33025445
 31
0.0
  0
LINE
  5
16E
330
15D
100
AcDbEntity
  8
49
 62
     4
100
AcDbLine
 10
106.03250626
 20
113.04225013
 30
0.0
 11
103.3173445
 21
112.7275952
 31
0.0
  0
LINE
  5
16F
330
15D
100
AcDbEntity
  8
49
 62
     4
100
AcDbLine
 10
106.10157685
 20
112.44623901
 30
0.0
 11
104.44599041
 21
112.25437625
 31
0.0
  0
LINE
  5
170
330
15D
100
AcDbEntity
  8
49
 62
     4
100
AcDbLine
 10
106.00948273
 20
113.2409205
 30
0.0
 11
104.35389629
 21
113.04905774
 31
0.0
  0
LINE
  5
171
330
15D
100
AcDbEntity
  8
49
 62
     4
100
AcDbLine
 10
106.12460038
 20
112.24756863
 30
0.0
 11
105.52858926
 21
112.17849804
 31
0.0
  0
LINE
  5
172
330
15D
100
AcDbEntity
  8
49
 62
     4
100
AcDbLine
 10
105.9864592
 20
113.43959087
 30
0.0
 11
105.39044808
 21
113.37052028
 31
0.0
  0
ARC
  5
173
330
15D
100
AcDbEntity
  8
49
 62
     4
100
AcDbCircle
 10
102.18145752
 20
129.65264893
 30
0.0
 40
17.26110951
100
AcDbArc
 50
283.3085059220001
 51
301.691550906
  0
TEXT
  5
174
330
15D
100
AcDbEntity
  8
49
 62
     2
100
AcDbText
 10
104.49419727
 20
113.55424827
 30
0.0
 40
3.5
  1
45°
 50
22.500028917
 41
0.812
100
AcDbText
  0
ENDBLK
  5
176
330
15D
100
AcDbEntity
  8
0
100
AcDbBlockEnd
  0
BLOCK
  5
19B
330
177
100
AcDbEntity
  8
0
100
AcDbBlockBegin
  2
0________00006
 70
     0
 10
165.08105469
 20
1.32547545
 30
0.0
  3
0________00006
  1

  0
TEXT
  5
178
330
177
100
AcDbEntity
  8
1
 62
     1
100
AcDbText
 10
165.08105469
 20
1.32547545
 30
0.0
 40
2.5
  1
645617A0
 41
0.602
100
AcDbText
  0
TEXT
  5
179
330
177
100
AcDbEntity
  8
2
 62
     1
100
AcDbText
 10
174.6255188
 20
14.21250153
 30
0.0
 40
3.5
  1
1
 41
0.422
100
AcDbText
  0
TEXT
  5
17A
330
177
100
AcDbEntity
  8
2
 62
     1
100
AcDbText
 10
146.0710144
 20
55.38437653
 30
0.0
 40
2.5
  1
(Gewicht)
 41
0.484
100
AcDbText
  0
TEXT
  5
17B
330
177
100
AcDbEntity
  8
2
 62
     1
100
AcDbText
 10
169.65950012
 20
9.96250153
 30
0.0
 40
2.0
  1
Blätter
 41
0.5
100
AcDbText
  0
TEXT
  5
17C
330
177
100
AcDbEntity
  8
2
 62
     1
100
AcDbText
 10
167.17652893
 20
18.46250153
 30
0.0
 40
2.0
  1
Blatt
 41
0.484
100
AcDbText
  0
TEXT
  5
17D
330
177
100
AcDbEntity
  8
2
 62
     1
100
AcDbText
 10
167.17652893
 20
9.96250153
 30
0.0
 40
2.5
  1
1
 41
0.422
100
AcDbText
  0
TEXT
  5
17E
330
177
100
AcDbEntity
  8
2
 62
     1
100
AcDbText
 10
5.73614693
 20
5.74433279
 30
0.0
 40
2.0
  1
Zust.
 41
0.5
100
AcDbText
  0
TEXT
  5
17F
330
177
100
AcDbEntity
  8
2
 62
     1
100
AcDbText
 10
13.0336132
 20
5.74433279
 30
0.0
 40
2.0
  1
Änderung
 41
0.58
100
AcDbText
  0
TEXT
  5
180
330
177
100
AcDbEntity
  8
2
 62
     1
100
AcDbText
 10
37.37797928
 20
5.68318033
 30
0.0
 40
2.0
  1
Datum
 41
0.6
100
AcDbText
  0
TEXT
  5
181
330
177
100
AcDbEntity
  8
2
 62
     1
100
AcDbText
 10
48.93716812
 20
5.68318033
 30
0.0
 40
2.0
  1
Name
 41
0.645
100
AcDbText
  0
TEXT
  5
182
330
177
100
AcDbEntity
  8
2
 62
     1
100
AcDbText
 10
56.58492279
 20
5.74433279
 30
0.0
 40
2.0
  1
Ursprung
 41
0.5660000000000001
100
AcDbText
  0
TEXT
  5
183
330
177
100
AcDbEntity
  8
2
 62
     1
100
AcDbText
 10
56.58492279
 20
27.02536774
 30
0.0
 40
2.0
  1
Norm
 41
0.625
100
AcDbText
  0
TEXT
  5
184
330
177
100
AcDbEntity
  8
2
 62
     1
100
AcDbText
 10
56.99357605
 20
31.18373108
 30
0.0
 40
2.0
  1
Gepr.
 41
0.516
100
AcDbText
  0
TEXT
  5
185
330
177
100
AcDbEntity
  8
2
 62
     1
100
AcDbText
 10
56.93519974
 20
35.52555084
 30
0.0
 40
2.0
  1
Bearb.
 41
0.518
100
AcDbText
  0
TEXT
  5
186
330
177
100
AcDbEntity
  8
2
 62
     1
100
AcDbText
 10
66.57157898
 20
35.55443573
 30
0.0
 40
2.5
  1
04.10.98
 41
0.52
100
AcDbText
  0
TEXT
  5
187
330
177
100
AcDbEntity
  8
2
 62
     1
100
AcDbText
 10
81.09772491
 20
35.55443573
 30
0.0
 40
2.5
  1
R. Helwig
 41
0.526
100
AcDbText
  0
TEXT
  5
188
330
177
100
AcDbEntity
  8
2
 62
     1
100
AcDbText
 10
98.02488708
 20
55.42331314
 30
0.0
 40
2.5
  1
Maßstab  1 : 1
 41
0.537
100
AcDbText
  0
TEXT
  5
189
330
177
100
AcDbEntity
  8
2
 62
     1
100
AcDbText
 10
98.06256104
 20
5.81300592
 30
0.0
 40
2.0
  1
Ersatz für:
 41
0.507
100
AcDbText
  0
TEXT
  5
18A
330
177
100
AcDbEntity
  8
2
 62
     1
100
AcDbText
 10
139.18174744
 20
5.59212351
 30
0.0
 40
2.0
  1
Ersatz durch:
 41
0.53
100
AcDbText
  0
TEXT
  5
18B
330
177
100
AcDbEntity
  8
2
 62
     1
100
AcDbText
 10
66.12873077
 20
39.80651474
 30
0.0
 40
2.0
  1
Datum
 41
0.6
100
AcDbText
  0
TEXT
  5
18C
330
177
100
AcDbEntity
  8
2
 62
     1
100
AcDbText
 10
80.66371155
 20
39.80651474
 30
0.0
 40
2.0
  1
Name
 41
0.645
100
AcDbText
  0
LINE
  5
18D
330
177
100
AcDbEntity
  8
2
 62
     1
100
AcDbLine
 10
65.49073792
 20
13.25965881
 30
0.0
 11
87.93517303
 21
13.25965881
 31
0.0
  0
TEXT
  5
18E
330
177
100
AcDbEntity
  8
2
 62
     1
100
AcDbText
 10
66.09735107
 20
14.51605988
 30
0.0
 40
3.5
  1
Schlüter
 41
0.7759999999999999
100
AcDbText
  0
LINE
  5
18F
330
177
100
AcDbEntity
  8
2
100
AcDbLine
 10
116.3210144
 20
29.4047966
 30
0.0
 11
164.97950745
 21
29.4047966
 31
0.0
  0
TEXT
  5
190
330
177
100
AcDbEntity
  8
2
100
AcDbText
 10
117.21703339
 20
30.96907425
 30
0.0
 40
5.0
  1
TREPP  20
 41
0.62
100
AcDbText
  0
TEXT
  5
191
330
177
100
AcDbEntity
  8
2
100
AcDbText
 10
117.21703339
 20
23.46907425
 30
0.0
 40
5.0
  1
 
 41
0.578
100
AcDbText
  0
TEXT
  5
192
330
177
100
AcDbEntity
  8
2
100
AcDbText
 10
107.12672424
 20
12.90778732
 30
0.0
 40
5.0
  1
Rollensatz Nr. 17/A
 41
0.55
100
AcDbText
  0
TEXT
  5
193
330
177
100
AcDbEntity
  8
2
100
AcDbText
 10
107.12672424
 20
5.40778732
 30
0.0
 40
5.0
  1
 
 41
0.578
100
AcDbText
  0
LINE
  5
194
330
177
100
AcDbEntity
  8
6
100
AcDbLine
 10
72.18134308
 20
187.99127197
 30
0.0
 11
72.18134308
 21
251.9019165
 31
0.0
  0
LINE
  5
195
330
177
100
AcDbEntity
  8
6
100
AcDbLine
 10
76.91333771
 20
188.97171021
 30
0.0
 11
76.91333771
 21
252.98907471
 31
0.0
  0
LINE
  5
196
330
177
100
AcDbEntity
  8
6
100
AcDbLine
 10
102.18112183
 20
190.67938232
 30
0.0
 11
102.18112183
 21
253.2401123
 31
0.0
  0
LINE
  5
197
330
177
100
AcDbEntity
  8
6
100
AcDbLine
 10
127.94088745
 20
190.72549438
 30
0.0
 11
127.94088745
 21
249.57051086
 31
0.0
  0
LINE
  5
198
330
177
100
AcDbEntity
  8
6
  6
STRICHPUNKT
 62
     1
100
AcDbLine
 10
81.68132782
 20
190.21995544
 30
0.0
 11
81.68132782
 21
253.93347168
 31
0.0
  0
LINE
  5
199
330
177
100
AcDbEntity
  8
6
  6
STRICHPUNKT
 62
     1
100
AcDbLine
 10
75.08132935
 20
190.21995544
 30
0.0
 11
75.08132935
 21
253.93347168
 31
0.0
  0
CIRCLE
  5
19A
330
177
100
AcDbEntity
  8
6
  6
GESTRICHELT
 62
     1
100
AcDbCircle
 10
75.08132935
 20
200.91320801
 30
0.0
 40
0.60000001
  0
ENDBLK
  5
19C
330
177
100
AcDbEntity
  8
0
100
AcDbBlockEnd
  0
BLOCK
  5
1B8
330
19D
100
AcDbEntity
  8
0
100
AcDbBlockBegin
  2
_Z1_XXXX_00018
 70
     0
 10
79.44769286
 20
190.15478494
 30
0.0
  3
_Z1_XXXX_00018
  1

  0
ARC
  5
19E
330
19D
100
AcDbEntity
  8
6
 62
     1
100
AcDbCircle
 10
79.65708918
 20
187.89604021
 30
0.0
 40
2.26842998
100
AcDbArc
 50
95.296451692
 51
101.065094896
  0
ARC
  5
19F
330
19D
100
AcDbEntity
  8
6
 62
     1
100
AcDbCircle
 10
81.34095027
 20
179.28556575
 30
0.0
 40
11.03664521
100
AcDbArc
 50
101.065094896
 51
105.545804746
  0
ARC
  5
1A0
330
19D
100
AcDbEntity
  8
6
 62
     1
100
AcDbCircle
 10
107.18335848
 20
86.38962789
 30
0.0
 40
107.460114
100
AcDbArc
 50
105.545851043
 51
108.278625488
  0
ARC
  5
1A1
330
19D
100
AcDbEntity
  8
6
 62
     1
100
AcDbCircle
 10
107.18335848
 20
86.38962789
 30
0.0
 40
107.460114
100
AcDbArc
 50
108.278625488
 51
109.087676526
  0
ARC
  5
1A2
330
19D
100
AcDbEntity
  8
6
 62
     1
100
AcDbCircle
 10
81.13308517
 20
166.92649865
 30
0.0
 40
23.30470515
100
AcDbArc
 50
84.07568287
 51
88.058044434
  0
ARC
  5
1A3
330
19D
100
AcDbEntity
  8
6
 62
     1
100
AcDbCircle
 10
81.13308517
 20
166.92649865
 30
0.0
 40
23.2997112
100
AcDbArc
 50
88.058044434
 51
93.44905524100001
  0
ARC
  5
1A4
330
19D
100
AcDbEntity
  8
6
 62
     1
100
AcDbCircle
 10
79.96237497
 20
186.35097658
 30
0.0
 40
3.83998599
100
AcDbArc
 50
93.44915568299999
 51
97.70567699500002
  0
ARC
  5
1A5
330
19D
100
AcDbEntity
  8
6
 62
     1
100
AcDbCircle
 10
87.70804446
 20
229.83928022
 30
0.0
 40
39.95072707
100
AcDbArc
 50
264.009232465
 51
266.351699829
  0
ARC
  5
1A6
330
19D
100
AcDbEntity
  8
6
 62
     1
100
AcDbCircle
 10
87.70804446
 20
229.83928022
 30
0.0
 40
39.94681644
100
AcDbArc
 50
266.351699829
 51
269.694386132
  0
ARC
  5
1A7
330
19D
100
AcDbEntity
  8
6
 62
     1
100
AcDbCircle
 10
87.5200802
 20
194.5947346
 30
0.0
 40
4.70176961
100
AcDbArc
 50
269.694010678
 51
271.484177049
  0
ARC
  5
1A8
330
19D
100
AcDbEntity
  8
6
 62
     1
100
AcDbCircle
 10
87.37926549
 20
197.95858864
 30
0.0
 40
8.06697371
100
AcDbArc
 50
271.8650922800001
 51
272.940316313
  0
ARC
  5
1A9
330
19D
100
AcDbEntity
  8
6
 62
     1
100
AcDbCircle
 10
83.77011276
 20
268.22371414
 30
0.0
 40
78.42631678
100
AcDbArc
 50
272.940392303
 51
275.68019104
  0
ARC
  5
1AA
330
19D
100
AcDbEntity
  8
6
 62
     1
100
AcDbCircle
 10
83.77011276
 20
268.22371414
 30
0.0
 40
78.42631678
100
AcDbArc
 50
275.68019104
 51
277.567314082
  0
ARC
  5
1AB
330
19D
100
AcDbEntity
  8
6
 62
     1
100
AcDbCircle
 10
100.20386023
 20
184.27087802
 30
0.0
 40
6.59437125
100
AcDbArc
 50
86.958086688
 51
89.961573944
  0
ARC
  5
1AC
330
19D
100
AcDbEntity
  8
6
 62
     1
100
AcDbCircle
 10
100.17716169
 20
144.48314684
 30
0.0
 40
46.38461197
100
AcDbArc
 50
89.961556088
 51
94.35382080100001
  0
ARC
  5
1AD
330
19D
100
AcDbEntity
  8
6
 62
     1
100
AcDbCircle
 10
100.17716169
 20
144.48314684
 30
0.0
 40
46.38461197
100
AcDbArc
 50
94.35382080100001
 51
97.52854940799999
  0
ARC
  5
1AE
330
19D
100
AcDbEntity
  8
6
 62
     1
100
AcDbCircle
 10
96.58561086
 20
151.79889848
 30
0.0
 40
39.28142452
100
AcDbArc
 50
74.61341127600001
 51
78.39443969700001
  0
ARC
  5
1AF
330
19D
100
AcDbEntity
  8
6
 62
     1
100
AcDbCircle
 10
96.58561086
 20
151.79889848
 30
0.0
 40
39.27356049
100
AcDbArc
 50
78.39443969700001
 51
83.556626996
  0
ARC
  5
1B0
330
19D
100
AcDbEntity
  8
6
 62
     1
100
AcDbCircle
 10
100.28928846
 20
184.59352305
 30
0.0
 40
6.27046021
100
AcDbArc
 50
83.556908375
 51
87.581435199
  0
ARC
  5
1B1
330
19D
100
AcDbEntity
  8
6
 62
     1
100
AcDbCircle
 10
115.63700959
 20
221.11248699
 30
0.0
 40
32.60271047
100
AcDbArc
 50
254.652931195
 51
259.183959961
  0
ARC
  5
1B2
330
19D
100
AcDbEntity
  8
6
 62
     1
100
AcDbCircle
 10
115.63700959
 20
221.11248699
 30
0.0
 40
32.594345
100
AcDbArc
 50
259.183959961
 51
265.250111176
  0
ARC
  5
1B3
330
19D
100
AcDbEntity
  8
6
 62
     1
100
AcDbCircle
 10
113.42372928
 20
194.47540819
 30
0.0
 40
5.8654734
100
AcDbArc
 50
265.249739132
 51
270.410734646
  0
ARC
  5
1B4
330
19D
100
AcDbEntity
  8
6
 62
     1
100
AcDbCircle
 10
113.64331871
 20
193.44340583
 30
0.0
 40
4.83444204
100
AcDbArc
 50
267.894980768
 51
273.244840095
  0
ARC
  5
1B5
330
19D
100
AcDbEntity
  8
6
 62
     1
100
AcDbCircle
 10
112.54991529
 20
212.72953661
 30
0.0
 40
24.14135994
100
AcDbArc
 50
273.244840095
 51
277.522507927
  0
ARC
  5
1B6
330
19D
100
AcDbEntity
  8
6
 62
     1
100
AcDbCircle
 10
83.60193652
 20
431.94228488
 30
0.0
 40
245.25719944
100
AcDbArc
 50
277.522614665
 51
280.087371826
  0
ARC
  5
1B7
330
19D
100
AcDbEntity
  8
6
 62
     1
100
AcDbCircle
 10
83.60193652
 20
431.94228488
 30
0.0
 40
245.25719944
100
AcDbArc
 50
280.087371826
 51
280.844409708
  0
ENDBLK
  5
1B9
330
19D
100
AcDbEntity
  8
0
100
AcDbBlockEnd
  0
BLOCK
  5
1BC
330
1BA
100
AcDbEntity
  8
0
100
AcDbBlockBegin
  2
FIG______00019
 70
     0
 10
0.0
 20
0.0
 30
0.0
  3
FIG______00019
  1

  0
INSERT
  5
1BB
330
1BA
100
AcDbEntity
  8
0
100
AcDbBlockReference
  2
SUB______00020
 10
94.88131714
 20
190.21995544
 30
0.0
  0
ENDBLK
  5
1BD
330
1BA
100
AcDbEntity
  8
0
100
AcDbBlockEnd
  0
BLOCK
  5
1C2
330
1BE
100
AcDbEntity
  8
0
100
AcDbBlockBegin
  2
SUB______00020
 70
     0
 10
94.88131714
 20
190.21995544
 30
0.0
  3
SUB______00020
  1

  0
LINE
  5
1BF
330
1BE
100
AcDbEntity
  8
6
  6
STRICHPUNKT
 62
     1
100
AcDbLine
 10
94.88131714
 20
190.21995544
 30
0.0
 11
94.88131714
 21
254.95330811
 31
0.0
  0
LINE
  5
1C0
330
1BE
100
AcDbEntity
  8
6
100
AcDbLine
 10
93.39807129
 20
190.21234131
 30
0.0
 11
93.39807129
 21
253.84063721
 31
0.0
  0
LINE
  5
1C1
330
1BE
100
AcDbEntity
  8
6
100
AcDbLine
 10
96.36454773
 20
190.14155579
 30
0.0
 11
96.36454773
 21
253.56317139
 31
0.0
  0
ENDBLK
  5
1C3
330
1BE
100
AcDbEntity
  8
0
100
AcDbBlockEnd
  0
BLOCK
  5
1C9
330
1C4
100
AcDbEntity
  8
0
100
AcDbBlockBegin
  2
FIG______00021
 70
     0
 10
107.94088721
 20
201.18515015
 30
0.0
  3
FIG______00021
  1

  0
LWPOLYLINE
  5
1C5
330
1C4
100
AcDbEntity
  8
6
100
AcDbPolyline
 90
        6
 70
     0
 43
0.0
 10
107.94088721
 20
201.18515015
 42
0.560027038
 10
110.84886932
 20
199.40313721
 10
120.84886185
 20
204.49839797
 42
0.282029947
 10
121.94088745
 20
206.28041077
 10
121.94087064
 20
214.08988953
 42
0.282029012
 10
120.84886185
 20
215.87188707
  0
LINE
  5
1C6
330
1C4
100
AcDbEntity
  8
6
100
AcDbLine
 10
110.84886932
 20
220.96716309
 30
0.0
 11
120.84886169
 21
215.87188721
 31
0.0
  0
LINE
  5
1C7
330
1C4
100
AcDbEntity
  8
6
100
AcDbLine
 10
107.94088745
 20
201.18515015
 30
0.0
 11
107.94088745
 21
219.18515015
 31
0.0
  0
ARC
  5
1C8
330
1C4
100
AcDbEntity
  8
6
100
AcDbCircle
 10
109.94088745
 20
219.18515015
 30
0.0
 40
2.0
100
AcDbArc
 50
62.999977469
 51
180.0
  0
ENDBLK
  5
1CA
330
1C4
100
AcDbEntity
  8
0
100
AcDbBlockEnd
  0
BLOCK
  5
1D3
330
1CB
100
AcDbEntity
  8
0
100
AcDbBlockBegin
  2
FIG______00022
 70
     0
 10
119.03290564
 20
226.40313724
 30
0.0
  3
FIG______00022
  1

  0
ARC
  5
1CC
330
1CB
100
AcDbEntity
  8
6
100
AcDbCircle
 10
119.94088745
 20
228.18515015
 30
0.0
 40
2.00000024
100
AcDbArc
 50
242.999977469
 51
0.0
  0
LINE
  5
1CD
330
1CB
100
AcDbEntity
  8
6
100
AcDbLine
 10
119.03289795
 20
226.40313721
 30
0.0
 11
109.03290558
 21
231.49839783
 31
0.0
  0
ARC
  5
1CE
330
1CB
100
AcDbEntity
  8
6
100
AcDbCircle
 10
109.94089508
 20
233.28041077
 30
0.0
 40
1.99999678
100
AcDbArc
 50
180.0
 51
243.000165224
  0
LINE
  5
1CF
330
1CB
100
AcDbEntity
  8
6
100
AcDbLine
 10
107.94088745
 20
233.28041077
 30
0.0
 11
107.94088745
 21
241.08990479
 31
0.0
  0
ARC
  5
1D0
330
1CB
100
AcDbEntity
  8
6
100
AcDbCircle
 10
109.94089508
 20
241.08990479
 30
0.0
 40
1.99998319
100
AcDbArc
 50
117.000033259
 51
180.0
  0
LINE
  5
1D1
330
1CB
100
AcDbEntity
  8
6
100
AcDbLine
 10
119.03289795
 20
247.96716309
 30
0.0
 11
109.03290558
 21
242.87188721
 31
0.0
  0
LWPOLYLINE
  5
1D2
330
1CB
100
AcDbEntity
  8
6
100
AcDbPolyline
 90
        3
 70
     0
 43
0.0
 10
121.94088745
 20
228.18515015
 10
121.94088745
 20
246.18515015
 42
0.5600270070000001
 10
119.03290592
 20
247.96716292
  0
ENDBLK
  5
1D4
330
1CB
100
AcDbEntity
  8
0
100
AcDbBlockEnd
  0
BLOCK
  5
1D9
330
1D5
100
AcDbEntity
  8
0
100
AcDbBlockBegin
  2
FIG______00023
 70
     0
 10
121.94088745
 20
192.18515015
 30
0.0
  3
FIG______00023
  1

  0
ARC
  5
1D6
330
1D5
100
AcDbEntity
  8
6
100
AcDbCircle
 10
119.94088745
 20
192.18515015
 30
0.0
 40
2.0
100
AcDbArc
 50
0.0
 51
117.000017166
  0
LINE
  5
1D7
330
1D5
100
AcDbEntity
  8
6
100
AcDbLine
 10
121.94088745
 20
189.69212341
 30
0.0
 11
121.94088745
 21
192.18515015
 31
0.0
  0
LINE
  5
1D8
330
1D5
100
AcDbEntity
  8
6
100
AcDbLine
 10
119.03289795
 20
193.96716309
 30
0.0
 11
109.48748016
 21
189.10350037
 31
0.0
  0
ENDBLK
  5
1DA
330
1D5
100
AcDbEntity
  8
0
100
AcDbBlockEnd
  0
BLOCK
  5
1EC
330
1DB
100
AcDbEntity
  8
0
100
AcDbBlockBegin
  2
_Z1_XXXX_00024
 70
     0
 10
82.23124497
 20
253.98312697
 30
0.0
  3
_Z1_XXXX_00024
  1

  0
ARC
  5
1DC
330
1DB
100
AcDbEntity
  8
6
 62
     1
100
AcDbCircle
 10
82.34362674
 20
250.96356368
 30
0.0
 40
3.02165387
100
AcDbArc
 50
92.13144405
 51
96.80083143400002
  0
ARC
  5
1DD
330
1DB
100
AcDbEntity
  8
6
 62
     1
100
AcDbCircle
 10
83.85216042
 20
238.31418147
 30
0.0
 40
15.75554953
100
AcDbArc
 50
96.80083143400002
 51
100.749053891
  0
ARC
  5
1DE
330
1DB
100
AcDbEntity
  8
6
 62
     1
100
AcDbCircle
 10
113.02422936
 20
84.65129124
 30
0.0
 40
172.1630092
100
AcDbArc
 50
100.749343753
 51
103.048400879
  0
ARC
  5
1DF
330
1DB
100
AcDbEntity
  8
6
 62
     1
100
AcDbCircle
 10
113.02422936
 20
84.65129124
 30
0.0
 40
172.1630092
100
AcDbArc
 50
103.048400879
 51
103.723159087
  0
ARC
  5
1E0
330
1DB
100
AcDbEntity
  8
6
 62
     1
100
AcDbCircle
 10
86.31317207
 20
162.15996507
 30
0.0
 40
91.92807967
100
AcDbArc
 50
86.996059198
 51
89.208374023
  0
ARC
  5
1E1
330
1DB
100
AcDbEntity
  8
6
 62
     1
100
AcDbCircle
 10
86.31317207
 20
162.15996507
 30
0.0
 40
91.9198765
100
AcDbArc
 50
89.208374023
 51
92.371445135
  0
ARC
  5
1E2
330
1DB
100
AcDbEntity
  8
6
 62
     1
100
AcDbCircle
 10
82.9408633
 20
243.59096037
 30
0.0
 40
10.41908225
100
AcDbArc
 50
92.371485889
 51
93.90645396200001
  0
ARC
  5
1E3
330
1DB
100
AcDbEntity
  8
6
 62
     1
100
AcDbCircle
 10
63.89750088
 20
-286.25974479
 30
0.0
 40
540.90672041
100
AcDbArc
 50
86.169770592
 51
86.736877441
  0
ARC
  5
1E4
330
1DB
100
AcDbEntity
  8
6
 62
     1
100
AcDbCircle
 10
63.89750088
 20
-286.25974479
 30
0.0
 40
540.90504846
100
AcDbArc
 50
86.736877441
 51
87.114056006
  0
ARC
  5
1E5
330
1DB
100
AcDbEntity
  8
6
 62
     1
100
AcDbCircle
 10
91.43646601
 20
149.25416298
 30
0.0
 40
104.54177477
100
AcDbArc
 50
82.347669251
 51
83.521453857
  0
ARC
  5
1E6
330
1DB
100
AcDbEntity
  8
6
 62
     1
100
AcDbCircle
 10
91.43646601
 20
149.25416298
 30
0.0
 40
104.53844144
100
AcDbArc
 50
83.521453857
 51
85.284529422
  0
ARC
  5
1E7
330
1DB
100
AcDbEntity
  8
6
 62
     1
100
AcDbCircle
 10
-86.52627301
 20
-1193.25156054
 30
0.0
 40
1458.79140907
100
AcDbArc
 50
82.231109135
 51
82.357452393
  0
ARC
  5
1E8
330
1DB
100
AcDbEntity
  8
6
 62
     1
100
AcDbCircle
 10
-86.52627301
 20
-1193.25156054
 30
0.0
 40
1458.79092954
100
AcDbArc
 50
82.357452393
 51
82.44157636400001
  0
ARC
  5
1E9
330
1DB
100
AcDbEntity
  8
6
 62
     1
100
AcDbCircle
 10
-293.55301801
 20
-2508.05110314
 30
0.0
 40
2789.64761937
100
AcDbArc
 50
81.309774457
 51
81.381500244
  0
ARC
  5
1EA
330
1DB
100
AcDbEntity
  8
6
 62
     1
100
AcDbCircle
 10
-293.55301801
 20
-2508.05110314
 30
0.0
 40
2789.64697699
100
AcDbArc
 50
81.381500244
 51
81.653702022
  0
ARC
  5
1EB
330
1DB
100
AcDbEntity
  8
6
 62
     1
100
AcDbCircle
 10
102.21265985
 20
189.56546589
 30
0.0
 40
63.15369344
100
AcDbArc
 50
81.653263331
 51
82.30432009399999
  0
ENDBLK
  5
1ED
330
1DB
100
AcDbEntity
  8
0
100
AcDbBlockEnd
  0
BLOCK
  5
1F1
330
1EE
100
AcDbEntity
  8
0
100
AcDbBlockBegin
  2
_MK_XXXX_00025
 70
     0
 10
81.08132781
 20
195.91320801
 30
0.0
  3
_MK_XXXX_00025
  1

  0
CIRCLE
  5
1EF
330
1EE
100
AcDbEntity
  8
6
 62
     1
100
AcDbCircle
 10
81.68132782
 20
195.91320801
 30
0.0
 40
0.60000001
  0
INSERT
  5
1F0
330
1EE
100
AcDbEntity
  8
0
100
AcDbBlockReference
  2
SUB______00026
 10
84.81359863
 20
195.91320801
 30
0.0
  0
ENDBLK
  5
1F2
330
1EE
100
AcDbEntity
  8
0
100
AcDbBlockEnd
  0
BLOCK
  5
1F5
330
1F3
100
AcDbEntity
  8
0
100
AcDbBlockBegin
  2
SUB______00026
 70
     0
 10
84.81359863
 20
195.91320801
 30
0.0
  3
SUB______00026
  1

  0
LINE
  5
1F4
330
1F3
100
AcDbEntity
  8
7
  6
STRICHPUNKT
 62
     1
100
AcDbLine
 10
84.81359863
 20
195.91320801
 30
0.0
 11
78.83283234
 21
195.91320801
 31
0.0
  0
ENDBLK
  5
1F6
330
1F3
100
AcDbEntity
  8
0
100
AcDbBlockEnd
  0
BLOCK
  5
1FA
330
1F7
100
AcDbEntity
  8
0
100
AcDbBlockBegin
  2
_MK_XXXX_00027
 70
     0
 10
94.28132476
 20
195.91320801
 30
0.0
  3
_MK_XXXX_00027
  1

  0
CIRCLE
  5
1F8
330
1F7
100
AcDbEntity
  8
6
 62
     1
100
AcDbCircle
 10
94.88132477
 20
195.91320801
 30
0.0
 40
0.60000001
  0
INSERT
  5
1F9
330
1F7
100
AcDbEntity
  8
0
100
AcDbBlockReference
  2
SUB______00028
 10
97.86165619
 20
195.91320801
 30
0.0
  0
ENDBLK
  5
1FB
330
1F7
100
AcDbEntity
  8
0
100
AcDbBlockEnd
  0
BLOCK
  5
1FE
330
1FC
100
AcDbEntity
  8
0
100
AcDbBlockBegin
  2
SUB______00028
 70
     0
 10
97.86165619
 20
195.91320801
 30
0.0
  3
SUB______00028
  1

  0
LINE
  5
1FD
330
1FC
100
AcDbEntity
  8
7
  6
STRICHPUNKT
 62
     1
100
AcDbLine
 10
97.86165619
 20
195.91320801
 30
0.0
 11
92.00756836
 21
195.91320801
 31
0.0
  0
ENDBLK
  5
1FF
330
1FC
100
AcDbEntity
  8
0
100
AcDbBlockEnd
  0
BLOCK
  5
203
330
200
100
AcDbEntity
  8
0
100
AcDbBlockBegin
  2
_MK_XXXX_00029
 70
     0
 10
81.08132781
 20
205.91320801
 30
0.0
  3
_MK_XXXX_00029
  1

  0
CIRCLE
  5
201
330
200
100
AcDbEntity
  8
6
 62
     1
100
AcDbCircle
 10
81.68132782
 20
205.91320801
 30
0.0
 40
0.60000001
  0
INSERT
  5
202
330
200
100
AcDbEntity
  8
0
100
AcDbBlockReference
  2
SUB______00030
 10
84.81359863
 20
205.91320801
 30
0.0
  0
ENDBLK
  5
204
330
200
100
AcDbEntity
  8
0
100
AcDbBlockEnd
  0
BLOCK
  5
207
330
205
100
AcDbEntity
  8
0
100
AcDbBlockBegin
  2
SUB______00030
 70
     0
 10
84.81359863
 20
205.91320801
 30
0.0
  3
SUB______00030
  1

  0
LINE
  5
206
330
205
100
AcDbEntity
  8
7
  6
STRICHPUNKT
 62
     1
100
AcDbLine
 10
84.81359863
 20
205.91320801
 30
0.0
 11
78.83283234
 21
205.91320801
 31
0.0
  0
ENDBLK
  5
208
330
205
100
AcDbEntity
  8
0
100
AcDbBlockEnd
  0
BLOCK
  5
20C
330
209
100
AcDbEntity
  8
0
100
AcDbBlockBegin
  2
_MK_XXXX_00031
 70
     0
 10
94.28132476
 20
205.91320801
 30
0.0
  3
_MK_XXXX_00031
  1

  0
CIRCLE
  5
20A
330
209
100
AcDbEntity
  8
6
 62
     1
100
AcDbCircle
 10
94.88132477
 20
205.91320801
 30
0.0
 40
0.60000001
  0
INSERT
  5
20B
330
209
100
AcDbEntity
  8
0
100
AcDbBlockReference
  2
SUB______00032
 10
97.86165619
 20
205.91320801
 30
0.0
  0
ENDBLK
  5
20D
330
209
100
AcDbEntity
  8
0
100
AcDbBlockEnd
  0
BLOCK
  5
210
330
20E
100
AcDbEntity
  8
0
100
AcDbBlockBegin
  2
SUB______00032
 70
     0
 10
97.86165619
 20
205.91320801
 30
0.0
  3
SUB______00032
  1

  0
LINE
  5
20F
330
20E
100
AcDbEntity
  8
7
  6
STRICHPUNKT
 62
     1
100
AcDbLine
 10
97.86165619
 20
205.91320801
 30
0.0
 11
92.00756836
 21
205.91320801
 31
0.0
  0
ENDBLK
  5
211
330
20E
100
AcDbEntity
  8
0
100
AcDbBlockEnd
  0
BLOCK
  5
215
330
212
100
AcDbEntity
  8
0
100
AcDbBlockBegin
  2
FIG______00033
 70
     0
 10
80.19808197
 20
190.21234131
 30
0.0
  3
FIG______00033
  1

  0
LINE
  5
213
330
212
100
AcDbEntity
  8
6
100
AcDbLine
 10
80.19808197
 20
190.21234131
 30
0.0
 11
80.19808197
 21
253.66290283
 31
0.0
  0
LINE
  5
214
330
212
100
AcDbEntity
  8
6
100
AcDbLine
 10
83.16455841
 20
190.14155579
 30
0.0
 11
83.16455841
 21
254.03283691
 31
0.0
  0
ENDBLK
  5
216
330
212
100
AcDbEntity
  8
0
100
AcDbBlockEnd
  0
BLOCK
  5
21A
330
217
100
AcDbEntity
  8
0
100
AcDbBlockBegin
  2
_MK_XXXX_00034
 70
     0
 10
81.08132781
 20
215.91320801
 30
0.0
  3
_MK_XXXX_00034
  1

  0
CIRCLE
  5
218
330
217
100
AcDbEntity
  8
6
 62
     1
100
AcDbCircle
 10
81.68132782
 20
215.91320801
 30
0.0
 40
0.60000001
  0
INSERT
  5
219
330
217
100
AcDbEntity
  8
0
100
AcDbBlockReference
  2
SUB______00035
 10
84.81359863
 20
215.91320801
 30
0.0
  0
ENDBLK
  5
21B
330
217
100
AcDbEntity
  8
0
100
AcDbBlockEnd
  0
BLOCK
  5
21E
330
21C
100
AcDbEntity
  8
0
100
AcDbBlockBegin
  2
SUB______00035
 70
     0
 10
84.81359863
 20
215.91320801
 30
0.0
  3
SUB______00035
  1

  0
LINE
  5
21D
330
21C
100
AcDbEntity
  8
7
  6
STRICHPUNKT
 62
     1
100
AcDbLine
 10
84.81359863
 20
215.91320801
 30
0.0
 11
78.83283234
 21
215.91320801
 31
0.0
  0
ENDBLK
  5
21F
330
21C
100
AcDbEntity
  8
0
100
AcDbBlockEnd
  0
BLOCK
  5
223
330
220
100
AcDbEntity
  8
0
100
AcDbBlockBegin
  2
_MK_XXXX_00036
 70
     0
 10
94.28132476
 20
215.91320801
 30
0.0
  3
_MK_XXXX_00036
  1

  0
CIRCLE
  5
221
330
220
100
AcDbEntity
  8
6
 62
     1
100
AcDbCircle
 10
94.88132477
 20
215.91320801
 30
0.0
 40
0.60000001
  0
INSERT
  5
222
330
220
100
AcDbEntity
  8
0
100
AcDbBlockReference
  2
SUB______00037
 10
97.86165619
 20
215.91320801
 30
0.0
  0
ENDBLK
  5
224
330
220
100
AcDbEntity
  8
0
100
AcDbBlockEnd
  0
BLOCK
  5
227
330
225
100
AcDbEntity
  8
0
100
AcDbBlockBegin
  2
SUB______00037
 70
     0
 10
97.86165619
 20
215.91320801
 30
0.0
  3
SUB______00037
  1

  0
LINE
  5
226
330
225
100
AcDbEntity
  8
7
  6
STRICHPUNKT
 62
     1
100
AcDbLine
 10
97.86165619
 20
215.91320801
 30
0.0
 11
92.00756836
 21
215.91320801
 31
0.0
  0
ENDBLK
  5
228
330
225
100
AcDbEntity
  8
0
100
AcDbBlockEnd
  0
BLOCK
  5
22C
330
229
100
AcDbEntity
  8
0
100
AcDbBlockBegin
  2
_MK_XXXX_00038
 70
     0
 10
81.08132781
 20
225.91320801
 30
0.0
  3
_MK_XXXX_00038
  1

  0
CIRCLE
  5
22A
330
229
100
AcDbEntity
  8
6
 62
     1
100
AcDbCircle
 10
81.68132782
 20
225.91320801
 30
0.0
 40
0.60000001
  0
INSERT
  5
22B
330
229
100
AcDbEntity
  8
0
100
AcDbBlockReference
  2
SUB______00039
 10
84.81359863
 20
225.91320801
 30
0.0
  0
ENDBLK
  5
22D
330
229
100
AcDbEntity
  8
0
100
AcDbBlockEnd
  0
BLOCK
  5
230
330
22E
100
AcDbEntity
  8
0
100
AcDbBlockBegin
  2
SUB______00039
 70
     0
 10
84.81359863
 20
225.91320801
 30
0.0
  3
SUB______00039
  1

  0
LINE
  5
22F
330
22E
100
AcDbEntity
  8
7
  6
STRICHPUNKT
 62
     1
100
AcDbLine
 10
84.81359863
 20
225.91320801
 30
0.0
 11
78.83283234
 21
225.91320801
 31
0.0
  0
ENDBLK
  5
231
330
22E
100
AcDbEntity
  8
0
100
AcDbBlockEnd
  0
BLOCK
  5
235
330
232
100
AcDbEntity
  8
0
100
AcDbBlockBegin
  2
_MK_XXXX_00040
 70
     0
 10
94.28132476
 20
225.91320801
 30
0.0
  3
_MK_XXXX_00040
  1

  0
CIRCLE
  5
233
330
232
100
AcDbEntity
  8
6
 62
     1
100
AcDbCircle
 10
94.88132477
 20
225.91320801
 30
0.0
 40
0.60000001
  0
INSERT
  5
234
330
232
100
AcDbEntity
  8
0
100
AcDbBlockReference
  2
SUB______00041
 10
97.86165619
 20
225.91320801
 30
0.0
  0
ENDBLK
  5
236
330
232
100
AcDbEntity
  8
0
100
AcDbBlockEnd
  0
BLOCK
  5
239
330
237
100
AcDbEntity
  8
0
100
AcDbBlockBegin
  2
SUB______00041
 70
     0
 10
97.86165619
 20
225.91320801
 30
0.0
  3
SUB______00041
  1

  0
LINE
  5
238
330
237
100
AcDbEntity
  8
7
  6
STRICHPUNKT
 62
     1
100
AcDbLine
 10
97.86165619
 20
225.91320801
 30
0.0
 11
92.00756836
 21
225.91320801
 31
0.0
  0
ENDBLK
  5
23A
330
237
100
AcDbEntity
  8
0
100
AcDbBlockEnd
  0
BLOCK
  5
23E
330
23B
100
AcDbEntity
  8
0
100
AcDbBlockBegin
  2
_MK_XXXX_00042
 70
     0
 10
81.08132781
 20
235.91320801
 30
0.0
  3
_MK_XXXX_00042
  1

  0
CIRCLE
  5
23C
330
23B
100
AcDbEntity
  8
6
 62
     1
100
AcDbCircle
 10
81.68132782
 20
235.91320801
 30
0.0
 40
0.60000001
  0
INSERT
  5
23D
330
23B
100
AcDbEntity
  8
0
100
AcDbBlockReference
  2
SUB______00043
 10
84.81359863
 20
235.91320801
 30
0.0
  0
ENDBLK
  5
23F
330
23B
100
AcDbEntity
  8
0
100
AcDbBlockEnd
  0
BLOCK
  5
242
330
240
100
AcDbEntity
  8
0
100
AcDbBlockBegin
  2
SUB______00043
 70
     0
 10
84.81359863
 20
235.91320801
 30
0.0
  3
SUB______00043
  1

  0
LINE
  5
241
330
240
100
AcDbEntity
  8
7
  6
STRICHPUNKT
 62
     1
100
AcDbLine
 10
84.81359863
 20
235.91320801
 30
0.0
 11
78.83283234
 21
235.91320801
 31
0.0
  0
ENDBLK
  5
243
330
240
100
AcDbEntity
  8
0
100
AcDbBlockEnd
  0
BLOCK
  5
247
330
244
100
AcDbEntity
  8
0
100
AcDbBlockBegin
  2
_MK_XXXX_00044
 70
     0
 10
94.28132476
 20
235.91320801
 30
0.0
  3
_MK_XXXX_00044
  1

  0
CIRCLE
  5
245
330
244
100
AcDbEntity
  8
6
 62
     1
100
AcDbCircle
 10
94.88132477
 20
235.91320801
 30
0.0
 40
0.60000001
  0
INSERT
  5
246
330
244
100
AcDbEntity
  8
0
100
AcDbBlockReference
  2
SUB______00045
 10
97.86165619
 20
235.91320801
 30
0.0
  0
ENDBLK
  5
248
330
244
100
AcDbEntity
  8
0
100
AcDbBlockEnd
  0
BLOCK
  5
24B
330
249
100
AcDbEntity
  8
0
100
AcDbBlockBegin
  2
SUB______00045
 70
     0
 10
97.86165619
 20
235.91320801
 30
0.0
  3
SUB______00045
  1

  0
LINE
  5
24A
330
249
100
AcDbEntity
  8
7
  6
STRICHPUNKT
 62
     1
100
AcDbLine
 10
97.86165619
 20
235.91320801
 30
0.0
 11
92.00756836
 21
235.91320801
 31
0.0
  0
ENDBLK
  5
24C
330
249
100
AcDbEntity
  8
0
100
AcDbBlockEnd
  0
BLOCK
  5
250
330
24D
100
AcDbEntity
  8
0
100
AcDbBlockBegin
  2
_MK_XXXX_00046
 70
     0
 10
81.08132781
 20
245.91320801
 30
0.0
  3
_MK_XXXX_00046
  1

  0
CIRCLE
  5
24E
330
24D
100
AcDbEntity
  8
6
 62
     1
100
AcDbCircle
 10
81.68132782
 20
245.91320801
 30
0.0
 40
0.60000001
  0
INSERT
  5
24F
330
24D
100
AcDbEntity
  8
0
100
AcDbBlockReference
  2
SUB______00047
 10
84.81359863
 20
245.91320801
 30
0.0
  0
ENDBLK
  5
251
330
24D
100
AcDbEntity
  8
0
100
AcDbBlockEnd
  0
BLOCK
  5
254
330
252
100
AcDbEntity
  8
0
100
AcDbBlockBegin
  2
SUB______00047
 70
     0
 10
84.81359863
 20
245.91320801
 30
0.0
  3
SUB______00047
  1

  0
LINE
  5
253
330
252
100
AcDbEntity
  8
7
  6
STRICHPUNKT
 62
     1
100
AcDbLine
 10
84.81359863
 20
245.91320801
 30
0.0
 11
78.83283234
 21
245.91320801
 31
0.0
  0
ENDBLK
  5
255
330
252
100
AcDbEntity
  8
0
100
AcDbBlockEnd
  0
BLOCK
  5
259
330
256
100
AcDbEntity
  8
0
100
AcDbBlockBegin
  2
_MK_XXXX_00048
 70
     0
 10
94.28132476
 20
245.91320801
 30
0.0
  3
_MK_XXXX_00048
  1

  0
CIRCLE
  5
257
330
256
100
AcDbEntity
  8
6
 62
     1
100
AcDbCircle
 10
94.88132477
 20
245.91320801
 30
0.0
 40
0.60000001
  0
INSERT
  5
258
330
256
100
AcDbEntity
  8
0
100
AcDbBlockReference
  2
SUB______00049
 10
97.86165619
 20
245.91320801
 30
0.0
  0
ENDBLK
  5
25A
330
256
100
AcDbEntity
  8
0
100
AcDbBlockEnd
  0
BLOCK
  5
25D
330
25B
100
AcDbEntity
  8
0
100
AcDbBlockBegin
  2
SUB______00049
 70
     0
 10
97.86165619
 20
245.91320801
 30
0.0
  3
SUB______00049
  1

  0
LINE
  5
25C
330
25B
100
AcDbEntity
  8
7
  6
STRICHPUNKT
 62
     1
100
AcDbLine
 10
97.86165619
 20
245.91320801
 30
0.0
 11
92.00756836
 21
245.91320801
 31
0.0
  0
ENDBLK
  5
25E
330
25B
100
AcDbEntity
  8
0
100
AcDbBlockEnd
  0
BLOCK
  5
266
330
25F
100
AcDbEntity
  8
0
100
AcDbBlockBegin
  2
FIG______00050
 70
     0
 10
0.0
 20
0.0
 30
0.0
  3
FIG______00050
  1

  0
INSERT
  5
260
330
25F
100
AcDbEntity
  8
0
100
AcDbBlockReference
  2
_MK_XXXX_00051
 10
87.68132628
 20
200.91320801
 30
0.0
  0
INSERT
  5
261
330
25F
100
AcDbEntity
  8
0
100
AcDbBlockReference
  2
_MK_XXXX_00052
 10
87.68132628
 20
210.91320801
 30
0.0
  0
INSERT
  5
262
330
25F
100
AcDbEntity
  8
0
100
AcDbBlockReference
  2
_MK_XXXX_00053
 10
87.68132628
 20
220.91320801
 30
0.0
  0
INSERT
  5
263
330
25F
100
AcDbEntity
  8
0
100
AcDbBlockReference
  2
_MK_XXXX_00054
 10
87.68132628
 20
230.91320801
 30
0.0
  0
INSERT
  5
264
330
25F
100
AcDbEntity
  8
0
100
AcDbBlockReference
  2
_MK_XXXX_00055
 10
87.68132628
 20
240.91322327
 30
0.0
  0
INSERT
  5
265
330
25F
100
AcDbEntity
  8
0
100
AcDbBlockReference
  2
_MK_XXXX_00056
 10
87.68132628
 20
250.91320801
 30
0.0
  0
ENDBLK
  5
267
330
25F
100
AcDbEntity
  8
0
100
AcDbBlockEnd
  0
BLOCK
  5
26B
330
268
100
AcDbEntity
  8
0
100
AcDbBlockBegin
  2
_MK_XXXX_00051
 70
     0
 10
87.68132628
 20
200.91320801
 30
0.0
  3
_MK_XXXX_00051
  1

  0
CIRCLE
  5
269
330
268
100
AcDbEntity
  8
6
 62
     1
100
AcDbCircle
 10
88.28132629
 20
200.91320801
 30
0.0
 40
0.60000001
  0
INSERT
  5
26A
330
268
100
AcDbEntity
  8
0
100
AcDbBlockReference
  2
SUB______00057
 10
91.0745163
 20
200.91320801
 30
0.0
  0
ENDBLK
  5
26C
330
268
100
AcDbEntity
  8
0
100
AcDbBlockEnd
  0
BLOCK
  5
270
330
26D
100
AcDbEntity
  8
0
100
AcDbBlockBegin
  2
_MK_XXXX_00052
 70
     0
 10
87.68132628
 20
210.91320801
 30
0.0
  3
_MK_XXXX_00052
  1

  0
CIRCLE
  5
26E
330
26D
100
AcDbEntity
  8
6
 62
     1
100
AcDbCircle
 10
88.28132629
 20
210.91320801
 30
0.0
 40
0.60000001
  0
INSERT
  5
26F
330
26D
100
AcDbEntity
  8
0
100
AcDbBlockReference
  2
SUB______00058
 10
91.0745163
 20
210.91320801
 30
0.0
  0
ENDBLK
  5
271
330
26D
100
AcDbEntity
  8
0
100
AcDbBlockEnd
  0
BLOCK
  5
275
330
272
100
AcDbEntity
  8
0
100
AcDbBlockBegin
  2
_MK_XXXX_00053
 70
     0
 10
87.68132628
 20
220.91320801
 30
0.0
  3
_MK_XXXX_00053
  1

  0
CIRCLE
  5
273
330
272
100
AcDbEntity
  8
6
 62
     1
100
AcDbCircle
 10
88.28132629
 20
220.91320801
 30
0.0
 40
0.60000001
  0
INSERT
  5
274
330
272
100
AcDbEntity
  8
0
100
AcDbBlockReference
  2
SUB______00059
 10
91.0745163
 20
220.91320801
 30
0.0
  0
ENDBLK
  5
276
330
272
100
AcDbEntity
  8
0
100
AcDbBlockEnd
  0
BLOCK
  5
27A
330
277
100
AcDbEntity
  8
0
100
AcDbBlockBegin
  2
_MK_XXXX_00054
 70
     0
 10
87.68132628
 20
230.91320801
 30
0.0
  3
_MK_XXXX_00054
  1

  0
CIRCLE
  5
278
330
277
100
AcDbEntity
  8
6
 62
     1
100
AcDbCircle
 10
88.28132629
 20
230.91320801
 30
0.0
 40
0.60000001
  0
INSERT
  5
279
330
277
100
AcDbEntity
  8
0
100
AcDbBlockReference
  2
SUB______00060
 10
91.0745163
 20
230.91320801
 30
0.0
  0
ENDBLK
  5
27B
330
277
100
AcDbEntity
  8
0
100
AcDbBlockEnd
  0
BLOCK
  5
27F
330
27C
100
AcDbEntity
  8
0
100
AcDbBlockBegin
  2
_MK_XXXX_00055
 70
     0
 10
87.68132628
 20
240.91322327
 30
0.0
  3
_MK_XXXX_00055
  1

  0
CIRCLE
  5
27D
330
27C
100
AcDbEntity
  8
6
 62
     1
100
AcDbCircle
 10
88.28132629
 20
240.91322327
 30
0.0
 40
0.60000001
  0
INSERT
  5
27E
330
27C
100
AcDbEntity
  8
0
100
AcDbBlockReference
  2
SUB______00061
 10
91.0745163
 20
240.91322327
 30
0.0
  0
ENDBLK
  5
280
330
27C
100
AcDbEntity
  8
0
100
AcDbBlockEnd
  0
BLOCK
  5
284
330
281
100
AcDbEntity
  8
0
100
AcDbBlockBegin
  2
_MK_XXXX_00056
 70
     0
 10
87.68132628
 20
250.91320801
 30
0.0
  3
_MK_XXXX_00056
  1

  0
CIRCLE
  5
282
330
281
100
AcDbEntity
  8
6
 62
     1
100
AcDbCircle
 10
88.28132629
 20
250.91320801
 30
0.0
 40
0.60000001
  0
INSERT
  5
283
330
281
100
AcDbEntity
  8
0
100
AcDbBlockReference
  2
SUB______00062
 10
91.0745163
 20
250.91320801
 30
0.0
  0
ENDBLK
  5
285
330
281
100
AcDbEntity
  8
0
100
AcDbBlockEnd
  0
BLOCK
  5
288
330
286
100
AcDbEntity
  8
0
100
AcDbBlockBegin
  2
SUB______00057
 70
     0
 10
91.0745163
 20
200.91320801
 30
0.0
  3
SUB______00057
  1

  0
LINE
  5
287
330
286
100
AcDbEntity
  8
7
  6
STRICHPUNKT
 62
     1
100
AcDbLine
 10
91.0745163
 20
200.91320801
 30
0.0
 11
85.34954834
 21
200.91320801
 31
0.0
  0
ENDBLK
  5
289
330
286
100
AcDbEntity
  8
0
100
AcDbBlockEnd
  0
BLOCK
  5
28C
330
28A
100
AcDbEntity
  8
0
100
AcDbBlockBegin
  2
SUB______00058
 70
     0
 10
91.0745163
 20
210.91320801
 30
0.0
  3
SUB______00058
  1

  0
LINE
  5
28B
330
28A
100
AcDbEntity
  8
7
  6
STRICHPUNKT
 62
     1
100
AcDbLine
 10
91.0745163
 20
210.91320801
 30
0.0
 11
85.34954834
 21
210.91320801
 31
0.0
  0
ENDBLK
  5
28D
330
28A
100
AcDbEntity
  8
0
100
AcDbBlockEnd
  0
BLOCK
  5
290
330
28E
100
AcDbEntity
  8
0
100
AcDbBlockBegin
  2
SUB______00059
 70
     0
 10
91.0745163
 20
220.91320801
 30
0.0
  3
SUB______00059
  1

  0
LINE
  5
28F
330
28E
100
AcDbEntity
  8
7
  6
STRICHPUNKT
 62
     1
100
AcDbLine
 10
91.0745163
 20
220.91320801
 30
0.0
 11
85.34954834
 21
220.91320801
 31
0.0
  0
ENDBLK
  5
291
330
28E
100
AcDbEntity
  8
0
100
AcDbBlockEnd
  0
BLOCK
  5
294
330
292
100
AcDbEntity
  8
0
100
AcDbBlockBegin
  2
SUB______00060
 70
     0
 10
91.0745163
 20
230.91320801
 30
0.0
  3
SUB______00060
  1

  0
LINE
  5
293
330
292
100
AcDbEntity
  8
7
  6
STRICHPUNKT
 62
     1
100
AcDbLine
 10
91.0745163
 20
230.91320801
 30
0.0
 11
85.34954834
 21
230.91320801
 31
0.0
  0
ENDBLK
  5
295
330
292
100
AcDbEntity
  8
0
100
AcDbBlockEnd
  0
BLOCK
  5
298
330
296
100
AcDbEntity
  8
0
100
AcDbBlockBegin
  2
SUB______00061
 70
     0
 10
91.0745163
 20
240.91322327
 30
0.0
  3
SUB______00061
  1

  0
LINE
  5
297
330
296
100
AcDbEntity
  8
7
  6
STRICHPUNKT
 62
     1
100
AcDbLine
 10
91.0745163
 20
240.91322327
 30
0.0
 11
85.34954834
 21
240.91322327
 31
0.0
  0
ENDBLK
  5
299
330
296
100
AcDbEntity
  8
0
100
AcDbBlockEnd
  0
BLOCK
  5
29C
330
29A
100
AcDbEntity
  8
0
100
AcDbBlockBegin
  2
SUB______00062
 70
     0
 10
91.0745163
 20
250.91320801
 30
0.0
  3
SUB______00062
  1

  0
LINE
  5
29B
330
29A
100
AcDbEntity
  8
7
  6
STRICHPUNKT
 62
     1
100
AcDbLine
 10
91.0745163
 20
250.91320801
 30
0.0
 11
85.34954834
 21
250.91320801
 31
0.0
  0
ENDBLK
  5
29D
330
29A
100
AcDbEntity
  8
0
100
AcDbBlockEnd
  0
BLOCK
  5
2A0
330
29E
100
AcDbEntity
  8
0
100
AcDbBlockBegin
  2
FIG______00063
 70
     0
 10
0.0
 20
0.0
 30
0.0
  3
FIG______00063
  1

  0
INSERT
  5
29F
330
29E
100
AcDbEntity
  8
0
100
AcDbBlockReference
  2
SUB______00064
 10
88.28133392
 20
190.21995544
 30
0.0
  0
ENDBLK
  5
2A1
330
29E
100
AcDbEntity
  8
0
100
AcDbBlockEnd
  0
BLOCK
  5
2A6
330
2A2
100
AcDbEntity
  8
0
100
AcDbBlockBegin
  2
SUB______00064
 70
     0
 10
88.28133392
 20
190.21995544
 30
0.0
  3
SUB______00064
  1

  0
LINE
  5
2A3
330
2A2
100
AcDbEntity
  8
6
  6
STRICHPUNKT
 62
     1
100
AcDbLine
 10
88.28133392
 20
190.21995544
 30
0.0
 11
88.28133392
 21
254.95330811
 31
0.0
  0
LINE
  5
2A4
330
2A2
100
AcDbEntity
  8
6
100
AcDbLine
 10
86.79808807
 20
190.21234131
 30
0.0
 11
86.79808807
 21
254.07922363
 31
0.0
  0
LINE
  5
2A5
330
2A2
100
AcDbEntity
  8
6
100
AcDbLine
 10
89.76456451
 20
190.14155579
 30
0.0
 11
89.76456451
 21
253.95739746
 31
0.0
  0
ENDBLK
  5
2A7
330
2A2
100
AcDbEntity
  8
0
100
AcDbBlockEnd
  0
BLOCK
  5
2AB
330
2A8
100
AcDbEntity
  8
0
100
AcDbBlockBegin
  2
_MK_XXXX_00065
 70
     0
 10
74.48132933
 20
210.91320801
 30
0.0
  3
_MK_XXXX_00065
  1

  0
CIRCLE
  5
2A9
330
2A8
100
AcDbEntity
  8
6
  6
GESTRICHELT
 62
     1
100
AcDbCircle
 10
75.08132935
 20
210.91320801
 30
0.0
 40
0.60000001
  0
INSERT
  5
2AA
330
2A8
100
AcDbEntity
  8
0
100
AcDbBlockReference
  2
SUB______00066
 10
77.87451935
 20
210.91320801
 30
0.0
  0
ENDBLK
  5
2AC
330
2A8
100
AcDbEntity
  8
0
100
AcDbBlockEnd
  0
BLOCK
  5
2AF
330
2AD
100
AcDbEntity
  8
0
100
AcDbBlockBegin
  2
SUB______00066
 70
     0
 10
77.87451935
 20
210.91320801
 30
0.0
  3
SUB______00066
  1

  0
LINE
  5
2AE
330
2AD
100
AcDbEntity
  8
7
  6
STRICHPUNKT
 62
     1
100
AcDbLine
 10
77.87451935
 20
210.91320801
 30
0.0
 11
72.14955139
 21
210.91320801
 31
0.0
  0
ENDBLK
  5
2B0
330
2AD
100
AcDbEntity
  8
0
100
AcDbBlockEnd
  0
BLOCK
  5
2B4
330
2B1
100
AcDbEntity
  8
0
100
AcDbBlockBegin
  2
_MK_XXXX_00067
 70
     0
 10
74.48132933
 20
220.91320801
 30
0.0
  3
_MK_XXXX_00067
  1

  0
CIRCLE
  5
2B2
330
2B1
100
AcDbEntity
  8
6
  6
GESTRICHELT
 62
     1
100
AcDbCircle
 10
75.08132935
 20
220.91320801
 30
0.0
 40
0.60000001
  0
INSERT
  5
2B3
330
2B1
100
AcDbEntity
  8
0
100
AcDbBlockReference
  2
SUB______00068
 10
77.87451935
 20
220.91320801
 30
0.0
  0
ENDBLK
  5
2B5
330
2B1
100
AcDbEntity
  8
0
100
AcDbBlockEnd
  0
BLOCK
  5
2B8
330
2B6
100
AcDbEntity
  8
0
100
AcDbBlockBegin
  2
SUB______00068
 70
     0
 10
77.87451935
 20
220.91320801
 30
0.0
  3
SUB______00068
  1

  0
LINE
  5
2B7
330
2B6
100
AcDbEntity
  8
7
  6
STRICHPUNKT
 62
     1
100
AcDbLine
 10
77.87451935
 20
220.91320801
 30
0.0
 11
72.14955139
 21
220.91320801
 31
0.0
  0
ENDBLK
  5
2B9
330
2B6
100
AcDbEntity
  8
0
100
AcDbBlockEnd
  0
BLOCK
  5
2BD
330
2BA
100
AcDbEntity
  8
0
100
AcDbBlockBegin
  2
_MK_XXXX_00069
 70
     0
 10
74.48132933
 20
230.91320801
 30
0.0
  3
_MK_XXXX_00069
  1

  0
CIRCLE
  5
2BB
330
2BA
100
AcDbEntity
  8
6
  6
GESTRICHELT
 62
     1
100
AcDbCircle
 10
75.08132935
 20
230.91320801
 30
0.0
 40
0.60000001
  0
INSERT
  5
2BC
330
2BA
100
AcDbEntity
  8
0
100
AcDbBlockReference
  2
SUB______00070
 10
77.87451935
 20
230.91320801
 30
0.0
  0
ENDBLK
  5
2BE
330
2BA
100
AcDbEntity
  8
0
100
AcDbBlockEnd
  0
BLOCK
  5
2C1
330
2BF
100
AcDbEntity
  8
0
100
AcDbBlockBegin
  2
SUB______00070
 70
     0
 10
77.87451935
 20
230.91320801
 30
0.0
  3
SUB______00070
  1

  0
LINE
  5
2C0
330
2BF
100
AcDbEntity
  8
7
  6
STRICHPUNKT
 62
     1
100
AcDbLine
 10
77.87451935
 20
230.91320801
 30
0.0
 11
72.14955139
 21
230.91320801
 31
0.0
  0
ENDBLK
  5
2C2
330
2BF
100
AcDbEntity
  8
0
100
AcDbBlockEnd
  0
BLOCK
  5
2C6
330
2C3
100
AcDbEntity
  8
0
100
AcDbBlockBegin
  2
_MK_XXXX_00071
 70
     0
 10
74.48132933
 20
240.91322327
 30
0.0
  3
_MK_XXXX_00071
  1

  0
CIRCLE
  5
2C4
330
2C3
100
AcDbEntity
  8
6
  6
GESTRICHELT
 62
     1
100
AcDbCircle
 10
75.08132935
 20
240.91322327
 30
0.0
 40
0.60000001
  0
INSERT
  5
2C5
330
2C3
100
AcDbEntity
  8
0
100
AcDbBlockReference
  2
SUB______00072
 10
77.87451935
 20
240.91322327
 30
0.0
  0
ENDBLK
  5
2C7
330
2C3
100
AcDbEntity
  8
0
100
AcDbBlockEnd
  0
BLOCK
  5
2CA
330
2C8
100
AcDbEntity
  8
0
100
AcDbBlockBegin
  2
SUB______00072
 70
     0
 10
77.87451935
 20
240.91322327
 30
0.0
  3
SUB______00072
  1

  0
LINE
  5
2C9
330
2C8
100
AcDbEntity
  8
7
  6
STRICHPUNKT
 62
     1
100
AcDbLine
 10
77.87451935
 20
240.91322327
 30
0.0
 11
72.14955139
 21
240.91322327
 31
0.0
  0
ENDBLK
  5
2CB
330
2C8
100
AcDbEntity
  8
0
100
AcDbBlockEnd
  0
BLOCK
  5
2CF
330
2CC
100
AcDbEntity
  8
0
100
AcDbBlockBegin
  2
_MK_XXXX_00073
 70
     0
 10
74.48132933
 20
250.91320801
 30
0.0
  3
_MK_XXXX_00073
  1

  0
CIRCLE
  5
2CD
330
2CC
100
AcDbEntity
  8
6
  6
GESTRICHELT
 62
     1
100
AcDbCircle
 10
75.08132935
 20
250.91320801
 30
0.0
 40
0.60000001
  0
INSERT
  5
2CE
330
2CC
100
AcDbEntity
  8
0
100
AcDbBlockReference
  2
SUB______00074
 10
77.87451935
 20
250.91320801
 30
0.0
  0
ENDBLK
  5
2D0
330
2CC
100
AcDbEntity
  8
0
100
AcDbBlockEnd
  0
BLOCK
  5
2D3
330
2D1
100
AcDbEntity
  8
0
100
AcDbBlockBegin
  2
SUB______00074
 70
     0
 10
77.87451935
 20
250.91320801
 30
0.0
  3
SUB______00074
  1

  0
LINE
  5
2D2
330
2D1
100
AcDbEntity
  8
7
  6
STRICHPUNKT
 62
     1
100
AcDbLine
 10
77.87451935
 20
250.91320801
 30
0.0
 11
72.14955139
 21
250.91320801
 31
0.0
  0
ENDBLK
  5
2D4
330
2D1
100
AcDbEntity
  8
0
100
AcDbBlockEnd
  0
BLOCK
  5
2D7
330
2D5
100
AcDbEntity
  8
0
100
AcDbBlockBegin
  2
FIG______00075
 70
     0
 10
77.87451935
 20
200.91320801
 30
0.0
  3
FIG______00075
  1

  0
LINE
  5
2D6
330
2D5
100
AcDbEntity
  8
7
  6
STRICHPUNKT
 62
     1
100
AcDbLine
 10
77.87451935
 20
200.91320801
 30
0.0
 11
72.14955139
 21
200.91320801
 31
0.0
  0
ENDBLK
  5
2D8
330
2D5
100
AcDbEntity
  8
0
100
AcDbBlockEnd
  0
BLOCK
  5
2DB
330
2D9
100
AcDbEntity
  8
0
100
AcDbBlockBegin
  2
_MG______00080
 70
     0
 10
75.18127441
 20
131.49099731
 30
0.0
  3
_MG______00080
  1

  0
INSERT
  5
2DA
330
2D9
100
AcDbEntity
  8
49
100
AcDbBlockReference
  2
BEM_0001
 10
75.18127441
 20
131.49099731
 30
0.0
  0
ENDBLK
  5
2DC
330
2D9
100
AcDbEntity
  8
0
100
AcDbBlockEnd
  0
BLOCK
  5
2DF
330
2DD
100
AcDbEntity
  8
0
100
AcDbBlockBegin
  2
_MG______00090
 70
     0
 10
72.18170166
 20
134.49127197
 30
0.0
  3
_MG______00090
  1

  0
INSERT
  5
2DE
330
2DD
100
AcDbEntity
  8
49
100
AcDbBlockReference
  2
BEM_0011
 10
72.18170166
 20
134.49127197
 30
0.0
  0
ENDBLK
  5
2E0
330
2DD
100
AcDbEntity
  8
0
100
AcDbBlockEnd
  0
BLOCK
  5
2E3
330
2E1
100
AcDbEntity
  8
0
100
AcDbBlockBegin
  2
_MG______00094
 70
     0
 10
102.18145752
 20
129.65264893
 30
0.0
  3
_MG______00094
  1

  0
INSERT
  5
2E2
330
2E1
100
AcDbEntity
  8
49
100
AcDbBlockReference
  2
BEM_0015
 10
102.18145752
 20
129.65264893
 30
0.0
  0
ENDBLK
  5
2E4
330
2E1
100
AcDbEntity
  8
0
100
AcDbBlockEnd
  0
BLOCK
  5
2ED
330
2E5
100
AcDbEntity
  8
0
100
AcDbBlockBegin
  2
SUB______00102
 70
     0
 10
102.9163208
 20
133.48497009
 30
0.0
  3
SUB______00102
  1

  0
LINE
  5
2E6
330
2E5
100
AcDbEntity
  8
6
100
AcDbLine
 10
102.9163208
 20
133.48497009
 30
0.0
 11
129.17932129
 21
133.4855957
 31
0.0
  0
LINE
  5
2E7
330
2E5
100
AcDbEntity
  8
6
100
AcDbLine
 10
102.91625977
 20
134.28497314
 30
0.0
 11
129.17926025
 21
134.2855835
 31
0.0
  0
LINE
  5
2E8
330
2E5
100
AcDbEntity
  8
6
 62
     1
100
AcDbLine
 10
102.9163208
 20
133.48498535
 30
0.0
 11
102.91625977
 21
134.28497314
 31
0.0
  0
ARC
  5
2E9
330
2E5
100
AcDbEntity
  8
6
100
AcDbCircle
 10
102.87969971
 20
132.78591919
 30
0.0
 40
0.69999999
100
AcDbArc
 50
87.00130891799999
 51
180.001413345
  0
ARC
  5
2EA
330
2E5
100
AcDbEntity
  8
6
100
AcDbCircle
 10
102.87969971
 20
132.78591919
 30
0.0
 40
1.5
100
AcDbArc
 50
87.00130891799999
 51
180.001413345
  0
LINE
  5
2EB
330
2E5
100
AcDbEntity
  8
6
 62
     1
100
AcDbLine
 10
102.1796875
 20
132.78591919
 30
0.0
 11
101.37969971
 21
132.78588867
 31
0.0
  0
LINE
  5
2EC
330
2E5
100
AcDbEntity
  8
6
100
AcDbLine
 10
129.17932129
 20
133.48556519
 30
0.0
 11
129.17926025
 21
134.2855835
 31
0.0
  0
ENDBLK
  5
2EE
330
2E5
100
AcDbEntity
  8
0
100
AcDbBlockEnd
  0
BLOCK
  5
494
330
48A
100
AcDbEntity
  8
0
100
AcDbBlockBegin
  2
*D66
 70
     1
 10
0.0
 20
0.0
 30
0.0
  3
*D66
  1

  0
LINE
  5
6C7
330
48A
100
AcDbEntity
  8
bem
 62
     0
370
    -2
100
AcDbLine
 10
225.8446750065754
 20
130.404022302129
 30
0.0
 11
225.8446750065754
 21
140.4765390635751
 31
0.0
  0
LINE
  5
6C8
330
48A
100
AcDbEntity
  8
bem
 62
     0
370
    -2
100
AcDbLine
 10
192.2570202326366
 20
131.244111082451
 30
0.0
 11
192.2570202326366
 21
140.4765390635751
 31
0.0
  0
LINE
  5
6C9
330
48A
100
AcDbEntity
  8
bem
 62
     0
370
    -2
100
AcDbLine
 10
224.3446750065754
 20
139.2265390635751
 30
0.0
 11
211.6209362962772
 21
139.2265390635751
 31
0.0
  0
LINE
  5
6CA
330
48A
100
AcDbEntity
  8
bem
 62
     0
370
    -2
100
AcDbLine
 10
193.7570202326366
 20
139.2265390635751
 30
0.0
 11
206.4807589429348
 21
139.2265390635751
 31
0.0
  0
SOLID
  5
6CB
330
48A
100
AcDbEntity
  8
bem
 62
     0
100
AcDbTrace
 10
224.3446750065754
 20
139.4765390635751
 30
0.0
 11
224.3446750065754
 21
138.9765390635751
 31
0.0
 12
225.8446750065754
 22
139.2265390635751
 32
0.0
 13
225.8446750065754
 23
139.2265390635751
 33
0.0
  0
SOLID
  5
6CC
330
48A
100
AcDbEntity
  8
bem
 62
     0
100
AcDbTrace
 10
193.7570202326366
 20
139.4765390635751
 30
0.0
 11
193.7570202326366
 21
138.9765390635751
 31
0.0
 12
192.2570202326366
 22
139.2265390635751
 32
0.0
 13
192.2570202326366
 23
139.2265390635751
 33
0.0
  0
MTEXT
  5
6CD
330
48A
100
AcDbEntity
  8
bem
 62
     7
100
AcDbMText
 10
209.050847619606
 20
139.2265390635751
 30
0.0
 40
1.5
 41
0.0
 71
     5
 72
     1
  1
33.0
  7
STYLE1
 73
     1
 44
1.0
  0
POINT
  5
6CE
330
48A
100
AcDbEntity
  8
Defpoints
 62
     0
100
AcDbPoint
 10
225.8446750065754
 20
129.779022302129
 30
0.0
  0
POINT
  5
6CF
330
48A
100
AcDbEntity
  8
Defpoints
 62
     0
100
AcDbPoint
 10
192.2570202326366
 20
130.619111082451
 30
0.0
  0
POINT
  5
6D0
330
48A
100
AcDbEntity
  8
Defpoints
 62
     0
100
AcDbPoint
 10
192.2570202326366
 20
139.2265390635751
 30
0.0
  0
ENDBLK
  5
495
330
48A
100
AcDbEntity
  8
0
100
AcDbBlockEnd
  0
BLOCK
  5
4E9
330
4DF
100
AcDbEntity
  8
0
100
AcDbBlockBegin
  2
*D67
 70
     1
 10
0.0
 20
0.0
 30
0.0
  3
*D67
  1

  0
LINE
  5
6D2
330
4DF
100
AcDbEntity
  8
bem
 62
     0
370
    -2
100
AcDbLine
 10
222.2192477565753
 20
122.413169942129
 30
0.0
 11
235.8946772175844
 21
122.413169942129
 31
0.0
  0
LINE
  5
6D3
330
4DF
100
AcDbEntity
  8
bem
 62
     0
370
    -2
100
AcDbLine
 10
223.5697534964532
 20
132.4133393715812
 30
0.0
 11
235.8946772175844
 21
132.4133393715812
 31
0.0
  0
LINE
  5
6D4
330
4DF
100
AcDbEntity
  8
bem
 62
     0
370
    -2
100
AcDbLine
 10
234.6446772175844
 20
123.913169942129
 30
0.0
 11
234.6446772175844
 21
124.9132546568551
 31
0.0
  0
LINE
  5
6D5
330
4DF
100
AcDbEntity
  8
bem
 62
     0
370
    -2
100
AcDbLine
 10
234.6446772175844
 20
130.9133393715812
 30
0.0
 11
234.6446772175844
 21
129.9132546568551
 31
0.0
  0
SOLID
  5
6D6
330
4DF
100
AcDbEntity
  8
bem
 62
     0
100
AcDbTrace
 10
234.3946772175844
 20
123.913169942129
 30
0.0
 11
234.8946772175844
 21
123.913169942129
 31
0.0
 12
234.6446772175844
 22
122.413169942129
 32
0.0
 13
234.6446772175844
 23
122.413169942129
 33
0.0
  0
SOLID
  5
6D7
330
4DF
100
AcDbEntity
  8
bem
 62
     0
100
AcDbTrace
 10
234.3946772175844
 20
130.9133393715812
 30
0.0
 11
234.8946772175844
 21
130.9133393715812
 31
0.0
 12
234.6446772175844
 22
132.4133393715812
 32
0.0
 13
234.6446772175844
 23
132.4133393715812
 33
0.0
  0
MTEXT
  5
6D8
330
4DF
100
AcDbEntity
  8
bem
 62
     7
100
AcDbMText
 10
234.6446772175844
 20
127.4132546568551
 30
0.0
 40
1.5
 41
0.0
 71
     5
 72
     1
  1
10.0
  7
STYLE1
 11
6.123031769111886E-17
 21
1.0
 31
0.0
 73
     1
 44
1.0
  0
POINT
  5
6D9
330
4DF
100
AcDbEntity
  8
Defpoints
 62
     0
100
AcDbPoint
 10
221.5942477565753
 20
122.413169942129
 30
0.0
  0
POINT
  5
6DA
330
4DF
100
AcDbEntity
  8
Defpoints
 62
     0
100
AcDbPoint
 10
222.9447534964532
 20
132.4133393715812
 30
0.0
  0
POINT
  5
6DB
330
4DF
100
AcDbEntity
  8
Defpoints
 62
     0
100
AcDbPoint
 10
234.6446772175844
 20
132.4133393715812
 30
0.0
  0
ENDBLK
  5
4EA
330
4DF
100
AcDbEntity
  8
0
100
AcDbBlockEnd
  0
ENDSEC
  0
SECTION
  2
ENTITIES
  0
LINE
  5
36B
330
1F
100
AcDbEntity
  8
6
100
AcDbLine
 10
206.4444064565753
 20
131.413345422129
 30
0.0
 11
207.6949557665753
 21
131.413345422129
 31
0.0
  0
LINE
  5
36C
330
1F
100
AcDbEntity
  8
6
100
AcDbLine
 10
206.4444064565753
 20
130.613357622129
 30
0.0
 11
207.6949557665753
 21
130.613357622129
 31
0.0
  0
ARC
  5
371
330
1F
100
AcDbEntity
  8
6
100
AcDbCircle
 10
222.3444308665754
 20
125.913131792129
 30
0.0
 40
3.5
100
AcDbArc
 50
269.9966955180001
 51
359.996792078
  0
ARC
  5
372
330
1F
100
AcDbEntity
  8
6
100
AcDbCircle
 10
222.3444308665754
 20
125.913131792129
 30
0.0
 40
2.70000008
100
AcDbArc
 50
269.9966955180001
 51
359.996792078
  0
LINE
  5
373
330
1F
100
AcDbEntity
  8
6
100
AcDbLine
 10
218.3936862365754
 20
131.413253862129
 30
0.0
 11
220.8953952265754
 21
131.413330162129
 31
0.0
  0
LINE
  5
374
330
1F
100
AcDbEntity
  8
6
100
AcDbLine
 10
218.3936862365754
 20
130.613266072129
 30
0.0
 11
220.8953952265754
 21
130.613327112129
 31
0.0
  0
ARC
  5
377
330
1F
100
AcDbEntity
  8
6
100
AcDbCircle
 10
224.0446872165754
 20
129.779129112129
 30
0.0
 40
1.79999994
100
AcDbArc
 50
359.996792078
 51
70.17551422099996
  0
LINE
  5
378
330
1F
100
AcDbEntity
  8
6
100
AcDbLine
 10
225.8446750065754
 20
129.779022302129
 30
0.0
 11
225.8444308665753
 21
125.912933432129
 31
0.0
  0
LWPOLYLINE
  5
37A
330
1F
100
AcDbEntity
  8
6
100
AcDbPolyline
 90
        2
 70
     0
 43
0.0
 10
223.5753196165754
 20
131.305614122129
 42
0.141426439
 10
224.3837861565753
 20
130.719865772129
  0
ARC
  5
37B
330
1F
100
AcDbEntity
  8
6
100
AcDbCircle
 10
220.8953341865754
 20
132.413330162129
 30
0.0
 40
1.79999994
100
AcDbArc
 50
269.9983960389997
 51
322.0204997060002
  0
ARC
  5
37C
330
1F
100
AcDbEntity
  8
6
100
AcDbCircle
 10
222.9447116265754
 20
130.813339312129
 30
0.0
 40
0.80000003
100
AcDbArc
 50
37.97649621999999
 51
142.0205050710001
  0
ARC
  5
37D
330
1F
100
AcDbEntity
  8
6
100
AcDbCircle
 10
222.9447116265754
 20
130.813339312129
 30
0.0
 40
1.60000006
100
AcDbArc
 50
37.97649621999999
 51
142.0205050710001
  0
ARC
  5
37E
330
1F
100
AcDbEntity
  8
6
100
AcDbCircle
 10
224.9942721765754
 20
132.413284382129
 30
0.0
 40
1.00010001
100
AcDbArc
 50
217.9764989019999
 51
250.1755088569999
  0
ARC
  5
382
330
1F
100
AcDbEntity
  8
6
100
AcDbCircle
 10
220.8953341865754
 20
132.413330162129
 30
0.0
 40
1.0
100
AcDbArc
 50
269.9983960389997
 51
322.0204997060002
  0
LWPOLYLINE
  5
383
330
1F
100
AcDbEntity
  8
6
100
AcDbPolyline
 90
        2
 70
     0
 43
0.0
 10
225.0446872165753
 20
129.779068072129
 10
225.0444430765754
 20
125.912979202129
  0
ARC
  5
384
330
1F
100
AcDbEntity
  8
6
100
AcDbCircle
 10
224.0446872165754
 20
129.779129112129
 30
0.0
 40
1.0
100
AcDbArc
 50
359.996792078
 51
70.17551422099996
  0
LINE
  5
385
330
1F
100
AcDbEntity
  8
6
100
AcDbLine
 10
211.7937716865754
 20
131.413345422129
 30
0.0
 11
214.2949313565754
 21
131.413314902129
 31
0.0
  0
LINE
  5
386
330
1F
100
AcDbEntity
  8
6
100
AcDbLine
 10
211.7937106565753
 20
130.613327112129
 30
0.0
 11
214.2948703165754
 21
130.613296592129
 31
0.0
  0
ARC
  5
388
330
1F
100
AcDbEntity
  8
6
100
AcDbCircle
 10
218.3937472765754
 20
132.413253862129
 30
0.0
 40
1.79999994
100
AcDbArc
 50
217.979304492
 51
269.9987983699996
  0
ARC
  5
389
330
1F
100
AcDbEntity
  8
6
100
AcDbCircle
 10
214.2949313565754
 20
132.413314902129
 30
0.0
 40
1.79999994
100
AcDbArc
 50
269.9993938210002
 51
322.0192980770001
  0
ARC
  5
38B
330
1F
100
AcDbEntity
  8
6
100
AcDbCircle
 10
216.3443087965754
 20
130.813278282129
 30
0.0
 40
1.60000006
100
AcDbArc
 50
37.97928571700002
 51
142.019295394
  0
ARC
  5
38C
330
1F
100
AcDbEntity
  8
6
100
AcDbCircle
 10
216.3443087965754
 20
130.813278282129
 30
0.0
 40
0.80000003
100
AcDbArc
 50
37.97928571700002
 51
142.019295394
  0
ARC
  5
38D
330
1F
100
AcDbEntity
  8
6
100
AcDbCircle
 10
218.3937472765754
 20
132.413253862129
 30
0.0
 40
1.0
100
AcDbArc
 50
217.9792991279998
 51
269.9987983699996
  0
ARC
  5
390
330
1F
100
AcDbEntity
  8
6
100
AcDbCircle
 10
214.2949313565754
 20
132.413314902129
 30
0.0
 40
1.0
100
AcDbArc
 50
269.9993938210002
 51
322.0192980770001
  0
ARC
  5
392
330
1F
100
AcDbEntity
  8
6
100
AcDbCircle
 10
211.7937716865754
 20
132.413345422129
 30
0.0
 40
1.79999994
100
AcDbArc
 50
217.9798972609999
 51
269.9993991850003
  0
ARC
  5
393
330
1F
100
AcDbEntity
  8
6
100
AcDbCircle
 10
207.6949557665754
 20
132.413345422129
 30
0.0
 40
1.79999994
100
AcDbArc
 50
270.0
 51
322.0198988909999
  0
ARC
  5
395
330
1F
100
AcDbEntity
  8
6
100
AcDbCircle
 10
209.7443942465754
 20
130.813339312129
 30
0.0
 40
1.60000006
100
AcDbArc
 50
37.97990798999987
 51
142.0199069379999
  0
ARC
  5
396
330
1F
100
AcDbEntity
  8
6
100
AcDbCircle
 10
209.7443942465754
 20
130.813339312129
 30
0.0
 40
0.80000003
100
AcDbArc
 50
37.97990798999987
 51
142.0199069379999
  0
ARC
  5
397
330
1F
100
AcDbEntity
  8
6
100
AcDbCircle
 10
211.7937716865754
 20
132.413345422129
 30
0.0
 40
1.0
100
AcDbArc
 50
217.9798972609999
 51
269.9993991850003
  0
ARC
  5
39A
330
1F
100
AcDbEntity
  8
6
100
AcDbCircle
 10
207.6949557665754
 20
132.413345422129
 30
0.0
 40
1.0
100
AcDbArc
 50
270.0
 51
322.0198988909999
  0
INSERT
  5
39E
330
1F
100
AcDbEntity
  8
0
100
AcDbBlockReference
  2
FIG______00033
 10
272.8629652071256
 20
141.2038502179646
 30
0.0
 50
180.0
  0
LINE
  5
39F
330
1F
100
AcDbEntity
  8
6
100
AcDbLine
 10
220.8443087965753
 20
123.213211142129
 30
0.0
 11
220.8442477565753
 21
122.413208092129
 31
0.0
  0
LINE
  5
3A0
330
1F
100
AcDbEntity
  8
6
100
AcDbLine
 10
222.3442477565753
 20
122.413131792129
 30
0.0
 11
220.8442477565753
 21
122.413208092129
 31
0.0
  0
LINE
  5
3A1
330
1F
100
AcDbEntity
  8
6
100
AcDbLine
 10
222.3443087965753
 20
123.213119592129
 30
0.0
 11
220.8443087965753
 21
123.213211142129
 31
0.0
  0
INSERT
  5
3A3
330
1F
100
AcDbEntity
  8
0
100
AcDbBlockReference
  2
FIG______00075
 10
275.1865278271256
 20
130.5029835179646
 30
0.0
 50
180.0
  0
LINE
  5
3B1
330
1F
100
AcDbEntity
  8
6
100
AcDbLine
 10
201.0950412165753
 20
130.613327112129
 30
0.0
 11
198.9727877965753
 21
130.613327112129
 31
0.0
  0
LINE
  5
3B2
330
1F
100
AcDbEntity
  8
6
100
AcDbLine
 10
201.0950412165753
 20
131.413345422129
 30
0.0
 11
198.9727877965753
 21
131.413314902129
 31
0.0
  0
ARC
  5
3B5
330
1F
100
AcDbEntity
  8
6
100
AcDbCircle
 10
201.0949801865754
 20
132.413345422129
 30
0.0
 40
1.79999994
100
AcDbArc
 50
270.0002038479999
 51
322.0200920100001
  0
ARC
  5
3B6
330
1F
100
AcDbEntity
  8
6
100
AcDbCircle
 10
205.1937960965754
 20
132.413345422129
 30
0.0
 40
1.79999994
100
AcDbArc
 50
217.980095744
 51
270.0
  0
ARC
  5
3B8
330
1F
100
AcDbEntity
  8
6
100
AcDbCircle
 10
203.1444186565753
 20
130.813339312129
 30
0.0
 40
0.80000003
100
AcDbArc
 50
37.98010110900019
 51
142.020113468
  0
ARC
  5
3B9
330
1F
100
AcDbEntity
  8
6
100
AcDbCircle
 10
203.1444186565753
 20
130.813339312129
 30
0.0
 40
1.60000006
100
AcDbArc
 50
37.98010110900019
 51
142.020113468
  0
ARC
  5
3BB
330
1F
100
AcDbEntity
  8
6
100
AcDbCircle
 10
205.1937960965754
 20
132.413345422129
 30
0.0
 40
1.0
100
AcDbArc
 50
217.980095744
 51
270.0
  0
LINE
  5
3BC
330
1F
100
AcDbEntity
  8
6
100
AcDbLine
 10
206.4444064565753
 20
131.413345422129
 30
0.0
 11
205.1937960965753
 21
131.413345422129
 31
0.0
  0
ARC
  5
3BD
330
1F
100
AcDbEntity
  8
6
100
AcDbCircle
 10
201.0949801865754
 20
132.413345422129
 30
0.0
 40
1.0
100
AcDbArc
 50
270.0002038479999
 51
322.0200920100001
  0
LINE
  5
3BF
330
1F
100
AcDbEntity
  8
6
100
AcDbLine
 10
206.4444064565753
 20
130.613357622129
 30
0.0
 11
205.1937960965753
 21
130.613357622129
 31
0.0
  0
ARC
  5
3C0
330
1F
100
AcDbEntity
  8
6
100
AcDbCircle
 10
197.1445407265754
 20
131.113205032129
 30
0.0
 40
0.5
100
AcDbArc
 50
45.00109434099966
 51
183.001413681
  0
ARC
  5
3C1
330
1F
100
AcDbEntity
  8
6
100
AcDbCircle
 10
197.1445407265754
 20
131.113205032129
 30
0.0
 40
1.29999993
100
AcDbArc
 50
45.00110507000023
 51
183.001413345
  0
LINE
  5
3C2
330
1F
100
AcDbEntity
  8
6
100
AcDbLine
 10
197.9122409265754
 20
131.052627642129
 30
0.0
 11
197.4980563565754
 21
131.466751182129
 31
0.0
  0
LWPOLYLINE
  5
3C5
330
1F
100
AcDbEntity
  8
6
100
AcDbPolyline
 90
        2
 70
     0
 43
0.0
 10
198.4779147565753
 20
131.618301472129
 10
198.0637301865753
 20
132.032455522129
  0
ARC
  5
3C7
330
1F
100
AcDbEntity
  8
6
100
AcDbCircle
 10
198.9727877965753
 20
132.113235552129
 30
0.0
 40
0.69989997
100
AcDbArc
 50
225.0010943410003
 51
270.0002038479999
  0
ARC
  5
3C8
330
1F
100
AcDbEntity
  8
6
100
AcDbCircle
 10
198.9727877965753
 20
132.113235552129
 30
0.0
 40
1.49990002
100
AcDbArc
 50
225.0010943410003
 51
270.0002038479999
  0
LINE
  5
3C9
330
1F
100
AcDbEntity
  8
6
100
AcDbLine
 10
195.8463229565754
 20
131.045150842129
 30
0.0
 11
195.8463229565754
 21
131.118423542129
 31
0.0
  0
LINE
  5
3CA
330
1F
100
AcDbEntity
  8
6
100
AcDbLine
 10
196.6463107465753
 20
131.045150842129
 30
0.0
 11
196.6463107465753
 21
131.118454062129
 31
0.0
  0
TEXT
  5
3F3
330
1F
100
AcDbEntity
  8
2
100
AcDbText
 10
236.0926863188548
 20
18.08806881389835
 30
0.0
 40
5.0
  1
 
 41
0.578
100
AcDbText
  0
TEXT
  5
3F5
330
1F
100
AcDbEntity
  8
2
100
AcDbText
 10
226.0023771688548
 20
0.0267818838983542
 30
0.0
 40
5.0
  1
 
 41
0.578
100
AcDbText
  0
LINE
  5
3F6
330
1F
100
AcDbEntity
  8
6
100
AcDbLine
 10
280.8797040971256
 20
143.4249195579646
 30
0.0
 11
280.8797040971256
 21
79.5142750279646
 31
0.0
  0
LINE
  5
3F7
330
1F
100
AcDbEntity
  8
6
100
AcDbLine
 10
276.1477094671257
 20
142.4444813179646
 30
0.0
 11
276.1477094671257
 21
78.42711681796459
 31
0.0
  0
LINE
  5
3F8
330
1F
100
AcDbEntity
  8
6
100
AcDbLine
 10
250.8799253471256
 20
140.7368092079646
 30
0.0
 11
250.8799253471256
 21
78.1760792279646
 31
0.0
  0
LINE
  5
3FA
330
1F
100
AcDbEntity
  8
6
  6
STRICHPUNKT
 62
     1
100
AcDbLine
 10
271.3797193571256
 20
141.1962360879646
 30
0.0
 11
271.3797193571256
 21
77.4827198479646
 31
0.0
  0
LINE
  5
3FB
330
1F
100
AcDbEntity
  8
6
  6
STRICHPUNKT
 62
     1
100
AcDbLine
 10
277.9797178271256
 20
141.1962360879646
 30
0.0
 11
277.9797178271256
 21
77.4827198479646
 31
0.0
  0
CIRCLE
  5
3FC
330
1F
100
AcDbEntity
  8
6
  6
GESTRICHELT
 62
     1
100
AcDbCircle
 10
277.9797178271257
 20
130.5029835179646
 30
0.0
 40
0.60000001
  0
LINE
  5
3FE
330
1F
100
AcDbEntity
  8
0
100
AcDbLine
 10
247.1447874071256
 20
78.40373780774456
 30
0.0
 11
247.1447874071256
 21
141.4682230136898
 31
0.0
  0
LINE
  5
400
330
1F
100
AcDbEntity
  8
6
100
AcDbLine
 10
195.1096896565754
 20
130.419372642129
 30
0.0
 11
192.1097506865754
 21
130.4193011806896
 31
0.0
  0
LINE
  5
401
330
1F
100
AcDbEntity
  8
6
100
AcDbLine
 10
195.1097506865754
 20
129.619369592129
 30
0.0
 11
192.1097506865754
 21
129.6192998712301
 31
0.0
  0
ARC
  5
403
330
1F
100
AcDbEntity
  8
6
100
AcDbCircle
 10
195.1463107465754
 20
131.118423542129
 30
0.0
 40
0.69999999
100
AcDbArc
 50
267.0013089180003
 51
0.0014133449999942
  0
ARC
  5
404
330
1F
100
AcDbEntity
  8
6
100
AcDbCircle
 10
195.1463107465754
 20
131.118423542129
 30
0.0
 40
1.5
100
AcDbArc
 50
267.0013089180003
 51
0.0014133449999942
  0
ARC
  5
409
330
1F
100
AcDbEntity
  8
6
 62
     1
100
AcDbCircle
 10
273.4039579971256
 20
143.5201513179646
 30
0.0
 40
2.26842998
100
AcDbArc
 50
275.2964516920001
 51
281.0650948959999
  0
ARC
  5
40A
330
1F
100
AcDbEntity
  8
6
 62
     1
100
AcDbCircle
 10
271.7200969071256
 20
152.1306257779646
 30
0.0
 40
11.03664521
100
AcDbArc
 50
281.0650948959999
 51
285.5458047459998
  0
ARC
  5
40B
330
1F
100
AcDbEntity
  8
6
 62
     1
100
AcDbCircle
 10
245.8776886971256
 20
245.0265636379646
 30
0.0
 40
107.460114
100
AcDbArc
 50
285.5458510429997
 51
288.2786254880002
  0
ARC
  5
40C
330
1F
100
AcDbEntity
  8
6
 62
     1
100
AcDbCircle
 10
245.8776886971256
 20
245.0265636379646
 30
0.0
 40
107.460114
100
AcDbArc
 50
288.2786254880002
 51
289.0876765260003
  0
ARC
  5
40D
330
1F
100
AcDbEntity
  8
6
 62
     1
100
AcDbCircle
 10
271.9279620071256
 20
164.4896928779646
 30
0.0
 40
23.30470515
100
AcDbArc
 50
264.07568287
 51
268.0580444339996
  0
ARC
  5
40E
330
1F
100
AcDbEntity
  8
6
 62
     1
100
AcDbCircle
 10
271.9279620071256
 20
164.4896928779646
 30
0.0
 40
23.2997112
100
AcDbArc
 50
268.0580444339996
 51
273.4490552409997
  0
ARC
  5
40F
330
1F
100
AcDbEntity
  8
6
 62
     1
100
AcDbCircle
 10
273.0986722071257
 20
145.0652149479646
 30
0.0
 40
3.83998599
100
AcDbArc
 50
273.4491556829998
 51
277.7056769949999
  0
ARC
  5
410
330
1F
100
AcDbEntity
  8
6
 62
     1
100
AcDbCircle
 10
265.3530027171256
 20
101.5769113079646
 30
0.0
 40
39.95072707
100
AcDbArc
 50
84.00923246500021
 51
86.3516998289997
  0
ARC
  5
411
330
1F
100
AcDbEntity
  8
6
 62
     1
100
AcDbCircle
 10
265.3530027171256
 20
101.5769113079646
 30
0.0
 40
39.94681644
100
AcDbArc
 50
86.3516998289997
 51
89.69438613200005
  0
ARC
  5
412
330
1F
100
AcDbEntity
  8
6
 62
     1
100
AcDbCircle
 10
265.5409669771257
 20
136.8214569279646
 30
0.0
 40
4.70176961
100
AcDbArc
 50
89.69401067800041
 51
91.48417704899967
  0
ARC
  5
413
330
1F
100
AcDbEntity
  8
6
 62
     1
100
AcDbCircle
 10
265.6817816871256
 20
133.4576028879646
 30
0.0
 40
8.06697371
100
AcDbArc
 50
91.86509228000027
 51
92.94031631300018
  0
ARC
  5
414
330
1F
100
AcDbEntity
  8
6
 62
     1
100
AcDbCircle
 10
269.2909344171255
 20
63.19247738796457
 30
0.0
 40
78.42631678
100
AcDbArc
 50
92.94039230299992
 51
95.68019104000003
  0
ARC
  5
415
330
1F
100
AcDbEntity
  8
6
 62
     1
100
AcDbCircle
 10
269.2909344171255
 20
63.19247738796457
 30
0.0
 40
78.42631678
100
AcDbArc
 50
95.68019104000003
 51
97.56731408199985
  0
ARC
  5
416
330
1F
100
AcDbEntity
  8
6
 62
     1
100
AcDbCircle
 10
252.8571869471256
 20
147.1453135079646
 30
0.0
 40
6.59437125
100
AcDbArc
 50
266.958086688
 51
269.9615739440002
  0
ARC
  5
417
330
1F
100
AcDbEntity
  8
6
 62
     1
100
AcDbCircle
 10
252.8838854871256
 20
186.9330446879646
 30
0.0
 40
46.38461197
100
AcDbArc
 50
269.9615560880002
 51
274.3538208010002
  0
ARC
  5
418
330
1F
100
AcDbEntity
  8
6
 62
     1
100
AcDbCircle
 10
252.8838854871256
 20
186.9330446879646
 30
0.0
 40
46.38461197
100
AcDbArc
 50
274.3538208010002
 51
277.5285494079997
  0
ARC
  5
419
330
1F
100
AcDbEntity
  8
6
 62
     1
100
AcDbCircle
 10
256.4754363171256
 20
179.6172930479646
 30
0.0
 40
39.28142452
100
AcDbArc
 50
256.2589968922631
 51
258.3944396969999
  0
ARC
  5
41A
330
1F
100
AcDbEntity
  8
6
 62
     1
100
AcDbCircle
 10
256.4754363171256
 20
179.6172930479646
 30
0.0
 40
39.27356049
100
AcDbArc
 50
258.3944396969999
 51
263.5566269960004
  0
ARC
  5
41B
330
1F
100
AcDbEntity
  8
6
 62
     1
100
AcDbCircle
 10
252.7717587171256
 20
146.8226684779646
 30
0.0
 40
6.27046021
100
AcDbArc
 50
263.5569083750004
 51
267.5814351989998
  0
ARC
  5
423
330
1F
100
AcDbEntity
  8
6
 62
     1
100
AcDbCircle
 10
270.7174204371256
 20
80.4526278479646
 30
0.0
 40
3.02165387
100
AcDbArc
 50
272.1314440500001
 51
276.8008314340004
  0
ARC
  5
424
330
1F
100
AcDbEntity
  8
6
 62
     1
100
AcDbCircle
 10
269.2088867571256
 20
93.1020100579646
 30
0.0
 40
15.75554953
100
AcDbArc
 50
276.8008314340004
 51
280.7490538909998
  0
ARC
  5
425
330
1F
100
AcDbEntity
  8
6
 62
     1
100
AcDbCircle
 10
240.0368178171256
 20
246.7649002879646
 30
0.0
 40
172.1630092
100
AcDbArc
 50
280.7493437530001
 51
283.0484008790001
  0
ARC
  5
426
330
1F
100
AcDbEntity
  8
6
 62
     1
100
AcDbCircle
 10
240.0368178171256
 20
246.7649002879646
 30
0.0
 40
172.1630092
100
AcDbArc
 50
283.0484008790001
 51
283.7231590870004
  0
ARC
  5
427
330
1F
100
AcDbEntity
  8
6
 62
     1
100
AcDbCircle
 10
266.7478751071257
 20
169.2562264579645
 30
0.0
 40
91.92807967
100
AcDbArc
 50
266.9960591980004
 51
269.208374023
  0
ARC
  5
428
330
1F
100
AcDbEntity
  8
6
 62
     1
100
AcDbCircle
 10
266.7478751071257
 20
169.2562264579645
 30
0.0
 40
91.9198765
100
AcDbArc
 50
269.208374023
 51
272.3714451350002
  0
ARC
  5
429
330
1F
100
AcDbEntity
  8
6
 62
     1
100
AcDbCircle
 10
270.1201838771256
 20
87.8252311579646
 30
0.0
 40
10.41908225
100
AcDbArc
 50
272.3714858889999
 51
273.9064539620002
  0
ARC
  5
42A
330
1F
100
AcDbEntity
  8
6
 62
     1
100
AcDbCircle
 10
289.1635462971257
 20
617.6759363179646
 30
0.0
 40
540.90672041
100
AcDbArc
 50
266.1697705919998
 51
266.7368774409999
  0
ARC
  5
42B
330
1F
100
AcDbEntity
  8
6
 62
     1
100
AcDbCircle
 10
289.1635462971257
 20
617.6759363179646
 30
0.0
 40
540.90504846
100
AcDbArc
 50
266.7368774409999
 51
267.1140560060003
  0
ARC
  5
42C
330
1F
100
AcDbEntity
  8
6
 62
     1
100
AcDbCircle
 10
261.6245811671256
 20
182.1620285479646
 30
0.0
 40
104.54177477
100
AcDbArc
 50
262.3476692509999
 51
263.5214538569998
  0
ARC
  5
42D
330
1F
100
AcDbEntity
  8
6
 62
     1
100
AcDbCircle
 10
261.6245811671256
 20
182.1620285479646
 30
0.0
 40
104.53844144
100
AcDbArc
 50
263.5214538569998
 51
265.2845294220002
  0
ARC
  5
42F
330
1F
100
AcDbEntity
  8
6
 62
     1
100
AcDbCircle
 10
439.5873201871258
 20
1524.667752067964
 30
0.0
 40
1458.79092954
100
AcDbArc
 50
262.4194903374183
 51
262.4415763640001
  0
LINE
  5
435
330
1F
100
AcDbEntity
  8
0
100
AcDbLine
 10
192.1097506865754
 20
129.6192998712301
 30
0.0
 11
192.1097506865754
 21
130.4193011806896
 31
0.0
  0
DIMENSION
  5
489
330
1F
100
AcDbEntity
  8
bem
 62
     0
100
AcDbDimension
  2
*D66
 10
192.2570202326366
 20
139.2265390635751
 30
0.0
 11
209.050847619606
 21
139.2265390635751
 31
0.0
 70
    32
  1
33.0
 71
     5
 42
33.58765477393871
  3
ISO-25
100
AcDbAlignedDimension
 13
225.8446750065754
 23
129.779022302129
 33
0.0
 14
192.2570202326366
 24
130.619111082451
 34
0.0
100
AcDbRotatedDimension
1001
ACAD
1000
DSTYLE
1002
{
1070
   140
1040
1.5
1070
    41
1040
1.5
1070
   340
1005
5E2
1070
    77
1070
     0
1070
   280
1070
     0
1002
}
  0
DIMENSION
  5
4DE
330
1F
100
AcDbEntity
  8
bem
 62
     0
100
AcDbDimension
  2
*D67
 10
234.6446772175844
 20
132.4133393715812
 30
0.0
 11
234.6446772175844
 21
127.4132546568551
 31
0.0
 70
    32
  1
10.0
 71
     5
 42
10.00016942945219
  3
ISO-25
100
AcDbAlignedDimension
 13
221.5942477565753
 23
122.413169942129
 33
0.0
 14
222.9447534964532
 24
132.4133393715812
 34
0.0
 50
90.0
100
AcDbRotatedDimension
1001
ACAD
1000
DSTYLE
1002
{
1070
    41
1040
1.5
1070
    77
1070
     0
1070
   140
1040
1.5
1070
   340
1005
5E2
1002
}
  0
TEXT
  5
5E9
330
1F
100
AcDbEntity
  8
TEXT
  6
Continuous
 62
     7
100
AcDbText
 10
194.8415268235747
 20
155.7200286504276
 30
0.0
 40
6.0
  1
Schluter  -TREP-EK
  7
STYLE1
100
AcDbText
  0
TEXT
  5
5EA
330
1F
100
AcDbEntity
  8
TEXT
  6
Continuous
 62
     7
100
AcDbText
 10
226.5861460629802
 20
160.2974526667313
 30
0.0
 40
3.0
  1
®
  7
STYLE1
100
AcDbText
  0
INSERT
  5
720
330
1F
100
AcDbEntity
  8
0
100
AcDbBlockReference
  2
SUB______00064
 10
264.7797132571256
 20
141.1962360879645
 30
0.0
 50
180.0
  0
CIRCLE
  5
727
330
1F
100
AcDbEntity
  8
6
 62
     1
100
AcDbCircle
 10
271.3797193571256
 20
105.5029835179646
 30
0.0
 40
0.60000001
  0
INSERT
  5
728
330
1F
100
AcDbEntity
  8
0
100
AcDbBlockReference
  2
SUB______00039
 10
268.2474485471256
 20
105.5029835179646
 30
0.0
 50
180.0
  0
CIRCLE
  5
729
330
1F
100
AcDbEntity
  8
6
 62
     1
100
AcDbCircle
 10
271.3797193571257
 20
135.5029835179646
 30
0.0
 40
0.60000001
  0
INSERT
  5
72A
330
1F
100
AcDbEntity
  8
0
100
AcDbBlockReference
  2
SUB______00026
 10
268.2474485471257
 20
135.5029835179646
 30
0.0
 50
180.0
  0
CIRCLE
  5
72B
330
1F
100
AcDbEntity
  8
6
  6
GESTRICHELT
 62
     1
100
AcDbCircle
 10
277.9797178271256
 20
120.5029835179646
 30
0.0
 40
0.60000001
  0
INSERT
  5
72C
330
1F
100
AcDbEntity
  8
0
100
AcDbBlockReference
  2
SUB______00066
 10
275.1865278271256
 20
120.5029835179646
 30
0.0
 50
180.0
  0
CIRCLE
  5
72D
330
1F
100
AcDbEntity
  8
6
  6
GESTRICHELT
 62
     1
100
AcDbCircle
 10
277.9797178271256
 20
110.5029835179646
 30
0.0
 40
0.60000001
  0
INSERT
  5
72E
330
1F
100
AcDbEntity
  8
0
100
AcDbBlockReference
  2
SUB______00068
 10
275.1865278271256
 20
110.5029835179646
 30
0.0
 50
180.0
  0
CIRCLE
  5
72F
330
1F
100
AcDbEntity
  8
6
 62
     1
100
AcDbCircle
 10
271.3797193571257
 20
125.5029835179646
 30
0.0
 40
0.60000001
  0
INSERT
  5
730
330
1F
100
AcDbEntity
  8
0
100
AcDbBlockReference
  2
SUB______00030
 10
268.2474485471257
 20
125.5029835179646
 30
0.0
 50
180.0
  0
CIRCLE
  5
731
330
1F
100
AcDbEntity
  8
6
 62
     1
100
AcDbCircle
 10
271.3797193571256
 20
115.5029835179646
 30
0.0
 40
0.60000001
  0
INSERT
  5
732
330
1F
100
AcDbEntity
  8
0
100
AcDbBlockReference
  2
SUB______00035
 10
268.2474485471256
 20
115.5029835179646
 30
0.0
 50
180.0
  0
CIRCLE
  5
733
330
1F
100
AcDbEntity
  8
6
  6
GESTRICHELT
 62
     1
100
AcDbCircle
 10
277.9797178271256
 20
100.5029835179646
 30
0.0
 40
0.60000001
  0
INSERT
  5
734
330
1F
100
AcDbEntity
  8
0
100
AcDbBlockReference
  2
SUB______00070
 10
275.1865278271256
 20
100.5029835179646
 30
0.0
 50
180.0
  0
CIRCLE
  5
735
330
1F
100
AcDbEntity
  8
6
  6
GESTRICHELT
 62
     1
100
AcDbCircle
 10
277.9797178271256
 20
90.5029682579646
 30
0.0
 40
0.60000001
  0
INSERT
  5
736
330
1F
100
AcDbEntity
  8
0
100
AcDbBlockReference
  2
SUB______00072
 10
275.1865278271256
 20
90.5029682579646
 30
0.0
 50
180.0
  0
CIRCLE
  5
737
330
1F
100
AcDbEntity
  8
6
 62
     1
100
AcDbCircle
 10
271.3797193571256
 20
95.5029835179646
 30
0.0
 40
0.60000001
  0
INSERT
  5
738
330
1F
100
AcDbEntity
  8
0
100
AcDbBlockReference
  2
SUB______00043
 10
268.2474485471256
 20
95.5029835179646
 30
0.0
 50
180.0
  0
CIRCLE
  5
739
330
1F
100
AcDbEntity
  8
6
 62
     1
100
AcDbCircle
 10
271.3797193571256
 20
85.5029835179646
 30
0.0
 40
0.60000001
  0
INSERT
  5
73A
330
1F
100
AcDbEntity
  8
0
100
AcDbBlockReference
  2
SUB______00047
 10
268.2474485471256
 20
85.5029835179646
 30
0.0
 50
180.0
  0
CIRCLE
  5
73B
330
1F
100
AcDbEntity
  8
6
  6
GESTRICHELT
 62
     1
100
AcDbCircle
 10
277.9797178271256
 20
80.5029835179646
 30
0.0
 40
0.60000001
  0
INSERT
  5
73C
330
1F
100
AcDbEntity
  8
0
100
AcDbBlockReference
  2
SUB______00074
 10
275.1865278271256
 20
80.5029835179646
 30
0.0
 50
180.0
  0
CIRCLE
  5
73D
330
1F
100
AcDbEntity
  8
6
 62
     1
100
AcDbCircle
 10
258.1797224071256
 20
105.5029835179646
 30
0.0
 40
0.60000001
  0
INSERT
  5
73E
330
1F
100
AcDbEntity
  8
0
100
AcDbBlockReference
  2
SUB______00041
 10
255.1993909871256
 20
105.5029835179646
 30
0.0
 50
180.0
  0
INSERT
  5
73F
330
1F
100
AcDbEntity
  8
0
100
AcDbBlockReference
  2
SUB______00020
 10
258.1797300371256
 20
141.1962360879645
 30
0.0
 50
180.0
  0
CIRCLE
  5
740
330
1F
100
AcDbEntity
  8
6
 62
     1
100
AcDbCircle
 10
258.1797224071256
 20
135.5029835179646
 30
0.0
 40
0.60000001
  0
INSERT
  5
741
330
1F
100
AcDbEntity
  8
0
100
AcDbBlockReference
  2
SUB______00028
 10
255.1993909871256
 20
135.5029835179646
 30
0.0
 50
180.0
  0
CIRCLE
  5
742
330
1F
100
AcDbEntity
  8
6
 62
     1
100
AcDbCircle
 10
258.1797224071256
 20
125.5029835179646
 30
0.0
 40
0.60000001
  0
INSERT
  5
743
330
1F
100
AcDbEntity
  8
0
100
AcDbBlockReference
  2
SUB______00032
 10
255.1993909871256
 20
125.5029835179646
 30
0.0
 50
180.0
  0
CIRCLE
  5
744
330
1F
100
AcDbEntity
  8
6
 62
     1
100
AcDbCircle
 10
258.1797224071256
 20
115.5029835179646
 30
0.0
 40
0.60000001
  0
INSERT
  5
745
330
1F
100
AcDbEntity
  8
0
100
AcDbBlockReference
  2
SUB______00037
 10
255.1993909871256
 20
115.5029835179646
 30
0.0
 50
180.0
  0
CIRCLE
  5
746
330
1F
100
AcDbEntity
  8
6
 62
     1
100
AcDbCircle
 10
258.1797224071256
 20
95.5029835179646
 30
0.0
 40
0.60000001
  0
INSERT
  5
747
330
1F
100
AcDbEntity
  8
0
100
AcDbBlockReference
  2
SUB______00045
 10
255.1993909871256
 20
95.5029835179646
 30
0.0
 50
180.0
  0
CIRCLE
  5
748
330
1F
100
AcDbEntity
  8
6
 62
     1
100
AcDbCircle
 10
258.1797224071256
 20
85.5029835179646
 30
0.0
 40
0.60000001
  0
INSERT
  5
749
330
1F
100
AcDbEntity
  8
0
100
AcDbBlockReference
  2
SUB______00049
 10
255.1993909871256
 20
85.5029835179646
 30
0.0
 50
180.0
  0
CIRCLE
  5
74A
330
1F
100
AcDbEntity
  8
6
 62
     1
100
AcDbCircle
 10
264.7797208871256
 20
130.5029835179645
 30
0.0
 40
0.60000001
  0
INSERT
  5
74B
330
1F
100
AcDbEntity
  8
0
100
AcDbBlockReference
  2
SUB______00057
 10
261.9865308771256
 20
130.5029835179645
 30
0.0
 50
180.0
  0
CIRCLE
  5
74C
330
1F
100
AcDbEntity
  8
6
 62
     1
100
AcDbCircle
 10
264.7797208871256
 20
120.5029835179645
 30
0.0
 40
0.60000001
  0
INSERT
  5
74D
330
1F
100
AcDbEntity
  8
0
100
AcDbBlockReference
  2
SUB______00058
 10
261.9865308771256
 20
120.5029835179645
 30
0.0
 50
180.0
  0
CIRCLE
  5
74E
330
1F
100
AcDbEntity
  8
6
 62
     1
100
AcDbCircle
 10
264.7797208871256
 20
110.5029835179645
 30
0.0
 40
0.60000001
  0
INSERT
  5
74F
330
1F
100
AcDbEntity
  8
0
100
AcDbBlockReference
  2
SUB______00059
 10
261.9865308771256
 20
110.5029835179645
 30
0.0
 50
180.0
  0
CIRCLE
  5
750
330
1F
100
AcDbEntity
  8
6
 62
     1
100
AcDbCircle
 10
264.7797208871256
 20
100.5029835179645
 30
0.0
 40
0.60000001
  0
INSERT
  5
751
330
1F
100
AcDbEntity
  8
0
100
AcDbBlockReference
  2
SUB______00060
 10
261.9865308771256
 20
100.5029835179645
 30
0.0
 50
180.0
  0
CIRCLE
  5
752
330
1F
100
AcDbEntity
  8
6
 62
     1
100
AcDbCircle
 10
264.7797208871256
 20
90.50296825796454
 30
0.0
 40
0.60000001
  0
INSERT
  5
753
330
1F
100
AcDbEntity
  8
0
100
AcDbBlockReference
  2
SUB______00061
 10
261.9865308771256
 20
90.50296825796454
 30
0.0
 50
180.0
  0
CIRCLE
  5
754
330
1F
100
AcDbEntity
  8
6
 62
     1
100
AcDbCircle
 10
264.7797208871256
 20
80.50298351796454
 30
0.0
 40
0.60000001
  0
INSERT
  5
755
330
1F
100
AcDbEntity
  8
0
100
AcDbBlockReference
  2
SUB______00062
 10
261.9865308771256
 20
80.50298351796454
 30
0.0
 50
180.0
  0
VIEWPORT
  5
FD
102
{ACAD_XDICTIONARY
360
75C
102
}
330
23
100
AcDbEntity
 67
     1
  8
0
100
AcDbViewport
 10
145.8627787425925
 20
142.9279141426086
 30
0.0
 40
577.0824596022497
 41
314.1477025756836
 68
     1
 69
     1
 12
145.8627787425925
 22
142.9279141426086
 13
0.0
 23
0.0
 14
10.0
 24
10.0
 15
10.0
 25
10.0
 16
0.0
 26
0.0
 36
1.0
 17
0.0
 27
0.0
 37
0.0
 42
50.0
 43
0.0
 44
0.0
 45
314.1477025756836
 50
0.0
 51
0.0
 72
   100
 90
    32800
  1

281
     0
 71
     1
 74
     0
110
0.0
120
0.0
130
0.0
111
1.0
121
0.0
131
0.0
112
0.0
122
1.0
132
0.0
 79
     0
146
0.0
  0
VIEWPORT
  5
FF
102
{ACAD_XDICTIONARY
360
75E
102
}
330
23
100
AcDbEntity
 67
     1
  8
bem
100
AcDbViewport
 10
98.38330567863403
 20
103.2057716799893
 30
0.0
 40
192.8494057773879
 41
202.8450512375533
 68
     2
 69
     2
 12
207.4203494512802
 22
110.2301855253535
 13
0.0
 23
0.0
 14
10.0
 24
10.0
 15
10.0
 25
10.0
 16
0.0
 26
0.0
 36
1.0
 17
0.0
 27
0.0
 37
0.0
 42
50.0
 43
0.0
 44
0.0
 45
101.4225259452591
 50
0.0
 51
0.0
 72
   100
 90
    32864
  1

281
     0
 71
     1
 74
     0
110
0.0
120
0.0
130
0.0
111
1.0
121
0.0
131
0.0
112
0.0
122
1.0
132
0.0
 79
     0
146
0.0
  0
ENDSEC
  0
SECTION
  2
OBJECTS
  0
DICTIONARY
  5
C
330
0
100
AcDbDictionary
281
     1
  3
ACAD_GROUP
350
D
  3
ACAD_LAYOUT
350
1A
  3
ACAD_MATERIAL
350
718
  3
ACAD_MLEADERSTYLE
350
71C
  3
ACAD_MLINESTYLE
350
17
  3
ACAD_PLOTSETTINGS
350
19
  3
ACAD_PLOTSTYLENAME
350
E
  3
ACAD_SCALELIST
350
706
  3
ACAD_TABLESTYLE
350
71E
  3
ACAD_VISUALSTYLE
350
6ED
  3
AcDbVariableDictionary
350
599
  3
DWGPROPS
350
75B
  0
DICTIONARY
  5
760
330
8
100
AcDbDictionary
280
     1
281
     1
  3
ACAD_XREC_ROUNDTRIP
360
761
  0
DICTIONARY
  5
75C
330
FD
100
AcDbDictionary
280
     1
281
     1
  3
ACAD_XREC_ROUNDTRIP
360
75D
  0
DICTIONARY
  5
75E
330
FF
100
AcDbDictionary
280
     1
281
     1
  3
ACAD_XREC_ROUNDTRIP
360
75F
  0
DICTIONARY
  5
D
102
{ACAD_REACTORS
330
C
102
}
330
C
100
AcDbDictionary
281
     1
  0
DICTIONARY
  5
1A
102
{ACAD_REACTORS
330
C
102
}
330
C
100
AcDbDictionary
281
     1
  3
Layout2
350
26
  3
Model
350
22
  0
DICTIONARY
  5
718
102
{ACAD_REACTORS
330
C
102
}
330
C
100
AcDbDictionary
281
     1
  3
ByBlock
350
71A
  3
ByLayer
350
719
  3
Global
350
71B
  0
DICTIONARY
  5
71C
102
{ACAD_REACTORS
330
C
102
}
330
C
100
AcDbDictionary
281
     1
  3
Standard
350
71D
  0
DICTIONARY
  5
17
102
{ACAD_REACTORS
330
C
102
}
330
C
100
AcDbDictionary
281
     1
  3
Standard
350
18
  0
DICTIONARY
  5
19
102
{ACAD_REACTORS
330
C
102
}
330
C
100
AcDbDictionary
281
     1
  0
ACDBDICTIONARYWDFLT
  5
E
102
{ACAD_REACTORS
330
C
102
}
330
C
100
AcDbDictionary
281
     1
  3
Normal
350
F
100
AcDbDictionaryWithDefault
340
F
  0
DICTIONARY
  5
706
102
{ACAD_REACTORS
330
C
102
}
330
C
100
AcDbDictionary
281
     1
  3
A0
350
707
  3
A1
350
708
  3
A2
350
709
  3
A3
350
70A
  3
A4
350
70B
  3
A5
350
70C
  3
A6
350
70D
  3
A7
350
70E
  3
A8
350
70F
  3
A9
350
710
  3
B0
350
711
  3
B1
350
712
  3
B2
350
713
  3
B3
350
714
  3
B4
350
715
  3
B5
350
716
  3
B6
350
717
  0
DICTIONARY
  5
71E
102
{ACAD_REACTORS
330
C
102
}
330
C
100
AcDbDictionary
281
     1
  3
Standard
350
71F
  0
DICTIONARY
  5
6ED
102
{ACAD_REACTORS
330
C
102
}
330
C
100
AcDbDictionary
281
     1
  3
2dWireframe
350
6F2
  3
Basic
350
6F5
  3
Brighten
350
6F9
  3
ColorChange
350
6FD
  3
Conceptual
350
6F7
  3
Dim
350
6F8
  3
EdgeColorOff
350
700
  3
Facepattern
350
6FC
  3
Flat
350
6EE
  3
FlatWithEdges
350
6EF
  3
Gouraud
350
6F0
  3
GouraudWithEdges
350
6F1
  3
Hidden
350
6F4
  3
JitterOff
350
6FE
  3
Linepattern
350
6FB
  3
OverhangOff
350
6FF
  3
Realistic
350
6F6
  3
Shaded
350
705
  3
Shaded with edges
350
704
  3
Shades of Gray
350
701
  3
Sketchy
350
702
  3
Thicken
350
6FA
  3
Wireframe
350
6F3
  3
X-Ray
350
703
  0
DICTIONARY
  5
599
102
{ACAD_REACTORS
330
C
102
}
330
C
100
AcDbDictionary
281
     1
  3
CANNOSCALE
350
762
  3
CMLEADERSTYLE
350
757
  3
CTABLESTYLE
350
756
  3
DIMASSOC
350
5DA
  3
HIDETEXT
350
75A
  3
MSLTSCALE
350
763
  3
SORTENTS
350
59A
  0
XRECORD
  5
75B
102
{ACAD_REACTORS
330
C
102
}
330
C
100
AcDbXrecord
280
     1
  1
DWGPROPS COOKIE
  2

  3

  4

  6

  7

  8
acae2
  9

300
=
301
=
302
=
303
=
304
=
305
=
306
=
307
=
308
=
309
=
 40
0.0
 41
2453451.462233414
 42
2460341.407224653
  1

 90
        0
  0
XRECORD
  5
761
102
{ACAD_REACTORS
330
760
102
}
330
760
100
AcDbXrecord
280
     1
102
VTR_0.000_0.000_1.000_1.000_VISUALSTYLE
340
6F2
102
VTR_0.000_0.000_1.000_1.000_GRIDDISPLAY
 70
     3
102
VTR_0.000_0.000_1.000_1.000_GRIDMAJOR
 70
     5
102
VTR_0.000_0.000_1.000_1.000_DEFAULTLIGHTING
280
     1
102
VTR_0.000_0.000_1.000_1.000_DEFAULTLIGHTINGTYPE
 70
     1
102
VTR_0.000_0.000_1.000_1.000_BRIGHTNESS
141
0.0
102
VTR_0.000_0.000_1.000_1.000_CONTRAST
142
0.0
  0
XRECORD
  5
75D
102
{ACAD_REACTORS
330
75C
102
}
330
75C
100
AcDbXrecord
280
     1
102
VISUALSTYLE
340
6F2
102
GRIDDISPLAY
 70
     0
102
GRIDMAJOR
 70
     5
102
DEFAULTLIGHTING
280
     1
102
DEFAULTLIGHTINGTYPE
 70
     1
102
BRIGHTNESS
141
0.0
102
CONTRAST
142
0.0
  0
XRECORD
  5
75F
102
{ACAD_REACTORS
330
75E
102
}
330
75E
100
AcDbXrecord
280
     1
102
VISUALSTYLE
340
6F2
102
GRIDDISPLAY
 70
     0
102
GRIDMAJOR
 70
     5
102
DEFAULTLIGHTING
280
     1
102
DEFAULTLIGHTINGTYPE
 70
     1
102
BRIGHTNESS
141
0.0
102
CONTRAST
142
0.0
  0
LAYOUT
  5
26
102
{ACAD_REACTORS
330
1A
102
}
330
1A
100
AcDbPlotSettings
  1

  2
\\DEISS001\Lexmark Optra T612 (DEISP015)
  4
A4
  6

 40
6.805083274841309
 41
5.535083293914795
 42
6.974411010742188
 43
7.14373779296875
 44
209.9733276367188
 45
296.9259948730469
 46
0.0
 47
0.0
 48
0.0
 49
0.0
140
0.0
141
0.0
142
1.0
143
1.0
 70
   688
 72
     1
 73
     0
 74
     5
  7
Schlüter.ctb
 75
    16
147
1.0
148
0.0
149
0.0
100
AcDbLayout
  1
Layout2
 70
     1
 71
     1
 10
-6.805083274841309
 20
-5.535083293914795
 11
203.1682443618774
 21
291.3909115791321
 12
0.0
 22
0.0
 32
0.0
 14
1.958602789940073
 24
1.783246061212594
 34
0.0
 15
194.808008567328
 25
204.6282972987659
 35
0.0
146
0.0
 13
0.0
 23
0.0
 33
0.0
 16
1.0
 26
0.0
 36
0.0
 17
0.0
 27
1.0
 37
0.0
 76
     0
330
23
331
FD
  0
LAYOUT
  5
22
102
{ACAD_REACTORS
330
1A
102
}
330
1A
100
AcDbPlotSettings
  1

  2
\\DEISS001\Lexmark Optra T614 (DEISP009)
  4
A4
  6

 40
6.805083274841309
 41
5.535083293914795
 42
6.974411010742188
 43
7.14373779296875
 44
209.9733276367188
 45
296.9259948730469
 46
0.0
 47
7.2
 48
162.2196052045492
 49
57.9796744730088
140
295.3577489515629
141
154.780496050265
142
1.0
143
0.493393803076411
 70
 11956
 72
     1
 73
     1
 74
     4
  7
scllueter.ctb
 75
     0
147
2.02677859706546
148
-162.2196052045492
149
-57.9796744730088
100
AcDbLayout
  1
Model
 70
     1
 71
     0
 10
0.0
 20
0.0
 11
12.0
 21
9.0
 12
0.0
 22
0.0
 32
0.0
 14
0.0
 24
0.0
 34
0.0
 15
0.0
 25
0.0
 35
0.0
146
0.0
 13
0.0
 23
0.0
 33
0.0
 16
1.0
 26
0.0
 36
0.0
 17
0.0
 27
1.0
 37
0.0
 76
     0
330
1F
331
6EC
  0
MATERIAL
  5
71A
102
{ACAD_REACTORS
330
718
102
}
102
{ACAD_XDICTIONARY
360
796
102
}
330
718
100
AcDbMaterial
  1
ByBlock
  0
MATERIAL
  5
719
102
{ACAD_REACTORS
330
718
102
}
102
{ACAD_XDICTIONARY
360
794
102
}
330
718
100
AcDbMaterial
  1
ByLayer
  0
MATERIAL
  5
71B
102
{ACAD_REACTORS
330
718
102
}
102
{ACAD_XDICTIONARY
360
798
102
}
330
718
100
AcDbMaterial
  1
Global
  0
MLEADERSTYLE
  5
71D
102
{ACAD_REACTORS
330
71C
102
}
102
{ACAD_XDICTIONARY
360
79B
102
}
330
71C
100
AcDbMLeaderStyle
170
     2
171
     1
172
     0
 90
        2
 40
0.0
 41
0.0
173
     1
 91
-1056964608
340
14
 92
       -2
290
     1
 42
2.0
291
     1
 43
8.0
  3
Standard
341
0
 44
4.0
300

342
11
174
     1
178
     6
175
     1
176
     0
 93
-1056964608
 45
4.0
292
     0
297
     0
 46
4.0
343
0
 94
-1056964608
 47
1.0
 49
1.0
140
1.0
293
     1
141
0.0
294
     1
177
     0
142
1.0
295
     0
296
     0
143
3.75
1001
ACAD_MLEADERVER
1070
     2
  0
MLINESTYLE
  5
18
102
{ACAD_REACTORS
330
17
102
}
330
17
100
AcDbMlineStyle
  2
STANDARD
 70
     0
  3

 62
   256
 51
90.0
 52
90.0
 71
     2
 49
0.5
 62
   256
  6
BYLAYER
 49
-0.5
 62
   256
  6
BYLAYER
  0
ACDBPLACEHOLDER
  5
F
102
{ACAD_REACTORS
330
E
102
}
330
E
  0
SCALE
  5
707
102
{ACAD_REACTORS
330
706
102
}
330
706
100
AcDbScale
 70
     0
300
1:1
140
1.0
141
1.0
290
     1
  0
SCALE
  5
708
102
{ACAD_REACTORS
330
706
102
}
330
706
100
AcDbScale
 70
     0
300
1:2
140
1.0
141
2.0
290
     0
  0
SCALE
  5
709
102
{ACAD_REACTORS
330
706
102
}
330
706
100
AcDbScale
 70
     0
300
1:4
140
1.0
141
4.0
290
     0
  0
SCALE
  5
70A
102
{ACAD_REACTORS
330
706
102
}
330
706
100
AcDbScale
 70
     0
300
1:5
140
1.0
141
5.0
290
     0
  0
SCALE
  5
70B
102
{ACAD_REACTORS
330
706
102
}
330
706
100
AcDbScale
 70
     0
300
1:8
140
1.0
141
8.0
290
     0
  0
SCALE
  5
70C
102
{ACAD_REACTORS
330
706
102
}
330
706
100
AcDbScale
 70
     0
300
1:10
140
1.0
141
10.0
290
     0
  0
SCALE
  5
70D
102
{ACAD_REACTORS
330
706
102
}
330
706
100
AcDbScale
 70
     0
300
1:16
140
1.0
141
16.0
290
     0
  0
SCALE
  5
70E
102
{ACAD_REACTORS
330
706
102
}
330
706
100
AcDbScale
 70
     0
300
1:20
140
1.0
141
20.0
290
     0
  0
SCALE
  5
70F
102
{ACAD_REACTORS
330
706
102
}
330
706
100
AcDbScale
 70
     0
300
1:30
140
1.0
141
30.0
290
     0
  0
SCALE
  5
710
102
{ACAD_REACTORS
330
706
102
}
330
706
100
AcDbScale
 70
     0
300
1:40
140
1.0
141
40.0
290
     0
  0
SCALE
  5
711
102
{ACAD_REACTORS
330
706
102
}
330
706
100
AcDbScale
 70
     0
300
1:50
140
1.0
141
50.0
290
     0
  0
SCALE
  5
712
102
{ACAD_REACTORS
330
706
102
}
330
706
100
AcDbScale
 70
     0
300
1:100
140
1.0
141
100.0
290
     0
  0
SCALE
  5
713
102
{ACAD_REACTORS
330
706
102
}
330
706
100
AcDbScale
 70
     0
300
2:1
140
2.0
141
1.0
290
     0
  0
SCALE
  5
714
102
{ACAD_REACTORS
330
706
102
}
330
706
100
AcDbScale
 70
     0
300
4:1
140
4.0
141
1.0
290
     0
  0
SCALE
  5
715
102
{ACAD_REACTORS
330
706
102
}
330
706
100
AcDbScale
 70
     0
300
8:1
140
8.0
141
1.0
290
     0
  0
SCALE
  5
716
102
{ACAD_REACTORS
330
706
102
}
330
706
100
AcDbScale
 70
     0
300
10:1
140
10.0
141
1.0
290
     0
  0
SCALE
  5
717
102
{ACAD_REACTORS
330
706
102
}
330
706
100
AcDbScale
 70
     0
300
100:1
140
100.0
141
1.0
290
     0
  0
TABLESTYLE
  5
71F
102
{ACAD_REACTORS
330
71E
102
}
330
71E
100
AcDbTableStyle
  3
Standard
 70
     0
 71
     0
 40
1.5
 41
1.5
280
     0
281
     0
  7
Standard
140
4.5
170
     2
 62
     0
 63
   257
283
     0
274
    -2
284
     1
 64
     0
275
    -2
285
     1
 65
     0
276
    -2
286
     1
 66
     0
277
    -2
287
     1
 67
     0
278
    -2
288
     1
 68
     0
279
    -2
289
     1
 69
     0
  7
Standard
140
6.0
170
     5
 62
     0
 63
   257
283
     0
274
    -2
284
     1
 64
     0
275
    -2
285
     1
 65
     0
276
    -2
286
     1
 66
     0
277
    -2
287
     1
 67
     0
278
    -2
288
     1
 68
     0
279
    -2
289
     1
 69
     0
  7
Standard
140
4.5
170
     5
 62
     0
 63
   257
283
     0
274
    -2
284
     1
 64
     0
275
    -2
285
     1
 65
     0
276
    -2
286
     1
 66
     0
277
    -2
287
     1
 67
     0
278
    -2
288
     1
 68
     0
279
    -2
289
     1
 69
     0
  0
VISUALSTYLE
  5
6F2
102
{ACAD_REACTORS
330
6ED
102
}
102
{ACAD_XDICTIONARY
360
76C
102
}
330
6ED
100
AcDbVisualStyle
  2
2dWireframe
 70
     4
 71
     0
 72
     2
 73
     0
 90
        0
 40
0.6
 41
30.0
 62
     5
 63
     7
 74
     1
 91
        4
 64
     7
 65
   257
 75
     1
175
     1
 42
1.0
 92
        0
 66
   257
 43
1.0
 76
     1
 77
     6
 78
     2
 67
     7
 79
     5
170
     0
171
     0
290
     0
174
     0
 93
        1
 44
0.0
173
     0
291
     0
 45
0.0
1001
ACAD
1000
AcDbSavedByObjectVersion
1070
     0
  0
VISUALSTYLE
  5
6F5
102
{ACAD_REACTORS
330
6ED
102
}
102
{ACAD_XDICTIONARY
360
772
102
}
330
6ED
100
AcDbVisualStyle
  2
Basic
 70
     7
 71
     1
 72
     0
 73
     1
 90
        0
 40
0.6
 41
30.0
 62
     5
 63
     7
 74
     0
 91
        4
 64
     7
 65
   257
 75
     1
175
     1
 42
1.0
 92
        8
 66
     7
 43
1.0
 76
     1
 77
     6
 78
     2
 67
     7
 79
     5
170
     0
171
     0
290
     0
174
     0
 93
        1
 44
0.0
173
     0
291
     1
 45
0.0
1001
ACAD
1000
AcDbSavedByObjectVersion
1070
     0
  0
VISUALSTYLE
  5
6F9
102
{ACAD_REACTORS
330
6ED
102
}
102
{ACAD_XDICTIONARY
360
77A
102
}
330
6ED
100
AcDbVisualStyle
  2
Brighten
 70
    12
 71
     2
 72
     2
 73
     0
 90
        0
 40
0.6
 41
30.0
 62
     5
 63
     7
 74
     1
 91
        4
 64
     7
 65
   257
 75
     1
175
     1
 42
1.0
 92
        8
 66
     7
 43
1.0
 76
     1
 77
     6
 78
     2
 67
     7
 79
     5
170
     0
171
     0
290
     0
174
     0
 93
        1
 44
50.0
173
     0
291
     1
 45
0.0
1001
ACAD
1000
AcDbSavedByObjectVersion
1070
     0
  0
VISUALSTYLE
  5
6FD
102
{ACAD_REACTORS
330
6ED
102
}
102
{ACAD_XDICTIONARY
360
782
102
}
330
6ED
100
AcDbVisualStyle
  2
ColorChange
 70
    16
 71
     2
 72
     2
 73
     3
 90
        0
 40
0.6
 41
30.0
 62
     5
 63
     8
 74
     1
 91
        4
 64
     7
 65
   257
 75
     1
175
     1
 42
1.0
 92
        8
 66
     8
 43
1.0
 76
     1
 77
     6
 78
     2
 67
     7
 79
     5
170
     0
171
     0
290
     0
174
     0
 93
        1
 44
0.0
173
     0
291
     1
 45
0.0
1001
ACAD
1000
AcDbSavedByObjectVersion
1070
     0
  0
VISUALSTYLE
  5
6F7
102
{ACAD_REACTORS
330
6ED
102
}
102
{ACAD_XDICTIONARY
360
776
102
}
330
6ED
100
AcDbVisualStyle
  2
Conceptual
 70
     9
 71
     3
 72
     2
 73
     0
 90
        0
 40
0.6
 41
30.0
 62
     5
 63
     7
 74
     2
 91
        2
 64
     7
 65
   257
 75
     1
175
     1
 42
179.0
 92
        8
 66
     7
 43
1.0
 76
     1
 77
     6
 78
     2
 67
     7
 79
     3
170
     0
171
     0
290
     0
174
     0
 93
        1
 44
0.0
173
     0
291
     0
 45
0.0
1001
ACAD
1000
AcDbSavedByObjectVersion
1070
     0
  0
VISUALSTYLE
  5
6F8
102
{ACAD_REACTORS
330
6ED
102
}
102
{ACAD_XDICTIONARY
360
778
102
}
330
6ED
100
AcDbVisualStyle
  2
Dim
 70
    11
 71
     2
 72
     2
 73
     0
 90
        0
 40
0.6
 41
30.0
 62
     5
 63
     7
 74
     1
 91
        4
 64
     7
 65
   257
 75
     1
175
     1
 42
1.0
 92
        8
 66
     7
 43
1.0
 76
     1
 77
     6
 78
     2
 67
     7
 79
     5
170
     0
171
     0
290
     0
174
     0
 93
        1
 44
-50.0
173
     0
291
     1
 45
0.0
1001
ACAD
1000
AcDbSavedByObjectVersion
1070
     0
  0
VISUALSTYLE
  5
700
102
{ACAD_REACTORS
330
6ED
102
}
102
{ACAD_XDICTIONARY
360
788
102
}
330
6ED
100
AcDbVisualStyle
  2
EdgeColorOff
 70
    22
 71
     2
 72
     2
 73
     0
 90
        0
 40
0.6
 41
30.0
 62
     5
 63
     7
 74
     1
 91
        4
 64
     7
 65
   257
 75
     1
175
     1
 42
1.0
 92
        8
 66
     7
 43
1.0
 76
     1
 77
     6
 78
     2
 67
     7
 79
     5
170
     0
171
     0
290
     0
174
     0
 93
        1
 44
0.0
173
     0
291
     1
 45
0.0
1001
ACAD
1000
AcDbSavedByObjectVersion
1070
     0
  0
VISUALSTYLE
  5
6FC
102
{ACAD_REACTORS
330
6ED
102
}
102
{ACAD_XDICTIONARY
360
780
102
}
330
6ED
100
AcDbVisualStyle
  2
Facepattern
 70
    15
 71
     2
 72
     2
 73
     0
 90
        0
 40
0.6
 41
30.0
 62
     5
 63
     7
 74
     1
 91
        4
 64
     7
 65
   257
 75
     1
175
     1
 42
1.0
 92
        8
 66
     7
 43
1.0
 76
     1
 77
     6
 78
     2
 67
     7
 79
     5
170
     0
171
     0
290
     0
174
     0
 93
        1
 44
0.0
173
     0
291
     1
 45
0.0
1001
ACAD
1000
AcDbSavedByObjectVersion
1070
     0
  0
VISUALSTYLE
  5
6EE
102
{ACAD_REACTORS
330
6ED
102
}
102
{ACAD_XDICTIONARY
360
764
102
}
330
6ED
100
AcDbVisualStyle
  2
Flat
 70
     0
 71
     2
 72
     1
 73
     1
 90
        2
 40
0.6
 41
30.0
 62
     5
 63
     7
 74
     0
 91
        0
 64
     7
 65
   257
 75
     1
175
     1
 42
1.0
 92
        8
 66
     7
 43
1.0
 76
     1
 77
     6
 78
     2
 67
     7
 79
     5
170
     0
171
     0
290
     0
174
     0
 93
       13
 44
0.0
173
     0
291
     1
 45
0.0
1001
ACAD
1000
AcDbSavedByObjectVersion
1070
     0
  0
VISUALSTYLE
  5
6EF
102
{ACAD_REACTORS
330
6ED
102
}
102
{ACAD_XDICTIONARY
360
766
102
}
330
6ED
100
AcDbVisualStyle
  2
FlatWithEdges
 70
     1
 71
     2
 72
     1
 73
     1
 90
        2
 40
0.6
 41
30.0
 62
     5
 63
     7
 74
     1
 91
        0
 64
     7
 65
   257
 75
     1
175
     1
 42
1.0
 92
        0
 66
   257
 43
1.0
 76
     1
 77
     6
 78
     2
 67
     7
 79
     5
170
     0
171
     0
290
     0
174
     0
 93
       13
 44
0.0
173
     0
291
     1
 45
0.0
1001
ACAD
1000
AcDbSavedByObjectVersion
1070
     0
  0
VISUALSTYLE
  5
6F0
102
{ACAD_REACTORS
330
6ED
102
}
102
{ACAD_XDICTIONARY
360
768
102
}
330
6ED
100
AcDbVisualStyle
  2
Gouraud
 70
     2
 71
     2
 72
     2
 73
     1
 90
        2
 40
0.6
 41
30.0
 62
     5
 63
     7
 74
     0
 91
        0
 64
     7
 65
   257
 75
     1
175
     1
 42
1.0
 92
        0
 66
     7
 43
1.0
 76
     1
 77
     6
 78
     2
 67
     7
 79
     5
170
     0
171
     0
290
     0
174
     0
 93
       13
 44
0.0
173
     0
291
     1
 45
0.0
1001
ACAD
1000
AcDbSavedByObjectVersion
1070
     0
  0
VISUALSTYLE
  5
6F1
102
{ACAD_REACTORS
330
6ED
102
}
102
{ACAD_XDICTIONARY
360
76A
102
}
330
6ED
100
AcDbVisualStyle
  2
GouraudWithEdges
 70
     3
 71
     2
 72
     2
 73
     1
 90
        2
 40
0.6
 41
30.0
 62
     5
 63
     7
 74
     1
 91
        0
 64
     7
 65
   257
 75
     1
175
     1
 42
1.0
 92
        0
 66
   257
 43
1.0
 76
     1
 77
     6
 78
     2
 67
     7
 79
     5
170
     0
171
     0
290
     0
174
     0
 93
       13
 44
0.0
173
     0
291
     1
 45
0.0
1001
ACAD
1000
AcDbSavedByObjectVersion
1070
     0
  0
VISUALSTYLE
  5
6F4
102
{ACAD_REACTORS
330
6ED
102
}
102
{ACAD_XDICTIONARY
360
770
102
}
330
6ED
100
AcDbVisualStyle
  2
Hidden
 70
     6
 71
     1
 72
     2
 73
     2
 90
        0
 40
0.6
 41
30.0
 62
     5
 63
     7
 74
     2
 91
        2
 64
     7
 65
   257
 75
     2
175
     1
 42
40.0
 92
        0
 66
   257
 43
1.0
 76
     1
 77
     6
 78
     2
 67
     7
 79
     3
170
     0
171
     0
290
     0
174
     0
 93
        1
 44
0.0
173
     0
291
     0
 45
0.0
1001
ACAD
1000
AcDbSavedByObjectVersion
1070
     0
  0
VISUALSTYLE
  5
6FE
102
{ACAD_REACTORS
330
6ED
102
}
102
{ACAD_XDICTIONARY
360
784
102
}
330
6ED
100
AcDbVisualStyle
  2
JitterOff
 70
    20
 71
     2
 72
     2
 73
     0
 90
        0
 40
0.6
 41
30.0
 62
     5
 63
     7
 74
     1
 91
        4
 64
     7
 65
   257
 75
     1
175
     1
 42
1.0
 92
       10
 66
     7
 43
1.0
 76
     1
 77
     6
 78
     2
 67
     7
 79
     5
170
     0
171
     0
290
     0
174
     0
 93
        1
 44
0.0
173
     0
291
     1
 45
0.0
1001
ACAD
1000
AcDbSavedByObjectVersion
1070
     0
  0
VISUALSTYLE
  5
6FB
102
{ACAD_REACTORS
330
6ED
102
}
102
{ACAD_XDICTIONARY
360
77E
102
}
330
6ED
100
AcDbVisualStyle
  2
Linepattern
 70
    14
 71
     2
 72
     2
 73
     0
 90
        0
 40
0.6
 41
30.0
 62
     5
 63
     7
 74
     1
 91
        4
 64
     7
 65
   257
 75
     7
175
     7
 42
1.0
 92
        8
 66
     7
 43
1.0
 76
     1
 77
     6
 78
     2
 67
     7
 79
     5
170
     0
171
     0
290
     0
174
     0
 93
        1
 44
0.0
173
     0
291
     1
 45
0.0
1001
ACAD
1000
AcDbSavedByObjectVersion
1070
     0
  0
VISUALSTYLE
  5
6FF
102
{ACAD_REACTORS
330
6ED
102
}
102
{ACAD_XDICTIONARY
360
786
102
}
330
6ED
100
AcDbVisualStyle
  2
OverhangOff
 70
    21
 71
     2
 72
     2
 73
     0
 90
        0
 40
0.6
 41
30.0
 62
     5
 63
     7
 74
     1
 91
        4
 64
     7
 65
   257
 75
     1
175
     1
 42
1.0
 92
        9
 66
     7
 43
1.0
 76
     1
 77
     6
 78
     2
 67
     7
 79
     5
170
     0
171
     0
290
     0
174
     0
 93
        1
 44
0.0
173
     0
291
     1
 45
0.0
1001
ACAD
1000
AcDbSavedByObjectVersion
1070
     0
  0
VISUALSTYLE
  5
6F6
102
{ACAD_REACTORS
330
6ED
102
}
102
{ACAD_XDICTIONARY
360
774
102
}
330
6ED
100
AcDbVisualStyle
  2
Realistic
 70
     8
 71
     2
 72
     3
 73
     0
 90
        2
 40
0.6
 41
30.0
 62
     5
 63
     7
 74
     0
 91
        0
 64
     7
 65
   257
 75
     1
175
     1
 42
1.0
 92
        8
 66
   257
 43
1.0
 76
     1
 77
     6
 78
     2
 67
     7
 79
     3
170
     0
171
     0
290
     0
174
     0
 93
       13
 44
0.0
173
     0
291
     0
 45
0.0
1001
ACAD
1000
AcDbSavedByObjectVersion
1070
     0
  0
VISUALSTYLE
  5
705
102
{ACAD_REACTORS
330
6ED
102
}
102
{ACAD_XDICTIONARY
360
792
102
}
330
6ED
100
AcDbVisualStyle
  2
Shaded
 70
    27
 71
     2
 72
     2
 73
     1
 90
        2
 40
0.6
 41
30.0
 62
     5
 63
     7
 74
     0
 91
        4
 64
     7
 65
   257
 75
     1
175
     1
 42
1.0
 92
        8
 66
   257
 43
1.0
 76
     1
 77
     6
 78
     2
 67
     8
 79
     3
170
     0
171
     0
290
     0
174
     0
 93
        5
 44
0.0
173
     0
291
     0
 45
0.0
1001
ACAD
1000
AcDbSavedByObjectVersion
1070
     0
  0
VISUALSTYLE
  5
704
102
{ACAD_REACTORS
330
6ED
102
}
102
{ACAD_XDICTIONARY
360
790
102
}
330
6ED
100
AcDbVisualStyle
  2
Shaded with edges
 70
    26
 71
     2
 72
     2
 73
     1
 90
        2
 40
0.6
 41
30.0
 62
     5
 63
     7
 74
     1
 91
       10
 64
     7
 65
   257
 75
     2
175
     1
 42
1.0
 92
        8
 66
   257
 43
1.0
 76
     1
 77
     6
 78
     2
 67
     7
 79
     3
170
     0
171
     0
290
     0
174
     0
 93
        5
 44
0.0
173
     0
291
     0
 45
0.0
1001
ACAD
1000
AcDbSavedByObjectVersion
1070
     0
  0
VISUALSTYLE
  5
701
102
{ACAD_REACTORS
330
6ED
102
}
102
{ACAD_XDICTIONARY
360
78A
102
}
330
6ED
100
AcDbVisualStyle
  2
Shades of Gray
 70
    23
 71
     2
 72
     2
 73
     3
 90
        0
 40
0.6
 41
30.0
 62
     5
 63
     7
 74
     2
 91
        2
 64
     7
 65
     7
 75
     1
175
     1
 42
40.0
 92
        8
 66
     7
 43
1.0
 76
     1
 77
     6
 78
     2
 67
     7
 79
     3
170
     0
171
     0
290
     0
174
     0
 93
        1
 44
0.0
173
     0
291
     0
 45
0.0
1001
ACAD
1000
AcDbSavedByObjectVersion
1070
     0
  0
VISUALSTYLE
  5
702
102
{ACAD_REACTORS
330
6ED
102
}
102
{ACAD_XDICTIONARY
360
78C
102
}
330
6ED
100
AcDbVisualStyle
  2
Sketchy
 70
    24
 71
     1
 72
     2
 73
     2
 90
        0
 40
0.6
 41
30.0
 62
     5
 63
     7
 74
     2
 91
        2
 64
     7
 65
     7
 75
     1
175
     1
 42
40.0
 92
       11
 66
     7
 43
1.0
 76
     1
 77
     6
 78
     2
 67
     7
 79
     6
170
     0
171
     0
290
     0
174
     0
 93
        1
 44
0.0
173
     0
291
     0
 45
0.0
1001
ACAD
1000
AcDbSavedByObjectVersion
1070
     0
  0
VISUALSTYLE
  5
6FA
102
{ACAD_REACTORS
330
6ED
102
}
102
{ACAD_XDICTIONARY
360
77C
102
}
330
6ED
100
AcDbVisualStyle
  2
Thicken
 70
    13
 71
     2
 72
     2
 73
     0
 90
        0
 40
0.6
 41
30.0
 62
     5
 63
     7
 74
     1
 91
        4
 64
     7
 65
   257
 75
     1
175
     1
 42
1.0
 92
       12
 66
     7
 43
1.0
 76
     1
 77
     6
 78
     2
 67
     7
 79
     5
170
     0
171
     0
290
     0
174
     0
 93
        1
 44
0.0
173
     0
291
     1
 45
0.0
1001
ACAD
1000
AcDbSavedByObjectVersion
1070
     0
  0
VISUALSTYLE
  5
6F3
102
{ACAD_REACTORS
330
6ED
102
}
102
{ACAD_XDICTIONARY
360
76E
102
}
330
6ED
100
AcDbVisualStyle
  2
Wireframe
 70
     5
 71
     0
 72
     2
 73
     0
 90
        0
 40
0.6
 41
30.0
 62
     5
 63
     7
 74
     1
 91
        4
 64
     7
 65
   257
 75
     1
175
     1
 42
1.0
 92
        0
 66
   257
 43
1.0
 76
     1
 77
     6
 78
     2
 67
     7
 79
     3
170
     0
171
     0
290
     0
174
     0
 93
        1
 44
0.0
173
     0
291
     0
 45
0.0
1001
ACAD
1000
AcDbSavedByObjectVersion
1070
     0
  0
VISUALSTYLE
  5
703
102
{ACAD_REACTORS
330
6ED
102
}
102
{ACAD_XDICTIONARY
360
78E
102
}
330
6ED
100
AcDbVisualStyle
  2
X-Ray
 70
    25
 71
     2
 72
     2
 73
     1
 90
        1
 40
0.5
 41
30.0
 62
     5
 63
     7
 74
     1
 91
        0
 64
     7
 65
   257
 75
     1
175
     1
 42
1.0
 92
        8
 66
     7
 43
1.0
 76
     1
 77
     6
 78
     2
 67
     7
 79
     3
170
     0
171
     0
290
     0
174
     0
 93
       13
 44
0.0
173
     0
291
     0
 45
0.0
1001
ACAD
1000
AcDbSavedByObjectVersion
1070
     0
  0
DICTIONARYVAR
  5
762
102
{ACAD_REACTORS
330
599
102
}
330
599
100
DictionaryVariables
280
     0
  1
1:1
  0
DICTIONARYVAR
  5
757
102
{ACAD_REACTORS
330
599
102
}
330
599
100
DictionaryVariables
280
     0
  1
Standard
  0
DICTIONARYVAR
  5
756
102
{ACAD_REACTORS
330
599
102
}
330
599
100
DictionaryVariables
280
     0
  1
Standard
  0
DICTIONARYVAR
  5
5DA
102
{ACAD_REACTORS
330
599
102
}
330
599
100
DictionaryVariables
280
     0
  1
1
  0
DICTIONARYVAR
  5
75A
102
{ACAD_REACTORS
330
599
102
}
330
599
100
DictionaryVariables
280
     0
  1
1
  0
DICTIONARYVAR
  5
763
102
{ACAD_REACTORS
330
599
102
}
330
599
100
DictionaryVariables
280
     0
  1
1
  0
DICTIONARYVAR
  5
59A
102
{ACAD_REACTORS
330
599
102
}
330
599
100
DictionaryVariables
280
     0
  1
96
  0
DICTIONARY
  5
796
330
71A
100
AcDbDictionary
280
     1
281
     1
  3
ACAD_XREC_ROUNDTRIP
360
797
  0
DICTIONARY
  5
794
330
719
100
AcDbDictionary
280
     1
281
     1
  3
ACAD_XREC_ROUNDTRIP
360
795
  0
DICTIONARY
  5
798
330
71B
100
AcDbDictionary
280
     1
281
     1
  3
ACAD_XREC_ROUNDTRIP
360
799
  0
DICTIONARY
  5
79B
330
71D
100
AcDbDictionary
280
     1
281
     1
  3
ACAD_XREC_ROUNDTRIP
360
79C
  0
DICTIONARY
  5
76C
330
6F2
100
AcDbDictionary
280
     1
281
     1
  3
ACAD_XREC_ROUNDTRIP
360
76D
  0
DICTIONARY
  5
772
330
6F5
100
AcDbDictionary
280
     1
281
     1
  3
ACAD_XREC_ROUNDTRIP
360
773
  0
DICTIONARY
  5
77A
330
6F9
100
AcDbDictionary
280
     1
281
     1
  3
ACAD_XREC_ROUNDTRIP
360
77B
  0
DICTIONARY
  5
782
330
6FD
100
AcDbDictionary
280
     1
281
     1
  3
ACAD_XREC_ROUNDTRIP
360
783
  0
DICTIONARY
  5
776
330
6F7
100
AcDbDictionary
280
     1
281
     1
  3
ACAD_XREC_ROUNDTRIP
360
777
  0
DICTIONARY
  5
778
330
6F8
100
AcDbDictionary
280
     1
281
     1
  3
ACAD_XREC_ROUNDTRIP
360
779
  0
DICTIONARY
  5
788
330
700
100
AcDbDictionary
280
     1
281
     1
  3
ACAD_XREC_ROUNDTRIP
360
789
  0
DICTIONARY
  5
780
330
6FC
100
AcDbDictionary
280
     1
281
     1
  3
ACAD_XREC_ROUNDTRIP
360
781
  0
DICTIONARY
  5
764
330
6EE
100
AcDbDictionary
280
     1
281
     1
  3
ACAD_XREC_ROUNDTRIP
360
765
  0
DICTIONARY
  5
766
330
6EF
100
AcDbDictionary
280
     1
281
     1
  3
ACAD_XREC_ROUNDTRIP
360
767
  0
DICTIONARY
  5
768
330
6F0
100
AcDbDictionary
280
     1
281
     1
  3
ACAD_XREC_ROUNDTRIP
360
769
  0
DICTIONARY
  5
76A
330
6F1
100
AcDbDictionary
280
     1
281
     1
  3
ACAD_XREC_ROUNDTRIP
360
76B
  0
DICTIONARY
  5
770
330
6F4
100
AcDbDictionary
280
     1
281
     1
  3
ACAD_XREC_ROUNDTRIP
360
771
  0
DICTIONARY
  5
784
330
6FE
100
AcDbDictionary
280
     1
281
     1
  3
ACAD_XREC_ROUNDTRIP
360
785
  0
DICTIONARY
  5
77E
330
6FB
100
AcDbDictionary
280
     1
281
     1
  3
ACAD_XREC_ROUNDTRIP
360
77F
  0
DICTIONARY
  5
786
330
6FF
100
AcDbDictionary
280
     1
281
     1
  3
ACAD_XREC_ROUNDTRIP
360
787
  0
DICTIONARY
  5
774
330
6F6
100
AcDbDictionary
280
     1
281
     1
  3
ACAD_XREC_ROUNDTRIP
360
775
  0
DICTIONARY
  5
792
330
705
100
AcDbDictionary
280
     1
281
     1
  3
ACAD_XREC_ROUNDTRIP
360
793
  0
DICTIONARY
  5
790
330
704
100
AcDbDictionary
280
     1
281
     1
  3
ACAD_XREC_ROUNDTRIP
360
791
  0
DICTIONARY
  5
78A
330
701
100
AcDbDictionary
280
     1
281
     1
  3
ACAD_XREC_ROUNDTRIP
360
78B
  0
DICTIONARY
  5
78C
330
702
100
AcDbDictionary
280
     1
281
     1
  3
ACAD_XREC_ROUNDTRIP
360
78D
  0
DICTIONARY
  5
77C
330
6FA
100
AcDbDictionary
280
     1
281
     1
  3
ACAD_XREC_ROUNDTRIP
360
77D
  0
DICTIONARY
  5
76E
330
6F3
100
AcDbDictionary
280
     1
281
     1
  3
ACAD_XREC_ROUNDTRIP
360
76F
  0
DICTIONARY
  5
78E
330
703
100
AcDbDictionary
280
     1
281
     1
  3
ACAD_XREC_ROUNDTRIP
360
78F
  0
XRECORD
  5
797
102
{ACAD_REACTORS
330
796
102
}
330
796
100
AcDbXrecord
280
     1
102
MATERIAL
148
0.0
149
0.0
149
0.0
 93
        0
 94
      127
282
     0
 72
     1
 77
     1
171
     1
175
     1
179
     1
273
     0
  0
XRECORD
  5
795
102
{ACAD_REACTORS
330
794
102
}
330
794
100
AcDbXrecord
280
     1
102
MATERIAL
148
0.0
149
0.0
149
0.0
 93
        0
 94
      127
282
     0
 72
     1
 77
     1
171
     1
175
     1
179
     1
273
     0
  0
XRECORD
  5
799
102
{ACAD_REACTORS
330
798
102
}
330
798
100
AcDbXrecord
280
     1
102
MATERIAL
148
0.0
149
0.0
149
0.0
 93
        0
 94
      127
282
     0
 72
     1
 77
     1
171
     1
175
     1
179
     1
273
     0
  0
XRECORD
  5
79C
102
{ACAD_REACTORS
330
79B
102
}
330
79B
100
AcDbXrecord
280
     1
102
ACAD_ROUNDTRIP_2010_MLEADER_STYLE
  0
XRECORD
  5
76D
102
{ACAD_REACTORS
330
76C
102
}
330
76C
100
AcDbXrecord
280
     1
102
RTVSPropertyOp0
 70
     1
102
RTVSPropertyOp1
 70
     1
102
RTVSPropertyOp2
 70
     1
102
RTVSPropertyOp3
 70
     1
102
RTVSPropertyOp4
 70
     1
102
RTVSPropertyOp5
 70
     1
102
RTVSPropertyOp6
 70
     1
102
RTVSPropertyOp7
 70
     1
102
RTVSPropertyOp8
 70
     1
102
RTVSPropertyOp9
 70
     1
102
RTVSPropertyOp10
 70
     1
102
RTVSPropertyOp11
 70
     1
102
RTVSPropertyOp12
 70
     1
102
RTVSPropertyOp13
 70
     1
102
RTVSPropertyOp14
 70
     1
102
RTVSPropertyOp15
 70
     1
102
RTVSPropertyOp16
 70
     1
102
RTVSPropertyOp17
 70
     1
102
RTVSPropertyOp18
 70
     1
102
RTVSPropertyOp19
 70
     1
102
RTVSPropertyOp20
 70
     1
102
RTVSPropertyOp21
 70
     1
102
RTVSPropertyOp22
 70
     1
102
RTVSPropertyOp23
 70
     1
102
RTVSPropertyOp24
 70
     1
102
RTVSPropertyOp25
 70
     1
102
RTVSPropertyOp26
 70
     1
102
RTVSPropertyOp27
 70
     1
102
RTVSPropertyOp28
 70
     1
102
RTVSPropertyOp29
 70
     1
102
RTVSPropertyOp30
 70
     1
102
RTVSPropertyOp31
 70
     1
102
RTVSPropertyOp32
 70
     1
102
RTVSPropertyOp33
 70
     1
102
RTVSPropertyOp34
 70
     1
102
RTVSPropertyOp35
 70
     1
102
RTVSPropertyOp36
 70
     1
102
RTVSPropertyOp37
 70
     1
102
RTVSPropertyOp38
 70
     1
102
RTVSPropertyOp39
 70
     1
102
RTVSPropertyOp40
 70
     1
102
RTVSPropertyOp41
 70
     1
102
RTVSPropertyOp42
 70
     1
102
RTVSPropertyOp43
 70
     1
102
RTVSPropertyOp44
 70
     1
102
RTVSPropertyOp45
 70
     1
102
RTVSPropertyOp46
 70
     1
102
RTVSPropertyOp47
 70
     1
102
RTVSPropertyOp48
 70
     1
102
RTVSPropertyOp49
 70
     1
102
RTVSPropertyOp50
 70
     1
102
RTVSPropertyOp51
 70
     0
102
RTVSPropertyOp52
 70
     0
102
RTVSPropertyOp53
 70
     1
102
RTVSPropertyOp54
 70
     1
102
RTVSPropertyOp55
 70
     1
102
RTVSPropertyOp56
 70
     1
102
RTVSPropertyOp57
 70
     1
102
RTVSPost2010Prop28
280
     1
102
RTVSPost2010PropOp28
 70
     1
102
RTVSPost2010Prop29
280
     1
102
RTVSPost2010PropOp29
 70
     1
102
RTVSPost2010Prop30
280
     0
102
RTVSPost2010PropOp30
 70
     1
102
RTVSPost2010Prop31
280
     0
102
RTVSPost2010PropOp31
 70
     1
102
RTVSPost2010Prop32
280
     0
102
RTVSPost2010PropOp32
 70
     1
102
RTVSPost2010Prop33
280
     0
102
RTVSPost2010PropOp33
 70
     1
102
RTVSPost2010Prop34
280
     0
102
RTVSPost2010PropOp34
 70
     1
102
RTVSPost2010Prop35
280
     0
102
RTVSPost2010PropOp35
 70
     1
102
RTVSPost2010Prop36
280
     0
102
RTVSPost2010PropOp36
 70
     1
102
RTVSPost2010Prop37
 90
       50
102
RTVSPost2010PropOp37
 70
     1
102
RTVSPost2010Prop38
140
0.0
102
RTVSPost2010PropOp38
 70
     1
102
RTVSPost2010Prop39
140
1.0
102
RTVSPost2010PropOp39
 70
     1
102
RTVSPost2010Prop40
 90
        0
102
RTVSPost2010PropOp40
 70
     1
102
RTVSPost2010Prop41ColorIndex
 90
       18
102
RTVSPost2010Prop41ColorRGB
 90
        0
102
RTVSPost2010PropOp41
 70
     1
102
RTVSPost2010Prop42
 90
       50
102
RTVSPost2010PropOp42
 70
     1
102
RTVSPost2010Prop43
 90
        3
102
RTVSPost2010PropOp43
 70
     1
102
RTVSPost2010Prop44ColorIndex
 90
        5
102
RTVSPost2010Prop44ColorRGB
 90
      255
102
RTVSPost2010PropOp44
 70
     1
102
RTVSPost2010Prop45
280
     0
102
RTVSPost2010PropOp45
 70
     1
102
RTVSPost2010Prop46
 90
       50
102
RTVSPost2010PropOp46
 70
     1
102
RTVSPost2010Prop47
 90
       50
102
RTVSPost2010PropOp47
 70
     1
102
RTVSPost2010Prop48
 90
       50
102
RTVSPost2010PropOp48
 70
     1
102
RTVSPost2010Prop49
280
     0
102
RTVSPost2010PropOp49
 70
     1
102
RTVSPost2010Prop50
 90
       50
102
RTVSPost2010PropOp50
 70
     1
102
RTVSPost2010Prop51ColorIndex
 90
      256
102
RTVSPost2010Prop51ColorRGB
 90
-16777216
102
RTVSPost2010PropOp51
 70
     0
102
RTVSPost2010Prop52
140
1.0
102
RTVSPost2010PropOp52
 70
     0
102
RTVSPost2010Prop53
 90
        2
102
RTVSPost2010PropOp53
 70
     1
102
RTVSPost2010Prop54
  1
strokes_ogs.tif
102
RTVSPost2010PropOp54
 70
     1
102
RTVSPost2010Prop55
280
     0
102
RTVSPost2010PropOp55
 70
     1
102
RTVSPost2010Prop56
140
1.0
102
RTVSPost2010PropOp56
 70
     1
102
RTVSPost2010Prop57
140
1.0
102
RTVSPost2010PropOp57
 70
     1
  0
XRECORD
  5
773
102
{ACAD_REACTORS
330
772
102
}
330
772
100
AcDbXrecord
280
     1
102
RTVSPropertyOp0
 70
     1
102
RTVSPropertyOp1
 70
     1
102
RTVSPropertyOp2
 70
     1
102
RTVSPropertyOp3
 70
     1
102
RTVSPropertyOp4
 70
     1
102
RTVSPropertyOp5
 70
     1
102
RTVSPropertyOp6
 70
     1
102
RTVSPropertyOp7
 70
     1
102
RTVSPropertyOp8
 70
     1
102
RTVSPropertyOp9
 70
     1
102
RTVSPropertyOp10
 70
     1
102
RTVSPropertyOp11
 70
     1
102
RTVSPropertyOp12
 70
     1
102
RTVSPropertyOp13
 70
     1
102
RTVSPropertyOp14
 70
     1
102
RTVSPropertyOp15
 70
     1
102
RTVSPropertyOp16
 70
     1
102
RTVSPropertyOp17
 70
     1
102
RTVSPropertyOp18
 70
     1
102
RTVSPropertyOp19
 70
     1
102
RTVSPropertyOp20
 70
     1
102
RTVSPropertyOp21
 70
     1
102
RTVSPropertyOp22
 70
     1
102
RTVSPropertyOp23
 70
     1
102
RTVSPropertyOp24
 70
     1
102
RTVSPropertyOp25
 70
     1
102
RTVSPropertyOp26
 70
     1
102
RTVSPropertyOp27
 70
     1
102
RTVSPropertyOp28
 70
     1
102
RTVSPropertyOp29
 70
     1
102
RTVSPropertyOp30
 70
     1
102
RTVSPropertyOp31
 70
     1
102
RTVSPropertyOp32
 70
     1
102
RTVSPropertyOp33
 70
     1
102
RTVSPropertyOp34
 70
     1
102
RTVSPropertyOp35
 70
     1
102
RTVSPropertyOp36
 70
     1
102
RTVSPropertyOp37
 70
     1
102
RTVSPropertyOp38
 70
     1
102
RTVSPropertyOp39
 70
     1
102
RTVSPropertyOp40
 70
     1
102
RTVSPropertyOp41
 70
     1
102
RTVSPropertyOp42
 70
     1
102
RTVSPropertyOp43
 70
     1
102
RTVSPropertyOp44
 70
     1
102
RTVSPropertyOp45
 70
     1
102
RTVSPropertyOp46
 70
     1
102
RTVSPropertyOp47
 70
     1
102
RTVSPropertyOp48
 70
     1
102
RTVSPropertyOp49
 70
     1
102
RTVSPropertyOp50
 70
     1
102
RTVSPropertyOp51
 70
     0
102
RTVSPropertyOp52
 70
     0
102
RTVSPropertyOp53
 70
     1
102
RTVSPropertyOp54
 70
     1
102
RTVSPropertyOp55
 70
     1
102
RTVSPropertyOp56
 70
     1
102
RTVSPropertyOp57
 70
     1
102
RTVSPost2010Prop28
280
     0
102
RTVSPost2010PropOp28
 70
     1
102
RTVSPost2010Prop29
280
     1
102
RTVSPost2010PropOp29
 70
     1
102
RTVSPost2010Prop30
280
     1
102
RTVSPost2010PropOp30
 70
     1
102
RTVSPost2010Prop31
280
     0
102
RTVSPost2010PropOp31
 70
     1
102
RTVSPost2010Prop32
280
     0
102
RTVSPost2010PropOp32
 70
     1
102
RTVSPost2010Prop33
280
     0
102
RTVSPost2010PropOp33
 70
     1
102
RTVSPost2010Prop34
280
     0
102
RTVSPost2010PropOp34
 70
     1
102
RTVSPost2010Prop35
280
     0
102
RTVSPost2010PropOp35
 70
     1
102
RTVSPost2010Prop36
280
     0
102
RTVSPost2010PropOp36
 70
     1
102
RTVSPost2010Prop37
 90
       50
102
RTVSPost2010PropOp37
 70
     1
102
RTVSPost2010Prop38
140
0.0
102
RTVSPost2010PropOp38
 70
     1
102
RTVSPost2010Prop39
140
1.0
102
RTVSPost2010PropOp39
 70
     1
102
RTVSPost2010Prop40
 90
        0
102
RTVSPost2010PropOp40
 70
     1
102
RTVSPost2010Prop41ColorIndex
 90
       18
102
RTVSPost2010Prop41ColorRGB
 90
        0
102
RTVSPost2010PropOp41
 70
     1
102
RTVSPost2010Prop42
 90
       50
102
RTVSPost2010PropOp42
 70
     1
102
RTVSPost2010Prop43
 90
        3
102
RTVSPost2010PropOp43
 70
     1
102
RTVSPost2010Prop44ColorIndex
 90
        5
102
RTVSPost2010Prop44ColorRGB
 90
      255
102
RTVSPost2010PropOp44
 70
     1
102
RTVSPost2010Prop45
280
     0
102
RTVSPost2010PropOp45
 70
     1
102
RTVSPost2010Prop46
 90
       50
102
RTVSPost2010PropOp46
 70
     1
102
RTVSPost2010Prop47
 90
       50
102
RTVSPost2010PropOp47
 70
     1
102
RTVSPost2010Prop48
 90
       50
102
RTVSPost2010PropOp48
 70
     1
102
RTVSPost2010Prop49
280
     0
102
RTVSPost2010PropOp49
 70
     1
102
RTVSPost2010Prop50
 90
       50
102
RTVSPost2010PropOp50
 70
     1
102
RTVSPost2010Prop51ColorIndex
 90
      256
102
RTVSPost2010Prop51ColorRGB
 90
-16777216
102
RTVSPost2010PropOp51
 70
     0
102
RTVSPost2010Prop52
140
1.0
102
RTVSPost2010PropOp52
 70
     0
102
RTVSPost2010Prop53
 90
        2
102
RTVSPost2010PropOp53
 70
     1
102
RTVSPost2010Prop54
  1
strokes_ogs.tif
102
RTVSPost2010PropOp54
 70
     1
102
RTVSPost2010Prop55
280
     0
102
RTVSPost2010PropOp55
 70
     1
102
RTVSPost2010Prop56
140
1.0
102
RTVSPost2010PropOp56
 70
     1
102
RTVSPost2010Prop57
140
1.0
102
RTVSPost2010PropOp57
 70
     1
  0
XRECORD
  5
77B
102
{ACAD_REACTORS
330
77A
102
}
330
77A
100
AcDbXrecord
280
     1
102
RTVSPropertyOp0
 70
     1
102
RTVSPropertyOp1
 70
     1
102
RTVSPropertyOp2
 70
     1
102
RTVSPropertyOp3
 70
     1
102
RTVSPropertyOp4
 70
     1
102
RTVSPropertyOp5
 70
     1
102
RTVSPropertyOp6
 70
     1
102
RTVSPropertyOp7
 70
     1
102
RTVSPropertyOp8
 70
     1
102
RTVSPropertyOp9
 70
     1
102
RTVSPropertyOp10
 70
     1
102
RTVSPropertyOp11
 70
     1
102
RTVSPropertyOp12
 70
     1
102
RTVSPropertyOp13
 70
     1
102
RTVSPropertyOp14
 70
     1
102
RTVSPropertyOp15
 70
     1
102
RTVSPropertyOp16
 70
     1
102
RTVSPropertyOp17
 70
     1
102
RTVSPropertyOp18
 70
     1
102
RTVSPropertyOp19
 70
     1
102
RTVSPropertyOp20
 70
     1
102
RTVSPropertyOp21
 70
     1
102
RTVSPropertyOp22
 70
     1
102
RTVSPropertyOp23
 70
     1
102
RTVSPropertyOp24
 70
     1
102
RTVSPropertyOp25
 70
     1
102
RTVSPropertyOp26
 70
     1
102
RTVSPropertyOp27
 70
     1
102
RTVSPropertyOp28
 70
     1
102
RTVSPropertyOp29
 70
     1
102
RTVSPropertyOp30
 70
     1
102
RTVSPropertyOp31
 70
     1
102
RTVSPropertyOp32
 70
     1
102
RTVSPropertyOp33
 70
     1
102
RTVSPropertyOp34
 70
     1
102
RTVSPropertyOp35
 70
     1
102
RTVSPropertyOp36
 70
     1
102
RTVSPropertyOp37
 70
     1
102
RTVSPropertyOp38
 70
     1
102
RTVSPropertyOp39
 70
     1
102
RTVSPropertyOp40
 70
     1
102
RTVSPropertyOp41
 70
     1
102
RTVSPropertyOp42
 70
     1
102
RTVSPropertyOp43
 70
     1
102
RTVSPropertyOp44
 70
     1
102
RTVSPropertyOp45
 70
     1
102
RTVSPropertyOp46
 70
     1
102
RTVSPropertyOp47
 70
     1
102
RTVSPropertyOp48
 70
     1
102
RTVSPropertyOp49
 70
     1
102
RTVSPropertyOp50
 70
     1
102
RTVSPropertyOp51
 70
     0
102
RTVSPropertyOp52
 70
     0
102
RTVSPropertyOp53
 70
     1
102
RTVSPropertyOp54
 70
     1
102
RTVSPropertyOp55
 70
     1
102
RTVSPropertyOp56
 70
     1
102
RTVSPropertyOp57
 70
     1
102
RTVSPost2010Prop28
280
     0
102
RTVSPost2010PropOp28
 70
     1
102
RTVSPost2010Prop29
280
     1
102
RTVSPost2010PropOp29
 70
     1
102
RTVSPost2010Prop30
280
     1
102
RTVSPost2010PropOp30
 70
     1
102
RTVSPost2010Prop31
280
     0
102
RTVSPost2010PropOp31
 70
     1
102
RTVSPost2010Prop32
280
     0
102
RTVSPost2010PropOp32
 70
     1
102
RTVSPost2010Prop33
280
     0
102
RTVSPost2010PropOp33
 70
     1
102
RTVSPost2010Prop34
280
     0
102
RTVSPost2010PropOp34
 70
     1
102
RTVSPost2010Prop35
280
     0
102
RTVSPost2010PropOp35
 70
     1
102
RTVSPost2010Prop36
280
     0
102
RTVSPost2010PropOp36
 70
     1
102
RTVSPost2010Prop37
 90
       50
102
RTVSPost2010PropOp37
 70
     1
102
RTVSPost2010Prop38
140
0.0
102
RTVSPost2010PropOp38
 70
     1
102
RTVSPost2010Prop39
140
1.0
102
RTVSPost2010PropOp39
 70
     1
102
RTVSPost2010Prop40
 90
        0
102
RTVSPost2010PropOp40
 70
     1
102
RTVSPost2010Prop41ColorIndex
 90
       18
102
RTVSPost2010Prop41ColorRGB
 90
        0
102
RTVSPost2010PropOp41
 70
     1
102
RTVSPost2010Prop42
 90
       50
102
RTVSPost2010PropOp42
 70
     1
102
RTVSPost2010Prop43
 90
        3
102
RTVSPost2010PropOp43
 70
     1
102
RTVSPost2010Prop44ColorIndex
 90
        5
102
RTVSPost2010Prop44ColorRGB
 90
      255
102
RTVSPost2010PropOp44
 70
     1
102
RTVSPost2010Prop45
280
     0
102
RTVSPost2010PropOp45
 70
     1
102
RTVSPost2010Prop46
 90
       50
102
RTVSPost2010PropOp46
 70
     1
102
RTVSPost2010Prop47
 90
       50
102
RTVSPost2010PropOp47
 70
     1
102
RTVSPost2010Prop48
 90
       50
102
RTVSPost2010PropOp48
 70
     1
102
RTVSPost2010Prop49
280
     0
102
RTVSPost2010PropOp49
 70
     1
102
RTVSPost2010Prop50
 90
       50
102
RTVSPost2010PropOp50
 70
     1
102
RTVSPost2010Prop51ColorIndex
 90
      256
102
RTVSPost2010Prop51ColorRGB
 90
-16777216
102
RTVSPost2010PropOp51
 70
     0
102
RTVSPost2010Prop52
140
1.0
102
RTVSPost2010PropOp52
 70
     0
102
RTVSPost2010Prop53
 90
        2
102
RTVSPost2010PropOp53
 70
     1
102
RTVSPost2010Prop54
  1
strokes_ogs.tif
102
RTVSPost2010PropOp54
 70
     1
102
RTVSPost2010Prop55
280
     0
102
RTVSPost2010PropOp55
 70
     1
102
RTVSPost2010Prop56
140
1.0
102
RTVSPost2010PropOp56
 70
     1
102
RTVSPost2010Prop57
140
1.0
102
RTVSPost2010PropOp57
 70
     1
  0
XRECORD
  5
783
102
{ACAD_REACTORS
330
782
102
}
330
782
100
AcDbXrecord
280
     1
102
RTVSPropertyOp0
 70
     1
102
RTVSPropertyOp1
 70
     1
102
RTVSPropertyOp2
 70
     1
102
RTVSPropertyOp3
 70
     1
102
RTVSPropertyOp4
 70
     1
102
RTVSPropertyOp5
 70
     1
102
RTVSPropertyOp6
 70
     1
102
RTVSPropertyOp7
 70
     1
102
RTVSPropertyOp8
 70
     1
102
RTVSPropertyOp9
 70
     1
102
RTVSPropertyOp10
 70
     1
102
RTVSPropertyOp11
 70
     1
102
RTVSPropertyOp12
 70
     1
102
RTVSPropertyOp13
 70
     1
102
RTVSPropertyOp14
 70
     1
102
RTVSPropertyOp15
 70
     1
102
RTVSPropertyOp16
 70
     1
102
RTVSPropertyOp17
 70
     1
102
RTVSPropertyOp18
 70
     1
102
RTVSPropertyOp19
 70
     1
102
RTVSPropertyOp20
 70
     1
102
RTVSPropertyOp21
 70
     1
102
RTVSPropertyOp22
 70
     1
102
RTVSPropertyOp23
 70
     1
102
RTVSPropertyOp24
 70
     1
102
RTVSPropertyOp25
 70
     1
102
RTVSPropertyOp26
 70
     1
102
RTVSPropertyOp27
 70
     1
102
RTVSPropertyOp28
 70
     1
102
RTVSPropertyOp29
 70
     1
102
RTVSPropertyOp30
 70
     1
102
RTVSPropertyOp31
 70
     1
102
RTVSPropertyOp32
 70
     1
102
RTVSPropertyOp33
 70
     1
102
RTVSPropertyOp34
 70
     1
102
RTVSPropertyOp35
 70
     1
102
RTVSPropertyOp36
 70
     1
102
RTVSPropertyOp37
 70
     1
102
RTVSPropertyOp38
 70
     1
102
RTVSPropertyOp39
 70
     1
102
RTVSPropertyOp40
 70
     1
102
RTVSPropertyOp41
 70
     1
102
RTVSPropertyOp42
 70
     1
102
RTVSPropertyOp43
 70
     1
102
RTVSPropertyOp44
 70
     1
102
RTVSPropertyOp45
 70
     1
102
RTVSPropertyOp46
 70
     1
102
RTVSPropertyOp47
 70
     1
102
RTVSPropertyOp48
 70
     1
102
RTVSPropertyOp49
 70
     1
102
RTVSPropertyOp50
 70
     1
102
RTVSPropertyOp51
 70
     0
102
RTVSPropertyOp52
 70
     0
102
RTVSPropertyOp53
 70
     1
102
RTVSPropertyOp54
 70
     1
102
RTVSPropertyOp55
 70
     1
102
RTVSPropertyOp56
 70
     1
102
RTVSPropertyOp57
 70
     1
102
RTVSPost2010Prop28
280
     0
102
RTVSPost2010PropOp28
 70
     1
102
RTVSPost2010Prop29
280
     1
102
RTVSPost2010PropOp29
 70
     1
102
RTVSPost2010Prop30
280
     1
102
RTVSPost2010PropOp30
 70
     1
102
RTVSPost2010Prop31
280
     0
102
RTVSPost2010PropOp31
 70
     1
102
RTVSPost2010Prop32
280
     0
102
RTVSPost2010PropOp32
 70
     1
102
RTVSPost2010Prop33
280
     0
102
RTVSPost2010PropOp33
 70
     1
102
RTVSPost2010Prop34
280
     0
102
RTVSPost2010PropOp34
 70
     1
102
RTVSPost2010Prop35
280
     0
102
RTVSPost2010PropOp35
 70
     1
102
RTVSPost2010Prop36
280
     0
102
RTVSPost2010PropOp36
 70
     1
102
RTVSPost2010Prop37
 90
       50
102
RTVSPost2010PropOp37
 70
     1
102
RTVSPost2010Prop38
140
0.0
102
RTVSPost2010PropOp38
 70
     1
102
RTVSPost2010Prop39
140
1.0
102
RTVSPost2010PropOp39
 70
     1
102
RTVSPost2010Prop40
 90
        0
102
RTVSPost2010PropOp40
 70
     1
102
RTVSPost2010Prop41ColorIndex
 90
       18
102
RTVSPost2010Prop41ColorRGB
 90
        0
102
RTVSPost2010PropOp41
 70
     1
102
RTVSPost2010Prop42
 90
       50
102
RTVSPost2010PropOp42
 70
     1
102
RTVSPost2010Prop43
 90
        3
102
RTVSPost2010PropOp43
 70
     1
102
RTVSPost2010Prop44ColorIndex
 90
        5
102
RTVSPost2010Prop44ColorRGB
 90
      255
102
RTVSPost2010PropOp44
 70
     1
102
RTVSPost2010Prop45
280
     0
102
RTVSPost2010PropOp45
 70
     1
102
RTVSPost2010Prop46
 90
       50
102
RTVSPost2010PropOp46
 70
     1
102
RTVSPost2010Prop47
 90
       50
102
RTVSPost2010PropOp47
 70
     1
102
RTVSPost2010Prop48
 90
       50
102
RTVSPost2010PropOp48
 70
     1
102
RTVSPost2010Prop49
280
     0
102
RTVSPost2010PropOp49
 70
     1
102
RTVSPost2010Prop50
 90
       50
102
RTVSPost2010PropOp50
 70
     1
102
RTVSPost2010Prop51ColorIndex
 90
      256
102
RTVSPost2010Prop51ColorRGB
 90
-16777216
102
RTVSPost2010PropOp51
 70
     0
102
RTVSPost2010Prop52
140
1.0
102
RTVSPost2010PropOp52
 70
     0
102
RTVSPost2010Prop53
 90
        2
102
RTVSPost2010PropOp53
 70
     1
102
RTVSPost2010Prop54
  1
strokes_ogs.tif
102
RTVSPost2010PropOp54
 70
     1
102
RTVSPost2010Prop55
280
     0
102
RTVSPost2010PropOp55
 70
     1
102
RTVSPost2010Prop56
140
1.0
102
RTVSPost2010PropOp56
 70
     1
102
RTVSPost2010Prop57
140
1.0
102
RTVSPost2010PropOp57
 70
     1
  0
XRECORD
  5
777
102
{ACAD_REACTORS
330
776
102
}
330
776
100
AcDbXrecord
280
     1
102
RTVSPropertyOp0
 70
     1
102
RTVSPropertyOp1
 70
     1
102
RTVSPropertyOp2
 70
     1
102
RTVSPropertyOp3
 70
     1
102
RTVSPropertyOp4
 70
     1
102
RTVSPropertyOp5
 70
     1
102
RTVSPropertyOp6
 70
     1
102
RTVSPropertyOp7
 70
     1
102
RTVSPropertyOp8
 70
     1
102
RTVSPropertyOp9
 70
     1
102
RTVSPropertyOp10
 70
     1
102
RTVSPropertyOp11
 70
     1
102
RTVSPropertyOp12
 70
     1
102
RTVSPropertyOp13
 70
     1
102
RTVSPropertyOp14
 70
     1
102
RTVSPropertyOp15
 70
     1
102
RTVSPropertyOp16
 70
     1
102
RTVSPropertyOp17
 70
     1
102
RTVSPropertyOp18
 70
     1
102
RTVSPropertyOp19
 70
     1
102
RTVSPropertyOp20
 70
     1
102
RTVSPropertyOp21
 70
     1
102
RTVSPropertyOp22
 70
     1
102
RTVSPropertyOp23
 70
     1
102
RTVSPropertyOp24
 70
     1
102
RTVSPropertyOp25
 70
     1
102
RTVSPropertyOp26
 70
     1
102
RTVSPropertyOp27
 70
     1
102
RTVSPropertyOp28
 70
     1
102
RTVSPropertyOp29
 70
     1
102
RTVSPropertyOp30
 70
     1
102
RTVSPropertyOp31
 70
     1
102
RTVSPropertyOp32
 70
     1
102
RTVSPropertyOp33
 70
     1
102
RTVSPropertyOp34
 70
     1
102
RTVSPropertyOp35
 70
     1
102
RTVSPropertyOp36
 70
     1
102
RTVSPropertyOp37
 70
     1
102
RTVSPropertyOp38
 70
     1
102
RTVSPropertyOp39
 70
     1
102
RTVSPropertyOp40
 70
     1
102
RTVSPropertyOp41
 70
     1
102
RTVSPropertyOp42
 70
     1
102
RTVSPropertyOp43
 70
     1
102
RTVSPropertyOp44
 70
     1
102
RTVSPropertyOp45
 70
     1
102
RTVSPropertyOp46
 70
     1
102
RTVSPropertyOp47
 70
     1
102
RTVSPropertyOp48
 70
     1
102
RTVSPropertyOp49
 70
     1
102
RTVSPropertyOp50
 70
     1
102
RTVSPropertyOp51
 70
     0
102
RTVSPropertyOp52
 70
     0
102
RTVSPropertyOp53
 70
     1
102
RTVSPropertyOp54
 70
     1
102
RTVSPropertyOp55
 70
     1
102
RTVSPropertyOp56
 70
     1
102
RTVSPropertyOp57
 70
     1
102
RTVSPost2010Prop28
280
     0
102
RTVSPost2010PropOp28
 70
     1
102
RTVSPost2010Prop29
280
     1
102
RTVSPost2010PropOp29
 70
     1
102
RTVSPost2010Prop30
280
     1
102
RTVSPost2010PropOp30
 70
     1
102
RTVSPost2010Prop31
280
     0
102
RTVSPost2010PropOp31
 70
     1
102
RTVSPost2010Prop32
280
     0
102
RTVSPost2010PropOp32
 70
     1
102
RTVSPost2010Prop33
280
     0
102
RTVSPost2010PropOp33
 70
     1
102
RTVSPost2010Prop34
280
     0
102
RTVSPost2010PropOp34
 70
     1
102
RTVSPost2010Prop35
280
     0
102
RTVSPost2010PropOp35
 70
     1
102
RTVSPost2010Prop36
280
     0
102
RTVSPost2010PropOp36
 70
     1
102
RTVSPost2010Prop37
 90
       50
102
RTVSPost2010PropOp37
 70
     1
102
RTVSPost2010Prop38
140
0.0
102
RTVSPost2010PropOp38
 70
     1
102
RTVSPost2010Prop39
140
1.0
102
RTVSPost2010PropOp39
 70
     1
102
RTVSPost2010Prop40
 90
        0
102
RTVSPost2010PropOp40
 70
     1
102
RTVSPost2010Prop41ColorIndex
 90
       18
102
RTVSPost2010Prop41ColorRGB
 90
        0
102
RTVSPost2010PropOp41
 70
     1
102
RTVSPost2010Prop42
 90
       50
102
RTVSPost2010PropOp42
 70
     1
102
RTVSPost2010Prop43
 90
        3
102
RTVSPost2010PropOp43
 70
     1
102
RTVSPost2010Prop44ColorIndex
 90
        5
102
RTVSPost2010Prop44ColorRGB
 90
      255
102
RTVSPost2010PropOp44
 70
     1
102
RTVSPost2010Prop45
280
     0
102
RTVSPost2010PropOp45
 70
     1
102
RTVSPost2010Prop46
 90
       50
102
RTVSPost2010PropOp46
 70
     1
102
RTVSPost2010Prop47
 90
       50
102
RTVSPost2010PropOp47
 70
     1
102
RTVSPost2010Prop48
 90
       50
102
RTVSPost2010PropOp48
 70
     1
102
RTVSPost2010Prop49
280
     0
102
RTVSPost2010PropOp49
 70
     1
102
RTVSPost2010Prop50
 90
       50
102
RTVSPost2010PropOp50
 70
     1
102
RTVSPost2010Prop51ColorIndex
 90
      256
102
RTVSPost2010Prop51ColorRGB
 90
-16777216
102
RTVSPost2010PropOp51
 70
     0
102
RTVSPost2010Prop52
140
1.0
102
RTVSPost2010PropOp52
 70
     0
102
RTVSPost2010Prop53
 90
        2
102
RTVSPost2010PropOp53
 70
     1
102
RTVSPost2010Prop54
  1
strokes_ogs.tif
102
RTVSPost2010PropOp54
 70
     1
102
RTVSPost2010Prop55
280
     0
102
RTVSPost2010PropOp55
 70
     1
102
RTVSPost2010Prop56
140
1.0
102
RTVSPost2010PropOp56
 70
     1
102
RTVSPost2010Prop57
140
1.0
102
RTVSPost2010PropOp57
 70
     1
  0
XRECORD
  5
779
102
{ACAD_REACTORS
330
778
102
}
330
778
100
AcDbXrecord
280
     1
102
RTVSPropertyOp0
 70
     1
102
RTVSPropertyOp1
 70
     1
102
RTVSPropertyOp2
 70
     1
102
RTVSPropertyOp3
 70
     1
102
RTVSPropertyOp4
 70
     1
102
RTVSPropertyOp5
 70
     1
102
RTVSPropertyOp6
 70
     1
102
RTVSPropertyOp7
 70
     1
102
RTVSPropertyOp8
 70
     1
102
RTVSPropertyOp9
 70
     1
102
RTVSPropertyOp10
 70
     1
102
RTVSPropertyOp11
 70
     1
102
RTVSPropertyOp12
 70
     1
102
RTVSPropertyOp13
 70
     1
102
RTVSPropertyOp14
 70
     1
102
RTVSPropertyOp15
 70
     1
102
RTVSPropertyOp16
 70
     1
102
RTVSPropertyOp17
 70
     1
102
RTVSPropertyOp18
 70
     1
102
RTVSPropertyOp19
 70
     1
102
RTVSPropertyOp20
 70
     1
102
RTVSPropertyOp21
 70
     1
102
RTVSPropertyOp22
 70
     1
102
RTVSPropertyOp23
 70
     1
102
RTVSPropertyOp24
 70
     1
102
RTVSPropertyOp25
 70
     1
102
RTVSPropertyOp26
 70
     1
102
RTVSPropertyOp27
 70
     1
102
RTVSPropertyOp28
 70
     1
102
RTVSPropertyOp29
 70
     1
102
RTVSPropertyOp30
 70
     1
102
RTVSPropertyOp31
 70
     1
102
RTVSPropertyOp32
 70
     1
102
RTVSPropertyOp33
 70
     1
102
RTVSPropertyOp34
 70
     1
102
RTVSPropertyOp35
 70
     1
102
RTVSPropertyOp36
 70
     1
102
RTVSPropertyOp37
 70
     1
102
RTVSPropertyOp38
 70
     1
102
RTVSPropertyOp39
 70
     1
102
RTVSPropertyOp40
 70
     1
102
RTVSPropertyOp41
 70
     1
102
RTVSPropertyOp42
 70
     1
102
RTVSPropertyOp43
 70
     1
102
RTVSPropertyOp44
 70
     1
102
RTVSPropertyOp45
 70
     1
102
RTVSPropertyOp46
 70
     1
102
RTVSPropertyOp47
 70
     1
102
RTVSPropertyOp48
 70
     1
102
RTVSPropertyOp49
 70
     1
102
RTVSPropertyOp50
 70
     1
102
RTVSPropertyOp51
 70
     0
102
RTVSPropertyOp52
 70
     0
102
RTVSPropertyOp53
 70
     1
102
RTVSPropertyOp54
 70
     1
102
RTVSPropertyOp55
 70
     1
102
RTVSPropertyOp56
 70
     1
102
RTVSPropertyOp57
 70
     1
102
RTVSPost2010Prop28
280
     0
102
RTVSPost2010PropOp28
 70
     1
102
RTVSPost2010Prop29
280
     1
102
RTVSPost2010PropOp29
 70
     1
102
RTVSPost2010Prop30
280
     1
102
RTVSPost2010PropOp30
 70
     1
102
RTVSPost2010Prop31
280
     0
102
RTVSPost2010PropOp31
 70
     1
102
RTVSPost2010Prop32
280
     0
102
RTVSPost2010PropOp32
 70
     1
102
RTVSPost2010Prop33
280
     0
102
RTVSPost2010PropOp33
 70
     1
102
RTVSPost2010Prop34
280
     0
102
RTVSPost2010PropOp34
 70
     1
102
RTVSPost2010Prop35
280
     0
102
RTVSPost2010PropOp35
 70
     1
102
RTVSPost2010Prop36
280
     0
102
RTVSPost2010PropOp36
 70
     1
102
RTVSPost2010Prop37
 90
       50
102
RTVSPost2010PropOp37
 70
     1
102
RTVSPost2010Prop38
140
0.0
102
RTVSPost2010PropOp38
 70
     1
102
RTVSPost2010Prop39
140
1.0
102
RTVSPost2010PropOp39
 70
     1
102
RTVSPost2010Prop40
 90
        0
102
RTVSPost2010PropOp40
 70
     1
102
RTVSPost2010Prop41ColorIndex
 90
       18
102
RTVSPost2010Prop41ColorRGB
 90
        0
102
RTVSPost2010PropOp41
 70
     1
102
RTVSPost2010Prop42
 90
       50
102
RTVSPost2010PropOp42
 70
     1
102
RTVSPost2010Prop43
 90
        3
102
RTVSPost2010PropOp43
 70
     1
102
RTVSPost2010Prop44ColorIndex
 90
        5
102
RTVSPost2010Prop44ColorRGB
 90
      255
102
RTVSPost2010PropOp44
 70
     1
102
RTVSPost2010Prop45
280
     0
102
RTVSPost2010PropOp45
 70
     1
102
RTVSPost2010Prop46
 90
       50
102
RTVSPost2010PropOp46
 70
     1
102
RTVSPost2010Prop47
 90
       50
102
RTVSPost2010PropOp47
 70
     1
102
RTVSPost2010Prop48
 90
       50
102
RTVSPost2010PropOp48
 70
     1
102
RTVSPost2010Prop49
280
     0
102
RTVSPost2010PropOp49
 70
     1
102
RTVSPost2010Prop50
 90
       50
102
RTVSPost2010PropOp50
 70
     1
102
RTVSPost2010Prop51ColorIndex
 90
      256
102
RTVSPost2010Prop51ColorRGB
 90
-16777216
102
RTVSPost2010PropOp51
 70
     0
102
RTVSPost2010Prop52
140
1.0
102
RTVSPost2010PropOp52
 70
     0
102
RTVSPost2010Prop53
 90
        2
102
RTVSPost2010PropOp53
 70
     1
102
RTVSPost2010Prop54
  1
strokes_ogs.tif
102
RTVSPost2010PropOp54
 70
     1
102
RTVSPost2010Prop55
280
     0
102
RTVSPost2010PropOp55
 70
     1
102
RTVSPost2010Prop56
140
1.0
102
RTVSPost2010PropOp56
 70
     1
102
RTVSPost2010Prop57
140
1.0
102
RTVSPost2010PropOp57
 70
     1
  0
XRECORD
  5
789
102
{ACAD_REACTORS
330
788
102
}
330
788
100
AcDbXrecord
280
     1
102
RTVSPropertyOp0
 70
     0
102
RTVSPropertyOp1
 70
     0
102
RTVSPropertyOp2
 70
     0
102
RTVSPropertyOp3
 70
     0
102
RTVSPropertyOp4
 70
     0
102
RTVSPropertyOp5
 70
     0
102
RTVSPropertyOp6
 70
     0
102
RTVSPropertyOp7
 70
     0
102
RTVSPropertyOp8
 70
     0
102
RTVSPropertyOp9
 70
     0
102
RTVSPropertyOp10
 70
     0
102
RTVSPropertyOp11
 70
     0
102
RTVSPropertyOp12
 70
     0
102
RTVSPropertyOp13
 70
     0
102
RTVSPropertyOp14
 70
     2
102
RTVSPropertyOp15
 70
     0
102
RTVSPropertyOp16
 70
     0
102
RTVSPropertyOp17
 70
     0
102
RTVSPropertyOp18
 70
     0
102
RTVSPropertyOp19
 70
     0
102
RTVSPropertyOp20
 70
     0
102
RTVSPropertyOp21
 70
     0
102
RTVSPropertyOp22
 70
     0
102
RTVSPropertyOp23
 70
     0
102
RTVSPropertyOp24
 70
     0
102
RTVSPropertyOp25
 70
     0
102
RTVSPropertyOp26
 70
     0
102
RTVSPropertyOp27
 70
     0
102
RTVSPropertyOp28
 70
     0
102
RTVSPropertyOp29
 70
     0
102
RTVSPropertyOp30
 70
     0
102
RTVSPropertyOp31
 70
     0
102
RTVSPropertyOp32
 70
     0
102
RTVSPropertyOp33
 70
     0
102
RTVSPropertyOp34
 70
     0
102
RTVSPropertyOp35
 70
     0
102
RTVSPropertyOp36
 70
     0
102
RTVSPropertyOp37
 70
     0
102
RTVSPropertyOp38
 70
     0
102
RTVSPropertyOp39
 70
     0
102
RTVSPropertyOp40
 70
     0
102
RTVSPropertyOp41
 70
     0
102
RTVSPropertyOp42
 70
     0
102
RTVSPropertyOp43
 70
     0
102
RTVSPropertyOp44
 70
     0
102
RTVSPropertyOp45
 70
     0
102
RTVSPropertyOp46
 70
     0
102
RTVSPropertyOp47
 70
     0
102
RTVSPropertyOp48
 70
     0
102
RTVSPropertyOp49
 70
     0
102
RTVSPropertyOp50
 70
     0
102
RTVSPropertyOp51
 70
     0
102
RTVSPropertyOp52
 70
     0
102
RTVSPropertyOp53
 70
     0
102
RTVSPropertyOp54
 70
     0
102
RTVSPropertyOp55
 70
     0
102
RTVSPropertyOp56
 70
     0
102
RTVSPropertyOp57
 70
     0
102
RTVSPost2010Prop28
280
     0
102
RTVSPost2010PropOp28
 70
     0
102
RTVSPost2010Prop29
280
     1
102
RTVSPost2010PropOp29
 70
     0
102
RTVSPost2010Prop30
280
     1
102
RTVSPost2010PropOp30
 70
     0
102
RTVSPost2010Prop31
280
     0
102
RTVSPost2010PropOp31
 70
     0
102
RTVSPost2010Prop32
280
     0
102
RTVSPost2010PropOp32
 70
     0
102
RTVSPost2010Prop33
280
     0
102
RTVSPost2010PropOp33
 70
     0
102
RTVSPost2010Prop34
280
     0
102
RTVSPost2010PropOp34
 70
     0
102
RTVSPost2010Prop35
280
     0
102
RTVSPost2010PropOp35
 70
     0
102
RTVSPost2010Prop36
280
     0
102
RTVSPost2010PropOp36
 70
     0
102
RTVSPost2010Prop37
 90
       50
102
RTVSPost2010PropOp37
 70
     0
102
RTVSPost2010Prop38
140
0.0
102
RTVSPost2010PropOp38
 70
     0
102
RTVSPost2010Prop39
140
1.0
102
RTVSPost2010PropOp39
 70
     0
102
RTVSPost2010Prop40
 90
        0
102
RTVSPost2010PropOp40
 70
     0
102
RTVSPost2010Prop41ColorIndex
 90
       18
102
RTVSPost2010Prop41ColorRGB
 90
        0
102
RTVSPost2010PropOp41
 70
     0
102
RTVSPost2010Prop42
 90
       50
102
RTVSPost2010PropOp42
 70
     0
102
RTVSPost2010Prop43
 90
        3
102
RTVSPost2010PropOp43
 70
     0
102
RTVSPost2010Prop44ColorIndex
 90
        5
102
RTVSPost2010Prop44ColorRGB
 90
      255
102
RTVSPost2010PropOp44
 70
     0
102
RTVSPost2010Prop45
280
     0
102
RTVSPost2010PropOp45
 70
     0
102
RTVSPost2010Prop46
 90
       50
102
RTVSPost2010PropOp46
 70
     0
102
RTVSPost2010Prop47
 90
       50
102
RTVSPost2010PropOp47
 70
     0
102
RTVSPost2010Prop48
 90
       50
102
RTVSPost2010PropOp48
 70
     0
102
RTVSPost2010Prop49
280
     0
102
RTVSPost2010PropOp49
 70
     0
102
RTVSPost2010Prop50
 90
       50
102
RTVSPost2010PropOp50
 70
     0
102
RTVSPost2010Prop51ColorIndex
 90
      256
102
RTVSPost2010Prop51ColorRGB
 90
-16777216
102
RTVSPost2010PropOp51
 70
     0
102
RTVSPost2010Prop52
140
1.0
102
RTVSPost2010PropOp52
 70
     0
102
RTVSPost2010Prop53
 90
        2
102
RTVSPost2010PropOp53
 70
     0
102
RTVSPost2010Prop54
  1
strokes_ogs.tif
102
RTVSPost2010PropOp54
 70
     0
102
RTVSPost2010Prop55
280
     0
102
RTVSPost2010PropOp55
 70
     0
102
RTVSPost2010Prop56
140
1.0
102
RTVSPost2010PropOp56
 70
     0
102
RTVSPost2010Prop57
140
1.0
102
RTVSPost2010PropOp57
 70
     0
  0
XRECORD
  5
781
102
{ACAD_REACTORS
330
780
102
}
330
780
100
AcDbXrecord
280
     1
102
RTVSPropertyOp0
 70
     1
102
RTVSPropertyOp1
 70
     1
102
RTVSPropertyOp2
 70
     1
102
RTVSPropertyOp3
 70
     1
102
RTVSPropertyOp4
 70
     1
102
RTVSPropertyOp5
 70
     1
102
RTVSPropertyOp6
 70
     1
102
RTVSPropertyOp7
 70
     1
102
RTVSPropertyOp8
 70
     1
102
RTVSPropertyOp9
 70
     1
102
RTVSPropertyOp10
 70
     1
102
RTVSPropertyOp11
 70
     1
102
RTVSPropertyOp12
 70
     1
102
RTVSPropertyOp13
 70
     1
102
RTVSPropertyOp14
 70
     1
102
RTVSPropertyOp15
 70
     1
102
RTVSPropertyOp16
 70
     1
102
RTVSPropertyOp17
 70
     1
102
RTVSPropertyOp18
 70
     1
102
RTVSPropertyOp19
 70
     1
102
RTVSPropertyOp20
 70
     1
102
RTVSPropertyOp21
 70
     1
102
RTVSPropertyOp22
 70
     1
102
RTVSPropertyOp23
 70
     1
102
RTVSPropertyOp24
 70
     1
102
RTVSPropertyOp25
 70
     1
102
RTVSPropertyOp26
 70
     1
102
RTVSPropertyOp27
 70
     1
102
RTVSPropertyOp28
 70
     1
102
RTVSPropertyOp29
 70
     1
102
RTVSPropertyOp30
 70
     1
102
RTVSPropertyOp31
 70
     1
102
RTVSPropertyOp32
 70
     1
102
RTVSPropertyOp33
 70
     1
102
RTVSPropertyOp34
 70
     1
102
RTVSPropertyOp35
 70
     1
102
RTVSPropertyOp36
 70
     1
102
RTVSPropertyOp37
 70
     1
102
RTVSPropertyOp38
 70
     1
102
RTVSPropertyOp39
 70
     1
102
RTVSPropertyOp40
 70
     1
102
RTVSPropertyOp41
 70
     1
102
RTVSPropertyOp42
 70
     1
102
RTVSPropertyOp43
 70
     1
102
RTVSPropertyOp44
 70
     1
102
RTVSPropertyOp45
 70
     1
102
RTVSPropertyOp46
 70
     1
102
RTVSPropertyOp47
 70
     1
102
RTVSPropertyOp48
 70
     1
102
RTVSPropertyOp49
 70
     1
102
RTVSPropertyOp50
 70
     1
102
RTVSPropertyOp51
 70
     0
102
RTVSPropertyOp52
 70
     0
102
RTVSPropertyOp53
 70
     1
102
RTVSPropertyOp54
 70
     1
102
RTVSPropertyOp55
 70
     1
102
RTVSPropertyOp56
 70
     1
102
RTVSPropertyOp57
 70
     1
102
RTVSPost2010Prop28
280
     0
102
RTVSPost2010PropOp28
 70
     1
102
RTVSPost2010Prop29
280
     1
102
RTVSPost2010PropOp29
 70
     1
102
RTVSPost2010Prop30
280
     1
102
RTVSPost2010PropOp30
 70
     1
102
RTVSPost2010Prop31
280
     0
102
RTVSPost2010PropOp31
 70
     1
102
RTVSPost2010Prop32
280
     0
102
RTVSPost2010PropOp32
 70
     1
102
RTVSPost2010Prop33
280
     0
102
RTVSPost2010PropOp33
 70
     1
102
RTVSPost2010Prop34
280
     0
102
RTVSPost2010PropOp34
 70
     1
102
RTVSPost2010Prop35
280
     0
102
RTVSPost2010PropOp35
 70
     1
102
RTVSPost2010Prop36
280
     0
102
RTVSPost2010PropOp36
 70
     1
102
RTVSPost2010Prop37
 90
       50
102
RTVSPost2010PropOp37
 70
     1
102
RTVSPost2010Prop38
140
0.0
102
RTVSPost2010PropOp38
 70
     1
102
RTVSPost2010Prop39
140
1.0
102
RTVSPost2010PropOp39
 70
     1
102
RTVSPost2010Prop40
 90
        0
102
RTVSPost2010PropOp40
 70
     1
102
RTVSPost2010Prop41ColorIndex
 90
       18
102
RTVSPost2010Prop41ColorRGB
 90
        0
102
RTVSPost2010PropOp41
 70
     1
102
RTVSPost2010Prop42
 90
       50
102
RTVSPost2010PropOp42
 70
     1
102
RTVSPost2010Prop43
 90
        3
102
RTVSPost2010PropOp43
 70
     1
102
RTVSPost2010Prop44ColorIndex
 90
        5
102
RTVSPost2010Prop44ColorRGB
 90
      255
102
RTVSPost2010PropOp44
 70
     1
102
RTVSPost2010Prop45
280
     0
102
RTVSPost2010PropOp45
 70
     1
102
RTVSPost2010Prop46
 90
       50
102
RTVSPost2010PropOp46
 70
     1
102
RTVSPost2010Prop47
 90
       50
102
RTVSPost2010PropOp47
 70
     1
102
RTVSPost2010Prop48
 90
       50
102
RTVSPost2010PropOp48
 70
     1
102
RTVSPost2010Prop49
280
     0
102
RTVSPost2010PropOp49
 70
     1
102
RTVSPost2010Prop50
 90
       50
102
RTVSPost2010PropOp50
 70
     1
102
RTVSPost2010Prop51ColorIndex
 90
      256
102
RTVSPost2010Prop51ColorRGB
 90
-16777216
102
RTVSPost2010PropOp51
 70
     0
102
RTVSPost2010Prop52
140
1.0
102
RTVSPost2010PropOp52
 70
     0
102
RTVSPost2010Prop53
 90
        2
102
RTVSPost2010PropOp53
 70
     1
102
RTVSPost2010Prop54
  1
strokes_ogs.tif
102
RTVSPost2010PropOp54
 70
     1
102
RTVSPost2010Prop55
280
     0
102
RTVSPost2010PropOp55
 70
     1
102
RTVSPost2010Prop56
140
1.0
102
RTVSPost2010PropOp56
 70
     1
102
RTVSPost2010Prop57
140
1.0
102
RTVSPost2010PropOp57
 70
     1
  0
XRECORD
  5
765
102
{ACAD_REACTORS
330
764
102
}
330
764
100
AcDbXrecord
280
     1
102
RTVSPropertyOp0
 70
     1
102
RTVSPropertyOp1
 70
     1
102
RTVSPropertyOp2
 70
     1
102
RTVSPropertyOp3
 70
     1
102
RTVSPropertyOp4
 70
     1
102
RTVSPropertyOp5
 70
     1
102
RTVSPropertyOp6
 70
     1
102
RTVSPropertyOp7
 70
     1
102
RTVSPropertyOp8
 70
     1
102
RTVSPropertyOp9
 70
     1
102
RTVSPropertyOp10
 70
     1
102
RTVSPropertyOp11
 70
     1
102
RTVSPropertyOp12
 70
     1
102
RTVSPropertyOp13
 70
     1
102
RTVSPropertyOp14
 70
     1
102
RTVSPropertyOp15
 70
     1
102
RTVSPropertyOp16
 70
     1
102
RTVSPropertyOp17
 70
     1
102
RTVSPropertyOp18
 70
     1
102
RTVSPropertyOp19
 70
     1
102
RTVSPropertyOp20
 70
     1
102
RTVSPropertyOp21
 70
     1
102
RTVSPropertyOp22
 70
     1
102
RTVSPropertyOp23
 70
     1
102
RTVSPropertyOp24
 70
     1
102
RTVSPropertyOp25
 70
     1
102
RTVSPropertyOp26
 70
     1
102
RTVSPropertyOp27
 70
     1
102
RTVSPropertyOp28
 70
     1
102
RTVSPropertyOp29
 70
     1
102
RTVSPropertyOp30
 70
     1
102
RTVSPropertyOp31
 70
     1
102
RTVSPropertyOp32
 70
     1
102
RTVSPropertyOp33
 70
     1
102
RTVSPropertyOp34
 70
     1
102
RTVSPropertyOp35
 70
     1
102
RTVSPropertyOp36
 70
     1
102
RTVSPropertyOp37
 70
     1
102
RTVSPropertyOp38
 70
     1
102
RTVSPropertyOp39
 70
     1
102
RTVSPropertyOp40
 70
     1
102
RTVSPropertyOp41
 70
     1
102
RTVSPropertyOp42
 70
     1
102
RTVSPropertyOp43
 70
     1
102
RTVSPropertyOp44
 70
     1
102
RTVSPropertyOp45
 70
     1
102
RTVSPropertyOp46
 70
     1
102
RTVSPropertyOp47
 70
     1
102
RTVSPropertyOp48
 70
     1
102
RTVSPropertyOp49
 70
     1
102
RTVSPropertyOp50
 70
     1
102
RTVSPropertyOp51
 70
     0
102
RTVSPropertyOp52
 70
     0
102
RTVSPropertyOp53
 70
     1
102
RTVSPropertyOp54
 70
     1
102
RTVSPropertyOp55
 70
     1
102
RTVSPropertyOp56
 70
     1
102
RTVSPropertyOp57
 70
     1
102
RTVSPost2010Prop28
280
     0
102
RTVSPost2010PropOp28
 70
     1
102
RTVSPost2010Prop29
280
     1
102
RTVSPost2010PropOp29
 70
     1
102
RTVSPost2010Prop30
280
     1
102
RTVSPost2010PropOp30
 70
     1
102
RTVSPost2010Prop31
280
     0
102
RTVSPost2010PropOp31
 70
     1
102
RTVSPost2010Prop32
280
     0
102
RTVSPost2010PropOp32
 70
     1
102
RTVSPost2010Prop33
280
     0
102
RTVSPost2010PropOp33
 70
     1
102
RTVSPost2010Prop34
280
     0
102
RTVSPost2010PropOp34
 70
     1
102
RTVSPost2010Prop35
280
     0
102
RTVSPost2010PropOp35
 70
     1
102
RTVSPost2010Prop36
280
     0
102
RTVSPost2010PropOp36
 70
     1
102
RTVSPost2010Prop37
 90
       50
102
RTVSPost2010PropOp37
 70
     1
102
RTVSPost2010Prop38
140
0.0
102
RTVSPost2010PropOp38
 70
     1
102
RTVSPost2010Prop39
140
1.0
102
RTVSPost2010PropOp39
 70
     1
102
RTVSPost2010Prop40
 90
        0
102
RTVSPost2010PropOp40
 70
     1
102
RTVSPost2010Prop41ColorIndex
 90
       18
102
RTVSPost2010Prop41ColorRGB
 90
        0
102
RTVSPost2010PropOp41
 70
     1
102
RTVSPost2010Prop42
 90
       50
102
RTVSPost2010PropOp42
 70
     1
102
RTVSPost2010Prop43
 90
        3
102
RTVSPost2010PropOp43
 70
     1
102
RTVSPost2010Prop44ColorIndex
 90
        5
102
RTVSPost2010Prop44ColorRGB
 90
      255
102
RTVSPost2010PropOp44
 70
     1
102
RTVSPost2010Prop45
280
     0
102
RTVSPost2010PropOp45
 70
     1
102
RTVSPost2010Prop46
 90
       50
102
RTVSPost2010PropOp46
 70
     1
102
RTVSPost2010Prop47
 90
       50
102
RTVSPost2010PropOp47
 70
     1
102
RTVSPost2010Prop48
 90
       50
102
RTVSPost2010PropOp48
 70
     1
102
RTVSPost2010Prop49
280
     0
102
RTVSPost2010PropOp49
 70
     1
102
RTVSPost2010Prop50
 90
       50
102
RTVSPost2010PropOp50
 70
     1
102
RTVSPost2010Prop51ColorIndex
 90
      256
102
RTVSPost2010Prop51ColorRGB
 90
-16777216
102
RTVSPost2010PropOp51
 70
     0
102
RTVSPost2010Prop52
140
1.0
102
RTVSPost2010PropOp52
 70
     0
102
RTVSPost2010Prop53
 90
        2
102
RTVSPost2010PropOp53
 70
     1
102
RTVSPost2010Prop54
  1
strokes_ogs.tif
102
RTVSPost2010PropOp54
 70
     1
102
RTVSPost2010Prop55
280
     0
102
RTVSPost2010PropOp55
 70
     1
102
RTVSPost2010Prop56
140
1.0
102
RTVSPost2010PropOp56
 70
     1
102
RTVSPost2010Prop57
140
1.0
102
RTVSPost2010PropOp57
 70
     1
  0
XRECORD
  5
767
102
{ACAD_REACTORS
330
766
102
}
330
766
100
AcDbXrecord
280
     1
102
RTVSPropertyOp0
 70
     1
102
RTVSPropertyOp1
 70
     1
102
RTVSPropertyOp2
 70
     1
102
RTVSPropertyOp3
 70
     1
102
RTVSPropertyOp4
 70
     1
102
RTVSPropertyOp5
 70
     1
102
RTVSPropertyOp6
 70
     1
102
RTVSPropertyOp7
 70
     1
102
RTVSPropertyOp8
 70
     1
102
RTVSPropertyOp9
 70
     1
102
RTVSPropertyOp10
 70
     1
102
RTVSPropertyOp11
 70
     1
102
RTVSPropertyOp12
 70
     1
102
RTVSPropertyOp13
 70
     1
102
RTVSPropertyOp14
 70
     1
102
RTVSPropertyOp15
 70
     1
102
RTVSPropertyOp16
 70
     1
102
RTVSPropertyOp17
 70
     1
102
RTVSPropertyOp18
 70
     1
102
RTVSPropertyOp19
 70
     1
102
RTVSPropertyOp20
 70
     1
102
RTVSPropertyOp21
 70
     1
102
RTVSPropertyOp22
 70
     1
102
RTVSPropertyOp23
 70
     1
102
RTVSPropertyOp24
 70
     1
102
RTVSPropertyOp25
 70
     1
102
RTVSPropertyOp26
 70
     1
102
RTVSPropertyOp27
 70
     1
102
RTVSPropertyOp28
 70
     1
102
RTVSPropertyOp29
 70
     1
102
RTVSPropertyOp30
 70
     1
102
RTVSPropertyOp31
 70
     1
102
RTVSPropertyOp32
 70
     1
102
RTVSPropertyOp33
 70
     1
102
RTVSPropertyOp34
 70
     1
102
RTVSPropertyOp35
 70
     1
102
RTVSPropertyOp36
 70
     1
102
RTVSPropertyOp37
 70
     1
102
RTVSPropertyOp38
 70
     1
102
RTVSPropertyOp39
 70
     1
102
RTVSPropertyOp40
 70
     1
102
RTVSPropertyOp41
 70
     1
102
RTVSPropertyOp42
 70
     1
102
RTVSPropertyOp43
 70
     1
102
RTVSPropertyOp44
 70
     1
102
RTVSPropertyOp45
 70
     1
102
RTVSPropertyOp46
 70
     1
102
RTVSPropertyOp47
 70
     1
102
RTVSPropertyOp48
 70
     1
102
RTVSPropertyOp49
 70
     1
102
RTVSPropertyOp50
 70
     1
102
RTVSPropertyOp51
 70
     0
102
RTVSPropertyOp52
 70
     0
102
RTVSPropertyOp53
 70
     1
102
RTVSPropertyOp54
 70
     1
102
RTVSPropertyOp55
 70
     1
102
RTVSPropertyOp56
 70
     1
102
RTVSPropertyOp57
 70
     1
102
RTVSPost2010Prop28
280
     0
102
RTVSPost2010PropOp28
 70
     1
102
RTVSPost2010Prop29
280
     1
102
RTVSPost2010PropOp29
 70
     1
102
RTVSPost2010Prop30
280
     1
102
RTVSPost2010PropOp30
 70
     1
102
RTVSPost2010Prop31
280
     0
102
RTVSPost2010PropOp31
 70
     1
102
RTVSPost2010Prop32
280
     0
102
RTVSPost2010PropOp32
 70
     1
102
RTVSPost2010Prop33
280
     0
102
RTVSPost2010PropOp33
 70
     1
102
RTVSPost2010Prop34
280
     0
102
RTVSPost2010PropOp34
 70
     1
102
RTVSPost2010Prop35
280
     0
102
RTVSPost2010PropOp35
 70
     1
102
RTVSPost2010Prop36
280
     0
102
RTVSPost2010PropOp36
 70
     1
102
RTVSPost2010Prop37
 90
       50
102
RTVSPost2010PropOp37
 70
     1
102
RTVSPost2010Prop38
140
0.0
102
RTVSPost2010PropOp38
 70
     1
102
RTVSPost2010Prop39
140
1.0
102
RTVSPost2010PropOp39
 70
     1
102
RTVSPost2010Prop40
 90
        0
102
RTVSPost2010PropOp40
 70
     1
102
RTVSPost2010Prop41ColorIndex
 90
       18
102
RTVSPost2010Prop41ColorRGB
 90
        0
102
RTVSPost2010PropOp41
 70
     1
102
RTVSPost2010Prop42
 90
       50
102
RTVSPost2010PropOp42
 70
     1
102
RTVSPost2010Prop43
 90
        3
102
RTVSPost2010PropOp43
 70
     1
102
RTVSPost2010Prop44ColorIndex
 90
        5
102
RTVSPost2010Prop44ColorRGB
 90
      255
102
RTVSPost2010PropOp44
 70
     1
102
RTVSPost2010Prop45
280
     0
102
RTVSPost2010PropOp45
 70
     1
102
RTVSPost2010Prop46
 90
       50
102
RTVSPost2010PropOp46
 70
     1
102
RTVSPost2010Prop47
 90
       50
102
RTVSPost2010PropOp47
 70
     1
102
RTVSPost2010Prop48
 90
       50
102
RTVSPost2010PropOp48
 70
     1
102
RTVSPost2010Prop49
280
     0
102
RTVSPost2010PropOp49
 70
     1
102
RTVSPost2010Prop50
 90
       50
102
RTVSPost2010PropOp50
 70
     1
102
RTVSPost2010Prop51ColorIndex
 90
      256
102
RTVSPost2010Prop51ColorRGB
 90
-16777216
102
RTVSPost2010PropOp51
 70
     0
102
RTVSPost2010Prop52
140
1.0
102
RTVSPost2010PropOp52
 70
     0
102
RTVSPost2010Prop53
 90
        2
102
RTVSPost2010PropOp53
 70
     1
102
RTVSPost2010Prop54
  1
strokes_ogs.tif
102
RTVSPost2010PropOp54
 70
     1
102
RTVSPost2010Prop55
280
     0
102
RTVSPost2010PropOp55
 70
     1
102
RTVSPost2010Prop56
140
1.0
102
RTVSPost2010PropOp56
 70
     1
102
RTVSPost2010Prop57
140
1.0
102
RTVSPost2010PropOp57
 70
     1
  0
XRECORD
  5
769
102
{ACAD_REACTORS
330
768
102
}
330
768
100
AcDbXrecord
280
     1
102
RTVSPropertyOp0
 70
     1
102
RTVSPropertyOp1
 70
     1
102
RTVSPropertyOp2
 70
     1
102
RTVSPropertyOp3
 70
     1
102
RTVSPropertyOp4
 70
     1
102
RTVSPropertyOp5
 70
     1
102
RTVSPropertyOp6
 70
     1
102
RTVSPropertyOp7
 70
     1
102
RTVSPropertyOp8
 70
     1
102
RTVSPropertyOp9
 70
     1
102
RTVSPropertyOp10
 70
     1
102
RTVSPropertyOp11
 70
     1
102
RTVSPropertyOp12
 70
     1
102
RTVSPropertyOp13
 70
     1
102
RTVSPropertyOp14
 70
     1
102
RTVSPropertyOp15
 70
     1
102
RTVSPropertyOp16
 70
     1
102
RTVSPropertyOp17
 70
     1
102
RTVSPropertyOp18
 70
     1
102
RTVSPropertyOp19
 70
     1
102
RTVSPropertyOp20
 70
     1
102
RTVSPropertyOp21
 70
     1
102
RTVSPropertyOp22
 70
     1
102
RTVSPropertyOp23
 70
     1
102
RTVSPropertyOp24
 70
     1
102
RTVSPropertyOp25
 70
     1
102
RTVSPropertyOp26
 70
     1
102
RTVSPropertyOp27
 70
     1
102
RTVSPropertyOp28
 70
     1
102
RTVSPropertyOp29
 70
     1
102
RTVSPropertyOp30
 70
     1
102
RTVSPropertyOp31
 70
     1
102
RTVSPropertyOp32
 70
     1
102
RTVSPropertyOp33
 70
     1
102
RTVSPropertyOp34
 70
     1
102
RTVSPropertyOp35
 70
     1
102
RTVSPropertyOp36
 70
     1
102
RTVSPropertyOp37
 70
     1
102
RTVSPropertyOp38
 70
     1
102
RTVSPropertyOp39
 70
     1
102
RTVSPropertyOp40
 70
     1
102
RTVSPropertyOp41
 70
     1
102
RTVSPropertyOp42
 70
     1
102
RTVSPropertyOp43
 70
     1
102
RTVSPropertyOp44
 70
     1
102
RTVSPropertyOp45
 70
     1
102
RTVSPropertyOp46
 70
     1
102
RTVSPropertyOp47
 70
     1
102
RTVSPropertyOp48
 70
     1
102
RTVSPropertyOp49
 70
     1
102
RTVSPropertyOp50
 70
     1
102
RTVSPropertyOp51
 70
     0
102
RTVSPropertyOp52
 70
     0
102
RTVSPropertyOp53
 70
     1
102
RTVSPropertyOp54
 70
     1
102
RTVSPropertyOp55
 70
     1
102
RTVSPropertyOp56
 70
     1
102
RTVSPropertyOp57
 70
     1
102
RTVSPost2010Prop28
280
     0
102
RTVSPost2010PropOp28
 70
     1
102
RTVSPost2010Prop29
280
     1
102
RTVSPost2010PropOp29
 70
     1
102
RTVSPost2010Prop30
280
     1
102
RTVSPost2010PropOp30
 70
     1
102
RTVSPost2010Prop31
280
     0
102
RTVSPost2010PropOp31
 70
     1
102
RTVSPost2010Prop32
280
     0
102
RTVSPost2010PropOp32
 70
     1
102
RTVSPost2010Prop33
280
     0
102
RTVSPost2010PropOp33
 70
     1
102
RTVSPost2010Prop34
280
     0
102
RTVSPost2010PropOp34
 70
     1
102
RTVSPost2010Prop35
280
     0
102
RTVSPost2010PropOp35
 70
     1
102
RTVSPost2010Prop36
280
     0
102
RTVSPost2010PropOp36
 70
     1
102
RTVSPost2010Prop37
 90
       50
102
RTVSPost2010PropOp37
 70
     1
102
RTVSPost2010Prop38
140
0.0
102
RTVSPost2010PropOp38
 70
     1
102
RTVSPost2010Prop39
140
1.0
102
RTVSPost2010PropOp39
 70
     1
102
RTVSPost2010Prop40
 90
        0
102
RTVSPost2010PropOp40
 70
     1
102
RTVSPost2010Prop41ColorIndex
 90
       18
102
RTVSPost2010Prop41ColorRGB
 90
        0
102
RTVSPost2010PropOp41
 70
     1
102
RTVSPost2010Prop42
 90
       50
102
RTVSPost2010PropOp42
 70
     1
102
RTVSPost2010Prop43
 90
        3
102
RTVSPost2010PropOp43
 70
     1
102
RTVSPost2010Prop44ColorIndex
 90
        5
102
RTVSPost2010Prop44ColorRGB
 90
      255
102
RTVSPost2010PropOp44
 70
     1
102
RTVSPost2010Prop45
280
     0
102
RTVSPost2010PropOp45
 70
     1
102
RTVSPost2010Prop46
 90
       50
102
RTVSPost2010PropOp46
 70
     1
102
RTVSPost2010Prop47
 90
       50
102
RTVSPost2010PropOp47
 70
     1
102
RTVSPost2010Prop48
 90
       50
102
RTVSPost2010PropOp48
 70
     1
102
RTVSPost2010Prop49
280
     0
102
RTVSPost2010PropOp49
 70
     1
102
RTVSPost2010Prop50
 90
       50
102
RTVSPost2010PropOp50
 70
     1
102
RTVSPost2010Prop51ColorIndex
 90
      256
102
RTVSPost2010Prop51ColorRGB
 90
-16777216
102
RTVSPost2010PropOp51
 70
     0
102
RTVSPost2010Prop52
140
1.0
102
RTVSPost2010PropOp52
 70
     0
102
RTVSPost2010Prop53
 90
        2
102
RTVSPost2010PropOp53
 70
     1
102
RTVSPost2010Prop54
  1
strokes_ogs.tif
102
RTVSPost2010PropOp54
 70
     1
102
RTVSPost2010Prop55
280
     0
102
RTVSPost2010PropOp55
 70
     1
102
RTVSPost2010Prop56
140
1.0
102
RTVSPost2010PropOp56
 70
     1
102
RTVSPost2010Prop57
140
1.0
102
RTVSPost2010PropOp57
 70
     1
  0
XRECORD
  5
76B
102
{ACAD_REACTORS
330
76A
102
}
330
76A
100
AcDbXrecord
280
     1
102
RTVSPropertyOp0
 70
     1
102
RTVSPropertyOp1
 70
     1
102
RTVSPropertyOp2
 70
     1
102
RTVSPropertyOp3
 70
     1
102
RTVSPropertyOp4
 70
     1
102
RTVSPropertyOp5
 70
     1
102
RTVSPropertyOp6
 70
     1
102
RTVSPropertyOp7
 70
     1
102
RTVSPropertyOp8
 70
     1
102
RTVSPropertyOp9
 70
     1
102
RTVSPropertyOp10
 70
     1
102
RTVSPropertyOp11
 70
     1
102
RTVSPropertyOp12
 70
     1
102
RTVSPropertyOp13
 70
     1
102
RTVSPropertyOp14
 70
     1
102
RTVSPropertyOp15
 70
     1
102
RTVSPropertyOp16
 70
     1
102
RTVSPropertyOp17
 70
     1
102
RTVSPropertyOp18
 70
     1
102
RTVSPropertyOp19
 70
     1
102
RTVSPropertyOp20
 70
     1
102
RTVSPropertyOp21
 70
     1
102
RTVSPropertyOp22
 70
     1
102
RTVSPropertyOp23
 70
     1
102
RTVSPropertyOp24
 70
     1
102
RTVSPropertyOp25
 70
     1
102
RTVSPropertyOp26
 70
     1
102
RTVSPropertyOp27
 70
     1
102
RTVSPropertyOp28
 70
     1
102
RTVSPropertyOp29
 70
     1
102
RTVSPropertyOp30
 70
     1
102
RTVSPropertyOp31
 70
     1
102
RTVSPropertyOp32
 70
     1
102
RTVSPropertyOp33
 70
     1
102
RTVSPropertyOp34
 70
     1
102
RTVSPropertyOp35
 70
     1
102
RTVSPropertyOp36
 70
     1
102
RTVSPropertyOp37
 70
     1
102
RTVSPropertyOp38
 70
     1
102
RTVSPropertyOp39
 70
     1
102
RTVSPropertyOp40
 70
     1
102
RTVSPropertyOp41
 70
     1
102
RTVSPropertyOp42
 70
     1
102
RTVSPropertyOp43
 70
     1
102
RTVSPropertyOp44
 70
     1
102
RTVSPropertyOp45
 70
     1
102
RTVSPropertyOp46
 70
     1
102
RTVSPropertyOp47
 70
     1
102
RTVSPropertyOp48
 70
     1
102
RTVSPropertyOp49
 70
     1
102
RTVSPropertyOp50
 70
     1
102
RTVSPropertyOp51
 70
     0
102
RTVSPropertyOp52
 70
     0
102
RTVSPropertyOp53
 70
     1
102
RTVSPropertyOp54
 70
     1
102
RTVSPropertyOp55
 70
     1
102
RTVSPropertyOp56
 70
     1
102
RTVSPropertyOp57
 70
     1
102
RTVSPost2010Prop28
280
     0
102
RTVSPost2010PropOp28
 70
     1
102
RTVSPost2010Prop29
280
     1
102
RTVSPost2010PropOp29
 70
     1
102
RTVSPost2010Prop30
280
     1
102
RTVSPost2010PropOp30
 70
     1
102
RTVSPost2010Prop31
280
     0
102
RTVSPost2010PropOp31
 70
     1
102
RTVSPost2010Prop32
280
     0
102
RTVSPost2010PropOp32
 70
     1
102
RTVSPost2010Prop33
280
     0
102
RTVSPost2010PropOp33
 70
     1
102
RTVSPost2010Prop34
280
     0
102
RTVSPost2010PropOp34
 70
     1
102
RTVSPost2010Prop35
280
     0
102
RTVSPost2010PropOp35
 70
     1
102
RTVSPost2010Prop36
280
     0
102
RTVSPost2010PropOp36
 70
     1
102
RTVSPost2010Prop37
 90
       50
102
RTVSPost2010PropOp37
 70
     1
102
RTVSPost2010Prop38
140
0.0
102
RTVSPost2010PropOp38
 70
     1
102
RTVSPost2010Prop39
140
1.0
102
RTVSPost2010PropOp39
 70
     1
102
RTVSPost2010Prop40
 90
        0
102
RTVSPost2010PropOp40
 70
     1
102
RTVSPost2010Prop41ColorIndex
 90
       18
102
RTVSPost2010Prop41ColorRGB
 90
        0
102
RTVSPost2010PropOp41
 70
     1
102
RTVSPost2010Prop42
 90
       50
102
RTVSPost2010PropOp42
 70
     1
102
RTVSPost2010Prop43
 90
        3
102
RTVSPost2010PropOp43
 70
     1
102
RTVSPost2010Prop44ColorIndex
 90
        5
102
RTVSPost2010Prop44ColorRGB
 90
      255
102
RTVSPost2010PropOp44
 70
     1
102
RTVSPost2010Prop45
280
     0
102
RTVSPost2010PropOp45
 70
     1
102
RTVSPost2010Prop46
 90
       50
102
RTVSPost2010PropOp46
 70
     1
102
RTVSPost2010Prop47
 90
       50
102
RTVSPost2010PropOp47
 70
     1
102
RTVSPost2010Prop48
 90
       50
102
RTVSPost2010PropOp48
 70
     1
102
RTVSPost2010Prop49
280
     0
102
RTVSPost2010PropOp49
 70
     1
102
RTVSPost2010Prop50
 90
       50
102
RTVSPost2010PropOp50
 70
     1
102
RTVSPost2010Prop51ColorIndex
 90
      256
102
RTVSPost2010Prop51ColorRGB
 90
-16777216
102
RTVSPost2010PropOp51
 70
     0
102
RTVSPost2010Prop52
140
1.0
102
RTVSPost2010PropOp52
 70
     0
102
RTVSPost2010Prop53
 90
        2
102
RTVSPost2010PropOp53
 70
     1
102
RTVSPost2010Prop54
  1
strokes_ogs.tif
102
RTVSPost2010PropOp54
 70
     1
102
RTVSPost2010Prop55
280
     0
102
RTVSPost2010PropOp55
 70
     1
102
RTVSPost2010Prop56
140
1.0
102
RTVSPost2010PropOp56
 70
     1
102
RTVSPost2010Prop57
140
1.0
102
RTVSPost2010PropOp57
 70
     1
  0
XRECORD
  5
771
102
{ACAD_REACTORS
330
770
102
}
330
770
100
AcDbXrecord
280
     1
102
RTVSPropertyOp0
 70
     1
102
RTVSPropertyOp1
 70
     1
102
RTVSPropertyOp2
 70
     1
102
RTVSPropertyOp3
 70
     1
102
RTVSPropertyOp4
 70
     1
102
RTVSPropertyOp5
 70
     1
102
RTVSPropertyOp6
 70
     1
102
RTVSPropertyOp7
 70
     1
102
RTVSPropertyOp8
 70
     1
102
RTVSPropertyOp9
 70
     1
102
RTVSPropertyOp10
 70
     1
102
RTVSPropertyOp11
 70
     1
102
RTVSPropertyOp12
 70
     1
102
RTVSPropertyOp13
 70
     1
102
RTVSPropertyOp14
 70
     1
102
RTVSPropertyOp15
 70
     1
102
RTVSPropertyOp16
 70
     1
102
RTVSPropertyOp17
 70
     1
102
RTVSPropertyOp18
 70
     1
102
RTVSPropertyOp19
 70
     1
102
RTVSPropertyOp20
 70
     1
102
RTVSPropertyOp21
 70
     1
102
RTVSPropertyOp22
 70
     1
102
RTVSPropertyOp23
 70
     1
102
RTVSPropertyOp24
 70
     1
102
RTVSPropertyOp25
 70
     1
102
RTVSPropertyOp26
 70
     1
102
RTVSPropertyOp27
 70
     1
102
RTVSPropertyOp28
 70
     1
102
RTVSPropertyOp29
 70
     1
102
RTVSPropertyOp30
 70
     1
102
RTVSPropertyOp31
 70
     1
102
RTVSPropertyOp32
 70
     1
102
RTVSPropertyOp33
 70
     1
102
RTVSPropertyOp34
 70
     1
102
RTVSPropertyOp35
 70
     1
102
RTVSPropertyOp36
 70
     1
102
RTVSPropertyOp37
 70
     1
102
RTVSPropertyOp38
 70
     1
102
RTVSPropertyOp39
 70
     1
102
RTVSPropertyOp40
 70
     1
102
RTVSPropertyOp41
 70
     1
102
RTVSPropertyOp42
 70
     1
102
RTVSPropertyOp43
 70
     1
102
RTVSPropertyOp44
 70
     1
102
RTVSPropertyOp45
 70
     1
102
RTVSPropertyOp46
 70
     1
102
RTVSPropertyOp47
 70
     1
102
RTVSPropertyOp48
 70
     1
102
RTVSPropertyOp49
 70
     1
102
RTVSPropertyOp50
 70
     1
102
RTVSPropertyOp51
 70
     0
102
RTVSPropertyOp52
 70
     0
102
RTVSPropertyOp53
 70
     1
102
RTVSPropertyOp54
 70
     1
102
RTVSPropertyOp55
 70
     1
102
RTVSPropertyOp56
 70
     1
102
RTVSPropertyOp57
 70
     1
102
RTVSPost2010Prop28
280
     0
102
RTVSPost2010PropOp28
 70
     1
102
RTVSPost2010Prop29
280
     1
102
RTVSPost2010PropOp29
 70
     1
102
RTVSPost2010Prop30
280
     1
102
RTVSPost2010PropOp30
 70
     1
102
RTVSPost2010Prop31
280
     0
102
RTVSPost2010PropOp31
 70
     1
102
RTVSPost2010Prop32
280
     0
102
RTVSPost2010PropOp32
 70
     1
102
RTVSPost2010Prop33
280
     0
102
RTVSPost2010PropOp33
 70
     1
102
RTVSPost2010Prop34
280
     0
102
RTVSPost2010PropOp34
 70
     1
102
RTVSPost2010Prop35
280
     0
102
RTVSPost2010PropOp35
 70
     1
102
RTVSPost2010Prop36
280
     0
102
RTVSPost2010PropOp36
 70
     1
102
RTVSPost2010Prop37
 90
       50
102
RTVSPost2010PropOp37
 70
     1
102
RTVSPost2010Prop38
140
0.0
102
RTVSPost2010PropOp38
 70
     1
102
RTVSPost2010Prop39
140
1.0
102
RTVSPost2010PropOp39
 70
     1
102
RTVSPost2010Prop40
 90
        0
102
RTVSPost2010PropOp40
 70
     1
102
RTVSPost2010Prop41ColorIndex
 90
       18
102
RTVSPost2010Prop41ColorRGB
 90
        0
102
RTVSPost2010PropOp41
 70
     1
102
RTVSPost2010Prop42
 90
       50
102
RTVSPost2010PropOp42
 70
     1
102
RTVSPost2010Prop43
 90
        3
102
RTVSPost2010PropOp43
 70
     1
102
RTVSPost2010Prop44ColorIndex
 90
        5
102
RTVSPost2010Prop44ColorRGB
 90
      255
102
RTVSPost2010PropOp44
 70
     1
102
RTVSPost2010Prop45
280
     0
102
RTVSPost2010PropOp45
 70
     1
102
RTVSPost2010Prop46
 90
       50
102
RTVSPost2010PropOp46
 70
     1
102
RTVSPost2010Prop47
 90
       50
102
RTVSPost2010PropOp47
 70
     1
102
RTVSPost2010Prop48
 90
       50
102
RTVSPost2010PropOp48
 70
     1
102
RTVSPost2010Prop49
280
     0
102
RTVSPost2010PropOp49
 70
     1
102
RTVSPost2010Prop50
 90
       50
102
RTVSPost2010PropOp50
 70
     1
102
RTVSPost2010Prop51ColorIndex
 90
      256
102
RTVSPost2010Prop51ColorRGB
 90
-16777216
102
RTVSPost2010PropOp51
 70
     0
102
RTVSPost2010Prop52
140
1.0
102
RTVSPost2010PropOp52
 70
     0
102
RTVSPost2010Prop53
 90
        2
102
RTVSPost2010PropOp53
 70
     1
102
RTVSPost2010Prop54
  1
strokes_ogs.tif
102
RTVSPost2010PropOp54
 70
     1
102
RTVSPost2010Prop55
280
     0
102
RTVSPost2010PropOp55
 70
     1
102
RTVSPost2010Prop56
140
1.0
102
RTVSPost2010PropOp56
 70
     1
102
RTVSPost2010Prop57
140
1.0
102
RTVSPost2010PropOp57
 70
     1
  0
XRECORD
  5
785
102
{ACAD_REACTORS
330
784
102
}
330
784
100
AcDbXrecord
280
     1
102
RTVSPropertyOp0
 70
     0
102
RTVSPropertyOp1
 70
     0
102
RTVSPropertyOp2
 70
     0
102
RTVSPropertyOp3
 70
     0
102
RTVSPropertyOp4
 70
     0
102
RTVSPropertyOp5
 70
     0
102
RTVSPropertyOp6
 70
     0
102
RTVSPropertyOp7
 70
     0
102
RTVSPropertyOp8
 70
     0
102
RTVSPropertyOp9
 70
     0
102
RTVSPropertyOp10
 70
     0
102
RTVSPropertyOp11
 70
     0
102
RTVSPropertyOp12
 70
     0
102
RTVSPropertyOp13
 70
     0
102
RTVSPropertyOp14
 70
     2
102
RTVSPropertyOp15
 70
     0
102
RTVSPropertyOp16
 70
     0
102
RTVSPropertyOp17
 70
     0
102
RTVSPropertyOp18
 70
     0
102
RTVSPropertyOp19
 70
     0
102
RTVSPropertyOp20
 70
     0
102
RTVSPropertyOp21
 70
     0
102
RTVSPropertyOp22
 70
     0
102
RTVSPropertyOp23
 70
     0
102
RTVSPropertyOp24
 70
     0
102
RTVSPropertyOp25
 70
     0
102
RTVSPropertyOp26
 70
     0
102
RTVSPropertyOp27
 70
     0
102
RTVSPropertyOp28
 70
     0
102
RTVSPropertyOp29
 70
     0
102
RTVSPropertyOp30
 70
     0
102
RTVSPropertyOp31
 70
     0
102
RTVSPropertyOp32
 70
     0
102
RTVSPropertyOp33
 70
     0
102
RTVSPropertyOp34
 70
     0
102
RTVSPropertyOp35
 70
     0
102
RTVSPropertyOp36
 70
     0
102
RTVSPropertyOp37
 70
     0
102
RTVSPropertyOp38
 70
     0
102
RTVSPropertyOp39
 70
     0
102
RTVSPropertyOp40
 70
     0
102
RTVSPropertyOp41
 70
     0
102
RTVSPropertyOp42
 70
     0
102
RTVSPropertyOp43
 70
     0
102
RTVSPropertyOp44
 70
     0
102
RTVSPropertyOp45
 70
     0
102
RTVSPropertyOp46
 70
     0
102
RTVSPropertyOp47
 70
     0
102
RTVSPropertyOp48
 70
     0
102
RTVSPropertyOp49
 70
     0
102
RTVSPropertyOp50
 70
     0
102
RTVSPropertyOp51
 70
     0
102
RTVSPropertyOp52
 70
     0
102
RTVSPropertyOp53
 70
     0
102
RTVSPropertyOp54
 70
     0
102
RTVSPropertyOp55
 70
     0
102
RTVSPropertyOp56
 70
     0
102
RTVSPropertyOp57
 70
     0
102
RTVSPost2010Prop28
280
     0
102
RTVSPost2010PropOp28
 70
     0
102
RTVSPost2010Prop29
280
     1
102
RTVSPost2010PropOp29
 70
     0
102
RTVSPost2010Prop30
280
     1
102
RTVSPost2010PropOp30
 70
     0
102
RTVSPost2010Prop31
280
     0
102
RTVSPost2010PropOp31
 70
     0
102
RTVSPost2010Prop32
280
     0
102
RTVSPost2010PropOp32
 70
     0
102
RTVSPost2010Prop33
280
     0
102
RTVSPost2010PropOp33
 70
     0
102
RTVSPost2010Prop34
280
     0
102
RTVSPost2010PropOp34
 70
     0
102
RTVSPost2010Prop35
280
     0
102
RTVSPost2010PropOp35
 70
     0
102
RTVSPost2010Prop36
280
     0
102
RTVSPost2010PropOp36
 70
     0
102
RTVSPost2010Prop37
 90
       50
102
RTVSPost2010PropOp37
 70
     0
102
RTVSPost2010Prop38
140
0.0
102
RTVSPost2010PropOp38
 70
     0
102
RTVSPost2010Prop39
140
1.0
102
RTVSPost2010PropOp39
 70
     0
102
RTVSPost2010Prop40
 90
        0
102
RTVSPost2010PropOp40
 70
     0
102
RTVSPost2010Prop41ColorIndex
 90
       18
102
RTVSPost2010Prop41ColorRGB
 90
        0
102
RTVSPost2010PropOp41
 70
     0
102
RTVSPost2010Prop42
 90
       50
102
RTVSPost2010PropOp42
 70
     0
102
RTVSPost2010Prop43
 90
        3
102
RTVSPost2010PropOp43
 70
     0
102
RTVSPost2010Prop44ColorIndex
 90
        5
102
RTVSPost2010Prop44ColorRGB
 90
      255
102
RTVSPost2010PropOp44
 70
     0
102
RTVSPost2010Prop45
280
     0
102
RTVSPost2010PropOp45
 70
     0
102
RTVSPost2010Prop46
 90
       50
102
RTVSPost2010PropOp46
 70
     0
102
RTVSPost2010Prop47
 90
       50
102
RTVSPost2010PropOp47
 70
     0
102
RTVSPost2010Prop48
 90
       50
102
RTVSPost2010PropOp48
 70
     0
102
RTVSPost2010Prop49
280
     0
102
RTVSPost2010PropOp49
 70
     0
102
RTVSPost2010Prop50
 90
       50
102
RTVSPost2010PropOp50
 70
     0
102
RTVSPost2010Prop51ColorIndex
 90
      256
102
RTVSPost2010Prop51ColorRGB
 90
-16777216
102
RTVSPost2010PropOp51
 70
     0
102
RTVSPost2010Prop52
140
1.0
102
RTVSPost2010PropOp52
 70
     0
102
RTVSPost2010Prop53
 90
        2
102
RTVSPost2010PropOp53
 70
     0
102
RTVSPost2010Prop54
  1
strokes_ogs.tif
102
RTVSPost2010PropOp54
 70
     0
102
RTVSPost2010Prop55
280
     0
102
RTVSPost2010PropOp55
 70
     0
102
RTVSPost2010Prop56
140
1.0
102
RTVSPost2010PropOp56
 70
     0
102
RTVSPost2010Prop57
140
1.0
102
RTVSPost2010PropOp57
 70
     0
  0
XRECORD
  5
77F
102
{ACAD_REACTORS
330
77E
102
}
330
77E
100
AcDbXrecord
280
     1
102
RTVSPropertyOp0
 70
     1
102
RTVSPropertyOp1
 70
     1
102
RTVSPropertyOp2
 70
     1
102
RTVSPropertyOp3
 70
     1
102
RTVSPropertyOp4
 70
     1
102
RTVSPropertyOp5
 70
     1
102
RTVSPropertyOp6
 70
     1
102
RTVSPropertyOp7
 70
     1
102
RTVSPropertyOp8
 70
     1
102
RTVSPropertyOp9
 70
     1
102
RTVSPropertyOp10
 70
     1
102
RTVSPropertyOp11
 70
     1
102
RTVSPropertyOp12
 70
     1
102
RTVSPropertyOp13
 70
     1
102
RTVSPropertyOp14
 70
     1
102
RTVSPropertyOp15
 70
     1
102
RTVSPropertyOp16
 70
     1
102
RTVSPropertyOp17
 70
     1
102
RTVSPropertyOp18
 70
     1
102
RTVSPropertyOp19
 70
     1
102
RTVSPropertyOp20
 70
     1
102
RTVSPropertyOp21
 70
     1
102
RTVSPropertyOp22
 70
     1
102
RTVSPropertyOp23
 70
     1
102
RTVSPropertyOp24
 70
     1
102
RTVSPropertyOp25
 70
     1
102
RTVSPropertyOp26
 70
     1
102
RTVSPropertyOp27
 70
     1
102
RTVSPropertyOp28
 70
     1
102
RTVSPropertyOp29
 70
     1
102
RTVSPropertyOp30
 70
     1
102
RTVSPropertyOp31
 70
     1
102
RTVSPropertyOp32
 70
     1
102
RTVSPropertyOp33
 70
     1
102
RTVSPropertyOp34
 70
     1
102
RTVSPropertyOp35
 70
     1
102
RTVSPropertyOp36
 70
     1
102
RTVSPropertyOp37
 70
     1
102
RTVSPropertyOp38
 70
     1
102
RTVSPropertyOp39
 70
     1
102
RTVSPropertyOp40
 70
     1
102
RTVSPropertyOp41
 70
     1
102
RTVSPropertyOp42
 70
     1
102
RTVSPropertyOp43
 70
     1
102
RTVSPropertyOp44
 70
     1
102
RTVSPropertyOp45
 70
     1
102
RTVSPropertyOp46
 70
     1
102
RTVSPropertyOp47
 70
     1
102
RTVSPropertyOp48
 70
     1
102
RTVSPropertyOp49
 70
     1
102
RTVSPropertyOp50
 70
     1
102
RTVSPropertyOp51
 70
     0
102
RTVSPropertyOp52
 70
     0
102
RTVSPropertyOp53
 70
     1
102
RTVSPropertyOp54
 70
     1
102
RTVSPropertyOp55
 70
     1
102
RTVSPropertyOp56
 70
     1
102
RTVSPropertyOp57
 70
     1
102
RTVSPost2010Prop28
280
     0
102
RTVSPost2010PropOp28
 70
     1
102
RTVSPost2010Prop29
280
     1
102
RTVSPost2010PropOp29
 70
     1
102
RTVSPost2010Prop30
280
     1
102
RTVSPost2010PropOp30
 70
     1
102
RTVSPost2010Prop31
280
     0
102
RTVSPost2010PropOp31
 70
     1
102
RTVSPost2010Prop32
280
     0
102
RTVSPost2010PropOp32
 70
     1
102
RTVSPost2010Prop33
280
     0
102
RTVSPost2010PropOp33
 70
     1
102
RTVSPost2010Prop34
280
     0
102
RTVSPost2010PropOp34
 70
     1
102
RTVSPost2010Prop35
280
     0
102
RTVSPost2010PropOp35
 70
     1
102
RTVSPost2010Prop36
280
     0
102
RTVSPost2010PropOp36
 70
     1
102
RTVSPost2010Prop37
 90
       50
102
RTVSPost2010PropOp37
 70
     1
102
RTVSPost2010Prop38
140
0.0
102
RTVSPost2010PropOp38
 70
     1
102
RTVSPost2010Prop39
140
1.0
102
RTVSPost2010PropOp39
 70
     1
102
RTVSPost2010Prop40
 90
        0
102
RTVSPost2010PropOp40
 70
     1
102
RTVSPost2010Prop41ColorIndex
 90
       18
102
RTVSPost2010Prop41ColorRGB
 90
        0
102
RTVSPost2010PropOp41
 70
     1
102
RTVSPost2010Prop42
 90
       50
102
RTVSPost2010PropOp42
 70
     1
102
RTVSPost2010Prop43
 90
        3
102
RTVSPost2010PropOp43
 70
     1
102
RTVSPost2010Prop44ColorIndex
 90
        5
102
RTVSPost2010Prop44ColorRGB
 90
      255
102
RTVSPost2010PropOp44
 70
     1
102
RTVSPost2010Prop45
280
     0
102
RTVSPost2010PropOp45
 70
     1
102
RTVSPost2010Prop46
 90
       50
102
RTVSPost2010PropOp46
 70
     1
102
RTVSPost2010Prop47
 90
       50
102
RTVSPost2010PropOp47
 70
     1
102
RTVSPost2010Prop48
 90
       50
102
RTVSPost2010PropOp48
 70
     1
102
RTVSPost2010Prop49
280
     0
102
RTVSPost2010PropOp49
 70
     1
102
RTVSPost2010Prop50
 90
       50
102
RTVSPost2010PropOp50
 70
     1
102
RTVSPost2010Prop51ColorIndex
 90
      256
102
RTVSPost2010Prop51ColorRGB
 90
-16777216
102
RTVSPost2010PropOp51
 70
     0
102
RTVSPost2010Prop52
140
1.0
102
RTVSPost2010PropOp52
 70
     0
102
RTVSPost2010Prop53
 90
        2
102
RTVSPost2010PropOp53
 70
     1
102
RTVSPost2010Prop54
  1
strokes_ogs.tif
102
RTVSPost2010PropOp54
 70
     1
102
RTVSPost2010Prop55
280
     0
102
RTVSPost2010PropOp55
 70
     1
102
RTVSPost2010Prop56
140
1.0
102
RTVSPost2010PropOp56
 70
     1
102
RTVSPost2010Prop57
140
1.0
102
RTVSPost2010PropOp57
 70
     1
  0
XRECORD
  5
787
102
{ACAD_REACTORS
330
786
102
}
330
786
100
AcDbXrecord
280
     1
102
RTVSPropertyOp0
 70
     0
102
RTVSPropertyOp1
 70
     0
102
RTVSPropertyOp2
 70
     0
102
RTVSPropertyOp3
 70
     0
102
RTVSPropertyOp4
 70
     0
102
RTVSPropertyOp5
 70
     0
102
RTVSPropertyOp6
 70
     0
102
RTVSPropertyOp7
 70
     0
102
RTVSPropertyOp8
 70
     0
102
RTVSPropertyOp9
 70
     0
102
RTVSPropertyOp10
 70
     0
102
RTVSPropertyOp11
 70
     0
102
RTVSPropertyOp12
 70
     0
102
RTVSPropertyOp13
 70
     0
102
RTVSPropertyOp14
 70
     2
102
RTVSPropertyOp15
 70
     0
102
RTVSPropertyOp16
 70
     0
102
RTVSPropertyOp17
 70
     0
102
RTVSPropertyOp18
 70
     0
102
RTVSPropertyOp19
 70
     0
102
RTVSPropertyOp20
 70
     0
102
RTVSPropertyOp21
 70
     0
102
RTVSPropertyOp22
 70
     0
102
RTVSPropertyOp23
 70
     0
102
RTVSPropertyOp24
 70
     0
102
RTVSPropertyOp25
 70
     0
102
RTVSPropertyOp26
 70
     0
102
RTVSPropertyOp27
 70
     0
102
RTVSPropertyOp28
 70
     0
102
RTVSPropertyOp29
 70
     0
102
RTVSPropertyOp30
 70
     0
102
RTVSPropertyOp31
 70
     0
102
RTVSPropertyOp32
 70
     0
102
RTVSPropertyOp33
 70
     0
102
RTVSPropertyOp34
 70
     0
102
RTVSPropertyOp35
 70
     0
102
RTVSPropertyOp36
 70
     0
102
RTVSPropertyOp37
 70
     0
102
RTVSPropertyOp38
 70
     0
102
RTVSPropertyOp39
 70
     0
102
RTVSPropertyOp40
 70
     0
102
RTVSPropertyOp41
 70
     0
102
RTVSPropertyOp42
 70
     0
102
RTVSPropertyOp43
 70
     0
102
RTVSPropertyOp44
 70
     0
102
RTVSPropertyOp45
 70
     0
102
RTVSPropertyOp46
 70
     0
102
RTVSPropertyOp47
 70
     0
102
RTVSPropertyOp48
 70
     0
102
RTVSPropertyOp49
 70
     0
102
RTVSPropertyOp50
 70
     0
102
RTVSPropertyOp51
 70
     0
102
RTVSPropertyOp52
 70
     0
102
RTVSPropertyOp53
 70
     0
102
RTVSPropertyOp54
 70
     0
102
RTVSPropertyOp55
 70
     0
102
RTVSPropertyOp56
 70
     0
102
RTVSPropertyOp57
 70
     0
102
RTVSPost2010Prop28
280
     0
102
RTVSPost2010PropOp28
 70
     0
102
RTVSPost2010Prop29
280
     1
102
RTVSPost2010PropOp29
 70
     0
102
RTVSPost2010Prop30
280
     1
102
RTVSPost2010PropOp30
 70
     0
102
RTVSPost2010Prop31
280
     0
102
RTVSPost2010PropOp31
 70
     0
102
RTVSPost2010Prop32
280
     0
102
RTVSPost2010PropOp32
 70
     0
102
RTVSPost2010Prop33
280
     0
102
RTVSPost2010PropOp33
 70
     0
102
RTVSPost2010Prop34
280
     0
102
RTVSPost2010PropOp34
 70
     0
102
RTVSPost2010Prop35
280
     0
102
RTVSPost2010PropOp35
 70
     0
102
RTVSPost2010Prop36
280
     0
102
RTVSPost2010PropOp36
 70
     0
102
RTVSPost2010Prop37
 90
       50
102
RTVSPost2010PropOp37
 70
     0
102
RTVSPost2010Prop38
140
0.0
102
RTVSPost2010PropOp38
 70
     0
102
RTVSPost2010Prop39
140
1.0
102
RTVSPost2010PropOp39
 70
     0
102
RTVSPost2010Prop40
 90
        0
102
RTVSPost2010PropOp40
 70
     0
102
RTVSPost2010Prop41ColorIndex
 90
       18
102
RTVSPost2010Prop41ColorRGB
 90
        0
102
RTVSPost2010PropOp41
 70
     0
102
RTVSPost2010Prop42
 90
       50
102
RTVSPost2010PropOp42
 70
     0
102
RTVSPost2010Prop43
 90
        3
102
RTVSPost2010PropOp43
 70
     0
102
RTVSPost2010Prop44ColorIndex
 90
        5
102
RTVSPost2010Prop44ColorRGB
 90
      255
102
RTVSPost2010PropOp44
 70
     0
102
RTVSPost2010Prop45
280
     0
102
RTVSPost2010PropOp45
 70
     0
102
RTVSPost2010Prop46
 90
       50
102
RTVSPost2010PropOp46
 70
     0
102
RTVSPost2010Prop47
 90
       50
102
RTVSPost2010PropOp47
 70
     0
102
RTVSPost2010Prop48
 90
       50
102
RTVSPost2010PropOp48
 70
     0
102
RTVSPost2010Prop49
280
     0
102
RTVSPost2010PropOp49
 70
     0
102
RTVSPost2010Prop50
 90
       50
102
RTVSPost2010PropOp50
 70
     0
102
RTVSPost2010Prop51ColorIndex
 90
      256
102
RTVSPost2010Prop51ColorRGB
 90
-16777216
102
RTVSPost2010PropOp51
 70
     0
102
RTVSPost2010Prop52
140
1.0
102
RTVSPost2010PropOp52
 70
     0
102
RTVSPost2010Prop53
 90
        2
102
RTVSPost2010PropOp53
 70
     0
102
RTVSPost2010Prop54
  1
strokes_ogs.tif
102
RTVSPost2010PropOp54
 70
     0
102
RTVSPost2010Prop55
280
     0
102
RTVSPost2010PropOp55
 70
     0
102
RTVSPost2010Prop56
140
1.0
102
RTVSPost2010PropOp56
 70
     0
102
RTVSPost2010Prop57
140
1.0
102
RTVSPost2010PropOp57
 70
     0
  0
XRECORD
  5
775
102
{ACAD_REACTORS
330
774
102
}
330
774
100
AcDbXrecord
280
     1
102
RTVSPropertyOp0
 70
     1
102
RTVSPropertyOp1
 70
     1
102
RTVSPropertyOp2
 70
     1
102
RTVSPropertyOp3
 70
     1
102
RTVSPropertyOp4
 70
     1
102
RTVSPropertyOp5
 70
     1
102
RTVSPropertyOp6
 70
     1
102
RTVSPropertyOp7
 70
     1
102
RTVSPropertyOp8
 70
     1
102
RTVSPropertyOp9
 70
     1
102
RTVSPropertyOp10
 70
     1
102
RTVSPropertyOp11
 70
     1
102
RTVSPropertyOp12
 70
     1
102
RTVSPropertyOp13
 70
     1
102
RTVSPropertyOp14
 70
     1
102
RTVSPropertyOp15
 70
     1
102
RTVSPropertyOp16
 70
     1
102
RTVSPropertyOp17
 70
     1
102
RTVSPropertyOp18
 70
     1
102
RTVSPropertyOp19
 70
     1
102
RTVSPropertyOp20
 70
     1
102
RTVSPropertyOp21
 70
     1
102
RTVSPropertyOp22
 70
     1
102
RTVSPropertyOp23
 70
     1
102
RTVSPropertyOp24
 70
     1
102
RTVSPropertyOp25
 70
     1
102
RTVSPropertyOp26
 70
     1
102
RTVSPropertyOp27
 70
     1
102
RTVSPropertyOp28
 70
     1
102
RTVSPropertyOp29
 70
     1
102
RTVSPropertyOp30
 70
     1
102
RTVSPropertyOp31
 70
     1
102
RTVSPropertyOp32
 70
     1
102
RTVSPropertyOp33
 70
     1
102
RTVSPropertyOp34
 70
     1
102
RTVSPropertyOp35
 70
     1
102
RTVSPropertyOp36
 70
     1
102
RTVSPropertyOp37
 70
     1
102
RTVSPropertyOp38
 70
     1
102
RTVSPropertyOp39
 70
     1
102
RTVSPropertyOp40
 70
     1
102
RTVSPropertyOp41
 70
     1
102
RTVSPropertyOp42
 70
     1
102
RTVSPropertyOp43
 70
     1
102
RTVSPropertyOp44
 70
     1
102
RTVSPropertyOp45
 70
     1
102
RTVSPropertyOp46
 70
     1
102
RTVSPropertyOp47
 70
     1
102
RTVSPropertyOp48
 70
     1
102
RTVSPropertyOp49
 70
     1
102
RTVSPropertyOp50
 70
     1
102
RTVSPropertyOp51
 70
     0
102
RTVSPropertyOp52
 70
     0
102
RTVSPropertyOp53
 70
     1
102
RTVSPropertyOp54
 70
     1
102
RTVSPropertyOp55
 70
     1
102
RTVSPropertyOp56
 70
     1
102
RTVSPropertyOp57
 70
     1
102
RTVSPost2010Prop28
280
     0
102
RTVSPost2010PropOp28
 70
     1
102
RTVSPost2010Prop29
280
     1
102
RTVSPost2010PropOp29
 70
     1
102
RTVSPost2010Prop30
280
     1
102
RTVSPost2010PropOp30
 70
     1
102
RTVSPost2010Prop31
280
     0
102
RTVSPost2010PropOp31
 70
     1
102
RTVSPost2010Prop32
280
     0
102
RTVSPost2010PropOp32
 70
     1
102
RTVSPost2010Prop33
280
     0
102
RTVSPost2010PropOp33
 70
     1
102
RTVSPost2010Prop34
280
     0
102
RTVSPost2010PropOp34
 70
     1
102
RTVSPost2010Prop35
280
     0
102
RTVSPost2010PropOp35
 70
     1
102
RTVSPost2010Prop36
280
     0
102
RTVSPost2010PropOp36
 70
     1
102
RTVSPost2010Prop37
 90
       50
102
RTVSPost2010PropOp37
 70
     1
102
RTVSPost2010Prop38
140
0.0
102
RTVSPost2010PropOp38
 70
     1
102
RTVSPost2010Prop39
140
1.0
102
RTVSPost2010PropOp39
 70
     1
102
RTVSPost2010Prop40
 90
        0
102
RTVSPost2010PropOp40
 70
     1
102
RTVSPost2010Prop41ColorIndex
 90
       18
102
RTVSPost2010Prop41ColorRGB
 90
        0
102
RTVSPost2010PropOp41
 70
     1
102
RTVSPost2010Prop42
 90
       50
102
RTVSPost2010PropOp42
 70
     1
102
RTVSPost2010Prop43
 90
        3
102
RTVSPost2010PropOp43
 70
     1
102
RTVSPost2010Prop44ColorIndex
 90
        5
102
RTVSPost2010Prop44ColorRGB
 90
      255
102
RTVSPost2010PropOp44
 70
     1
102
RTVSPost2010Prop45
280
     0
102
RTVSPost2010PropOp45
 70
     1
102
RTVSPost2010Prop46
 90
       50
102
RTVSPost2010PropOp46
 70
     1
102
RTVSPost2010Prop47
 90
       50
102
RTVSPost2010PropOp47
 70
     1
102
RTVSPost2010Prop48
 90
       50
102
RTVSPost2010PropOp48
 70
     1
102
RTVSPost2010Prop49
280
     0
102
RTVSPost2010PropOp49
 70
     1
102
RTVSPost2010Prop50
 90
       50
102
RTVSPost2010PropOp50
 70
     1
102
RTVSPost2010Prop51ColorIndex
 90
      256
102
RTVSPost2010Prop51ColorRGB
 90
-16777216
102
RTVSPost2010PropOp51
 70
     0
102
RTVSPost2010Prop52
140
1.0
102
RTVSPost2010PropOp52
 70
     0
102
RTVSPost2010Prop53
 90
        2
102
RTVSPost2010PropOp53
 70
     1
102
RTVSPost2010Prop54
  1
strokes_ogs.tif
102
RTVSPost2010PropOp54
 70
     1
102
RTVSPost2010Prop55
280
     0
102
RTVSPost2010PropOp55
 70
     1
102
RTVSPost2010Prop56
140
1.0
102
RTVSPost2010PropOp56
 70
     1
102
RTVSPost2010Prop57
140
1.0
102
RTVSPost2010PropOp57
 70
     1
  0
XRECORD
  5
793
102
{ACAD_REACTORS
330
792
102
}
330
792
100
AcDbXrecord
280
     1
102
RTVSPropertyOp0
 70
     1
102
RTVSPropertyOp1
 70
     1
102
RTVSPropertyOp2
 70
     1
102
RTVSPropertyOp3
 70
     1
102
RTVSPropertyOp4
 70
     1
102
RTVSPropertyOp5
 70
     1
102
RTVSPropertyOp6
 70
     1
102
RTVSPropertyOp7
 70
     1
102
RTVSPropertyOp8
 70
     1
102
RTVSPropertyOp9
 70
     1
102
RTVSPropertyOp10
 70
     1
102
RTVSPropertyOp11
 70
     1
102
RTVSPropertyOp12
 70
     1
102
RTVSPropertyOp13
 70
     1
102
RTVSPropertyOp14
 70
     1
102
RTVSPropertyOp15
 70
     1
102
RTVSPropertyOp16
 70
     1
102
RTVSPropertyOp17
 70
     1
102
RTVSPropertyOp18
 70
     1
102
RTVSPropertyOp19
 70
     1
102
RTVSPropertyOp20
 70
     1
102
RTVSPropertyOp21
 70
     1
102
RTVSPropertyOp22
 70
     1
102
RTVSPropertyOp23
 70
     1
102
RTVSPropertyOp24
 70
     1
102
RTVSPropertyOp25
 70
     1
102
RTVSPropertyOp26
 70
     1
102
RTVSPropertyOp27
 70
     1
102
RTVSPropertyOp28
 70
     1
102
RTVSPropertyOp29
 70
     1
102
RTVSPropertyOp30
 70
     1
102
RTVSPropertyOp31
 70
     1
102
RTVSPropertyOp32
 70
     1
102
RTVSPropertyOp33
 70
     1
102
RTVSPropertyOp34
 70
     1
102
RTVSPropertyOp35
 70
     1
102
RTVSPropertyOp36
 70
     1
102
RTVSPropertyOp37
 70
     1
102
RTVSPropertyOp38
 70
     1
102
RTVSPropertyOp39
 70
     1
102
RTVSPropertyOp40
 70
     1
102
RTVSPropertyOp41
 70
     1
102
RTVSPropertyOp42
 70
     1
102
RTVSPropertyOp43
 70
     1
102
RTVSPropertyOp44
 70
     1
102
RTVSPropertyOp45
 70
     1
102
RTVSPropertyOp46
 70
     1
102
RTVSPropertyOp47
 70
     1
102
RTVSPropertyOp48
 70
     1
102
RTVSPropertyOp49
 70
     1
102
RTVSPropertyOp50
 70
     1
102
RTVSPropertyOp51
 70
     0
102
RTVSPropertyOp52
 70
     0
102
RTVSPropertyOp53
 70
     1
102
RTVSPropertyOp54
 70
     1
102
RTVSPropertyOp55
 70
     1
102
RTVSPropertyOp56
 70
     1
102
RTVSPropertyOp57
 70
     1
102
RTVSPost2010Prop28
280
     0
102
RTVSPost2010PropOp28
 70
     1
102
RTVSPost2010Prop29
280
     1
102
RTVSPost2010PropOp29
 70
     1
102
RTVSPost2010Prop30
280
     1
102
RTVSPost2010PropOp30
 70
     1
102
RTVSPost2010Prop31
280
     0
102
RTVSPost2010PropOp31
 70
     1
102
RTVSPost2010Prop32
280
     0
102
RTVSPost2010PropOp32
 70
     1
102
RTVSPost2010Prop33
280
     0
102
RTVSPost2010PropOp33
 70
     1
102
RTVSPost2010Prop34
280
     0
102
RTVSPost2010PropOp34
 70
     1
102
RTVSPost2010Prop35
280
     0
102
RTVSPost2010PropOp35
 70
     1
102
RTVSPost2010Prop36
280
     0
102
RTVSPost2010PropOp36
 70
     1
102
RTVSPost2010Prop37
 90
       50
102
RTVSPost2010PropOp37
 70
     1
102
RTVSPost2010Prop38
140
0.0
102
RTVSPost2010PropOp38
 70
     1
102
RTVSPost2010Prop39
140
1.0
102
RTVSPost2010PropOp39
 70
     1
102
RTVSPost2010Prop40
 90
        0
102
RTVSPost2010PropOp40
 70
     1
102
RTVSPost2010Prop41ColorIndex
 90
       18
102
RTVSPost2010Prop41ColorRGB
 90
        0
102
RTVSPost2010PropOp41
 70
     1
102
RTVSPost2010Prop42
 90
       50
102
RTVSPost2010PropOp42
 70
     1
102
RTVSPost2010Prop43
 90
        3
102
RTVSPost2010PropOp43
 70
     1
102
RTVSPost2010Prop44ColorIndex
 90
        5
102
RTVSPost2010Prop44ColorRGB
 90
      255
102
RTVSPost2010PropOp44
 70
     1
102
RTVSPost2010Prop45
280
     0
102
RTVSPost2010PropOp45
 70
     1
102
RTVSPost2010Prop46
 90
       50
102
RTVSPost2010PropOp46
 70
     1
102
RTVSPost2010Prop47
 90
       50
102
RTVSPost2010PropOp47
 70
     1
102
RTVSPost2010Prop48
 90
       50
102
RTVSPost2010PropOp48
 70
     1
102
RTVSPost2010Prop49
280
     0
102
RTVSPost2010PropOp49
 70
     1
102
RTVSPost2010Prop50
 90
       50
102
RTVSPost2010PropOp50
 70
     1
102
RTVSPost2010Prop51ColorIndex
 90
      256
102
RTVSPost2010Prop51ColorRGB
 90
-16777216
102
RTVSPost2010PropOp51
 70
     0
102
RTVSPost2010Prop52
140
1.0
102
RTVSPost2010PropOp52
 70
     0
102
RTVSPost2010Prop53
 90
        2
102
RTVSPost2010PropOp53
 70
     1
102
RTVSPost2010Prop54
  1
strokes_ogs.tif
102
RTVSPost2010PropOp54
 70
     1
102
RTVSPost2010Prop55
280
     0
102
RTVSPost2010PropOp55
 70
     1
102
RTVSPost2010Prop56
140
1.0
102
RTVSPost2010PropOp56
 70
     1
102
RTVSPost2010Prop57
140
1.0
102
RTVSPost2010PropOp57
 70
     1
  0
XRECORD
  5
791
102
{ACAD_REACTORS
330
790
102
}
330
790
100
AcDbXrecord
280
     1
102
RTVSPropertyOp0
 70
     1
102
RTVSPropertyOp1
 70
     1
102
RTVSPropertyOp2
 70
     1
102
RTVSPropertyOp3
 70
     1
102
RTVSPropertyOp4
 70
     1
102
RTVSPropertyOp5
 70
     1
102
RTVSPropertyOp6
 70
     1
102
RTVSPropertyOp7
 70
     1
102
RTVSPropertyOp8
 70
     1
102
RTVSPropertyOp9
 70
     1
102
RTVSPropertyOp10
 70
     1
102
RTVSPropertyOp11
 70
     1
102
RTVSPropertyOp12
 70
     1
102
RTVSPropertyOp13
 70
     1
102
RTVSPropertyOp14
 70
     1
102
RTVSPropertyOp15
 70
     1
102
RTVSPropertyOp16
 70
     1
102
RTVSPropertyOp17
 70
     1
102
RTVSPropertyOp18
 70
     1
102
RTVSPropertyOp19
 70
     1
102
RTVSPropertyOp20
 70
     1
102
RTVSPropertyOp21
 70
     1
102
RTVSPropertyOp22
 70
     1
102
RTVSPropertyOp23
 70
     1
102
RTVSPropertyOp24
 70
     1
102
RTVSPropertyOp25
 70
     1
102
RTVSPropertyOp26
 70
     1
102
RTVSPropertyOp27
 70
     1
102
RTVSPropertyOp28
 70
     1
102
RTVSPropertyOp29
 70
     1
102
RTVSPropertyOp30
 70
     1
102
RTVSPropertyOp31
 70
     1
102
RTVSPropertyOp32
 70
     1
102
RTVSPropertyOp33
 70
     1
102
RTVSPropertyOp34
 70
     1
102
RTVSPropertyOp35
 70
     1
102
RTVSPropertyOp36
 70
     1
102
RTVSPropertyOp37
 70
     1
102
RTVSPropertyOp38
 70
     1
102
RTVSPropertyOp39
 70
     1
102
RTVSPropertyOp40
 70
     1
102
RTVSPropertyOp41
 70
     1
102
RTVSPropertyOp42
 70
     1
102
RTVSPropertyOp43
 70
     1
102
RTVSPropertyOp44
 70
     1
102
RTVSPropertyOp45
 70
     1
102
RTVSPropertyOp46
 70
     1
102
RTVSPropertyOp47
 70
     1
102
RTVSPropertyOp48
 70
     1
102
RTVSPropertyOp49
 70
     1
102
RTVSPropertyOp50
 70
     1
102
RTVSPropertyOp51
 70
     0
102
RTVSPropertyOp52
 70
     0
102
RTVSPropertyOp53
 70
     1
102
RTVSPropertyOp54
 70
     1
102
RTVSPropertyOp55
 70
     1
102
RTVSPropertyOp56
 70
     1
102
RTVSPropertyOp57
 70
     1
102
RTVSPost2010Prop28
280
     0
102
RTVSPost2010PropOp28
 70
     1
102
RTVSPost2010Prop29
280
     1
102
RTVSPost2010PropOp29
 70
     1
102
RTVSPost2010Prop30
280
     1
102
RTVSPost2010PropOp30
 70
     1
102
RTVSPost2010Prop31
280
     0
102
RTVSPost2010PropOp31
 70
     1
102
RTVSPost2010Prop32
280
     0
102
RTVSPost2010PropOp32
 70
     1
102
RTVSPost2010Prop33
280
     0
102
RTVSPost2010PropOp33
 70
     1
102
RTVSPost2010Prop34
280
     0
102
RTVSPost2010PropOp34
 70
     1
102
RTVSPost2010Prop35
280
     0
102
RTVSPost2010PropOp35
 70
     1
102
RTVSPost2010Prop36
280
     0
102
RTVSPost2010PropOp36
 70
     1
102
RTVSPost2010Prop37
 90
       50
102
RTVSPost2010PropOp37
 70
     1
102
RTVSPost2010Prop38
140
0.0
102
RTVSPost2010PropOp38
 70
     1
102
RTVSPost2010Prop39
140
1.0
102
RTVSPost2010PropOp39
 70
     1
102
RTVSPost2010Prop40
 90
        0
102
RTVSPost2010PropOp40
 70
     1
102
RTVSPost2010Prop41ColorIndex
 90
       18
102
RTVSPost2010Prop41ColorRGB
 90
        0
102
RTVSPost2010PropOp41
 70
     1
102
RTVSPost2010Prop42
 90
       50
102
RTVSPost2010PropOp42
 70
     1
102
RTVSPost2010Prop43
 90
        3
102
RTVSPost2010PropOp43
 70
     1
102
RTVSPost2010Prop44ColorIndex
 90
        5
102
RTVSPost2010Prop44ColorRGB
 90
      255
102
RTVSPost2010PropOp44
 70
     1
102
RTVSPost2010Prop45
280
     0
102
RTVSPost2010PropOp45
 70
     1
102
RTVSPost2010Prop46
 90
       50
102
RTVSPost2010PropOp46
 70
     1
102
RTVSPost2010Prop47
 90
       50
102
RTVSPost2010PropOp47
 70
     1
102
RTVSPost2010Prop48
 90
       50
102
RTVSPost2010PropOp48
 70
     1
102
RTVSPost2010Prop49
280
     0
102
RTVSPost2010PropOp49
 70
     1
102
RTVSPost2010Prop50
 90
       50
102
RTVSPost2010PropOp50
 70
     1
102
RTVSPost2010Prop51ColorIndex
 90
      256
102
RTVSPost2010Prop51ColorRGB
 90
-16777216
102
RTVSPost2010PropOp51
 70
     0
102
RTVSPost2010Prop52
140
1.0
102
RTVSPost2010PropOp52
 70
     0
102
RTVSPost2010Prop53
 90
        2
102
RTVSPost2010PropOp53
 70
     1
102
RTVSPost2010Prop54
  1
strokes_ogs.tif
102
RTVSPost2010PropOp54
 70
     1
102
RTVSPost2010Prop55
280
     0
102
RTVSPost2010PropOp55
 70
     1
102
RTVSPost2010Prop56
140
1.0
102
RTVSPost2010PropOp56
 70
     1
102
RTVSPost2010Prop57
140
1.0
102
RTVSPost2010PropOp57
 70
     1
  0
XRECORD
  5
78B
102
{ACAD_REACTORS
330
78A
102
}
330
78A
100
AcDbXrecord
280
     1
102
RTVSPropertyOp0
 70
     1
102
RTVSPropertyOp1
 70
     1
102
RTVSPropertyOp2
 70
     1
102
RTVSPropertyOp3
 70
     1
102
RTVSPropertyOp4
 70
     1
102
RTVSPropertyOp5
 70
     1
102
RTVSPropertyOp6
 70
     1
102
RTVSPropertyOp7
 70
     1
102
RTVSPropertyOp8
 70
     1
102
RTVSPropertyOp9
 70
     1
102
RTVSPropertyOp10
 70
     1
102
RTVSPropertyOp11
 70
     1
102
RTVSPropertyOp12
 70
     1
102
RTVSPropertyOp13
 70
     1
102
RTVSPropertyOp14
 70
     1
102
RTVSPropertyOp15
 70
     1
102
RTVSPropertyOp16
 70
     1
102
RTVSPropertyOp17
 70
     1
102
RTVSPropertyOp18
 70
     1
102
RTVSPropertyOp19
 70
     1
102
RTVSPropertyOp20
 70
     1
102
RTVSPropertyOp21
 70
     1
102
RTVSPropertyOp22
 70
     1
102
RTVSPropertyOp23
 70
     1
102
RTVSPropertyOp24
 70
     1
102
RTVSPropertyOp25
 70
     1
102
RTVSPropertyOp26
 70
     1
102
RTVSPropertyOp27
 70
     1
102
RTVSPropertyOp28
 70
     1
102
RTVSPropertyOp29
 70
     1
102
RTVSPropertyOp30
 70
     1
102
RTVSPropertyOp31
 70
     1
102
RTVSPropertyOp32
 70
     1
102
RTVSPropertyOp33
 70
     1
102
RTVSPropertyOp34
 70
     1
102
RTVSPropertyOp35
 70
     1
102
RTVSPropertyOp36
 70
     1
102
RTVSPropertyOp37
 70
     1
102
RTVSPropertyOp38
 70
     1
102
RTVSPropertyOp39
 70
     1
102
RTVSPropertyOp40
 70
     1
102
RTVSPropertyOp41
 70
     1
102
RTVSPropertyOp42
 70
     1
102
RTVSPropertyOp43
 70
     1
102
RTVSPropertyOp44
 70
     1
102
RTVSPropertyOp45
 70
     1
102
RTVSPropertyOp46
 70
     1
102
RTVSPropertyOp47
 70
     1
102
RTVSPropertyOp48
 70
     1
102
RTVSPropertyOp49
 70
     1
102
RTVSPropertyOp50
 70
     1
102
RTVSPropertyOp51
 70
     0
102
RTVSPropertyOp52
 70
     0
102
RTVSPropertyOp53
 70
     1
102
RTVSPropertyOp54
 70
     1
102
RTVSPropertyOp55
 70
     1
102
RTVSPropertyOp56
 70
     1
102
RTVSPropertyOp57
 70
     1
102
RTVSPost2010Prop28
280
     0
102
RTVSPost2010PropOp28
 70
     1
102
RTVSPost2010Prop29
280
     1
102
RTVSPost2010PropOp29
 70
     1
102
RTVSPost2010Prop30
280
     1
102
RTVSPost2010PropOp30
 70
     1
102
RTVSPost2010Prop31
280
     0
102
RTVSPost2010PropOp31
 70
     1
102
RTVSPost2010Prop32
280
     0
102
RTVSPost2010PropOp32
 70
     1
102
RTVSPost2010Prop33
280
     0
102
RTVSPost2010PropOp33
 70
     1
102
RTVSPost2010Prop34
280
     0
102
RTVSPost2010PropOp34
 70
     1
102
RTVSPost2010Prop35
280
     0
102
RTVSPost2010PropOp35
 70
     1
102
RTVSPost2010Prop36
280
     0
102
RTVSPost2010PropOp36
 70
     1
102
RTVSPost2010Prop37
 90
       50
102
RTVSPost2010PropOp37
 70
     1
102
RTVSPost2010Prop38
140
0.0
102
RTVSPost2010PropOp38
 70
     1
102
RTVSPost2010Prop39
140
1.0
102
RTVSPost2010PropOp39
 70
     1
102
RTVSPost2010Prop40
 90
        0
102
RTVSPost2010PropOp40
 70
     1
102
RTVSPost2010Prop41ColorIndex
 90
       18
102
RTVSPost2010Prop41ColorRGB
 90
        0
102
RTVSPost2010PropOp41
 70
     1
102
RTVSPost2010Prop42
 90
       50
102
RTVSPost2010PropOp42
 70
     1
102
RTVSPost2010Prop43
 90
        3
102
RTVSPost2010PropOp43
 70
     1
102
RTVSPost2010Prop44ColorIndex
 90
        5
102
RTVSPost2010Prop44ColorRGB
 90
      255
102
RTVSPost2010PropOp44
 70
     1
102
RTVSPost2010Prop45
280
     0
102
RTVSPost2010PropOp45
 70
     1
102
RTVSPost2010Prop46
 90
       50
102
RTVSPost2010PropOp46
 70
     1
102
RTVSPost2010Prop47
 90
       50
102
RTVSPost2010PropOp47
 70
     1
102
RTVSPost2010Prop48
 90
       50
102
RTVSPost2010PropOp48
 70
     1
102
RTVSPost2010Prop49
280
     0
102
RTVSPost2010PropOp49
 70
     1
102
RTVSPost2010Prop50
 90
       50
102
RTVSPost2010PropOp50
 70
     1
102
RTVSPost2010Prop51ColorIndex
 90
      256
102
RTVSPost2010Prop51ColorRGB
 90
-16777216
102
RTVSPost2010PropOp51
 70
     0
102
RTVSPost2010Prop52
140
1.0
102
RTVSPost2010PropOp52
 70
     0
102
RTVSPost2010Prop53
 90
        2
102
RTVSPost2010PropOp53
 70
     1
102
RTVSPost2010Prop54
  1
strokes_ogs.tif
102
RTVSPost2010PropOp54
 70
     1
102
RTVSPost2010Prop55
280
     0
102
RTVSPost2010PropOp55
 70
     1
102
RTVSPost2010Prop56
140
1.0
102
RTVSPost2010PropOp56
 70
     1
102
RTVSPost2010Prop57
140
1.0
102
RTVSPost2010PropOp57
 70
     1
  0
XRECORD
  5
78D
102
{ACAD_REACTORS
330
78C
102
}
330
78C
100
AcDbXrecord
280
     1
102
RTVSPropertyOp0
 70
     1
102
RTVSPropertyOp1
 70
     1
102
RTVSPropertyOp2
 70
     1
102
RTVSPropertyOp3
 70
     1
102
RTVSPropertyOp4
 70
     1
102
RTVSPropertyOp5
 70
     1
102
RTVSPropertyOp6
 70
     1
102
RTVSPropertyOp7
 70
     1
102
RTVSPropertyOp8
 70
     1
102
RTVSPropertyOp9
 70
     1
102
RTVSPropertyOp10
 70
     1
102
RTVSPropertyOp11
 70
     1
102
RTVSPropertyOp12
 70
     1
102
RTVSPropertyOp13
 70
     1
102
RTVSPropertyOp14
 70
     1
102
RTVSPropertyOp15
 70
     1
102
RTVSPropertyOp16
 70
     1
102
RTVSPropertyOp17
 70
     1
102
RTVSPropertyOp18
 70
     1
102
RTVSPropertyOp19
 70
     1
102
RTVSPropertyOp20
 70
     1
102
RTVSPropertyOp21
 70
     1
102
RTVSPropertyOp22
 70
     1
102
RTVSPropertyOp23
 70
     1
102
RTVSPropertyOp24
 70
     1
102
RTVSPropertyOp25
 70
     1
102
RTVSPropertyOp26
 70
     1
102
RTVSPropertyOp27
 70
     1
102
RTVSPropertyOp28
 70
     1
102
RTVSPropertyOp29
 70
     1
102
RTVSPropertyOp30
 70
     1
102
RTVSPropertyOp31
 70
     1
102
RTVSPropertyOp32
 70
     1
102
RTVSPropertyOp33
 70
     1
102
RTVSPropertyOp34
 70
     1
102
RTVSPropertyOp35
 70
     1
102
RTVSPropertyOp36
 70
     1
102
RTVSPropertyOp37
 70
     1
102
RTVSPropertyOp38
 70
     1
102
RTVSPropertyOp39
 70
     1
102
RTVSPropertyOp40
 70
     1
102
RTVSPropertyOp41
 70
     1
102
RTVSPropertyOp42
 70
     1
102
RTVSPropertyOp43
 70
     1
102
RTVSPropertyOp44
 70
     1
102
RTVSPropertyOp45
 70
     1
102
RTVSPropertyOp46
 70
     1
102
RTVSPropertyOp47
 70
     1
102
RTVSPropertyOp48
 70
     1
102
RTVSPropertyOp49
 70
     1
102
RTVSPropertyOp50
 70
     1
102
RTVSPropertyOp51
 70
     0
102
RTVSPropertyOp52
 70
     0
102
RTVSPropertyOp53
 70
     1
102
RTVSPropertyOp54
 70
     1
102
RTVSPropertyOp55
 70
     1
102
RTVSPropertyOp56
 70
     1
102
RTVSPropertyOp57
 70
     1
102
RTVSPost2010Prop28
280
     0
102
RTVSPost2010PropOp28
 70
     1
102
RTVSPost2010Prop29
280
     1
102
RTVSPost2010PropOp29
 70
     1
102
RTVSPost2010Prop30
280
     1
102
RTVSPost2010PropOp30
 70
     1
102
RTVSPost2010Prop31
280
     0
102
RTVSPost2010PropOp31
 70
     1
102
RTVSPost2010Prop32
280
     0
102
RTVSPost2010PropOp32
 70
     1
102
RTVSPost2010Prop33
280
     0
102
RTVSPost2010PropOp33
 70
     1
102
RTVSPost2010Prop34
280
     0
102
RTVSPost2010PropOp34
 70
     1
102
RTVSPost2010Prop35
280
     0
102
RTVSPost2010PropOp35
 70
     1
102
RTVSPost2010Prop36
280
     0
102
RTVSPost2010PropOp36
 70
     1
102
RTVSPost2010Prop37
 90
       50
102
RTVSPost2010PropOp37
 70
     1
102
RTVSPost2010Prop38
140
0.0
102
RTVSPost2010PropOp38
 70
     1
102
RTVSPost2010Prop39
140
1.0
102
RTVSPost2010PropOp39
 70
     1
102
RTVSPost2010Prop40
 90
        0
102
RTVSPost2010PropOp40
 70
     1
102
RTVSPost2010Prop41ColorIndex
 90
       18
102
RTVSPost2010Prop41ColorRGB
 90
        0
102
RTVSPost2010PropOp41
 70
     1
102
RTVSPost2010Prop42
 90
       50
102
RTVSPost2010PropOp42
 70
     1
102
RTVSPost2010Prop43
 90
        3
102
RTVSPost2010PropOp43
 70
     1
102
RTVSPost2010Prop44ColorIndex
 90
        5
102
RTVSPost2010Prop44ColorRGB
 90
      255
102
RTVSPost2010PropOp44
 70
     1
102
RTVSPost2010Prop45
280
     0
102
RTVSPost2010PropOp45
 70
     1
102
RTVSPost2010Prop46
 90
       50
102
RTVSPost2010PropOp46
 70
     1
102
RTVSPost2010Prop47
 90
       50
102
RTVSPost2010PropOp47
 70
     1
102
RTVSPost2010Prop48
 90
       50
102
RTVSPost2010PropOp48
 70
     1
102
RTVSPost2010Prop49
280
     0
102
RTVSPost2010PropOp49
 70
     1
102
RTVSPost2010Prop50
 90
       50
102
RTVSPost2010PropOp50
 70
     1
102
RTVSPost2010Prop51ColorIndex
 90
      256
102
RTVSPost2010Prop51ColorRGB
 90
-16777216
102
RTVSPost2010PropOp51
 70
     0
102
RTVSPost2010Prop52
140
1.0
102
RTVSPost2010PropOp52
 70
     0
102
RTVSPost2010Prop53
 90
        2
102
RTVSPost2010PropOp53
 70
     1
102
RTVSPost2010Prop54
  1
strokes_ogs.tif
102
RTVSPost2010PropOp54
 70
     1
102
RTVSPost2010Prop55
280
     0
102
RTVSPost2010PropOp55
 70
     1
102
RTVSPost2010Prop56
140
1.0
102
RTVSPost2010PropOp56
 70
     1
102
RTVSPost2010Prop57
140
1.0
102
RTVSPost2010PropOp57
 70
     1
  0
XRECORD
  5
77D
102
{ACAD_REACTORS
330
77C
102
}
330
77C
100
AcDbXrecord
280
     1
102
RTVSPropertyOp0
 70
     1
102
RTVSPropertyOp1
 70
     1
102
RTVSPropertyOp2
 70
     1
102
RTVSPropertyOp3
 70
     1
102
RTVSPropertyOp4
 70
     1
102
RTVSPropertyOp5
 70
     1
102
RTVSPropertyOp6
 70
     1
102
RTVSPropertyOp7
 70
     1
102
RTVSPropertyOp8
 70
     1
102
RTVSPropertyOp9
 70
     1
102
RTVSPropertyOp10
 70
     1
102
RTVSPropertyOp11
 70
     1
102
RTVSPropertyOp12
 70
     1
102
RTVSPropertyOp13
 70
     1
102
RTVSPropertyOp14
 70
     1
102
RTVSPropertyOp15
 70
     1
102
RTVSPropertyOp16
 70
     1
102
RTVSPropertyOp17
 70
     1
102
RTVSPropertyOp18
 70
     1
102
RTVSPropertyOp19
 70
     1
102
RTVSPropertyOp20
 70
     1
102
RTVSPropertyOp21
 70
     1
102
RTVSPropertyOp22
 70
     1
102
RTVSPropertyOp23
 70
     1
102
RTVSPropertyOp24
 70
     1
102
RTVSPropertyOp25
 70
     1
102
RTVSPropertyOp26
 70
     1
102
RTVSPropertyOp27
 70
     1
102
RTVSPropertyOp28
 70
     1
102
RTVSPropertyOp29
 70
     1
102
RTVSPropertyOp30
 70
     1
102
RTVSPropertyOp31
 70
     1
102
RTVSPropertyOp32
 70
     1
102
RTVSPropertyOp33
 70
     1
102
RTVSPropertyOp34
 70
     1
102
RTVSPropertyOp35
 70
     1
102
RTVSPropertyOp36
 70
     1
102
RTVSPropertyOp37
 70
     1
102
RTVSPropertyOp38
 70
     1
102
RTVSPropertyOp39
 70
     1
102
RTVSPropertyOp40
 70
     1
102
RTVSPropertyOp41
 70
     1
102
RTVSPropertyOp42
 70
     1
102
RTVSPropertyOp43
 70
     1
102
RTVSPropertyOp44
 70
     1
102
RTVSPropertyOp45
 70
     1
102
RTVSPropertyOp46
 70
     1
102
RTVSPropertyOp47
 70
     1
102
RTVSPropertyOp48
 70
     1
102
RTVSPropertyOp49
 70
     1
102
RTVSPropertyOp50
 70
     1
102
RTVSPropertyOp51
 70
     0
102
RTVSPropertyOp52
 70
     0
102
RTVSPropertyOp53
 70
     1
102
RTVSPropertyOp54
 70
     1
102
RTVSPropertyOp55
 70
     1
102
RTVSPropertyOp56
 70
     1
102
RTVSPropertyOp57
 70
     1
102
RTVSPost2010Prop28
280
     0
102
RTVSPost2010PropOp28
 70
     1
102
RTVSPost2010Prop29
280
     1
102
RTVSPost2010PropOp29
 70
     1
102
RTVSPost2010Prop30
280
     1
102
RTVSPost2010PropOp30
 70
     1
102
RTVSPost2010Prop31
280
     0
102
RTVSPost2010PropOp31
 70
     1
102
RTVSPost2010Prop32
280
     0
102
RTVSPost2010PropOp32
 70
     1
102
RTVSPost2010Prop33
280
     0
102
RTVSPost2010PropOp33
 70
     1
102
RTVSPost2010Prop34
280
     0
102
RTVSPost2010PropOp34
 70
     1
102
RTVSPost2010Prop35
280
     0
102
RTVSPost2010PropOp35
 70
     1
102
RTVSPost2010Prop36
280
     0
102
RTVSPost2010PropOp36
 70
     1
102
RTVSPost2010Prop37
 90
       50
102
RTVSPost2010PropOp37
 70
     1
102
RTVSPost2010Prop38
140
0.0
102
RTVSPost2010PropOp38
 70
     1
102
RTVSPost2010Prop39
140
1.0
102
RTVSPost2010PropOp39
 70
     1
102
RTVSPost2010Prop40
 90
        0
102
RTVSPost2010PropOp40
 70
     1
102
RTVSPost2010Prop41ColorIndex
 90
       18
102
RTVSPost2010Prop41ColorRGB
 90
        0
102
RTVSPost2010PropOp41
 70
     1
102
RTVSPost2010Prop42
 90
       50
102
RTVSPost2010PropOp42
 70
     1
102
RTVSPost2010Prop43
 90
        3
102
RTVSPost2010PropOp43
 70
     1
102
RTVSPost2010Prop44ColorIndex
 90
        5
102
RTVSPost2010Prop44ColorRGB
 90
      255
102
RTVSPost2010PropOp44
 70
     1
102
RTVSPost2010Prop45
280
     0
102
RTVSPost2010PropOp45
 70
     1
102
RTVSPost2010Prop46
 90
       50
102
RTVSPost2010PropOp46
 70
     1
102
RTVSPost2010Prop47
 90
       50
102
RTVSPost2010PropOp47
 70
     1
102
RTVSPost2010Prop48
 90
       50
102
RTVSPost2010PropOp48
 70
     1
102
RTVSPost2010Prop49
280
     0
102
RTVSPost2010PropOp49
 70
     1
102
RTVSPost2010Prop50
 90
       50
102
RTVSPost2010PropOp50
 70
     1
102
RTVSPost2010Prop51ColorIndex
 90
      256
102
RTVSPost2010Prop51ColorRGB
 90
-16777216
102
RTVSPost2010PropOp51
 70
     0
102
RTVSPost2010Prop52
140
1.0
102
RTVSPost2010PropOp52
 70
     0
102
RTVSPost2010Prop53
 90
        2
102
RTVSPost2010PropOp53
 70
     1
102
RTVSPost2010Prop54
  1
strokes_ogs.tif
102
RTVSPost2010PropOp54
 70
     1
102
RTVSPost2010Prop55
280
     0
102
RTVSPost2010PropOp55
 70
     1
102
RTVSPost2010Prop56
140
1.0
102
RTVSPost2010PropOp56
 70
     1
102
RTVSPost2010Prop57
140
1.0
102
RTVSPost2010PropOp57
 70
     1
  0
XRECORD
  5
76F
102
{ACAD_REACTORS
330
76E
102
}
330
76E
100
AcDbXrecord
280
     1
102
RTVSPropertyOp0
 70
     1
102
RTVSPropertyOp1
 70
     1
102
RTVSPropertyOp2
 70
     1
102
RTVSPropertyOp3
 70
     1
102
RTVSPropertyOp4
 70
     1
102
RTVSPropertyOp5
 70
     1
102
RTVSPropertyOp6
 70
     1
102
RTVSPropertyOp7
 70
     1
102
RTVSPropertyOp8
 70
     1
102
RTVSPropertyOp9
 70
     1
102
RTVSPropertyOp10
 70
     1
102
RTVSPropertyOp11
 70
     1
102
RTVSPropertyOp12
 70
     1
102
RTVSPropertyOp13
 70
     1
102
RTVSPropertyOp14
 70
     1
102
RTVSPropertyOp15
 70
     1
102
RTVSPropertyOp16
 70
     1
102
RTVSPropertyOp17
 70
     1
102
RTVSPropertyOp18
 70
     1
102
RTVSPropertyOp19
 70
     1
102
RTVSPropertyOp20
 70
     1
102
RTVSPropertyOp21
 70
     1
102
RTVSPropertyOp22
 70
     1
102
RTVSPropertyOp23
 70
     1
102
RTVSPropertyOp24
 70
     1
102
RTVSPropertyOp25
 70
     1
102
RTVSPropertyOp26
 70
     1
102
RTVSPropertyOp27
 70
     1
102
RTVSPropertyOp28
 70
     1
102
RTVSPropertyOp29
 70
     1
102
RTVSPropertyOp30
 70
     1
102
RTVSPropertyOp31
 70
     1
102
RTVSPropertyOp32
 70
     1
102
RTVSPropertyOp33
 70
     1
102
RTVSPropertyOp34
 70
     1
102
RTVSPropertyOp35
 70
     1
102
RTVSPropertyOp36
 70
     1
102
RTVSPropertyOp37
 70
     1
102
RTVSPropertyOp38
 70
     1
102
RTVSPropertyOp39
 70
     1
102
RTVSPropertyOp40
 70
     1
102
RTVSPropertyOp41
 70
     1
102
RTVSPropertyOp42
 70
     1
102
RTVSPropertyOp43
 70
     1
102
RTVSPropertyOp44
 70
     1
102
RTVSPropertyOp45
 70
     1
102
RTVSPropertyOp46
 70
     1
102
RTVSPropertyOp47
 70
     1
102
RTVSPropertyOp48
 70
     1
102
RTVSPropertyOp49
 70
     1
102
RTVSPropertyOp50
 70
     1
102
RTVSPropertyOp51
 70
     0
102
RTVSPropertyOp52
 70
     0
102
RTVSPropertyOp53
 70
     1
102
RTVSPropertyOp54
 70
     1
102
RTVSPropertyOp55
 70
     1
102
RTVSPropertyOp56
 70
     1
102
RTVSPropertyOp57
 70
     1
102
RTVSPost2010Prop28
280
     0
102
RTVSPost2010PropOp28
 70
     1
102
RTVSPost2010Prop29
280
     1
102
RTVSPost2010PropOp29
 70
     1
102
RTVSPost2010Prop30
280
     1
102
RTVSPost2010PropOp30
 70
     1
102
RTVSPost2010Prop31
280
     0
102
RTVSPost2010PropOp31
 70
     1
102
RTVSPost2010Prop32
280
     0
102
RTVSPost2010PropOp32
 70
     1
102
RTVSPost2010Prop33
280
     0
102
RTVSPost2010PropOp33
 70
     1
102
RTVSPost2010Prop34
280
     0
102
RTVSPost2010PropOp34
 70
     1
102
RTVSPost2010Prop35
280
     0
102
RTVSPost2010PropOp35
 70
     1
102
RTVSPost2010Prop36
280
     0
102
RTVSPost2010PropOp36
 70
     1
102
RTVSPost2010Prop37
 90
       50
102
RTVSPost2010PropOp37
 70
     1
102
RTVSPost2010Prop38
140
0.0
102
RTVSPost2010PropOp38
 70
     1
102
RTVSPost2010Prop39
140
1.0
102
RTVSPost2010PropOp39
 70
     1
102
RTVSPost2010Prop40
 90
        0
102
RTVSPost2010PropOp40
 70
     1
102
RTVSPost2010Prop41ColorIndex
 90
       18
102
RTVSPost2010Prop41ColorRGB
 90
        0
102
RTVSPost2010PropOp41
 70
     1
102
RTVSPost2010Prop42
 90
       50
102
RTVSPost2010PropOp42
 70
     1
102
RTVSPost2010Prop43
 90
        3
102
RTVSPost2010PropOp43
 70
     1
102
RTVSPost2010Prop44ColorIndex
 90
        5
102
RTVSPost2010Prop44ColorRGB
 90
      255
102
RTVSPost2010PropOp44
 70
     1
102
RTVSPost2010Prop45
280
     0
102
RTVSPost2010PropOp45
 70
     1
102
RTVSPost2010Prop46
 90
       50
102
RTVSPost2010PropOp46
 70
     1
102
RTVSPost2010Prop47
 90
       50
102
RTVSPost2010PropOp47
 70
     1
102
RTVSPost2010Prop48
 90
       50
102
RTVSPost2010PropOp48
 70
     1
102
RTVSPost2010Prop49
280
     0
102
RTVSPost2010PropOp49
 70
     1
102
RTVSPost2010Prop50
 90
       50
102
RTVSPost2010PropOp50
 70
     1
102
RTVSPost2010Prop51ColorIndex
 90
      256
102
RTVSPost2010Prop51ColorRGB
 90
-16777216
102
RTVSPost2010PropOp51
 70
     0
102
RTVSPost2010Prop52
140
1.0
102
RTVSPost2010PropOp52
 70
     0
102
RTVSPost2010Prop53
 90
        2
102
RTVSPost2010PropOp53
 70
     1
102
RTVSPost2010Prop54
  1
strokes_ogs.tif
102
RTVSPost2010PropOp54
 70
     1
102
RTVSPost2010Prop55
280
     0
102
RTVSPost2010PropOp55
 70
     1
102
RTVSPost2010Prop56
140
1.0
102
RTVSPost2010PropOp56
 70
     1
102
RTVSPost2010Prop57
140
1.0
102
RTVSPost2010PropOp57
 70
     1
  0
XRECORD
  5
78F
102
{ACAD_REACTORS
330
78E
102
}
330
78E
100
AcDbXrecord
280
     1
102
RTVSPropertyOp0
 70
     1
102
RTVSPropertyOp1
 70
     1
102
RTVSPropertyOp2
 70
     1
102
RTVSPropertyOp3
 70
     1
102
RTVSPropertyOp4
 70
     1
102
RTVSPropertyOp5
 70
     1
102
RTVSPropertyOp6
 70
     1
102
RTVSPropertyOp7
 70
     1
102
RTVSPropertyOp8
 70
     1
102
RTVSPropertyOp9
 70
     1
102
RTVSPropertyOp10
 70
     1
102
RTVSPropertyOp11
 70
     1
102
RTVSPropertyOp12
 70
     1
102
RTVSPropertyOp13
 70
     1
102
RTVSPropertyOp14
 70
     1
102
RTVSPropertyOp15
 70
     1
102
RTVSPropertyOp16
 70
     1
102
RTVSPropertyOp17
 70
     1
102
RTVSPropertyOp18
 70
     1
102
RTVSPropertyOp19
 70
     1
102
RTVSPropertyOp20
 70
     1
102
RTVSPropertyOp21
 70
     1
102
RTVSPropertyOp22
 70
     1
102
RTVSPropertyOp23
 70
     1
102
RTVSPropertyOp24
 70
     1
102
RTVSPropertyOp25
 70
     1
102
RTVSPropertyOp26
 70
     1
102
RTVSPropertyOp27
 70
     1
102
RTVSPropertyOp28
 70
     1
102
RTVSPropertyOp29
 70
     1
102
RTVSPropertyOp30
 70
     1
102
RTVSPropertyOp31
 70
     1
102
RTVSPropertyOp32
 70
     1
102
RTVSPropertyOp33
 70
     1
102
RTVSPropertyOp34
 70
     1
102
RTVSPropertyOp35
 70
     1
102
RTVSPropertyOp36
 70
     1
102
RTVSPropertyOp37
 70
     1
102
RTVSPropertyOp38
 70
     1
102
RTVSPropertyOp39
 70
     1
102
RTVSPropertyOp40
 70
     1
102
RTVSPropertyOp41
 70
     1
102
RTVSPropertyOp42
 70
     1
102
RTVSPropertyOp43
 70
     1
102
RTVSPropertyOp44
 70
     1
102
RTVSPropertyOp45
 70
     1
102
RTVSPropertyOp46
 70
     1
102
RTVSPropertyOp47
 70
     1
102
RTVSPropertyOp48
 70
     1
102
RTVSPropertyOp49
 70
     1
102
RTVSPropertyOp50
 70
     1
102
RTVSPropertyOp51
 70
     0
102
RTVSPropertyOp52
 70
     0
102
RTVSPropertyOp53
 70
     1
102
RTVSPropertyOp54
 70
     1
102
RTVSPropertyOp55
 70
     1
102
RTVSPropertyOp56
 70
     1
102
RTVSPropertyOp57
 70
     1
102
RTVSPost2010Prop28
280
     0
102
RTVSPost2010PropOp28
 70
     1
102
RTVSPost2010Prop29
280
     1
102
RTVSPost2010PropOp29
 70
     1
102
RTVSPost2010Prop30
280
     1
102
RTVSPost2010PropOp30
 70
     1
102
RTVSPost2010Prop31
280
     0
102
RTVSPost2010PropOp31
 70
     1
102
RTVSPost2010Prop32
280
     0
102
RTVSPost2010PropOp32
 70
     1
102
RTVSPost2010Prop33
280
     0
102
RTVSPost2010PropOp33
 70
     1
102
RTVSPost2010Prop34
280
     0
102
RTVSPost2010PropOp34
 70
     1
102
RTVSPost2010Prop35
280
     0
102
RTVSPost2010PropOp35
 70
     1
102
RTVSPost2010Prop36
280
     0
102
RTVSPost2010PropOp36
 70
     1
102
RTVSPost2010Prop37
 90
       50
102
RTVSPost2010PropOp37
 70
     1
102
RTVSPost2010Prop38
140
0.0
102
RTVSPost2010PropOp38
 70
     1
102
RTVSPost2010Prop39
140
1.0
102
RTVSPost2010PropOp39
 70
     1
102
RTVSPost2010Prop40
 90
        0
102
RTVSPost2010PropOp40
 70
     1
102
RTVSPost2010Prop41ColorIndex
 90
       18
102
RTVSPost2010Prop41ColorRGB
 90
        0
102
RTVSPost2010PropOp41
 70
     1
102
RTVSPost2010Prop42
 90
       50
102
RTVSPost2010PropOp42
 70
     1
102
RTVSPost2010Prop43
 90
        3
102
RTVSPost2010PropOp43
 70
     1
102
RTVSPost2010Prop44ColorIndex
 90
        5
102
RTVSPost2010Prop44ColorRGB
 90
      255
102
RTVSPost2010PropOp44
 70
     1
102
RTVSPost2010Prop45
280
     0
102
RTVSPost2010PropOp45
 70
     1
102
RTVSPost2010Prop46
 90
       50
102
RTVSPost2010PropOp46
 70
     1
102
RTVSPost2010Prop47
 90
       50
102
RTVSPost2010PropOp47
 70
     1
102
RTVSPost2010Prop48
 90
       50
102
RTVSPost2010PropOp48
 70
     1
102
RTVSPost2010Prop49
280
     0
102
RTVSPost2010PropOp49
 70
     1
102
RTVSPost2010Prop50
 90
       50
102
RTVSPost2010PropOp50
 70
     1
102
RTVSPost2010Prop51ColorIndex
 90
      256
102
RTVSPost2010Prop51ColorRGB
 90
-16777216
102
RTVSPost2010PropOp51
 70
     0
102
RTVSPost2010Prop52
140
1.0
102
RTVSPost2010PropOp52
 70
     0
102
RTVSPost2010Prop53
 90
        2
102
RTVSPost2010PropOp53
 70
     1
102
RTVSPost2010Prop54
  1
strokes_ogs.tif
102
RTVSPost2010PropOp54
 70
     1
102
RTVSPost2010Prop55
280
     0
102
RTVSPost2010PropOp55
 70
     1
102
RTVSPost2010Prop56
140
1.0
102
RTVSPost2010PropOp56
 70
     1
102
RTVSPost2010Prop57
140
1.0
102
RTVSPost2010PropOp57
 70
     1
  0
ENDSEC
  0
EOF
